osu file format v14

[General]
AudioFilename: STORIA.mp3
AudioLeadIn: 0
PreviewTime: -1
Countdown: 0
SampleSet: Soft
StackLeniency: 0.7
Mode: 0
LetterboxInBreaks: 0
WidescreenStoryboard: 0

[Editor]
Bookmarks: 38676,60009,81342,102676,124009,145342,178676,210676,232009
DistanceSpacing: 0.9
BeatDivisor: 4
GridSize: 4
TimelineZoom: 1.3

[Metadata]
Title:Storia
TitleUnicode:Storia
Artist:xi vs sakuzyo
ArtistUnicode:xi vs sakuzyo
Creator:Down
Version:Extra
Source:Cytus
Tags:Halcyon Niflheimr VitMaster Black Lair AXION
BeatmapID:900019
BeatmapSetID:415323

[Difficulty]
HPDrainRate:7
CircleSize:4
OverallDifficulty:7.7
ApproachRate:9.4
SliderMultiplier:1.65
SliderTickRate:1

[Events]
//Background and Video events
0,0,"bg.jpg",0,0
//Break Periods
//Storyboard Layer 0 (Background)
//Storyboard Layer 1 (Fail)
//Storyboard Layer 2 (Pass)
//Storyboard Layer 3 (Foreground)
//Storyboard Sound Samples

[TimingPoints]
1343,333.333333333333,4,2,0,70,1,0
5342,-111.111111111111,4,2,0,70,0,0
16009,-200,4,2,0,70,0,0
19009,-111.111111111111,4,2,0,70,0,0
19342,-200,4,2,0,70,0,0
21842,-125,4,2,0,70,0,0
22342,-200,4,2,0,70,0,0
26009,-90.9090909090909,4,2,0,70,0,0
38676,-66.6666666666667,4,2,0,70,0,0
39176,-90.9090909090909,4,2,0,70,0,0
41342,-66.6666666666667,4,2,0,70,0,0
41842,-90.9090909090909,4,2,0,70,0,0
43509,-50,4,2,0,70,0,0
43842,-90.9090909090909,4,2,0,70,0,0
49342,-66.6666666666667,4,2,0,70,0,0
49842,-90.9090909090909,4,2,0,70,0,0
52009,-66.6666666666667,4,2,0,70,0,0
52509,-90.9090909090909,4,2,0,70,0,0
58842,-55.5555555555556,4,2,0,70,0,0
60009,-90.9090909090909,4,2,0,70,0,0

[HitObjects]
110,103,5342,5,0,0:0:0:0:
30,157,5509,1,0,0:0:0:0:
16,252,5676,2,0,P|64:248|98:223,1,74.2499977340699
159,297,6009,2,0,P|179:253|174:211,1,74.2499977340699
267,190,6342,2,0,P|248:158|217:137,1,74.2499977340699
286,286,6676,6,0,L|372:269,1,74.2499977340699
435,159,7009,2,0,L|363:174,1,74.2499977340699
267,190,7342,1,0,0:0:0:0:
377,89,7509,1,0,0:0:0:0:
358,271,7676,1,0,0:0:0:0:
287,99,7842,1,0,0:0:0:0:
194,69,8009,6,0,P|158:59|122:67,2,74.2499977340699
287,99,8509,1,0,0:0:0:0:
215,163,8676,2,0,P|189:189|177:224,1,74.2499977340699
309,303,9009,2,0,P|297:268|272:242,1,74.2499977340699
118,297,9342,6,0,P|150:315|186:317,1,74.2499977340699
332,168,9676,2,0,P|299:149|263:147,1,74.2499977340699
166,139,10009,1,0,0:0:0:0:
272,242,10176,1,0,0:0:0:0:
82,188,10342,1,0,0:0:0:0:
221,62,10509,1,0,0:0:0:0:
317,66,10676,6,0,P|351:77|378:103,1,74.2499977340699
468,69,11009,2,0,P|475:105|466:140,1,74.2499977340699
388,198,11342,2,0,P|380:234|389:269,1,74.2499977340699
301,310,11676,2,0,P|274:284|239:272,1,74.2499977340699
148,240,12009,6,0,L|148:148,1,74.2499977340699
56,196,12342,2,0,L|56:121,1,74.2499977340699
144,81,12676,1,0,0:0:0:0:
236,197,12842,1,0,0:0:0:0:
62,286,13009,1,0,0:0:0:0:
244,326,13176,1,0,0:0:0:0:
326,276,13342,6,0,P|358:257|394:255,2,74.2499977340699
244,326,13842,1,0,0:0:0:0:
232,229,14009,2,0,P|232:192|248:159,1,74.2499977340699
190,82,14342,2,0,P|222:63|258:61,1,74.2499977340699
368,185,14676,6,0,L|338:118,1,74.2499977340699
304,275,15009,2,0,L|274:208,1,74.2499977340699
400,284,15342,1,0,0:0:0:0:
474,158,15509,1,0,0:0:0:0:
304,199,15676,1,0,0:0:0:0:
489,247,15842,1,0,0:0:0:0:
363,122,16009,6,0,B|326:105|318:61|318:61|236:30|174:54|136:104|151:173|195:188|241:208|291:152|282:83|236:31|143:28|143:28|96:66|93:139,1,660
94,124,19009,5,0,0:0:0:0:
148,218,19176,1,0,0:0:0:0:
250,232,19342,2,0,P|281:215|307:186,2,61.875
148,218,20009,6,0,P|110:245|85:292,1,82.5
197,323,20676,2,0,P|237:311|296:318,1,82.5
393,305,21342,6,0,L|390:208,1,82.5
428,307,21842,6,0,L|424:161,1,132
484,105,22342,6,0,B|432:67|370:84|342:136|342:136|280:127|280:127|304:209|257:272|257:272|199:188|199:188|162:206|129:181|129:181|74:263|74:263|94:300|146:306,1,742.5
144,305,25676,5,0,0:0:0:0:
291,134,26009,1,0,0:0:0:0:
167,188,26176,1,0,0:0:0:0:
296,271,26342,1,0,0:0:0:0:
197,97,26509,1,0,0:0:0:0:
365,70,26676,6,0,P|418:91|451:126,1,90.7500027694703
272,34,27009,1,0,0:0:0:0:
126,161,27176,1,0,0:0:0:0:
126,201,27259,1,0,0:0:0:0:
126,242,27342,1,0,0:0:0:0:
126,283,27425,1,0,0:0:0:0:
126,324,27509,1,0,0:0:0:0:
242,253,27676,2,0,P|281:216|351:207,1,90.7500027694703
327,305,28009,5,0,0:0:0:0:
214,140,28176,1,0,0:0:0:0:
431,148,28342,1,0,0:0:0:0:
243,57,28509,1,0,0:0:0:0:
202,52,28592,1,0,0:0:0:0:
164,66,28675,1,0,0:0:0:0:
137,96,28758,1,0,0:0:0:0:
126,135,28842,1,0,0:0:0:0:
279,202,29009,2,0,L|189:116,1,90.7500027694703
351,109,29259,5,0,0:0:0:0:
351,109,29342,2,0,P|312:141|296:193,1,90.7500027694703
393,197,29676,1,0,0:0:0:0:
233,267,29842,1,0,0:0:0:0:
198,287,29925,1,0,0:0:0:0:
157,289,30008,1,0,0:0:0:0:
120,272,30091,1,0,0:0:0:0:
95,241,30175,1,0,0:0:0:0:
74,102,30342,2,0,P|40:61|0:40,1,90.7500027694703
209,39,30676,5,0,0:0:0:0:
174,208,30842,2,0,P|185:187|212:160,1,45.3750013847352
273,110,31009,1,0,0:0:0:0:
344,232,31176,1,0,0:0:0:0:
344,232,31259,1,0,0:0:0:0:
344,232,31342,2,0,L|364:154,1,45.3750013847352
393,42,31509,2,0,L|373:120,1,45.3750013847352
273,110,31676,2,0,L|316:121,1,45.3750013847352
467,161,31842,2,0,L|423:149,1,45.3750013847352
279,27,32009,6,0,P|234:34|200:62,1,90.7500027694703
43,163,32342,1,0,0:0:0:0:
185,268,32509,1,0,0:0:0:0:
220,249,32592,1,0,0:0:0:0:
261,249,32675,1,0,0:0:0:0:
297,268,32758,1,0,0:0:0:0:
320,301,32842,1,0,0:0:0:0:
243,331,33009,1,0,0:0:0:0:
399,112,33176,1,0,0:0:0:0:
400,152,33259,1,0,0:0:0:0:
401,192,33342,6,0,L|401:292,1,90.7500027694703
243,331,33676,1,0,0:0:0:0:
110,246,33842,1,0,0:0:0:0:
100,206,33925,1,0,0:0:0:0:
90,166,34008,1,0,0:0:0:0:
80,127,34092,1,0,0:0:0:0:
70,87,34175,1,0,0:0:0:0:
205,132,34342,2,0,P|253:112|314:136,1,90.7500027694703
259,197,34676,5,0,0:0:0:0:
366,41,34842,2,0,L|366:130,1,45.3750013847352
365,273,35009,1,0,0:0:0:0:
459,114,35176,1,0,0:0:0:0:
459,114,35259,1,0,0:0:0:0:
459,114,35342,2,0,L|408:167,1,45.3750013847352
265,290,35509,1,0,0:0:0:0:
282,38,35676,1,0,0:0:0:0:
444,233,35842,1,0,0:0:0:0:
444,233,35926,1,0,0:0:0:0:
444,233,36009,5,0,0:0:0:0:
205,132,36176,1,0,0:0:0:0:
448,32,36342,1,0,0:0:0:0:
188,46,36509,1,0,0:0:0:0:
151,63,36592,1,0,0:0:0:0:
126,95,36675,1,0,0:0:0:0:
118,135,36759,1,0,0:0:0:0:
129,174,36842,1,0,0:0:0:0:
289,164,37009,2,0,L|186:125,1,90.7500027694703
384,128,37342,5,0,0:0:0:0:
384,128,37676,1,0,0:0:0:0:
432,284,38009,5,0,0:0:0:0:
396,304,38092,1,0,0:0:0:0:
356,304,38176,1,0,0:0:0:0:
320,284,38259,1,0,0:0:0:0:
268,232,38342,5,0,0:0:0:0:
200,204,38426,1,0,0:0:0:0:
128,216,38509,1,0,0:0:0:0:
68,256,38592,1,0,0:0:0:0:
16,308,38676,6,0,L|16:36,1,247.500009441376
184,104,39176,2,0,P|228:134|302:123,1,90.7500027694703
251,53,39509,1,0,0:0:0:0:
426,332,39842,6,0,P|378:308|350:239,1,90.7500027694703
211,278,40176,2,0,P|254:247|329:259,1,90.7500027694703
366,120,40509,2,0,P|369:173|323:231,1,90.7500027694703
282,328,40842,1,0,0:0:0:0:
104,260,41009,1,0,0:0:0:0:
104,220,41092,1,0,0:0:0:0:
104,180,41176,1,0,0:0:0:0:
104,140,41259,1,0,0:0:0:0:
104,100,41342,6,0,B|70:87|70:87|68:324,1,247.500009441376
192,66,41842,1,0,0:0:0:0:
196,248,42009,2,0,L|195:149,1,90.7500027694703
192,66,42342,1,0,0:0:0:0:
269,114,42509,6,0,B|279:168|279:168|322:196,1,90.7500027694703
430,251,42842,2,0,B|377:232|377:232|331:256,1,90.7500027694703
230,321,43176,2,0,B|271:285|271:285|275:232,1,90.7500027694703
383,143,43509,6,0,P|338:65|262:27,1,165
102,120,43842,1,0,0:0:0:0:
251,160,44009,6,0,B|190:161|190:161|133:201|133:201|45:211,1,181.500005538941
216,245,44509,1,0,0:0:0:0:
256,244,44592,1,0,0:0:0:0:
297,242,44676,1,0,0:0:0:0:
383,143,44842,1,0,0:0:0:0:
303,346,45009,1,0,0:0:0:0:
160,182,45176,6,0,P|179:134|222:88,1,90.7500027694703
448,167,45509,1,0,0:0:0:0:
448,167,45592,2,0,L|376:143,1,45.3750013847352
216,245,45759,1,0,0:0:0:0:
216,245,45842,2,0,L|288:221,1,45.3750013847352
414,326,46009,5,0,0:0:0:0:
290,218,46176,1,0,0:0:0:0:
414,326,46342,1,0,0:0:0:0:
383,143,46509,1,0,0:0:0:0:
245,51,46676,6,0,P|191:90|148:191,1,136.125004154205
156,149,47009,1,0,0:0:0:0:
155,308,47176,1,0,0:0:0:0:
9,245,47342,2,0,P|64:228|151:230,1,136.125004154205
142,228,47676,1,0,0:0:0:0:
64,84,47842,6,0,P|108:107|138:137,1,90.7500027694703
272,291,48176,1,0,0:0:0:0:
272,291,48259,2,0,L|270:222,1,45.3750013847352
353,64,48426,1,0,0:0:0:0:
353,64,48509,2,0,L|353:137,1,45.3750013847352
432,156,48676,1,0,0:0:0:0:
404,184,48759,1,0,0:0:0:0:
364,196,48842,1,0,0:0:0:0:
324,192,48926,1,0,0:0:0:0:
260,156,49009,5,0,0:0:0:0:
200,116,49092,1,0,0:0:0:0:
128,108,49176,1,0,0:0:0:0:
64,140,49259,1,0,0:0:0:0:
24,200,49342,6,0,B|56:224|76:296|76:296|112:256|112:256|136:320|200:328,1,247.500009441376
346,313,49842,2,0,B|376:312|376:312|401:269|401:269|437:266,1,90.7500027694703
473,333,50176,1,0,0:0:0:0:
301,113,50509,6,0,P|273:77|232:59,1,90.7500027694703
204,240,50842,2,0,P|248:233|284:207,1,90.7500027694703
137,91,51176,2,0,P|119:132|124:177,1,90.7500027694703
212,150,51509,1,0,0:0:0:0:
405,81,51676,1,0,0:0:0:0:
431,112,51759,1,0,0:0:0:0:
447,149,51842,1,0,0:0:0:0:
452,189,51926,1,0,0:0:0:0:
446,230,52009,6,0,B|443:281|394:292|394:292|379:326|379:326|340:309|340:309|311:341|253:316,1,247.500009441376
212,150,52509,1,0,0:0:0:0:
120,302,52676,2,0,L|177:208,1,90.7500027694703
212,150,53009,1,0,0:0:0:0:
375,75,53176,6,0,P|319:83|278:107,1,90.7500027694703
32,126,53509,2,0,P|88:134|129:158,1,90.7500027694703
284,220,53842,1,0,0:0:0:0:
66,250,54009,5,0,0:0:0:0:
295,230,54176,1,0,0:0:0:0:
309,242,54509,5,0,0:0:0:0:
340,267,54592,1,0,0:0:0:0:
379,276,54676,2,0,B|400:254|435:257|435:257|443:232|443:232|468:229|468:229|492:202|483:159,1,181.500005538941
353,128,55176,1,0,0:0:0:0:
504,306,55342,1,0,0:0:0:0:
423,348,55509,2,0,P|382:361|313:326,1,90.7500027694703
264,228,55842,6,0,P|323:227|386:296,1,136.125004154205
378,275,56176,1,0,0:0:0:0:
251,354,56342,1,0,0:0:0:0:
251,354,56426,2,0,L|240:299,1,45.3750013847352
213,141,56676,1,0,0:0:0:0:
147,233,56842,1,0,0:0:0:0:
330,155,57009,1,0,0:0:0:0:
127,73,57176,6,0,P|101:157|147:233,1,181.500005538941
213,141,57676,1,0,0:0:0:0:
314,44,57842,1,0,0:0:0:0:
314,44,57926,1,0,0:0:0:0:
314,44,58009,2,0,L|362:116,1,45.3750013847352
465,125,58176,2,0,L|417:197,1,45.3750013847352
283,202,58342,2,0,L|331:274,1,45.3750013847352
488,287,58509,2,0,L|440:359,1,45.3750013847352
462,324,58842,6,0,P|367:307|276:337,1,148.49999546814
233,352,59092,6,0,B|220:304|247:265|247:265|207:253|177:215,1,148.49999546814
114,230,59342,6,0,P|117:129|160:170,1,222.74999320221
197,236,59676,6,0,L|195:287,5,37.1249988670349
243,160,60009,5,0,0:0:0:0:
387,211,60176,1,0,0:0:0:0:
315,115,60342,2,0,P|274:80|212:81,1,90.7500027694703
279,263,60676,1,0,0:0:0:0:
405,119,60842,1,0,0:0:0:0:
156,159,61009,1,0,0:0:0:0:
156,159,61092,1,0,0:0:0:0:
156,159,61176,6,0,B|131:202|131:202|125:247,1,90.7500027694703
127,338,61509,1,0,0:0:0:0:
279,263,61676,1,0,0:0:0:0:
234,132,61842,1,0,0:0:0:0:
212,97,61925,1,0,0:0:0:0:
177,78,62008,1,0,0:0:0:0:
136,77,62092,1,0,0:0:0:0:
100,95,62175,1,0,0:0:0:0:
125,242,62342,1,0,0:0:0:0:
329,75,62509,1,0,0:0:0:0:
347,111,62592,1,0,0:0:0:0:
363,148,62676,6,0,P|363:210|352:249,1,90.7500027694703
238,301,63009,2,0,P|203:268|149:255,1,90.7500027694703
117,139,63342,1,0,0:0:0:0:
161,342,63509,1,0,0:0:0:0:
273,198,63676,1,0,0:0:0:0:
273,198,63759,1,0,0:0:0:0:
273,198,63842,6,0,L|328:131,3,45.3750013847352
333,293,64176,2,0,L|398:320,3,45.3750013847352
404,200,64509,2,0,L|455:175,1,45.3750013847352
401,102,64676,1,0,0:0:0:0:
380,67,64759,1,0,0:0:0:0:
346,44,64842,1,0,0:0:0:0:
305,35,64926,1,0,0:0:0:0:
265,45,65009,1,0,0:0:0:0:
229,65,65092,1,0,0:0:0:0:
191,82,65176,1,0,0:0:0:0:
150,81,65259,1,0,0:0:0:0:
112,65,65342,5,0,0:0:0:0:
308,138,65509,1,0,0:0:0:0:
136,224,65676,2,0,B|164:189|164:189|228:163,1,90.7500027694703
345,239,66009,1,0,0:0:0:0:
191,326,66176,1,0,0:0:0:0:
308,138,66342,1,0,0:0:0:0:
84,148,66509,1,0,0:0:0:0:
243,82,66676,5,0,0:0:0:0:
277,60,66759,1,0,0:0:0:0:
317,54,66842,1,0,0:0:0:0:
355,69,66926,1,0,0:0:0:0:
424,128,67009,5,0,0:0:0:0:
407,165,67092,1,0,0:0:0:0:
406,206,67176,1,0,0:0:0:0:
413,246,67259,1,0,0:0:0:0:
356,317,67342,5,0,0:0:0:0:
318,299,67426,1,0,0:0:0:0:
277,302,67509,1,0,0:0:0:0:
240,319,67592,1,0,0:0:0:0:
141,314,67676,6,0,L|139:264,1,45.3750013847352
215,220,67842,2,0,L|213:174,1,45.3750013847352
160,81,68009,5,0,0:0:0:0:
42,207,68176,1,0,0:0:0:0:
213,249,68342,1,0,0:0:0:0:
148,176,68509,1,0,0:0:0:0:
148,176,68592,1,0,0:0:0:0:
148,176,68676,1,0,0:0:0:0:
285,56,68842,1,0,0:0:0:0:
298,241,69009,1,0,0:0:0:0:
159,65,69176,1,0,0:0:0:0:
159,65,69259,1,0,0:0:0:0:
159,65,69342,6,0,L|213:104,1,45.3750013847352
336,130,69509,2,0,L|282:169,1,45.3750013847352
164,210,69676,2,0,L|218:249,1,45.3750013847352
267,322,69842,2,0,L|333:328,1,45.3750013847352
434,288,70009,1,0,0:0:0:0:
463,259,70092,1,0,0:0:0:0:
485,224,70176,1,0,0:0:0:0:
488,183,70259,1,0,0:0:0:0:
492,142,70342,5,0,0:0:0:0:
452,129,70426,1,0,0:0:0:0:
420,103,70509,1,0,0:0:0:0:
395,65,70592,1,0,0:0:0:0:
391,24,70676,5,0,0:0:0:0:
280,155,70842,1,0,0:0:0:0:
104,89,71009,2,0,P|148:85|208:114,1,90.7500027694703
280,155,71342,1,0,0:0:0:0:
303,312,71509,1,0,0:0:0:0:
138,168,71676,1,0,0:0:0:0:
138,168,71759,1,0,0:0:0:0:
138,168,71842,6,0,B|137:234|137:234|165:293,1,90.7500027694703
205,347,72176,1,0,0:0:0:0:
362,221,72342,1,0,0:0:0:0:
237,70,72509,1,0,0:0:0:0:
197,72,72593,1,0,0:0:0:0:
162,93,72676,1,0,0:0:0:0:
141,127,72759,1,0,0:0:0:0:
138,168,72842,1,0,0:0:0:0:
273,272,73009,1,0,0:0:0:0:
379,82,73176,1,0,0:0:0:0:
412,104,73259,1,0,0:0:0:0:
438,134,73342,6,0,B|459:176|459:176|453:220,1,90.7500027694703
379,307,73676,2,0,P|318:297|264:312,1,90.7500027694703
224,168,74009,1,0,0:0:0:0:
185,330,74176,1,0,0:0:0:0:
372,220,74342,1,0,0:0:0:0:
372,220,74425,1,0,0:0:0:0:
372,220,74509,6,0,L|325:166,3,45.3750013847352
238,125,74842,2,0,L|214:192,3,45.3750013847352
155,50,75176,2,0,L|124:112,1,45.3750013847352
70,173,75342,1,0,0:0:0:0:
45,206,75426,1,0,0:0:0:0:
31,244,75509,1,0,0:0:0:0:
37,284,75592,1,0,0:0:0:0:
70,308,75676,5,0,0:0:0:0:
104,287,75759,1,0,0:0:0:0:
144,285,75842,1,0,0:0:0:0:
183,298,75926,1,0,0:0:0:0:
217,319,76009,5,0,0:0:0:0:
154,179,76176,1,0,0:0:0:0:
333,109,76342,2,0,B|318:130|295:127|295:127|272:123|252:141,1,90.7500027694703
154,179,76676,1,0,0:0:0:0:
304,226,76842,1,0,0:0:0:0:
160,75,77009,1,0,0:0:0:0:
395,186,77176,1,0,0:0:0:0:
229,301,77342,5,0,0:0:0:0:
190,315,77426,1,0,0:0:0:0:
149,311,77509,1,0,0:0:0:0:
112,293,77592,1,0,0:0:0:0:
57,219,77676,5,0,0:0:0:0:
96,205,77760,1,0,0:0:0:0:
137,209,77843,1,0,0:0:0:0:
174,227,77926,1,0,0:0:0:0:
266,222,78009,5,0,0:0:0:0:
297,248,78093,1,0,0:0:0:0:
314,286,78176,1,0,0:0:0:0:
317,327,78259,1,0,0:0:0:0:
405,356,78342,6,0,L|430:282,1,45.3750013847352
480,260,78509,2,0,L|455:186,1,45.3750013847352
398,138,78676,5,0,0:0:0:0:
207,92,78842,1,0,0:0:0:0:
412,51,79009,1,0,0:0:0:0:
257,165,79176,1,0,0:0:0:0:
257,165,79259,1,0,0:0:0:0:
257,165,79342,2,0,P|213:180|162:166,1,90.7500027694703
84,76,79676,2,0,L|56:112,1,45.3750013847352
9,190,79842,2,0,L|36:226,1,45.3750013847352
139,325,80009,5,0,0:0:0:0:
165,307,80092,1,0,0:0:0:0:
194,295,80175,1,0,0:0:0:0:
225,287,80258,1,0,0:0:0:0:
257,285,80342,1,0,0:0:0:0:
288,287,80425,1,0,0:0:0:0:
319,295,80508,1,0,0:0:0:0:
349,307,80592,1,0,0:0:0:0:
385,326,80676,5,0,0:0:0:0:
406,291,80759,1,0,0:0:0:0:
421,253,80842,1,0,0:0:0:0:
429,213,80925,1,0,0:0:0:0:
430,172,81009,1,0,0:0:0:0:
423,132,81092,1,0,0:0:0:0:
409,94,81175,1,0,0:0:0:0:
388,59,81259,1,0,0:0:0:0:
358,31,81342,5,0,0:0:0:0:
247,129,81509,1,0,0:0:0:0:
98,62,81676,2,0,P|145:50|210:64,1,90.7500027694703
187,206,82009,1,0,0:0:0:0:
247,129,82176,2,0,L|275:27,1,90.7500027694703
289,246,82509,1,0,0:0:0:0:
98,158,82676,5,0,0:0:0:0:
342,161,82842,1,0,0:0:0:0:
342,161,82926,1,0,0:0:0:0:
342,161,83009,1,0,0:0:0:0:
195,274,83176,1,0,0:0:0:0:
98,158,83342,2,0,P|123:112|158:86,1,90.7500027694703
289,246,83676,1,0,0:0:0:0:
110,301,83842,1,0,0:0:0:0:
276,343,84009,6,0,P|336:355|356:351,2,45.3750013847352
195,274,84342,2,0,L|191:209,1,45.3750013847352
405,263,84592,2,0,L|399:333,1,45.3750013847352
276,343,84842,1,0,0:0:0:0:
331,222,85009,2,0,P|386:177|429:177,1,90.7500027694703
241,147,85342,6,0,P|221:89|207:73,2,45.3750013847352
341,86,85676,2,0,L|356:30,1,45.3750013847352
117,78,85926,2,0,L|128:121,1,45.3750013847352
241,147,86176,1,0,0:0:0:0:
371,192,86342,2,0,B|404:208|404:208|448:268,1,90.7500027694703
346,296,86676,5,0,0:0:0:0:
207,242,86842,1,0,0:0:0:0:
326,125,87009,2,0,P|280:126|240:146,1,90.7500027694703
258,325,87342,1,0,0:0:0:0:
371,192,87509,2,0,P|406:143|394:93,1,90.7500027694703
257,46,87842,1,0,0:0:0:0:
149,172,88009,5,0,0:0:0:0:
346,286,88176,1,0,0:0:0:0:
346,286,88259,1,0,0:0:0:0:
346,286,88342,1,0,0:0:0:0:
132,305,88509,1,0,0:0:0:0:
149,172,88676,2,0,P|197:144|257:147,1,90.7500027694703
346,286,89009,1,0,0:0:0:0:
383,132,89176,1,0,0:0:0:0:
246,51,89342,6,0,P|211:37|184:39,2,45.3750013847352
336,98,89676,2,0,L|354:49,1,45.3750013847352
108,63,89926,2,0,L|143:114,1,45.3750013847352
246,51,90176,1,0,0:0:0:0:
190,167,90342,2,0,B|146:190|146:190|108:242,1,90.7500027694703
289,261,90676,6,0,L|330:318,2,45.3750013847352
182,305,91009,2,0,L|155:349,1,45.3750013847352
404,247,91259,2,0,L|427:207,1,45.3750013847352
289,261,91509,1,0,0:0:0:0:
172,217,91676,2,0,P|131:232|97:286,1,90.7500027694703
182,305,92009,5,0,0:0:0:0:
268,165,92176,1,0,0:0:0:0:
114,108,92342,2,0,P|155:91|199:98,1,90.7500027694703
321,245,92676,1,0,0:0:0:0:
165,175,92842,1,0,0:0:0:0:
357,69,93009,2,0,P|385:85|440:168,1,90.7500027694703
482,244,93342,5,0,0:0:0:0:
281,194,93509,1,0,0:0:0:0:
281,194,93592,1,0,0:0:0:0:
281,194,93676,1,0,0:0:0:0:
383,334,93842,1,0,0:0:0:0:
482,244,94009,2,0,B|503:201|503:201|483:146,1,90.7500027694703
313,96,94342,1,0,0:0:0:0:
303,279,94509,1,0,0:0:0:0:
201,106,94676,5,0,0:0:0:0:
174,256,94842,1,0,0:0:0:0:
339,178,95009,2,0,P|380:149|395:85,1,90.7500027694703
289,29,95342,1,0,0:0:0:0:
244,194,95509,1,0,0:0:0:0:
115,63,95676,2,0,P|67:90|34:145,1,90.7500027694703
39,243,96009,5,0,0:0:0:0:
190,124,96176,1,0,0:0:0:0:
190,124,96259,1,0,0:0:0:0:
190,124,96342,1,0,0:0:0:0:
210,275,96509,1,0,0:0:0:0:
100,127,96676,5,0,0:0:0:0:
261,75,96842,1,0,0:0:0:0:
100,127,97009,1,0,0:0:0:0:
339,46,97176,1,0,0:0:0:0:
354,227,97342,5,0,0:0:0:0:
354,227,97509,1,0,0:0:0:0:
215,197,97676,2,0,P|170:189|97:217,1,90.7500027694703
225,320,98009,1,0,0:0:0:0:
225,320,98092,1,0,0:0:0:0:
225,320,98176,1,0,0:0:0:0:
165,104,98342,1,0,0:0:0:0:
19,171,98509,2,0,L|-15:99,1,45.3750013847352
99,56,98676,5,0,0:0:0:0:
129,29,98759,1,0,0:0:0:0:
169,21,98842,1,0,0:0:0:0:
208,33,98925,1,0,0:0:0:0:
236,61,99009,2,0,L|271:122,1,45.3750013847352
389,159,99176,2,0,L|362:218,1,45.3750013847352
271,315,99342,1,0,0:0:0:0:
271,315,99426,1,0,0:0:0:0:
271,315,99509,1,0,0:0:0:0:
179,166,99676,1,0,0:0:0:0:
379,76,99842,1,0,0:0:0:0:
147,71,100009,5,0,0:0:0:0:
147,71,100092,1,0,0:0:0:0:
147,71,100176,2,0,L|167:124,1,45.3750013847352
355,144,100342,1,0,0:0:0:0:
355,144,100425,1,0,0:0:0:0:
355,144,100509,2,0,L|335:197,1,45.3750013847352
189,206,100676,2,0,L|209:259,1,45.3750013847352
308,270,100842,2,0,L|288:323,1,45.3750013847352
220,367,101009,1,0,0:0:0:0:
256,192,101176,12,0,102676,0:0:0:0:
