osu file format v14

[General]
AudioFilename: audio.mp3
AudioLeadIn: 0
PreviewTime: 210258
Countdown: 0
SampleSet: Soft
StackLeniency: 0.7
Mode: 0
LetterboxInBreaks: 0
WidescreenStoryboard: 1

[Editor]
Bookmarks: 5342,16008,26675,38675,49342,60008,81342,102675,124008,145342,157342,178675,210675,232008
DistanceSpacing: 1.2
BeatDivisor: 4
GridSize: 32
TimelineZoom: 2.1

[Metadata]
Title:STORIA
TitleUnicode:STORIA
Artist:xi vs sakuzyo
ArtistUnicode:xi vs sakuzyo
Creator:Len
Version:Hard
Source:
Tags:Halcyon Niflheimr VitMaster Black Lair AXION Leader -kevincela- Bonzi Reana Cellina Rose Pacifica Dailycare Crier Fortune Anishina Kodoku Regou Little CloudSplash16
BeatmapID:1242281
BeatmapSetID:586622

[Difficulty]
HPDrainRate:5
CircleSize:4
OverallDifficulty:7
ApproachRate:8
SliderMultiplier:1.4
SliderTickRate:2

[Events]
//Background and Video events
0,0,"bg0.png",0,0
//Break Periods
2,102875,112592
2,178875,188592
//Storyboard Layer 0 (Background)
//Storyboard Layer 1 (Fail)
//Storyboard Layer 2 (Pass)
//Storyboard Layer 3 (Foreground)
//Storyboard Sound Samples

[TimingPoints]
9,333.333333333333,4,2,5,70,1,0
15342,-111.111111111111,4,2,5,70,0,0
16008,-142.857142857143,4,2,5,70,0,0
16009,-142.857142857143,4,2,11,90,0,0
16092,-142.857142857143,4,2,5,70,0,0
21759,-142.857142857143,4,2,5,5,0,0
21842,-142.857142857143,4,2,5,70,0,0
22259,-142.857142857143,4,2,5,5,0,0
22342,-142.857142857143,4,2,5,70,0,0
26008,-111.111111111111,4,2,5,70,0,0
26675,-100,4,2,5,70,0,0
26676,-100,4,2,11,90,0,0
26759,-100,4,2,15,70,0,0
33342,-100,4,2,20,80,0,0
37676,-100,4,2,7,70,0,0
38676,-100,4,2,7,85,0,0
38759,-100,4,2,5,70,0,0
43009,-100,4,2,7,70,0,0
43092,-100,4,2,5,70,0,0
43676,-100,4,2,5,5,0,0
43842,-100,4,2,7,85,0,0
43926,-100,4,2,5,70,0,0
49342,-100,4,2,7,85,0,0
49426,-100,4,2,5,70,0,0
54676,-100,4,2,7,85,0,0
54759,-100,4,2,5,70,0,0
59551,-100,4,2,5,5,0,0
59676,-100,4,2,5,70,0,0
59759,-100,4,2,5,5,0,0
60009,-100,4,2,7,85,0,0
60092,-100,4,2,5,70,0,0
65342,-100,4,2,7,85,0,0
65426,-100,4,2,5,70,0,0
70676,-100,4,2,7,85,0,0
70759,-100,4,2,5,70,0,0
78676,-100,4,2,7,85,0,0
78759,-100,4,2,5,70,0,0
80009,-100,4,2,7,70,0,0
80092,-100,4,2,5,70,0,0
84009,-100,4,2,6,75,0,0
84342,-100,4,2,5,75,0,0
84426,-100,4,2,6,75,0,0
85009,-100,4,2,5,75,0,0
85092,-100,4,2,6,75,0,0
85676,-100,4,2,5,75,0,0
85759,-100,4,2,6,75,0,0
86342,-100,4,2,5,75,0,0
86426,-100,4,2,6,75,0,0
86676,-100,4,2,5,70,0,0
89342,-100,4,2,6,75,0,0
89676,-100,4,2,5,75,0,0
89759,-100,4,2,6,75,0,0
90342,-100,4,2,5,75,0,0
90426,-100,4,2,6,75,0,0
91009,-100,4,2,5,75,0,0
91092,-100,4,2,6,75,0,0
91676,-100,4,2,5,75,0,0
91759,-100,4,2,6,75,0,0
92009,-100,4,2,5,70,0,0
113342,-100,4,2,8,70,0,0
124009,-100,4,2,5,70,0,0
133217,-100,4,2,5,5,0,0
133342,-100,4,2,5,70,0,0
144259,-100,4,2,8,70,0,0
144676,-100,4,2,5,70,0,0
145176,-100,4,2,8,70,0,0
145342,-100,4,2,5,70,0,0
157342,-100,4,2,7,70,0,0
157426,-100,4,2,5,70,0,0
168009,-100,4,2,7,70,0,0
168092,-100,4,2,5,70,0,0
188009,-100,4,2,5,40,0,0
188176,-100,4,2,5,45,0,0
188342,-100,4,2,5,50,0,0
188509,-100,4,2,5,55,0,0
188676,-100,4,2,5,60,0,0
188842,-100,4,2,5,65,0,0
189009,-100,4,2,5,70,0,0
189176,-100,4,2,5,75,0,0
189342,-100,4,2,5,70,0,0
209342,-125,4,2,5,70,0,0
210675,-90.9090909090909,4,2,5,70,0,0
210676,-90.9090909090909,4,2,7,70,0,0
210759,-90.9090909090909,4,2,5,70,0,0
216009,-90.9090909090909,4,2,7,70,0,0
216092,-90.9090909090909,4,2,5,70,0,0
221342,-90.9090909090909,4,2,7,70,0,0
221426,-90.9090909090909,4,2,5,70,0,0
223009,-90.9090909090909,4,2,12,70,0,0
223092,-90.9090909090909,4,2,5,70,0,0
224676,-90.9090909090909,4,2,12,70,0,0
226676,-90.9090909090909,4,2,7,70,0,0
226759,-90.9090909090909,4,2,5,70,0,0
232009,-90.9090909090909,4,2,8,70,0,0

[Colours]
Combo1 : 255,231,157
Combo2 : 125,255,125
Combo3 : 159,203,255
Combo4 : 249,151,166

[HitObjects]
256,192,2675,12,0,5008,0:0:0:0:
314,280,5342,6,0,P|352:277|404:271,1,70,4|0,0:0|0:0,0:0:0:0:
467,282,5675,2,0,P|457:248|452:213,1,70,0|0,0:0|0:0,0:0:0:0:
505,148,6008,2,0,P|511:111|513:68,1,70,0|0,0:0|0:0,0:0:0:0:
445,27,6342,2,0,P|398:22|352:15,1,70,0|0,0:0|0:0,0:0:0:0:
309,71,6675,5,0,0:0:0:0:
309,71,6842,1,0,0:0:0:0:
245,125,7008,2,0,P|210:120|175:116,1,70,0|0,0:0|0:0,0:0:0:0:
94,90,7342,2,0,P|86:51|74:13,2,70,0|0|0,0:0|0:0|0:0,0:0:0:0:
47,160,7842,1,0,0:0:0:0:
90,231,8008,6,0,P|79:278|77:307,1,70,0|0,0:0|0:0,0:0:0:0:
127,367,8342,2,0,P|164:373|200:374,1,70,0|0,0:0|0:0,0:0:0:0:
255,313,8675,2,0,P|305:308|343:299,1,70,0|0,0:0|0:0,0:0:0:0:
399,266,9008,2,0,P|410:308|422:346,1,70,0|0,0:0|0:0,0:0:0:0:
497,361,9342,5,0,0:0:0:0:
497,361,9508,1,0,0:0:0:0:
509,277,9675,2,0,P|513:235|519:198,1,70,0|0,0:0|0:0,0:0:0:0:
469,138,10008,2,0,P|419:149|379:153,2,70,0|0|0,0:0|0:0|0:0,0:0:0:0:
486,55,10508,1,0,0:0:0:0:
419,3,10675,6,0,P|405:41|398:74,1,70,0|0,0:0|0:0,0:0:0:0:
325,110,11008,2,0,P|276:101|241:85,1,70,0|0,0:0|0:0,0:0:0:0:
173,107,11342,2,0,P|165:57|159:31,1,70,0|0,0:0|0:0,0:0:0:0:
77,26,11675,2,0,P|42:28|8:37,1,70,0|0,0:0|0:0,0:0:0:0:
38,116,12008,5,0,0:0:0:0:
38,116,12175,1,0,0:0:0:0:
4,193,12342,2,0,P|12:243|18:271,1,70,0|0,0:0|0:0,0:0:0:0:
68,327,12675,2,0,P|35:353|13:374,2,70,0|0|0,0:0|0:0|0:0,0:0:0:0:
149,307,13175,1,0,0:0:0:0:
225,342,13342,6,0,P|274:348|318:349,1,70,0|0,0:0|0:0,0:0:0:0:
345,282,13675,2,0,P|394:276|438:275,1,70,0|0,0:0|0:0,0:0:0:0:
495,250,14008,2,0,P|501:303|509:337,2,70,0|0|0,0:0|0:0|0:0,0:0:0:0:
505,166,14508,1,0,0:0:0:0:
436,116,14675,6,0,P|401:111|355:109,1,70,0|0,0:0|0:0,0:0:0:0:
285,133,15008,2,0,P|281:95|277:59,1,70,0|0,0:0|0:0,0:0:0:0:
209,25,15342,2,0,B|159:6|113:43|113:52|115:61|60:101|-1:66,1,220.499993270874,0|0,0:0|0:0,0:0:0:0:
11,60,16008,6,0,B|40:189|0:288|0:288|76:235|88:137|88:137|114:213|103:272|103:272|155:228|168:176|168:176|184:229|183:260|183:260|220:235|268:255,1,832.999974578858,4|0,0:1|0:0,0:0:0:0:
325,293,19008,6,0,P|337:268|337:235,1,48.9999985046387,0|0,0:0|0:0,0:0:0:0:
296,180,19342,2,0,P|288:139|326:94,1,97.9999970092774,0|0,0:0|0:0,0:0:0:0:
499,38,20008,6,0,L|488:139,1,97.9999970092774,0|0,0:0|0:0,0:0:0:0:
419,172,20508,1,0,0:0:0:0:
419,172,20675,2,0,P|425:221|430:273,1,97.9999970092774,0|0,0:0|0:0,0:0:0:0:
510,382,21342,6,0,P|479:341|375:348,1,146.999995513916,0|0,0:0|0:0,0:0:0:0:
256,192,22342,12,0,25342,0:0:0:0:
108,97,26008,6,0,L|101:166,1,62.9999980773926,0|0,0:0|0:0,0:0:0:0:
46,221,26342,2,0,L|52:283,1,62.9999980773926,0|0,0:0|0:0,0:0:0:0:
103,350,26675,6,0,P|144:317|237:323,1,140,4|8,0:1|0:3,0:0:0:0:
291,373,27175,1,0,0:0:0:0:
371,351,27342,1,0,0:0:0:0:
371,351,27508,2,0,P|414:358|454:360,2,70,2|8|0,0:3|0:3|0:0,0:0:0:0:
347,270,28008,6,0,P|355:218|361:184,1,70,2|2,0:3|0:3,0:0:0:0:
294,144,28342,2,0,P|244:162|166:168,1,105,8|0,0:3|0:0,0:0:0:0:
165,151,28675,2,0,P|178:110|184:74,1,70,0|2,0:0|0:3,0:0:0:0:
134,14,29008,1,8,0:3:0:0:
134,14,29175,1,0,0:0:0:0:
54,42,29342,6,0,P|15:78|43:175,1,140,2|8,0:3|0:3,0:0:0:0:
93,206,29842,1,0,0:0:0:0:
36,267,30008,2,0,P|48:320|52:346,1,70,0|2,0:0|0:3,0:0:0:0:
126,372,30342,1,8,0:3:0:0:
126,372,30508,1,0,0:0:0:0:
173,302,30675,6,0,B|222:293|222:293|246:313|246:313|331:318,1,140,2|8,0:3|0:3,0:0:0:0:
369,262,31175,1,0,0:0:0:0:
369,262,31258,1,0,0:0:0:0:
369,262,31342,2,0,P|419:257|450:251,1,70,0|2,0:0|0:3,0:0:0:0:
504,201,31675,2,0,P|512:160|522:121,1,70,8|0,0:3|0:0,0:0:0:0:
473,61,32008,6,0,P|426:28|341:59,1,140,2|8,0:3|0:3,0:0:0:0:
312,122,32508,1,0,0:0:0:0:
241,76,32675,2,0,P|192:65|151:61,2,70,0|2|8,0:3|0:3|0:3,0:0:0:0:
312,122,33175,1,0,0:0:0:0:
252,181,33342,6,0,P|242:258|237:332,1,140,2|8,0:1|0:1,0:0:0:0:
163,361,33842,1,0,0:0:0:0:
163,361,33925,1,0,0:0:0:0:
163,361,34008,2,0,P|113:365|81:368,1,70,0|2,0:0|0:1,0:0:0:0:
24,317,34342,2,0,P|17:275|10:229,1,70,8|0,0:1|0:0,0:0:0:0:
61,179,34675,6,0,P|103:161|196:219,1,140,2|8,0:1|0:1,0:0:0:0:
224,270,35175,1,0,0:0:0:0:
224,270,35258,1,0,0:0:0:0:
224,270,35342,2,0,P|279:277|317:286,1,70,0|2,0:0|0:1,0:0:0:0:
364,235,35675,1,8,0:1:0:0:
417,300,35842,5,0,0:0:0:0:
417,300,35925,1,0,0:0:0:0:
417,300,36008,2,0,P|419:353|419:380,1,70,2|2,0:1|0:1,0:0:0:0:
503,377,36342,2,0,P|502:342|500:307,1,70,8|0,0:1|0:0,0:0:0:0:
467,229,36675,5,0,0:0:0:0:
507,155,36842,1,2,0:1:0:0:
507,155,36925,1,0,0:0:0:0:
507,155,37008,2,0,P|512:102|518:70,1,70,8|0,0:1|0:0,0:0:0:0:
444,38,37342,6,0,B|305:18|305:18|300:70|264:106|216:113|216:113|288:91|353:157,1,420,4|0,0:3|0:0,0:0:0:0:
413,345,38675,6,0,P|331:334|255:326,1,140,4|0,0:1|0:0,0:0:0:0:
195,297,39175,2,0,P|200:348|203:375,1,70,6|8,1:3|0:1,0:0:0:0:
108,287,39508,2,0,P|113:338|116:365,1,70,2|0,0:0|0:0,0:0:0:0:
21,300,39842,6,0,P|24:265|28:230,1,70,2|0,0:0|0:0,0:0:0:0:
94,178,40175,2,0,P|90:143|86:108,1,70,2|0,0:0|0:0,0:0:0:0:
171,112,40508,2,0,P|167:77|163:42,1,70,6|8,1:3|0:1,0:0:0:0:
240,5,40842,1,2,0:0:0:0:
290,72,41008,1,0,0:0:0:0:
290,72,41092,1,0,0:0:0:0:
290,72,41175,1,0,0:0:0:0:
370,48,41342,6,0,P|427:54|473:58,2,70,2|0|0,0:0|0:0|0:0,0:0:0:0:
365,132,41842,2,0,P|422:138|468:142,1,70,6|8,1:3|0:1,0:0:0:0:
442,223,42175,2,0,P|499:229|545:233,1,70,2|0,0:0|0:0,0:0:0:0:
418,308,42508,6,0,P|383:311|348:315,1,70,2|0,0:0|0:0,0:0:0:0:
268,342,42842,2,0,P|264:307|255:273,1,70,2|8,0:0|0:3,0:0:0:0:
188,223,43175,1,6,1:3:0:0:
111,258,43342,2,0,P|63:262|22:268,1,70,8|2,0:1|0:0,0:0:0:0:
4,53,43842,5,4,1:0:0:0:
4,53,44008,2,0,P|44:98|128:77,1,140,0|0,0:0|0:0,0:0:0:0:
176,27,44508,1,4,1:3:0:0:
176,27,44592,1,0,0:0:0:0:
176,27,44675,1,8,0:1:0:0:
252,62,44842,2,0,P|257:108|266:151,1,70,2|2,0:0|0:0,0:0:0:0:
241,213,45175,6,0,P|301:199|360:204,1,105,2|0,0:0|0:0,0:0:0:0:
368,213,45508,2,0,P|363:259|345:327,1,105,0|0,0:0|0:0,0:0:0:0:
330,342,45842,2,0,P|283:333|243:329,1,70,4|8,1:3|0:1,0:0:0:0:
184,365,46175,1,0,0:0:0:0:
150,287,46342,2,0,P|103:296|63:300,1,70,2|2,0:0|0:0,0:0:0:0:
28,233,46675,6,0,P|6:188|69:111,1,140,4|0,0:1|0:0,0:0:0:0:
113,62,47175,1,4,1:3:0:0:
113,62,47342,2,0,P|174:84|248:90,1,140,8|2,0:1|0:0,0:0:0:0:
320,46,47842,6,0,P|374:39|405:29,1,70,4|0,0:1|0:0,0:0:0:0:
463,74,48175,2,0,P|466:120|465:188,1,105,0|0,0:0|0:0,0:0:0:0:
446,198,48508,2,0,P|443:254|443:269,1,70,4|8,1:3|0:1,0:0:0:0:
468,348,48842,1,0,0:0:0:0:
386,368,49008,1,0,0:0:0:0:
386,368,49092,1,0,0:0:0:0:
386,368,49175,1,0,0:0:0:0:
313,324,49342,6,0,P|310:280|305:246,1,70,4|0,0:1|0:0,0:0:0:0:
248,192,49675,1,0,0:0:0:0:
303,128,49842,2,0,P|347:135|386:140,1,70,6|8,1:3|0:1,0:0:0:0:
352,56,50175,2,0,P|396:49|435:44,1,70,2|0,0:0|0:0,0:0:0:0:
491,92,50508,6,0,P|495:142|500:169,1,70,2|0,0:0|0:0,0:0:0:0:
433,215,50842,2,0,P|429:265|424:292,1,70,2|0,0:0|0:0,0:0:0:0:
363,341,51175,2,0,P|313:329|270:318,1,70,6|8,1:3|0:1,0:0:0:0:
219,362,51508,1,2,0:0:0:0:
161,300,51675,1,0,0:0:0:0:
161,300,51758,1,0,0:0:0:0:
161,300,51842,1,0,0:0:0:0:
78,315,52008,6,0,P|74:357|72:390,2,70,2|0|0,0:0|0:0|0:0,0:0:0:0:
18,255,52508,2,0,P|14:207|8:170,1,70,6|8,1:3|0:1,0:0:0:0:
61,117,52842,2,0,P|86:73|100:43,1,70,2|0,0:0|0:0,0:0:0:0:
164,8,53175,6,0,P|180:51|189:79,1,70,6|0,0:0|0:0,0:0:0:0:
264,107,53508,2,0,P|255:163|253:200,1,70,6|0,0:0|0:0,0:0:0:0:
203,244,53842,2,0,P|168:237|116:228,1,70,6|8,0:0|0:1,0:0:0:0:
226,326,54175,2,0,P|260:332|294:339,1,70,6|0,0:0|0:0,0:0:0:0:
360,286,54508,5,0,0:0:0:0:
360,286,54592,1,0,0:0:0:0:
360,286,54675,2,0,P|388:325|490:301,1,140,4|0,0:1|0:0,0:0:0:0:
510,245,55175,1,4,1:3:0:0:
510,245,55342,2,0,P|505:189|505:103,1,140,8|4,0:1|1:3,0:0:0:0:
437,54,55842,6,0,P|388:30|330:64,1,105,4|0,0:0|0:0,0:0:0:0:
324,62,56175,2,0,P|320:119|312:177,1,105,4|4,0:3|0:3,0:0:0:0:
297,192,56508,2,0,P|262:192|227:197,1,70,4|8,0:3|0:1,0:0:0:0:
167,257,56842,1,0,0:0:0:0:
113,192,57008,1,4,0:3:0:0:
48,246,57175,6,0,P|28:205|81:113,1,140,4|0,0:0|0:0,0:0:0:0:
123,65,57675,2,0,P|172:76|206:81,1,70,0|4,0:0|1:3,0:0:0:0:
268,45,58008,1,8,0:1:0:0:
309,117,58175,1,0,0:0:0:0:
389,91,58342,2,0,P|394:53|403:13,1,70,0|0,0:0|0:0,0:0:0:0:
241,221,58842,6,0,B|204:225|204:225|178:217|178:217|144:219|144:219|129:203,2,105,4|4|8,0:3|0:3|0:1,0:0:0:0:
301,279,59508,1,0,0:0:0:0:
271,357,59675,2,0,B|307:365|307:365|347:352|347:352|369:364|369:364|391:360|391:360|404:360,1,140,2|4,0:0|0:1,0:0:0:0:
473,311,60175,1,0,0:0:0:0:
381,236,60342,6,0,P|382:193|394:69,1,140,8|0,0:1|0:0,0:0:0:0:
405,13,60842,1,4,0:3:0:0:
324,37,61008,1,8,0:1:0:0:
244,10,61175,6,0,P|202:6|158:-1,1,70,0|4,0:0|0:3,0:0:0:0:
102,45,61508,2,0,P|112:88|115:121,1,70,0|8,0:0|0:1,0:0:0:0:
72,186,61842,2,0,P|62:229|59:262,1,70,0|0,0:0|0:0,0:0:0:0:
110,321,62175,1,4,0:3:0:0:
110,321,62342,2,0,P|152:309|208:308,1,70,8|0,0:1|0:0,0:0:0:0:
252,345,62675,6,0,P|297:361|351:294,1,140,4|8,0:3|0:1,0:0:0:0:
310,225,63175,1,0,0:0:0:0:
375,171,63342,2,0,P|419:183|457:191,1,70,0|4,0:0|0:3,0:0:0:0:
506,133,63675,1,8,0:1:0:0:
506,133,63842,6,0,P|495:222|492:288,1,140,0|0,0:0|0:0,0:0:0:0:
434,333,64342,2,0,P|391:310|341:295,1,70,8|0,0:1|0:0,0:0:0:0:
290,326,64675,2,0,P|266:330|247:334,3,35,0|0|4|0,0:0|0:0|0:3|0:0,0:0:0:0:
219,310,65008,2,0,P|201:306|184:303,3,35,8|0|0|0,0:1|0:0|0:0|0:0,0:0:0:0:
147,324,65342,6,0,P|105:326|63:331,1,70,4|0,0:1|0:0,0:0:0:0:
9,379,65675,2,0,P|0:331|16:233,1,140,10|2,0:2|0:0,0:0:0:0:
59,171,66175,1,4,0:3:0:0:
26,93,66342,2,0,P|22:54|21:13,1,70,8|0,0:1|0:0,0:0:0:0:
103,5,66675,6,0,P|138:21|171:28,1,70,6|0,0:3|0:0,0:0:0:0:
225,89,67008,1,10,0:2:0:0:
225,89,67175,1,0,0:0:0:0:
298,47,67342,2,0,L|331:60,3,35,2|0|4|0,0:0|0:0|0:3|0:0,0:0:0:0:
355,93,67675,2,0,P|398:84|429:85,1,70,10|0,0:2|0:0,0:0:0:0:
499,120,68008,5,4,0:3:0:0:
499,120,68175,1,0,0:0:0:0:
442,180,68342,2,0,P|437:224|432:259,1,70,8|0,0:1|0:0,0:0:0:0:
398,326,68675,2,0,P|350:300|317:292,1,70,0|4,0:0|0:3,0:0:0:0:
269,348,69008,2,0,P|220:354|186:364,1,70,8|0,0:1|0:0,0:0:0:0:
120,331,69342,5,4,0:3:0:0:
143,250,69508,1,0,0:0:0:0:
78,195,69675,2,0,P|74:157|74:118,1,70,8|0,0:1|0:0,0:0:0:0:
126,59,70008,1,2,0:3:0:0:
126,59,70092,1,0,0:0:0:0:
126,59,70175,1,4,0:3:0:0:
198,102,70342,2,0,P|230:97|252:93,3,35,8|0|0|0,0:1|0:0|0:0|0:0,0:0:0:0:
274,104,70675,6,0,P|274:57|283:16,1,70,4|0,0:1|0:0,0:0:0:0:
348,160,71008,2,0,P|382:180|458:107,1,140,8|0,0:1|0:0,0:0:0:0:
502,59,71508,2,0,P|456:51|414:41,1,70,4|8,0:3|0:1,0:0:0:0:
362,0,71842,5,0,0:0:0:0:
296,52,72008,2,0,P|283:114|282:144,1,70,4|0,0:3|0:0,0:0:0:0:
215,171,72342,1,8,0:1:0:0:
215,171,72508,2,0,B|209:240|234:288|234:288|261:255,1,140,0|4,0:0|0:3,0:0:0:0:
320,234,73008,2,0,P|354:242|386:256,1,70,8|0,0:1|0:0,0:0:0:0:
433,326,73342,5,4,0:3:0:0:
433,326,73508,1,0,0:0:0:0:
502,278,73675,2,0,P|510:222|522:123,1,140,8|0,0:1|0:0,0:0:0:0:
494,59,74175,1,4,0:3:0:0:
419,20,74342,1,8,0:1:0:0:
340,47,74508,6,0,B|280:64|215:40|215:40|232:72,1,140,0|0,0:0|0:0,0:0:0:0:
256,127,75008,2,0,P|252:174|242:213,1,70,8|0,0:0|0:0,0:0:0:0:
178,245,75342,1,0,0:0:0:0:
178,245,75425,1,0,0:0:0:0:
178,245,75508,1,4,0:3:0:0:
196,327,75675,2,0,L|239:334,3,35,8|0|0|0,0:1|0:0|0:0|0:0,0:0:0:0:
264,357,76008,6,0,P|310:348|386:344,1,105,0|0,0:0|0:0,0:0:0:0:
408,355,76342,2,0,P|399:317|401:279,1,70,10|0,0:2|0:0,0:0:0:0:
451,219,76675,1,2,0:0:0:0:
451,219,76842,1,4,0:3:0:0:
397,154,77008,2,0,P|355:148|308:141,1,70,8|0,0:1|0:0,0:0:0:0:
283,71,77342,6,0,L|275:8,2,35,6|0|0,0:3|0:0|0:0,0:0:0:0:
206,105,77675,2,0,L|161:80,2,35,10|0|0,0:2|0:0|0:0,0:0:0:0:
161,176,78008,2,0,L|106:179,2,35,2|0|4,0:0|0:0|0:3,0:0:0:0:
184,257,78342,2,0,P|174:306|172:353,1,70,10|0,0:2|0:0,0:0:0:0:
237,379,78675,5,4,0:1:0:0:
293,316,78842,1,0,0:0:0:0:
366,355,79008,2,0,P|411:344|443:340,1,70,8|0,0:1|0:0,0:0:0:0:
503,292,79342,2,0,P|491:248|486:198,1,70,4|0,0:1|0:0,0:0:0:0:
505,141,79675,1,8,0:1:0:0:
505,141,79758,1,0,0:0:0:0:
505,141,79842,1,0,0:0:0:0:
455,73,80008,6,0,L|407:79,3,35,4|0|0|0,0:1|0:0|0:0|0:0,0:0:0:0:
388,104,80342,2,0,L|340:98,3,35,0|0|0|0,0:0|0:0|0:0|0:0,0:0:0:0:
293,41,80675,6,0,L|245:47,3,35,0|0|0|0,0:0|0:0|0:0|0:0,0:0:0:0:
211,76,81008,2,0,L|163:70,3,35,0|0|0|0,0:0|0:0|0:0|0:0,0:0:0:0:
110,25,81342,5,4,0:1:0:0:
6,187,81675,2,0,P|56:175|98:166,1,70,8|0,0:1|0:0,0:0:0:0:
149,207,82008,2,0,P|165:265|168:291,1,70,0|4,0:0|0:3,0:0:0:0:
144,356,82342,1,8,0:1:0:0:
223,381,82508,6,0,B|270:366|270:366|283:369|283:369|322:361|378:346,1,140,0|0,0:0|0:0,0:0:0:0:
440,367,83008,2,0,P|449:324|457:295,1,70,8|0,0:1|0:0,0:0:0:0:
396,238,83342,1,0,0:0:0:0:
396,238,83508,1,4,0:3:0:0:
331,184,83675,2,0,P|326:138|323:100,1,70,8|0,0:1|0:0,0:0:0:0:
276,44,84008,6,0,P|228:67|143:68,1,140,2|8,1:2|1:0,0:0:0:0:
60,50,84508,2,0,L|52:4,2,35,0|0|2,0:0|1:0|1:2,0:0:0:0:
13,120,84842,1,0,1:0:0:0:
53,193,85008,1,8,0:0:0:0:
12,366,85342,6,0,P|63:376|143:306,1,140,0|8,1:0|1:0,0:0:0:0:
165,252,85842,1,0,0:0:0:0:
165,252,85925,1,0,1:0:0:0:
165,252,86008,2,0,P|167:199|170:168,1,70,2|0,1:2|1:0,0:0:0:0:
219,114,86342,1,8,0:1:0:0:
421,66,86675,6,0,P|443:106|479:199,1,140,4|8,0:3|0:1,0:0:0:0:
427,261,87175,2,0,P|455:290|481:324,2,70,0|0|4,0:0|0:0|0:3,0:0:0:0:
343,252,87675,1,8,0:1:0:0:
284,312,87842,2,0,P|236:321|135:337,1,140,0|0,0:0|0:0,0:0:0:0:
68,302,88342,6,0,P|62:353|59:382,2,70,8|0|0,0:1|0:0|0:0,0:0:0:0:
19,233,88842,2,0,B|10:197|10:197|17:149,1,70,4|8,0:3|0:1,0:0:0:0:
70,101,89175,1,0,0:1:0:0:
139,147,89342,6,0,P|194:133|253:122,1,105,2|0,1:2|0:0,0:0:0:0:
266,129,89675,2,0,P|270:84|279:43,1,70,8|0,1:0|0:0,0:0:0:0:
350,22,90008,1,2,1:2:0:0:
350,22,90175,1,0,1:0:0:0:
417,72,90342,2,0,P|413:117|404:158,1,70,8|2,0:1|1:2,0:0:0:0:
466,201,90675,6,0,P|413:177|343:222,1,140,2|8,1:2|1:0,0:0:0:0:
322,295,91175,1,0,0:0:0:0:
322,295,91342,2,0,L|331:342,2,35,2|0|0,1:2|0:0|1:0,0:0:0:0:
264,233,91675,1,8,0:1:0:0:
89,351,92008,6,0,B|61:328|61:328|72:278|72:278|71:219,1,140,4|8,0:3|0:1,0:0:0:0:
21,156,92508,1,0,0:0:0:0:
21,156,92675,2,0,P|27:111|36:66,1,70,0|4,0:0|0:3,0:0:0:0:
89,25,93008,1,8,0:1:0:0:
159,70,93175,6,0,P|215:87|312:97,1,140,0|0,0:0|0:0,0:0:0:0:
370,59,93675,2,0,P|411:49|447:28,1,70,8|0,0:1|0:0,0:0:0:0:
489,101,94008,1,0,0:0:0:0:
489,101,94175,1,4,0:3:0:0:
431,162,94342,2,0,P|441:225|445:255,1,70,8|0,0:1|0:0,0:0:0:0:
462,312,94675,5,4,0:3:0:0:
266,375,95008,2,0,P|212:359|181:358,2,70,8|0|0,0:1|0:0|0:0,0:0:0:0:
327,317,95508,2,0,P|303:268|296:240,1,70,4|8,0:3|0:1,0:0:0:0:
336,177,95842,6,0,B|291:173|291:173|244:186|244:186|183:181,1,140,0|0,0:0|0:0,0:0:0:0:
126,137,96342,2,0,P|121:92|116:46,2,70,8|0|0,0:1|0:0|0:0,0:0:0:0:
63,193,96842,1,4,0:3:0:0:
124,250,97008,2,0,P|118:309|115:333,1,70,8|0,0:1|0:0,0:0:0:0:
182,372,97342,5,4,0:3:0:0:
250,323,97508,1,0,0:0:0:0:
326,357,97675,2,0,P|365:351|399:349,1,70,8|0,0:1|0:0,0:0:0:0:
478,364,98008,1,0,0:0:0:0:
478,364,98092,1,0,0:0:0:0:
478,364,98175,2,0,P|464:313|459:279,1,70,4|8,0:3|0:1,0:0:0:0:
480,213,98509,1,0,0:0:0:0:
430,145,98675,6,0,P|397:158|359:169,1,70,4|0,0:3|0:0,0:0:0:0:
283,142,99008,2,0,P|274:91|269:60,1,70,8|0,0:1|0:0,0:0:0:0:
200,26,99342,1,0,0:0:0:0:
138,82,99508,1,4,0:3:0:0:
138,82,99592,1,0,0:0:0:0:
138,82,99675,2,0,P|90:75|48:68,1,70,8|0,0:1|0:0,0:0:0:0:
17,138,100008,6,0,L|6:191,3,35,4|0|4|0,1:3|0:0|0:3|0:0,0:0:0:0:
43,199,100342,2,0,L|54:252,3,35,4|0|4|0,1:3|0:0|0:3|0:0,0:0:0:0:
32,271,100675,6,0,L|22:318,2,35,4|0|4,1:3|0:0|0:3,0:0:0:0:
97,358,101008,1,8,0:1:0:0:
176,329,101175,6,0,B|206:332|206:332|225:352|225:352|250:339|250:339|274:354|274:354|294:336|294:336|324:338|324:338|334:316|334:316|358:311|358:311|361:286|361:286|384:271|384:271|373:246|373:246|392:223|392:223|375:200|375:200|386:175|386:175|360:151|360:151|356:123|356:123|312:104,1,490,4|0,1:2|0:0,0:0:0:0:
150,211,102675,1,4,0:1:0:0:
256,192,113342,12,10,117342,0:0:0:0:
256,192,118675,12,8,122675,0:0:0:0:
497,309,124008,6,0,P|381:301|325:297,1,140,4|8,1:0|0:1,0:0:0:0:
276,275,124508,1,0,0:0:0:0:
216,215,124675,2,0,P|195:165|249:87,1,140,0|8,1:0|0:1,0:0:0:0:
299,42,125175,1,0,0:0:0:0:
374,79,125342,6,0,P|422:74|465:65,1,70,0|0,1:0|0:0,0:0:0:0:
494,137,125675,2,0,P|485:177|485:216,1,70,8|0,0:1|0:0,0:0:0:0:
504,287,126008,1,0,1:0:0:0:
443,345,126175,1,0,0:0:0:0:
443,345,126258,1,0,0:0:0:0:
443,345,126342,2,0,P|389:338|350:336,1,70,8|0,0:1|0:0,0:0:0:0:
318,273,126675,6,0,P|283:290|194:296,1,105,0|0,1:0|0:0,0:0:0:0:
195,285,127008,2,0,P|204:321|205:362,1,70,8|0,0:1|0:0,0:0:0:0:
122,338,127342,1,0,1:0:0:0:
62,279,127508,2,0,P|63:244|72:210,1,70,0|8,0:0|0:1,0:0:0:0:
134,152,127842,1,0,0:0:0:0:
95,77,128008,5,0,0:0:0:0:
95,77,128175,2,0,P|147:63|213:126,1,140,0|0,0:0|0:0,0:0:0:0:
225,195,128675,1,0,1:0:0:0:
167,256,128842,1,0,0:0:0:0:
171,339,129008,2,0,P|214:344|257:356,1,70,8|0,0:1|0:0,0:0:0:0:
323,363,129342,6,0,P|387:357|458:343,1,105,0|0,1:0|0:0,0:0:0:0:
451,358,129675,2,0,P|444:308|441:270,1,70,8|0,0:1|0:0,0:0:0:0:
486,216,130008,2,0,P|435:241|357:196,1,140,0|8,1:0|0:1,0:0:0:0:
341,127,130508,1,0,0:0:0:0:
257,138,130675,6,0,P|268:193|275:222,1,70,0|0,1:0|0:0,0:0:0:0:
210,264,131008,2,0,P|199:319|192:348,1,70,8|0,0:1|0:0,0:0:0:0:
113,350,131342,1,0,1:0:0:0:
43,303,131508,1,0,0:0:0:0:
43,303,131592,1,0,0:0:0:0:
43,303,131675,2,0,P|38:256|28:207,1,70,8|0,0:1|0:0,0:0:0:0:
12,152,132008,6,0,P|71:140|132:101,1,105,0|0,1:0|0:0,0:0:0:0:
132,99,132342,2,0,P|134:60|141:7,1,70,8|0,0:1|0:0,0:0:0:0:
217,2,132675,1,0,1:0:0:0:
259,74,132842,2,0,P|321:82|357:89,1,70,0|8,0:0|0:1,0:0:0:0:
375,152,133175,1,0,0:0:0:0:
452,119,133342,1,8,0:0:0:0:
496,190,133508,6,0,P|492:251|486:308,2,105,4|12|12,1:2|1:1|0:1,0:0:0:0:
405,92,134175,1,8,0:1:0:0:
405,92,134258,1,8,0:1:0:0:
405,92,134342,2,0,P|411:141|418:185,1,70,8|0,0:1|0:0,0:0:0:0:
356,222,134675,6,0,P|283:232|231:172,1,140,8|8,0:1|0:1,0:0:0:0:
261,109,135175,1,0,0:0:0:0:
188,65,135342,2,0,P|139:58|35:44,1,140,8|8,0:1|0:1,0:0:0:0:
5,118,135842,1,0,0:0:0:0:
78,158,136008,6,0,P|83:212|89:238,1,70,10|2,0:2|0:0,0:0:0:0:
41,298,136342,2,0,P|72:318|112:333,1,70,10|0,0:2|0:0,0:0:0:0:
176,371,136675,1,8,0:1:0:0:
220,299,136842,1,0,0:0:0:0:
220,299,136925,1,0,0:0:0:0:
220,299,137008,2,0,P|266:271|299:258,1,70,8|0,0:1|0:0,0:0:0:0:
343,321,137342,6,0,P|394:328|492:338,2,140,8|8|8,0:1|0:1|0:1,0:0:0:0:
374,242,138175,1,0,0:0:0:0:
322,175,138342,2,0,P|312:131|305:89,1,70,8|0,0:1|0:0,0:0:0:0:
348,32,138675,5,10,0:2:0:0:
266,11,138842,2,0,P|223:22|174:31,1,70,2|10,0:0|0:2,0:0:0:0:
114,15,139175,1,0,0:0:0:0:
60,79,139342,2,0,P|53:128|52:185,1,105,8|0,0:1|0:0,0:0:0:0:
66,205,139675,2,0,P|65:253|62:289,1,70,8|0,0:1|0:0,0:0:0:0:
23,348,140008,6,0,P|67:317|162:341,1,140,8|8,0:1|0:1,0:0:0:0:
216,378,140508,1,2,0:0:0:0:
216,378,140675,2,0,L|385:360,1,140,8|8,0:1|0:1,0:0:0:0:
420,310,141175,1,2,0:0:0:0:
355,256,141342,6,0,P|338:217|329:180,1,70,8|2,0:2|0:0,0:0:0:0:
402,146,141675,2,0,P|408:105|434:57,1,70,8|2,0:2|0:0,0:0:0:0:
353,26,142008,1,8,0:1:0:0:
281,70,142175,1,2,0:0:0:0:
281,70,142258,1,0,0:0:0:0:
281,70,142342,2,0,P|223:61|190:57,1,70,8|2,0:1|0:0,0:0:0:0:
170,132,142675,6,0,P|115:111|17:103,2,140,8|8|8,0:1|0:1|0:1,0:0:0:0:
220,199,143508,2,0,P|226:248|234:297,1,70,0|8,0:0|0:1,0:0:0:0:
188,372,143842,1,0,0:0:0:0:
188,372,144175,6,0,P|249:356|313:349,2,105,0|0|8,0:0|0:0|0:1,0:0:0:0:
91,323,144842,1,8,0:1:0:0:
91,323,144925,1,8,0:1:0:0:
91,323,145008,2,0,P|85:255|76:180,1,140,8|4,0:1|0:0,0:0:0:0:
150,20,145675,5,8,0:1:0:0:
119,97,145842,1,0,0:0:0:0:
119,97,146008,2,0,P|117:142|137:253,1,140,0|8,0:0|0:1,0:0:0:0:
96,312,146508,1,0,0:0:0:0:
169,353,146675,6,0,P|228:345|329:340,1,140,4|8,0:3|0:1,0:0:0:0:
384,375,147175,1,0,0:0:0:0:
462,344,147342,2,0,P|488:290|428:214,1,140,0|8,0:0|0:1,0:0:0:0:
403,155,147842,1,0,0:0:0:0:
334,203,148008,6,0,P|266:213|181:227,1,140,4|8,0:3|0:1,0:0:0:0:
116,195,148508,1,0,0:0:0:0:
49,246,148675,2,0,P|35:193|25:95,1,140,0|8,0:0|0:1,0:0:0:0:
62,33,149175,1,0,0:0:0:0:
135,74,149342,6,0,P|189:59|295:49,1,140,4|8,0:3|0:1,0:0:0:0:
345,90,149842,1,0,0:0:0:0:
345,90,149925,1,0,0:0:0:0:
345,90,150008,2,0,P|390:83|441:70,1,70,0|4,0:0|0:3,0:0:0:0:
483,126,150342,2,0,P|469:168|461:247,1,105,8|0,0:1|0:0,0:0:0:0:
474,243,150675,6,0,P|409:230|374:296,1,140,4|8,0:3|0:1,0:0:0:0:
343,363,151175,1,0,0:0:0:0:
269,322,151342,2,0,P|220:330|169:340,1,70,0|4,0:0|0:3,0:0:0:0:
130,285,151675,1,8,0:1:0:0:
58,328,151842,1,0,0:0:0:0:
3,264,152008,6,0,P|14:208|28:107,1,140,4|8,0:3|0:1,0:0:0:0:
6,44,152508,1,0,0:0:0:0:
82,9,152675,2,0,P|118:42|148:64,1,70,0|4,0:0|0:3,0:0:0:0:
158,135,153008,2,0,P|217:126|259:108,1,105,8|0,0:1|0:0,0:0:0:0:
276,88,153342,6,0,P|334:95|367:102,1,70,4|0,0:3|0:0,0:0:0:0:
417,140,153675,1,8,0:1:0:0:
480,84,153842,1,0,0:0:0:0:
480,84,154008,2,0,P|502:126|449:216,1,140,0|8,0:0|0:1,0:0:0:0:
403,309,154508,2,0,P|396:275|392:241,1,70,0|8,0:0|0:1,0:0:0:0:
256,192,154758,12,4,156008,1:3:0:0:
48,233,157342,6,0,P|103:224|144:219,1,70,4|0,0:1|0:0,0:0:0:0:
198,244,157675,1,8,0:1:0:0:
245,174,157842,1,0,0:0:0:0:
316,218,158008,2,0,P|373:224|429:237,2,105,6|6|10,0:3|0:3|0:2,0:0:0:0:
245,174,158675,6,0,P|239:131|235:86,1,70,0|4,0:0|0:3,0:0:0:0:
182,40,159008,1,8,0:1:0:0:
105,75,159175,1,0,0:0:0:0:
31,115,159342,2,0,P|21:180|20:211,1,70,4|4,0:3|0:3,0:0:0:0:
33,267,159675,2,0,P|79:286|153:309,1,105,8|0,0:1|0:0,0:0:0:0:
145,322,160008,6,0,P|186:311|246:304,1,70,4|0,0:3|0:0,0:0:0:0:
279,358,160342,1,8,0:1:0:0:
326,289,160508,1,0,0:0:0:0:
401,326,160675,2,0,P|459:296|508:255,2,105,6|6|8,0:3|0:3|0:2,0:0:0:0:
326,289,161342,5,0,0:0:0:0:
351,209,161508,1,6,0:3:0:0:
302,140,161675,2,0,P|236:155|203:160,1,70,8|0,0:2|0:0,0:0:0:0:
161,112,162008,1,4,0:3:0:0:
111,180,162175,1,4,0:3:0:0:
35,143,162342,2,0,P|31:210|35:275,1,105,8|0,0:1|0:0,0:0:0:0:
53,269,162675,6,0,P|48:305|41:347,1,70,4|0,0:3|0:0,0:0:0:0:
117,375,163008,2,0,P|167:358|214:358,1,70,8|0,0:1|0:0,0:0:0:0:
253,307,163342,2,0,P|302:328|375:334,2,105,6|6|10,0:3|0:3|0:2,0:0:0:0:
198,243,164008,6,0,P|194:202|191:158,1,70,0|6,0:0|0:3,0:0:0:0:
239,103,164342,1,8,0:1:0:0:
239,103,164508,1,0,0:0:0:0:
168,57,164675,2,0,P|115:53|50:40,1,105,4|0,0:3|0:0,0:0:0:0:
47,33,165008,2,0,P|49:80|52:134,1,70,8|0,0:1|0:0,0:0:0:0:
15,179,165342,5,4,0:0:0:0:
43,257,165508,2,0,P|95:300|174:277,1,140,8|0,0:1|0:0,0:0:0:0:
219,225,166008,2,0,P|220:158|223:76,1,140,12|0,0:1|0:0,0:0:0:0:
295,43,166508,2,0,P|303:117|304:127,1,70,4|0,0:3|0:0,0:0:0:0:
361,173,166842,6,0,P|412:206|473:214,2,105,6|6|8,1:3|1:3|0:1,0:0:0:0:
291,219,167508,1,4,0:3:0:0:
215,182,167675,2,0,P|210:134|204:96,1,70,8|0,0:1|0:0,0:0:0:0:
127,84,168008,6,0,L|144:235,1,140,4|8,0:1|0:1,0:0:0:0:
82,281,168508,1,0,0:0:0:0:
109,360,168675,2,0,P|174:352|232:351,1,105,6|6,0:3|0:3,0:0:0:0:
358,372,169175,1,10,0:2:0:0:
358,372,169258,1,0,0:2:0:0:
358,372,169342,6,0,P|363:326|368:270,1,70,0|4,0:0|0:3,0:0:0:0:
437,258,169675,2,0,P|432:212|427:156,1,70,8|0,0:1|0:0,0:0:0:0:
401,109,170008,1,4,0:3:0:0:
401,109,170175,1,4,0:3:0:0:
342,48,170342,2,0,P|290:68|241:73,1,105,8|0,0:2|0:0,0:0:0:0:
222,60,170675,6,0,P|172:50|66:48,1,140,4|8,0:3|0:1,0:0:0:0:
23,105,171175,1,0,0:0:0:0:
72,172,171342,2,0,P|64:224|59:291,1,105,6|6,0:3|0:3,0:0:0:0:
178,369,171842,6,0,P|234:378|296:313,1,140,10|4,0:2|0:3,0:0:0:0:
345,260,172342,2,0,P|339:204|339:166,1,70,8|0,0:1|0:0,0:0:0:0:
399,132,172675,1,4,0:3:0:0:
472,172,172842,1,4,0:3:0:0:
472,172,173008,2,0,P|470:206|465:241,1,70,8|0,0:1|0:0,0:0:0:0:
486,323,173342,6,0,B|425:315|425:315|390:335|363:364,1,140,4|8,0:3|0:1,0:0:0:0:
292,318,173842,1,0,0:0:0:0:
218,357,174008,2,0,P|168:353|102:346,1,105,6|6,0:3|0:3,0:0:0:0:
15,217,174508,6,0,B|21:170|33:103|33:103|52:138,1,140,10|4,0:2|0:3,0:0:0:0:
115,169,175008,2,0,P|132:122|143:88,1,70,8|0,0:1|0:0,0:0:0:0:
121,20,175342,1,4,0:3:0:0:
200,46,175508,1,4,0:3:0:0:
200,46,175675,2,0,P|265:36|299:29,1,70,8|0,0:1|0:0,0:0:0:0:
344,72,176008,5,4,1:2:0:0:
401,209,176675,6,0,P|412:155|406:110,1,70,4|0,1:2|0:0,0:0:0:0:
344,72,177008,1,0,0:0:0:0:
344,72,177175,6,0,L|204:60,1,140,4|6,0:0|1:3,0:0:0:0:
103,188,177758,2,0,P|157:178|212:151,1,105,6|8,1:3|0:1,0:0:0:0:
255,223,178175,1,4,0:3:0:0:
255,223,178342,6,0,P|246:289|237:380,1,140,8|4,0:1|1:1,0:0:0:0:
63,89,189342,6,0,P|110:82|214:72,1,140,2|0,0:0|0:0,0:0:0:0:
268,124,189842,2,0,P|246:170|154:161,1,140,2|0,0:0|0:0,0:0:0:0:
97,222,190342,2,0,P|86:274|83:310,1,70,2|0,0:0|0:0,0:0:0:0:
134,358,190675,6,0,P|185:346|296:324,1,140,2|0,0:0|0:0,0:0:0:0:
269,244,191175,2,0,P|320:256|431:278,1,140,2|0,0:0|0:0,0:0:0:0:
482,239,191675,1,2,0:0:0:0:
430,172,191842,1,0,0:0:0:0:
481,105,192008,6,0,P|490:56|488:20,2,70,2|0|0,0:0|0:0|0:0,0:0:0:0:
430,172,192508,2,0,P|354:184|275:196,1,140,2|0,0:0|0:0,0:0:0:0:
224,143,193008,1,2,0:0:0:0:
163,201,193175,6,0,P|139:150|194:63,1,140,0|2,0:0|0:0,0:0:0:0:
224,143,193675,1,0,0:0:0:0:
300,107,193842,2,0,P|307:177|318:277,1,140,0|0,0:0|0:0,0:0:0:0:
276,321,194342,2,0,P|231:295|184:281,1,70,2|0,0:0|0:0,0:0:0:0:
142,332,194675,6,0,P|95:337|23:353,1,105,2|0,0:0|0:0,0:0:0:0:
19,342,195008,2,0,P|26:297|26:265,1,70,0|2,0:0|0:0,0:0:0:0:
6,190,195342,1,0,0:0:0:0:
6,190,195508,1,0,0:0:0:0:
73,139,195675,2,0,P|123:146|203:158,1,105,2|0,0:0|0:0,0:0:0:0:
194,173,196008,6,0,P|246:176|286:90,1,140,2|0,0:0|0:0,0:0:0:0:
316,28,196508,2,0,P|368:42|472:60,1,140,2|0,0:0|0:0,0:0:0:0:
502,125,197008,1,2,0:0:0:0:
502,125,197175,1,0,0:0:0:0:
435,176,197342,6,0,P|432:225|430:268,1,70,2|0,0:0|0:0,0:0:0:0:
347,233,197675,2,0,P|350:282|352:325,1,70,0|2,0:0|0:0,0:0:0:0:
284,354,198008,2,0,P|226:336|198:333,1,70,0|0,0:0|0:0,0:0:0:0:
148,284,198342,2,0,P|101:298|63:305,1,70,2|0,0:0|0:0,0:0:0:0:
11,254,198675,5,2,0:0:0:0:
64,189,198842,1,0,0:0:0:0:
64,189,199008,2,0,P|55:140|52:96,1,70,0|2,0:0|0:0,0:0:0:0:
25,40,199342,2,0,P|76:22|170:75,1,140,0|2,0:0|0:0,0:0:0:0:
239,239,200008,6,0,P|321:224|403:210,1,140,0|0,1:0|1:0,0:0:0:0:
450,254,200508,1,0,0:0:0:0:
502,187,200675,2,0,P|492:133|410:108,1,140,0|0,1:0|1:0,0:0:0:0:
368,37,201175,1,0,0:0:0:0:
302,89,201342,6,0,P|237:78|135:69,1,140,0|0,1:0|1:0,0:0:0:0:
106,8,201842,1,0,0:0:0:0:
36,54,202008,2,0,P|30:106|25:148,1,70,0|0,1:0|0:0,0:0:0:0:
95,174,202342,1,0,1:0:0:0:
49,243,202508,1,0,0:0:0:0:
81,320,202675,6,0,P|141:348|242:326,1,140,0|0,1:0|1:0,0:0:0:0:
242,262,203175,1,0,0:0:0:0:
171,216,203342,2,0,P|170:173|168:127,1,70,0|0,1:0|0:0,0:0:0:0:
126,73,203675,1,0,1:0:0:0:
194,23,203842,1,0,0:0:0:0:
194,23,204008,6,0,P|263:39|354:49,1,140,0|0,1:0|1:0,0:0:0:0:
410,18,204508,1,0,0:0:0:0:
485,55,204675,2,0,P|488:101|490:132,1,70,0|0,1:0|0:0,0:0:0:0:
445,196,205008,1,0,1:0:0:0:
368,160,205175,1,0,0:0:0:0:
297,205,205342,6,0,P|247:193|214:185,1,70,0|0,1:0|1:0,0:0:0:0:
160,139,205675,2,0,P|111:147|77:151,1,70,0|0,1:0|1:0,0:0:0:0:
29,207,206008,1,0,1:0:0:0:
71,279,206175,1,0,1:0:0:0:
149,247,206342,2,0,P|162:285|183:326,1,70,0|0,1:0|1:0,0:0:0:0:
248,353,206675,5,0,1:0:0:0:
248,353,206842,1,0,1:0:0:0:
322,315,207008,2,0,P|370:320|410:333,1,70,0|0,1:0|1:0,0:0:0:0:
470,296,207342,2,0,P|446:255|434:216,1,70,0|0,1:0|1:0,0:0:0:0:
474,158,207675,2,0,P|480:109|485:81,1,70,0|0,1:0|1:0,0:0:0:0:
422,30,208008,6,0,L|381:37,3,35,0|0|0|0,1:0|1:0|1:0|1:0,0:0:0:0:
355,64,208342,2,0,L|314:57,3,35,0|0|0|0,1:0|1:0|1:0|1:0,0:0:0:0:
251,15,208675,6,0,L|210:22,3,35,0|0|0|0,1:0|1:0|1:0|1:0,0:0:0:0:
179,53,209009,2,0,L|138:46,3,35,0|0|0|0,1:0|1:0|1:0|1:0,0:0:0:0:
62,14,209342,6,0,B|43:125|43:125|68:175|68:175|48:292,1,280,0|0,3:0|0:0,0:0:0:0:
149,375,210342,2,0,L|143:329,3,28,0|0|0|0,0:0|0:0|0:0|0:0,0:0:0:0:
167,309,210675,6,0,P|227:316|308:323,1,115.50000352478,4|0,1:0|2:0,0:0:0:0:
320,295,211008,2,0,P|371:288|410:280,1,77.0000023498536,0|0,1:0|1:0,0:0:0:0:
461,216,211342,2,0,P|472:155|392:88,1,154.000004699707,8|0,1:1|1:0,0:0:0:0:
339,36,211842,2,0,P|288:45|239:55,1,77.0000023498536,0|0,1:0|0:0,0:0:0:0:
185,100,212175,5,0,1:0:0:0:
185,100,212258,1,0,1:0:0:0:
185,100,212342,2,0,P|121:84|82:79,1,77.0000023498536,0|0,1:0|0:0,0:0:0:0:
29,127,212675,1,8,1:0:0:0:
89,197,212842,1,0,1:0:0:0:
34,271,213008,2,0,P|39:343|43:368,1,77.0000023498536,8|0,1:0|1:0,0:0:0:0:
132,338,213342,6,0,P|204:345|273:353,2,115.50000352478,4|4|8,1:2|1:2|1:0,0:0:0:0:
163,251,214008,2,0,P|235:244|304:236,2,115.50000352478,4|4|8,1:2|1:2|1:0,0:0:0:0:
505,333,214842,6,0,P|485:291|398:284,1,115.50000352478,0|0,1:0|1:0,0:0:0:0:
304,362,215342,2,0,P|230:353|201:350,1,77.0000023498536,8|0,1:0|1:0,0:0:0:0:
136,370,215675,1,8,1:0:0:0:
25,184,216008,6,0,L|21:228,2,38.5000011749268,4|0|0,1:0|0:0|0:0,0:0:0:0:
67,101,216342,2,0,L|63:62,2,38.5000011749268,8|0|0,1:0|0:0|0:0,0:0:0:0:
147,147,216675,5,0,0:0:0:0:
147,147,216758,1,0,0:0:0:0:
147,147,216842,1,4,1:3:0:0:
229,105,217008,2,0,L|225:66,2,38.5000011749268,8|0|0,0:0|0:0|0:0,0:0:0:0:
280,182,217342,6,0,L|276:220,2,38.5000011749268,4|0|0,1:3|0:0|0:0,0:0:0:0:
364,144,217675,2,0,L|360:105,2,38.5000011749268,8|0|0,1:0|0:0|0:0,0:0:0:0:
415,220,218008,5,0,0:0:0:0:
415,220,218092,1,0,0:0:0:0:
415,220,218175,1,4,1:3:0:0:
501,187,218342,2,0,L|497:148,2,38.5000011749268,8|0|0,1:0|0:0|0:0,0:0:0:0:
486,278,218675,6,0,L|482:316,2,38.5000011749268,4|0|0,1:3|0:0|0:0,0:0:0:0:
400,314,219008,2,0,L|396:352,2,38.5000011749268,8|0|0,1:0|0:0|0:0,0:0:0:0:
313,279,219342,2,0,L|309:317,2,38.5000011749268,0|0|4,0:0|0:0|1:3,0:0:0:0:
223,304,219675,2,0,L|219:342,2,38.5000011749268,8|0|0,1:0|0:0|0:0,0:0:0:0:
151,245,220008,5,8,1:0:0:0:
151,245,220092,1,0,0:0:0:0:
151,245,220175,2,0,L|150:197,3,38.5000011749268,0|4|0|0,0:0|1:3|0:0|0:0,0:0:0:0:
118,165,220508,5,8,1:0:0:0:
118,165,220592,1,0,0:0:0:0:
118,165,220675,2,0,L|119:117,3,38.5000011749268,0|4|0|0,0:0|1:3|0:0|0:0,0:0:0:0:
177,71,221008,6,0,L|176:23,3,38.5000011749268,8|0|8|0,1:0|0:0|1:0|0:0,0:0:0:0:
222,6,221342,6,0,B|288:13|288:13|305:37|305:37|377:41,1,154.000004699707,4|8,1:0|1:0,0:0:0:0:
452,17,221842,1,0,0:0:0:0:
503,93,222008,2,0,P|509:146|474:245,1,154.000004699707,8|8,1:0|1:0,0:0:0:0:
397,286,222508,1,0,1:0:0:0:
325,227,222675,5,0,0:0:0:0:
255,287,222842,1,4,1:3:0:0:
255,287,222925,1,4,1:3:0:0:
255,287,223008,2,0,L|250:375,1,77.0000023498536,4|0,1:2|0:0,0:0:0:0:
163,332,223342,2,0,P|109:328|72:326,1,77.0000023498536,8|0,1:0|1:0,0:0:0:0:
127,244,223675,2,0,L|131:167,1,77.0000023498536,8|4,1:0|1:3,0:0:0:0:
143,75,224008,6,0,P|207:81|247:85,1,77.0000023498536,8|0,1:0|0:0,0:0:0:0:
54,63,224342,1,4,1:2:0:0:
320,210,224675,6,0,P|273:174|202:186,2,115.50000352478,4|4|4,1:2|1:2|1:2,0:0:0:0:
399,351,225425,2,0,P|446:315|517:327,2,115.50000352478,4|4|4,1:2|1:2|1:2,0:0:0:0:
242,315,226175,1,4,1:2:0:0:
242,315,226342,2,0,P|167:326|106:336,1,115.50000352478,2|0,0:0|0:0,0:0:0:0:
106,316,226675,6,0,P|63:277|104:179,1,154.000004699707,4|0,1:1|1:0,0:0:0:0:
164,148,227175,1,0,0:0:0:0:
228,214,227342,2,0,P|279:202|317:198,1,77.0000023498536,0|0,1:0|0:0,0:0:0:0:
369,134,227675,2,0,P|319:118|290:100,1,77.0000023498536,0|0,1:0|0:0,0:0:0:0:
311,14,228008,6,0,P|243:31|137:44,1,154.000004699707,0|0,1:0|1:0,0:0:0:0:
71,16,228508,1,0,0:0:0:0:
14,89,228675,2,0,P|28:135|38:180,1,77.0000023498536,0|0,1:0|0:0,0:0:0:0:
100,227,229008,2,0,P|94:280|92:309,1,77.0000023498536,0|0,1:0|0:0,0:0:0:0:
159,367,229342,6,0,P|226:352|343:353,1,154.000004699707,0|0,1:0|1:0,0:0:0:0:
400,372,229842,1,0,0:0:0:0:
473,316,230008,2,0,P|480:265|494:224,1,77.0000023498536,0|0,1:0|0:0,0:0:0:0:
402,202,230342,2,0,P|386:146|366:98,1,77.0000023498536,0|0,1:0|0:0,0:0:0:0:
312,64,230675,5,4,1:3:0:0:
230,108,230842,1,4,0:3:0:0:
153,56,231008,1,4,1:3:0:0:
66,88,231175,1,4,0:3:0:0:
66,88,231342,6,0,L|61:148,7,38.5000011749268,4|4|4|4|4|4|4|4,1:3|0:3|0:3|0:3|1:3|0:3|0:3|0:3,0:0:0:0:
43,36,232008,5,4,1:3:0:0:
