osu file format v14

[General]
AudioFilename: audio.mp3
AudioLeadIn: 0
PreviewTime: 210258
Countdown: 0
SampleSet: Normal
StackLeniency: 0.7
Mode: 0
LetterboxInBreaks: 0
WidescreenStoryboard: 1

[Editor]
Bookmarks: 58008,101341,118174
DistanceSpacing: 1.1
BeatDivisor: 4
GridSize: 32
TimelineZoom: 2.3

[Metadata]
Title:STORIA
TitleUnicode:STORIA
Artist:xi vs sakuzyo
ArtistUnicode:xi vs sakuzyo
Creator:Len
Version:Extra
Source:
Tags:Halcyon Niflheimr VitMaster Black Lair AXION Leader -kevincela- Bonzi Reana Cellina Rose Pacifica Dailycare Crier Fortune Anishina Kodoku Regou Little CloudSplash16
BeatmapID:1260752
BeatmapSetID:586622

[Difficulty]
HPDrainRate:6.5
CircleSize:4
OverallDifficulty:8
ApproachRate:9.2
SliderMultiplier:1.9
SliderTickRate:1

[Events]
//Background and Video events
0,0,"bg0.png",0,0
//Break Periods
2,102875,112742
//Storyboard Layer 0 (Background)
//Storyboard Layer 1 (Fail)
//Storyboard Layer 2 (Pass)
//Storyboard Layer 3 (Foreground)
//Storyboard Sound Samples

[TimingPoints]
9,333.333333333333,4,2,5,70,1,0
5175,-100,4,2,5,70,0,0
5342,-133.333333333333,4,2,5,70,0,0
16009,-133.333333333333,4,2,11,90,0,0
16092,-133.333333333333,4,2,5,70,0,0
21759,-133.333333333333,4,2,5,5,0,0
21842,-133.333333333333,4,2,5,70,0,0
22259,-133.333333333333,4,2,5,5,0,0
22342,-133.333333333333,4,2,5,70,0,0
26675,-100,4,2,5,70,0,0
26676,-100,4,2,11,90,0,0
26759,-100,4,2,15,70,0,0
33342,-100,4,2,20,80,0,0
37676,-100,4,2,7,70,0,0
38676,-100,4,2,7,85,0,0
38759,-100,4,2,5,70,0,0
43009,-100,4,2,7,70,0,0
43092,-100,4,2,5,70,0,0
43676,-100,4,2,5,5,0,0
43842,-100,4,2,7,85,0,0
43926,-100,4,2,5,70,0,0
49342,-100,4,2,7,85,0,0
49426,-100,4,2,5,70,0,0
54676,-100,4,2,7,85,0,0
54759,-100,4,2,5,70,0,0
58841,-83.3333333333333,4,2,5,70,0,0
59551,-83.3333333333333,4,2,5,5,0,0
59674,-166.666666666667,4,2,5,5,0,0
59676,-166.666666666667,4,2,5,70,0,0
59759,-166.666666666667,4,2,5,5,0,0
60008,-100,4,2,5,5,0,0
60009,-100,4,2,7,85,0,0
60092,-100,4,2,5,70,0,0
65342,-100,4,2,7,85,0,0
65426,-100,4,2,5,70,0,0
70676,-100,4,2,7,85,0,0
70759,-100,4,2,5,70,0,0
78676,-100,4,2,7,85,0,0
78759,-100,4,2,5,70,0,0
80009,-100,4,2,7,70,0,0
80092,-100,4,2,5,70,0,0
84009,-100,4,2,6,75,0,0
84342,-100,4,2,5,75,0,0
84426,-100,4,2,6,75,0,0
85009,-100,4,2,5,75,0,0
85092,-100,4,2,6,75,0,0
85676,-100,4,2,5,75,0,0
85759,-100,4,2,6,75,0,0
86342,-100,4,2,5,75,0,0
86426,-100,4,2,6,75,0,0
86676,-100,4,2,5,70,0,0
89342,-100,4,2,6,75,0,0
89676,-100,4,2,5,75,0,0
89759,-100,4,2,6,75,0,0
90342,-100,4,2,5,75,0,0
90426,-100,4,2,6,75,0,0
91009,-100,4,2,5,75,0,0
91092,-100,4,2,6,75,0,0
91676,-100,4,2,5,75,0,0
91759,-100,4,2,6,75,0,0
92009,-100,4,2,5,70,0,0
102341,-83.3333333333333,4,2,5,70,0,0
113341,-100,4,2,5,70,0,0
113342,-100,4,2,8,70,0,0
124009,-100,4,2,5,70,0,0
133217,-100,4,2,5,5,0,0
133342,-100,4,2,5,70,0,0
144259,-100,4,2,8,70,0,0
144676,-100,4,2,5,70,0,0
145176,-100,4,2,8,70,0,0
145342,-100,4,2,5,70,0,0
157342,-100,4,2,7,70,0,0
157426,-100,4,2,5,70,0,0
168009,-100,4,2,7,70,0,0
168092,-100,4,2,5,70,0,0
174508,-133.333333333333,4,2,5,70,0,0
175008,-100,4,2,5,70,0,0
178674,-133.333333333333,4,2,5,70,0,0
188009,-133.333333333333,4,2,5,40,0,0
188176,-133.333333333333,4,2,5,45,0,0
188342,-133.333333333333,4,2,5,50,0,0
188509,-133.333333333333,4,2,5,55,0,0
188676,-133.333333333333,4,2,5,60,0,0
188842,-133.333333333333,4,2,5,65,0,0
189008,-111.111111111111,4,2,5,65,0,0
189009,-111.111111111111,4,2,5,70,0,0
189176,-111.111111111111,4,2,5,75,0,0
189342,-111.111111111111,4,2,5,70,0,0
200008,-100,4,2,5,70,0,0
209341,-200,4,2,5,70,0,0
210341,-100,4,2,5,70,0,0
210675,-83.3333333333333,4,2,5,70,0,0
210676,-83.3333333333333,4,2,7,70,0,0
210759,-83.3333333333333,4,2,5,70,0,0
211675,-100,4,2,5,70,0,0
216009,-100,4,2,7,70,0,0
216092,-100,4,2,5,70,0,0
221342,-83.3333333333333,4,2,7,70,0,0
221426,-83.3333333333333,4,2,5,70,0,0
222342,-100,4,2,5,70,0,0
223009,-100,4,2,12,70,0,0
223092,-100,4,2,5,70,0,0
224676,-100,4,2,12,70,0,0
226676,-100,4,2,7,70,0,0
226759,-100,4,2,5,70,0,0
232009,-100,4,2,8,70,0,0

[Colours]
Combo1 : 255,128,192
Combo2 : 173,255,95
Combo3 : 255,255,128
Combo4 : 17,254,176

[HitObjects]
256,192,342,12,0,5175,0:0:0:0:
169,119,5342,6,0,P|165:83|160:48,1,71.2500027179719,4|0,0:0|0:0,0:0:0:0:
85,183,5675,1,0,0:0:0:0:
266,113,5842,2,0,P|251:191|244:256,1,142.500005435944,0|0,0:0|0:0,0:0:0:0:
236,344,6342,1,0,0:0:0:0:
160,239,6508,1,0,0:0:0:0:
341,170,6675,6,0,P|335:204|329:240,1,71.2500027179719,0|0,0:0|0:0,0:0:0:0:
236,344,7008,2,0,P|201:334|160:331,1,71.2500027179719,0|0,0:0|0:0,0:0:0:0:
51,339,7342,1,0,0:0:0:0:
1,170,7509,1,0,0:0:0:0:
176,216,7675,1,0,0:0:0:0:
74,245,7842,1,0,0:0:0:0:
98,145,8008,6,0,P|104:109|109:74,1,71.2500027179719,0|0,0:0|0:0,0:0:0:0:
263,99,8342,2,0,P|259:64|252:27,1,71.2500027179719,0|0,0:0|0:0,0:0:0:0:
176,216,8675,6,0,L|162:301,1,71.2500027179719,0|0,0:0|0:0,0:0:0:0:
316,250,9008,2,0,P|325:284|331:319,1,71.2500027179719,0|0,0:0|0:0,0:0:0:0:
439,183,9342,6,0,L|347:168,1,71.2500027179719,0|0,0:0|0:0,0:0:0:0:
190,86,9675,2,0,L|263:71,1,71.2500027179719,0|0,0:0|0:0,0:0:0:0:
381,49,10008,5,0,0:0:0:0:
258,194,10175,1,0,0:0:0:0:
368,171,10342,1,0,0:0:0:0:
260,72,10508,1,0,0:0:0:0:
163,175,10675,6,0,P|156:208|152:250,1,71.2500027179719,0|0,0:0|0:0,0:0:0:0:
307,339,11008,2,0,P|314:306|318:264,1,71.2500027179719,0|0,0:0|0:0,0:0:0:0:
307,130,11342,5,0,0:0:0:0:
401,280,11508,1,0,0:0:0:0:
512,166,11675,2,0,L|438:179,1,71.2500027179719,0|0,0:0|0:0,0:0:0:0:
318,268,12008,6,0,L|307:339,1,71.2500027179719,0|0,0:0|0:0,0:0:0:0:
398,102,12342,2,0,L|412:24,1,71.2500027179719,0|0,0:0|0:0,0:0:0:0:
159,85,12675,1,0,0:0:0:0:
235,189,12842,1,0,0:0:0:0:
288,50,13008,1,0,0:0:0:0:
152,112,13175,1,0,0:0:0:0:
306,129,13342,6,0,P|343:140|373:156,1,71.2500027179719,0|0,0:0|0:0,0:0:0:0:
440,231,13675,1,0,0:0:0:0:
512,77,13842,2,0,P|477:86|443:100,1,71.2500027179719,0|0,0:0|0:0,0:0:0:0:
328,218,14175,2,0,L|348:314,2,71.2500027179719,0|0|0,0:0|0:0|0:0,0:0:0:0:
306,129,14675,6,0,L|293:58,1,71.2500027179719,0|0,0:0|0:0,0:0:0:0:
214,203,15008,2,0,L|194:108,1,71.2500027179719,0|0,0:0|0:0,0:0:0:0:
118,277,15342,2,0,L|91:163,1,106.875004076958,0|0,0:0|0:0,0:0:0:0:
72,145,15675,2,0,L|83:98,2,47.5000018119813,0|0|0,0:0|0:0|0:0,0:0:0:0:
0,206,16008,6,0,B|78:277|161:201|161:201|268:108|388:221,1,427.500016307831,4|0,0:1|0:0,0:0:0:0:
444,285,17175,1,0,0:0:0:0:
360,301,17342,2,0,L|388:384,1,71.2500027179719,0|0,0:0|0:0,0:0:0:0:
277,298,17675,2,0,L|256:374,1,71.2500027179719,0|0,0:0|0:0,0:0:0:0:
358,147,18008,2,0,L|383:71,1,71.2500027179719,0|0,0:0|0:0,0:0:0:0:
274,148,18342,2,0,L|248:59,1,71.2500027179719,0|0,0:0|0:0,0:0:0:0:
319,224,18675,1,0,0:0:0:0:
40,288,19008,5,0,0:0:0:0:
161,324,19175,1,0,0:0:0:0:
25,315,19342,2,0,L|18:267|0:174,1,142.500005435944,0|0,0:0|0:0,0:0:0:0:
14,49,19842,1,0,0:0:0:0:
83,112,20008,2,0,P|153:100|223:87,1,142.500005435944,0|0,0:0|0:0,0:0:0:0:
296,164,20508,1,0,0:0:0:0:
296,164,20675,2,0,P|365:178|435:190,1,142.500005435944,0|0,0:0|0:0,0:0:0:0:
461,34,21342,6,0,P|419:83|428:178,1,142.500005435944,0|0,0:0|0:0,0:0:0:0:
469,345,21842,2,0,P|506:283|491:211,1,142.500005435944,0|0,0:0|0:0,0:0:0:0:
417,158,22342,2,0,P|346:169|276:182,1,142.500005435944,0|0,0:0|0:0,0:0:0:0:
215,250,22842,1,0,0:0:0:0:
190,169,23009,1,0,0:0:0:0:
244,103,23175,1,0,0:0:0:0:
23,126,23342,5,0,0:0:0:0:
103,154,23508,1,0,0:0:0:0:
126,236,23675,1,0,0:0:0:0:
91,314,23842,1,0,0:0:0:0:
282,188,24008,5,0,0:0:0:0:
299,271,24175,1,0,0:0:0:0:
445,109,24342,5,0,0:0:0:0:
428,192,24509,1,0,0:0:0:0:
239,35,24675,5,0,0:0:0:0:
358,138,24842,1,0,0:0:0:0:
205,122,25008,1,0,0:0:0:0:
338,39,25175,1,0,0:0:0:0:
282,187,25342,6,0,P|274:222|269:258,1,71.2500027179719,0|0,0:0|0:0,0:0:0:0:
142,339,25675,2,0,P|138:303|132:268,1,71.2500027179719,0|0,0:0|0:0,0:0:0:0:
75,150,26008,5,0,0:0:0:0:
75,150,26120,2,0,L|62:88,1,47.5000018119813,0|0,0:0|0:0,0:0:0:0:
16,226,26342,1,0,0:0:0:0:
16,226,26453,2,0,L|-4:283,1,47.5000018119813,0|0,0:0|0:0,0:0:0:0:
162,169,26675,6,0,P|207:183|255:200,1,95,4|2,0:1|0:3,0:0:0:0:
386,305,27008,1,8,0:3:0:0:
344,124,27175,1,0,0:0:0:0:
344,124,27258,1,0,0:0:0:0:
344,124,27342,1,0,0:0:0:0:
469,231,27508,1,2,0:3:0:0:
270,267,27675,6,0,P|286:311|296:358,1,95,8|0,0:3|0:0,0:0:0:0:
180,297,28008,1,2,0:3:0:0:
349,209,28175,1,2,0:3:0:0:
235,172,28342,2,0,P|220:126|212:79,1,95,8|0,0:3|0:0,0:0:0:0:
216,37,28592,1,0,0:0:0:0:
254,9,28675,1,0,0:0:0:0:
301,5,28758,1,0,0:0:0:0:
341,31,28842,1,2,0:3:0:0:
140,116,29008,2,0,L|42:97,1,95,8|0,0:3|0:0,0:0:0:0:
250,256,29342,6,0,P|296:244|342:235,1,95,2|2,0:3|0:3,0:0:0:0:
149,196,29675,1,8,0:3:0:0:
304,337,29842,1,0,0:0:0:0:
304,337,29925,1,0,0:0:0:0:
304,337,30008,1,0,0:0:0:0:
113,300,30175,1,2,0:3:0:0:
240,154,30342,2,0,L|227:248,1,95,8|0,0:3|0:0,0:0:0:0:
204,350,30675,5,2,0:3:0:0:
345,219,30842,1,2,0:3:0:0:
345,219,30925,1,0,0:0:0:0:
345,219,31008,1,8,0:3:0:0:
133,208,31175,1,0,0:0:0:0:
125,166,31258,1,0,0:0:0:0:
116,123,31342,1,0,0:0:0:0:
41,245,31508,1,2,0:3:0:0:
214,142,31675,2,0,P|221:95|226:47,1,95,8|0,0:3|0:0,0:0:0:0:
423,185,32008,6,0,P|374:136|305:142,1,142.5,2|0,0:3|0:0,0:0:0:0:
264,205,32342,2,0,L|251:304,1,95,8|0,0:3|0:0,0:0:0:0:
191,33,32675,1,0,0:3:0:0:
191,33,32758,1,0,0:0:0:0:
191,33,32842,1,2,0:3:0:0:
299,127,33008,2,0,P|346:121|392:112,1,95,8|0,0:3|0:0,0:0:0:0:
460,295,33342,6,0,P|414:282|367:275,1,95,2|2,0:1|0:1,0:0:0:0:
367,275,33592,1,0,0:0:0:0:
367,275,33675,1,8,0:1:0:0:
165,161,33842,2,0,L|177:214,1,47.5,0|0,0:0|0:0,0:0:0:0:
216,292,34008,1,0,0:0:0:0:
210,322,34092,1,0,0:0:0:0:
205,348,34175,1,2,0:1:0:0:
388,156,34342,6,0,L|287:183,1,95,8|0,0:1|0:0,0:0:0:0:
74,302,34675,2,0,B|71:251|71:251|56:209,1,95,2|2,0:1|0:1,0:0:0:0:
152,25,35008,2,0,B|148:68|148:68|159:119,1,95,8|0,0:1|0:0,0:0:0:0:
182,160,35258,1,0,0:0:0:0:
228,171,35342,1,0,0:0:0:0:
273,159,35425,1,0,0:0:0:0:
304,124,35508,1,2,0:1:0:0:
416,265,35675,2,0,P|371:249|324:245,1,95,8|0,0:1|0:0,0:0:0:0:
101,141,36008,5,2,0:1:0:0:
150,280,36175,1,2,0:1:0:0:
231,82,36342,1,8,0:1:0:0:
483,204,36508,1,0,0:0:0:0:
440,176,36592,1,0,0:0:0:0:
392,174,36675,1,0,0:0:0:0:
352,200,36758,1,0,0:0:0:0:
331,243,36842,1,2,0:1:0:0:
399,347,37008,5,8,0:1:0:0:
194,202,37175,1,0,0:0:0:0:
422,82,37342,5,4,0:3:0:0:
428,59,37675,5,8,0:3:0:0:
245,15,37842,1,0,0:0:0:0:
434,38,38008,6,0,L|387:49,1,47.5,0|0,0:0|0:0,0:0:0:0:
206,114,38175,2,0,L|274:135,1,47.5,0|0,0:0|0:0,0:0:0:0:
393,206,38342,5,0,0:0:0:0:
396,219,38425,1,0,0:0:0:0:
399,232,38508,1,0,0:0:0:0:
402,246,38592,1,0,0:0:0:0:
405,259,38675,5,4,0:1:0:0:
455,52,38842,1,0,0:0:0:0:
411,277,39176,6,0,L|431:184,1,95,6|8,1:3|0:1,0:0:0:0:
459,69,39509,1,2,0:0:0:0:
331,207,39676,1,0,0:0:0:0:
212,79,39842,6,0,P|257:64|304:57,1,95,2|0,0:0|0:0,0:0:0:0:
142,171,40176,2,0,P|95:163|51:144,1,95,2|0,0:0|0:0,0:0:0:0:
222,255,40509,2,0,P|267:239|314:233,1,95,6|8,1:3|0:1,0:0:0:0:
139,337,40842,1,2,0:0:0:0:
41,284,41009,1,0,0:0:0:0:
37,254,41092,1,0,0:0:0:0:
34,223,41176,1,0,0:0:0:0:
32,194,41259,1,0,0:0:0:0:
29,164,41342,5,2,0:0:0:0:
222,255,41509,1,0,0:0:0:0:
86,73,41676,1,0,0:0:0:0:
132,244,41842,6,0,P|140:197|152:147,1,95,6|8,1:3|0:1,0:0:0:0:
295,32,42176,2,0,P|249:51|204:58,1,95,2|0,0:0|0:0,0:0:0:0:
328,145,42509,2,0,P|375:150|418:170,1,95,2|0,0:0|0:0,0:0:0:0:
273,310,42842,2,0,P|254:266|250:219,1,95,2|8,0:0|0:3,0:0:0:0:
444,271,43175,2,0,P|416:309|377:336,1,95,6|8,1:3|0:1,0:0:0:0:
348,243,43509,1,2,0:0:0:0:
348,243,43842,1,4,1:0:0:0:
273,310,44008,6,0,L|249:144,1,142.5,0|0,0:0|0:0,0:0:0:0:
254,130,44342,1,0,0:0:0:0:
369,211,44509,1,4,1:3:0:0:
369,211,44592,1,0,0:0:0:0:
368,211,44675,2,0,P|414:196|461:189,1,95,8|2,0:1|0:0,0:0:0:0:
341,30,45009,1,2,0:0:0:0:
254,129,45175,2,0,P|208:144|161:147,1,95,2|0,0:0|0:0,0:0:0:0:
19,232,45509,6,0,P|13:184|0:139,1,95,0|0,0:0|0:0,0:0:0:0:
105,80,45759,2,0,P|90:125|89:172,1,95,0|0,0:0|0:0,0:0:0:0:
106,249,46009,1,8,0:1:0:0:
277,209,46175,1,0,0:0:0:0:
295,48,46342,5,2,0:0:0:0:
251,226,46509,1,2,0:0:0:0:
193,43,46675,6,0,P|202:89|212:136,1,95,4|0,0:1|0:0,0:0:0:0:
267,308,47009,1,0,0:0:0:0:
421,189,47175,2,0,P|381:163|334:156,1,95,4|8,1:3|0:1,0:0:0:0:
105,248,47509,2,0,P|145:274|192:281,1,95,2|2,0:0|0:0,0:0:0:0:
456,165,47842,6,0,L|429:322,1,142.5,4|0,0:1|0:0,0:0:0:0:
447,341,48175,1,0,0:0:0:0:
326,181,48342,1,0,0:0:0:0:
326,181,48425,2,0,L|340:245,1,47.5,0|4,0:0|1:3,0:0:0:0:
441,36,48675,2,0,P|391:84|322:84,1,142.5,8|0,0:1|0:0,0:0:0:0:
238,42,49009,1,0,0:0:0:0:
221,32,49092,1,0,0:0:0:0:
202,28,49175,1,0,0:0:0:0:
183,31,49259,1,0,0:0:0:0:
167,41,49342,6,0,P|158:87|149:134,1,95,4|0,0:1|0:0,0:0:0:0:
201,233,49675,1,0,0:0:0:0:
37,137,49842,2,0,P|45:183|55:230,1,95,6|8,1:3|0:1,0:0:0:0:
130,307,50175,1,2,0:0:0:0:
201,147,50342,1,0,0:0:0:0:
321,274,50509,6,0,P|366:261|412:249,1,95,2|0,0:0|0:0,0:0:0:0:
233,357,50842,2,0,P|187:344|141:332,1,95,2|0,0:0|0:0,0:0:0:0:
295,189,51175,1,6,1:3:0:0:
433,281,51342,2,0,P|453:238|458:191,1,95,8|2,0:1|0:0,0:0:0:0:
377,39,51675,1,0,0:0:0:0:
337,15,51759,1,0,0:0:0:0:
293,17,51842,1,0,0:0:0:0:
257,40,51925,1,0,0:0:0:0:
245,83,52009,5,2,0:0:0:0:
313,207,52175,1,0,0:0:0:0:
265,341,52342,1,0,0:0:0:0:
205,211,52509,1,6,1:3:0:0:
470,54,52675,5,8,0:1:0:0:
348,129,52842,1,2,0:0:0:0:
469,203,53009,1,0,0:0:0:0:
181,126,53175,6,0,P|227:114|273:104,1,95,6|0,0:0|0:0,0:0:0:0:
164,217,53509,2,0,P|206:239|247:262,1,95,6|0,0:0|0:0,0:0:0:0:
84,261,53842,2,0,P|92:307|99:354,1,95,6|8,0:0|0:1,0:0:0:0:
77,158,54175,1,6,0:0:0:0:
0,226,54342,1,0,0:0:0:0:
183,320,54509,5,0,0:0:0:0:
183,320,54592,1,0,0:0:0:0:
183,320,54675,2,0,B|270:351|279:273|370:321,1,190,4|0,0:1|0:0,0:0:0:0:
366,319,55175,1,4,1:3:0:0:
306,220,55342,2,0,P|303:172|319:128,1,95,8|0,0:1|0:0,0:0:0:0:
497,211,55675,1,4,1:3:0:0:
417,98,55842,2,0,L|396:241,1,142.5,4|0,0:0|0:0,0:0:0:0:
379,267,56175,2,0,B|420:269|420:269|473:289,1,95,4|0,0:3|0:0,0:0:0:0:
493,314,56425,1,4,0:3:0:0:
277,302,56675,6,0,P|217:339|148:331,1,142.5,8|0,0:1|0:0,0:0:0:0:
115,308,57009,1,4,0:3:0:0:
87,110,57175,2,0,P|159:53|248:77,1,190,4|0,0:0|0:0,0:0:0:0:
360,83,57675,2,0,L|335:196,1,95,0|4,0:0|1:3,0:0:0:0:
199,229,58009,5,8,0:1:0:0:
159,198,58092,1,0,0:0:0:0:
111,188,58175,1,0,0:0:0:0:
62,204,58259,1,0,0:0:0:0:
37,245,58342,5,0,0:0:0:0:
42,274,58425,1,0,0:0:0:0:
46,304,58509,1,0,0:0:0:0:
51,333,58592,1,0,0:0:0:0:
275,166,58842,6,0,B|248:214|248:214|233:356,2,170.999994781494,4|4|8,0:3|0:3|0:1,0:0:0:0:
345,97,59509,1,0,0:0:0:0:
444,310,59675,2,0,P|410:288|357:285,1,85.4999973907472,2|0,0:0|0:0,0:0:0:0:
310,335,60009,6,0,L|328:226,1,95,4|0,0:1|0:0,0:0:0:0:
495,47,60342,2,0,L|476:153,1,95,8|0,0:1|0:0,0:0:0:0:
469,183,60592,1,0,0:0:0:0:
427,174,60675,1,0,0:0:0:0:
384,164,60759,1,0,0:0:0:0:
342,154,60842,2,0,P|293:167|245:177,1,95,4|8,0:3|0:1,0:0:0:0:
78,97,61175,5,0,0:0:0:0:
78,97,61259,1,0,0:0:0:0:
78,97,61342,1,4,0:3:0:0:
219,247,61509,1,0,0:0:0:0:
184,67,61675,2,0,L|163:173,1,95,8|0,0:1|0:0,0:0:0:0:
150,338,62009,5,0,0:0:0:0:
131,299,62092,1,0,0:0:0:0:
93,278,62175,1,4,0:3:0:0:
50,273,62259,1,0,0:0:0:0:
14,297,62342,1,8,0:1:0:0:
131,195,62509,1,0,0:0:0:0:
250,338,62675,6,0,P|296:337|337:313,1,95,4|0,0:3|0:0,0:0:0:0:
420,133,63009,1,8,0:1:0:0:
486,250,63175,1,0,0:0:0:0:
486,250,63259,1,0,0:0:0:0:
486,250,63342,2,0,B|445:236|445:236|393:231,1,95,0|4,0:0|0:3,0:0:0:0:
145,162,63675,2,0,B|188:166|188:166|238:154,1,95,8|0,0:1|0:0,0:0:0:0:
279,135,63925,1,0,0:0:0:0:
299,97,64009,1,0,0:0:0:0:
297,54,64092,1,0,0:0:0:0:
273,18,64175,1,0,0:0:0:0:
210,79,64342,5,8,0:1:0:0:
364,159,64509,1,0,0:0:0:0:
229,247,64675,1,0,0:0:0:0:
223,273,64759,1,0,0:0:0:0:
216,300,64842,2,0,L|200:352,1,47.5,4|0,0:3|0:0,0:0:0:0:
360,253,65009,1,8,0:1:0:0:
366,227,65093,1,0,0:0:0:0:
373,200,65176,2,0,L|389:148,1,47.5,0|0,0:0|0:0,0:0:0:0:
443,319,65342,5,4,0:1:0:0:
283,182,65509,1,0,0:0:0:0:
415,46,65675,2,0,L|386:160,1,95,10|0,0:2|0:0,0:0:0:0:
360,253,66009,1,2,0:0:0:0:
223,128,66175,2,0,P|178:112|129:108,1,95,4|8,0:3|0:1,0:0:0:0:
202,303,66509,1,0,0:0:0:0:
448,225,66675,6,0,L|461:159,1,47.5,6|0,0:3|0:0,0:0:0:0:
377,171,66842,2,0,L|385:124,1,47.5,0|0,0:0|0:0,0:0:0:0:
277,262,67009,6,0,L|290:332,1,47.5,10|0,0:2|0:0,0:0:0:0:
202,303,67175,2,0,L|214:365,1,47.5,0|0,0:0|0:0,0:0:0:0:
112,169,67342,6,0,L|125:102,1,47.5,2|0,0:0|0:0,0:0:0:0:
39,131,67509,2,0,L|56:59,1,47.5,4|0,0:3|0:0,0:0:0:0:
4,280,67675,2,0,P|47:261|94:256,1,95,10|0,0:2|0:0,0:0:0:0:
171,243,67925,1,0,0:0:0:0:
187,225,68009,2,0,B|201:189|201:189|209:128,1,95,4|0,0:3|0:0,0:0:0:0:
384,213,68342,2,0,B|369:248|369:248|361:308,1,95,8|0,0:1|0:0,0:0:0:0:
358,338,68592,1,0,0:0:0:0:
358,338,68675,1,0,0:0:0:0:
287,170,68842,1,4,0:3:0:0:
493,143,69009,5,8,0:1:0:0:
452,155,69092,1,0,0:0:0:0:
411,142,69175,1,0,0:0:0:0:
384,108,69259,1,0,0:0:0:0:
390,65,69342,2,0,P|437:51|481:38,1,95,4|0,0:3|0:0,0:0:0:0:
481,37,69592,1,0,0:0:0:0:
481,37,69675,1,8,0:1:0:0:
298,85,69842,2,0,P|252:78|207:63,1,95,0|2,0:0|0:3,0:0:0:0:
206,62,70175,1,4,0:3:0:0:
110,123,70342,5,8,0:1:0:0:
115,154,70425,1,0,0:0:0:0:
120,187,70509,1,0,0:0:0:0:
124,219,70592,1,0,0:0:0:0:
129,251,70675,1,4,0:1:0:0:
220,205,70842,1,0,0:0:0:0:
169,349,71009,5,8,0:1:0:0:
35,269,71175,1,0,0:0:0:0:
35,269,71259,1,0,0:0:0:0:
35,269,71342,2,0,P|81:260|128:251,1,95,0|4,0:0|0:3,0:0:0:0:
324,81,71675,2,0,P|299:121|292:173,1,95,8|0,0:1|0:0,0:0:0:0:
293,211,71925,1,0,0:0:0:0:
322,242,72009,1,4,0:3:0:0:
362,256,72092,1,0,0:0:0:0:
403,248,72175,1,0,0:0:0:0:
374,165,72342,5,8,0:1:0:0:
308,318,72509,1,0,0:0:0:0:
204,186,72675,1,0,0:0:0:0:
160,162,72759,1,0,0:0:0:0:
113,169,72842,1,4,0:3:0:0:
172,342,73009,1,8,0:1:0:0:
212,318,73093,1,0,0:0:0:0:
234,275,73176,1,0,0:0:0:0:
53,237,73342,6,0,P|60:288|81:327,1,95,4|0,0:3|0:0,0:0:0:0:
142,252,73675,1,8,0:1:0:0:
194,52,73842,1,0,0:0:0:0:
194,52,73925,1,0,0:0:0:0:
194,52,74009,1,0,0:0:0:0:
273,230,74175,1,4,0:3:0:0:
80,154,74342,2,0,P|126:147|178:140,1,95,8|0,0:1|0:0,0:0:0:0:
370,144,74675,5,4,0:3:0:0:
377,102,74758,1,0,0:0:0:0:
384,60,74842,1,0,0:0:0:0:
273,230,75009,1,8,0:1:0:0:
280,272,75092,1,0,0:0:0:0:
287,314,75176,1,0,0:0:0:0:
493,337,75342,5,0,0:0:0:0:
511,292,75425,1,0,0:0:0:0:
496,247,75509,1,4,0:3:0:0:
456,219,75592,1,0,0:0:0:0:
408,220,75675,1,8,0:1:0:0:
375,252,75759,1,0,0:0:0:0:
366,298,75842,1,0,0:0:0:0:
205,338,76009,6,0,L|189:226,1,95,0|0,0:0|0:0,0:0:0:0:
191,243,76259,1,0,0:0:0:0:
191,243,76342,1,10,0:2:0:0:
334,82,76509,1,0,0:0:0:0:
257,157,76675,2,0,P|211:144|165:132,1,95,2|4,0:0|0:3,0:0:0:0:
27,242,77009,2,0,P|71:225|118:223,1,95,8|0,0:1|0:0,0:0:0:0:
191,243,77259,5,0,0:0:0:0:
204,255,77342,2,0,L|214:319,1,47.5,6|0,0:3|0:0,0:0:0:0:
290,276,77509,2,0,L|295:325,1,47.5,0|0,0:0|0:0,0:0:0:0:
467,187,77675,6,0,L|478:138,1,47.5,10|0,0:2|0:0,0:0:0:0:
399,121,77842,2,0,L|409:74,1,47.5,0|0,0:0|0:0,0:0:0:0:
302,172,78009,6,0,L|251:155,1,47.5,2|0,0:0|0:0,0:0:0:0:
437,294,78175,2,0,L|483:304,1,47.5,4|0,0:3|0:0,0:0:0:0:
390,155,78342,1,10,0:2:0:0:
381,191,78425,1,0,0:0:0:0:
371,228,78509,1,0,0:0:0:0:
362,264,78592,1,0,0:0:0:0:
353,300,78675,2,0,P|308:282|262:271,1,95,4|0,0:1|0:0,0:0:0:0:
28,327,79009,6,0,P|95:336|140:285,1,142.5,8|0,0:1|0:0,0:0:0:0:
145,250,79342,2,0,B|131:215|131:215|128:149,1,95,4|0,0:1|0:0,0:0:0:0:
288,38,79675,1,8,0:1:0:0:
306,76,79759,1,0,0:0:0:0:
302,118,79842,1,0,0:0:0:0:
274,150,79925,1,0,0:0:0:0:
233,163,80009,5,4,0:1:0:0:
233,163,80092,1,0,0:0:0:0:
233,163,80175,2,0,L|220:227,1,47.5,0|0,0:0|0:0,0:0:0:0:
355,185,80342,1,0,0:0:0:0:
355,185,80425,1,0,0:0:0:0:
355,185,80509,2,0,L|389:241,1,47.5,0|0,0:0|0:0,0:0:0:0:
408,74,80675,6,0,L|472:55,1,47.5,0|0,0:0|0:0,0:0:0:0:
271,85,80842,2,0,L|333:105,1,47.5,0|0,0:0|0:0,0:0:0:0:
191,151,81009,6,0,L|200:197,1,47.5,0|0,0:0|0:0,0:0:0:0:
78,94,81175,2,0,L|67:147,1,47.5,0|0,0:0|0:0,0:0:0:0:
12,249,81342,6,0,P|101:234|160:304,1,190,4|8,0:1|0:1,0:0:0:0:
309,356,81842,1,0,0:0:0:0:
336,256,82009,2,0,P|288:258|246:279,1,95,0|4,0:0|0:3,0:0:0:0:
425,329,82342,2,0,L|441:235,1,95,8|0,0:1|0:0,0:0:0:0:
448,202,82592,1,0,0:0:0:0:
448,202,82675,1,4,0:3:0:0:
363,98,82842,6,0,L|356:65,2,31.6666666666667,0|0|0,0:0|0:0|0:0,0:0:0:0:
369,134,83009,2,0,P|415:124|460:110,1,95,8|0,0:1|0:0,0:0:0:0:
425,329,83342,1,0,0:0:0:0:
336,256,83509,2,0,P|288:262|243:275,1,95,4|8,0:3|0:1,0:0:0:0:
75,119,83842,1,0,0:0:0:0:
126,209,84009,6,0,P|108:276|43:305,1,142.5,2|0,1:2|0:0,0:0:0:0:
21,301,84342,1,8,1:0:0:0:
176,336,84509,1,0,0:0:0:0:
115,182,84675,2,0,P|107:135|106:85,1,95,2|0,1:2|1:0,0:0:0:0:
117,51,84925,1,2,1:2:0:0:
117,51,85009,2,0,P|163:65|212:77,1,95,8|2,0:1|1:2,0:0:0:0:
307,191,85342,6,0,P|260:202|212:216,1,95,0|2,1:0|1:2,0:0:0:0:
371,256,85675,2,0,L|322:370,1,95,8|0,1:0|0:0,0:0:0:0:
462,259,86009,1,2,1:2:0:0:
477,305,86092,1,0,0:0:0:0:
488,347,86175,1,0,1:0:0:0:
414,38,86342,1,8,0:1:0:0:
387,181,86509,1,2,1:2:0:0:
435,21,86675,6,0,L|412:135,1,95,4|0,0:3|0:0,0:0:0:0:
378,221,87009,1,8,0:1:0:0:
269,77,87175,1,0,0:0:0:0:
269,77,87259,1,0,0:0:0:0:
269,77,87342,1,0,0:0:0:0:
123,278,87509,1,4,0:3:0:0:
229,196,87675,2,0,L|268:203,2,31.6666666666667,8|0|0,0:1|0:0|0:0,0:0:0:0:
201,203,87842,6,0,P|192:156|184:109,1,95,0|4,0:0|0:3,0:0:0:0:
123,278,88175,1,0,0:0:0:0:
230,290,88342,2,0,P|276:302|317:329,1,95,8|0,0:1|0:0,0:0:0:0:
68,350,88675,1,0,0:0:0:0:
38,315,88759,1,0,0:0:0:0:
34,268,88842,1,4,0:3:0:0:
244,102,89009,2,0,L|228:195,1,95,8|0,0:1|0:1,0:0:0:0:
123,278,89342,6,0,P|192:291|262:305,1,142.5,2|0,1:2|0:0,0:0:0:0:
285,339,89675,1,8,1:0:0:0:
394,165,89842,1,0,0:0:0:0:
413,257,90009,1,2,1:2:0:0:
364,257,90092,1,0,0:0:0:0:
324,228,90175,1,0,1:0:0:0:
383,58,90342,2,0,P|429:66|468:92,1,95,8|2,0:1|1:2,0:0:0:0:
306,118,90675,6,0,P|240:89|205:74,1,95,2|2,1:2|1:2,0:0:0:0:
188,69,90925,1,0,0:0:0:0:
158,58,91009,2,0,L|180:156,1,95,8|0,1:0|0:0,0:0:0:0:
199,186,91259,1,0,1:0:0:0:
196,220,91342,1,2,1:2:0:0:
188,255,91425,1,0,0:0:0:0:
184,287,91509,1,0,1:0:0:0:
104,258,91675,5,8,0:1:0:0:
288,204,91842,1,2,1:2:0:0:
158,57,92009,2,0,P|115:76|65:80,1,95,4|0,0:3|0:0,0:0:0:0:
188,255,92342,2,0,L|206:145,1,95,8|0,0:1|0:0,0:0:0:0:
226,125,92592,1,0,0:0:0:0:
269,105,92675,1,0,0:0:0:0:
315,109,92759,1,0,0:0:0:0:
354,135,92842,1,4,0:3:0:0:
366,280,93009,2,0,B|334:274|334:274|273:291,1,95,8|0,0:1|0:0,0:0:0:0:
421,354,93342,5,4,0:3:0:0:
448,172,93509,1,0,0:0:0:0:
448,172,93592,1,0,0:0:0:0:
448,172,93675,2,0,L|473:284,1,95,8|0,0:1|0:0,0:0:0:0:
309,27,94009,1,0,0:0:0:0:
288,204,94175,1,4,0:3:0:0:
421,80,94342,1,8,0:1:0:0:
215,139,94509,5,0,0:0:0:0:
215,139,94592,1,0,0:0:0:0:
215,139,94675,2,0,P|168:129|115:115,1,95,4|0,0:3|0:0,0:0:0:0:
260,279,95009,2,0,P|207:288|166:297,1,95,8|0,0:1|0:0,0:0:0:0:
30,151,95342,1,0,0:0:0:0:
78,313,95509,1,4,0:3:0:0:
85,77,95675,1,8,0:1:0:0:
32,244,95842,2,0,L|-10:252,2,31.6666666666667,0|0|0,0:0|0:0|0:0,0:0:0:0:
67,265,96009,6,0,L|79:169,1,95,4|0,0:3|0:0,0:0:0:0:
293,88,96342,2,0,P|251:110|205:120,1,95,8|0,0:1|0:0,0:0:0:0:
183,113,96592,1,0,0:0:0:0:
163,101,96675,2,0,L|151:41,2,47.5,0|0|4,0:0|0:0|0:3,0:0:0:0:
181,222,97009,1,8,0:1:0:0:
301,64,97175,1,0,0:0:0:0:
428,161,97342,6,0,B|437:194|437:194|426:259,1,95,4|0,0:3|0:0,0:0:0:0:
506,117,97675,1,8,0:1:0:0:
352,212,97842,1,0,0:0:0:0:
325,172,97925,1,0,0:0:0:0:
281,151,98009,1,0,0:0:0:0:
233,154,98092,1,0,0:0:0:0:
201,188,98175,1,4,0:3:0:0:
121,283,98342,6,0,P|112:236|101:178,1,95,8|0,0:1|0:0,0:0:0:0:
101,93,98675,1,4,0:3:0:0:
8,223,98842,1,0,0:0:0:0:
215,67,99009,2,0,P|205:113|198:160,1,95,8|0,0:1|0:0,0:0:0:0:
197,159,99259,1,0,0:0:0:0:
197,159,99342,1,0,0:0:0:0:
101,93,99509,1,4,0:3:0:0:
314,45,99675,1,8,0:1:0:0:
361,262,99842,1,0,0:0:0:0:
158,311,100009,5,4,1:3:0:0:
158,311,100092,1,0,0:0:0:0:
158,311,100175,2,0,L|99:293,1,47.5,4|0,0:3|0:0,0:0:0:0:
38,136,100342,5,4,1:3:0:0:
38,136,100425,1,0,0:0:0:0:
38,136,100509,2,0,L|98:122,1,47.5,4|0,0:3|0:0,0:0:0:0:
289,76,100675,5,4,1:3:0:0:
289,76,100759,1,0,0:0:0:0:
289,76,100842,2,0,L|269:151,1,47.5,4|0,0:3|0:0,0:0:0:0:
337,289,101009,1,8,0:1:0:0:
23,269,101175,6,0,P|96:212|188:224,1,190,4|0,1:2|0:0,0:0:0:0:
215,242,101592,1,0,0:0:0:0:
247,246,101675,1,0,0:0:0:0:
278,235,101759,1,0,0:0:0:0:
300,210,101842,1,0,0:0:0:0:
306,177,101925,1,0,0:0:0:0:
295,148,102009,5,0,0:0:0:0:
244,137,102092,1,0,0:0:0:0:
215,93,102175,1,0,0:0:0:0:
220,40,102259,1,0,0:0:0:0:
278,0,102342,6,0,L|362:16|446:32,1,170.999994781494,0|0,0:0|0:0,0:0:0:0:
476,60,102675,1,4,0:1:0:0:
57,105,113342,6,0,P|104:114|147:131,1,95,10|0,0:0|0:0,0:0:0:0:
298,108,113675,2,0,P|267:144|229:173,1,95,8|0,0:0|0:0,0:0:0:0:
179,317,114009,2,0,P|162:272|156:225,1,95,8|0,0:0|0:0,0:0:0:0:
156,225,114259,1,0,0:0:0:0:
156,225,114342,1,8,0:0:0:0:
333,305,114509,2,0,L|380:324,1,47.5,0|0,0:0|0:0,0:0:0:0:
403,297,114675,6,0,L|300:320,1,95,10|0,0:0|0:0,0:0:0:0:
433,183,115009,2,0,L|306:216,1,95,8|0,0:0|0:0,0:0:0:0:
463,64,115342,1,8,0:0:0:0:
352,93,115509,1,0,0:0:0:0:
352,93,115592,1,0,0:0:0:0:
352,93,115675,1,8,0:0:0:0:
260,26,115842,1,0,0:0:0:0:
86,153,116009,6,0,P|64:195|61:242,1,95,10|0,0:0|0:0,0:0:0:0:
225,295,116342,2,0,P|245:252|249:205,1,95,8|0,0:0|0:0,0:0:0:0:
147,46,116675,2,0,P|163:91|199:120,1,95,8|0,0:0|0:0,0:0:0:0:
232,123,116925,1,0,0:0:0:0:
259,116,117009,2,0,L|351:94,1,95,8|0,0:0|0:0,0:0:0:0:
444,261,117342,6,0,P|397:249|348:240,1,95,10|0,0:0|0:0,0:0:0:0:
225,295,117675,1,8,0:0:0:0:
337,356,117842,1,0,0:0:0:0:
268,197,118009,1,10,0:0:0:0:
146,330,118175,1,0,0:0:0:0:
137,293,118259,1,0,0:0:0:0:
130,259,118342,2,0,L|119:206,1,47.5,8|0,0:0|0:0,0:0:0:0:
45,67,118509,2,0,L|33:113,1,47.5,0|0,0:0|0:0,0:0:0:0:
22,153,118675,6,0,P|68:143|119:131,1,95,10|0,0:0|0:0,0:0:0:0:
267,197,119009,2,0,P|282:127|264:59,1,142.5,8|0,0:0|0:0,0:0:0:0:
234,31,119342,1,8,0:0:0:0:
389,92,119509,1,0,0:0:0:0:
389,92,119592,1,0,0:0:0:0:
389,92,119675,2,0,P|377:138|370:185,1,95,8|0,0:0|0:0,0:0:0:0:
244,315,120009,6,0,P|282:288|327:272,1,95,10|0,0:0|0:0,0:0:0:0:
496,307,120342,2,0,P|452:288|416:257,1,95,8|0,0:0|0:0,0:0:0:0:
475,115,120675,1,8,0:0:0:0:
294,75,120842,1,0,0:0:0:0:
302,114,120925,1,0,0:0:0:0:
312,153,121009,1,8,0:0:0:0:
379,8,121175,1,0,0:0:0:0:
227,178,121342,5,10,0:0:0:0:
205,85,121509,1,8,0:0:0:0:
152,236,121675,5,8,0:0:0:0:
112,61,121842,1,8,0:0:0:0:
61,210,122009,5,8,0:0:0:0:
235,266,122175,1,8,0:0:0:0:
135,142,122342,5,8,0:0:0:0:
85,308,122509,1,8,0:0:0:0:
262,339,122675,1,8,0:0:0:0:
243,303,122759,1,8,0:0:0:0:
235,266,122842,1,8,0:0:0:0:
237,228,122925,1,8,0:0:0:0:
244,189,123009,1,8,0:0:0:0:
255,152,123092,1,8,0:0:0:0:
276,120,123175,1,8,0:0:0:0:
303,93,123259,1,8,0:0:0:0:
337,75,123342,1,8,0:0:0:0:
384,308,123509,5,0,0:0:0:0:
330,192,123675,1,2,0:0:0:0:
458,204,123842,1,2,0:0:0:0:
243,303,124009,6,0,P|177:318|102:328,1,142.5,4|0,1:0|0:0,0:0:0:0:
73,328,124342,2,0,B|73:288|73:288|54:236,1,95,8|0,0:1|0:0,0:0:0:0:
154,36,124675,6,0,B|136:131|136:131|147:175,1,142.5,0|0,1:0|0:0,0:0:0:0:
159,206,125009,1,8,0:1:0:0:
322,113,125175,2,0,P|316:68|308:18,1,95,0|0,0:0|1:0,0:0:0:0:
254,200,125509,1,0,0:0:0:0:
418,280,125675,2,0,P|428:233|443:188,1,95,8|0,0:1|0:0,0:0:0:0:
311,344,126009,2,0,P|273:315|229:298,1,95,0|0,1:0|0:0,0:0:0:0:
191,296,126259,1,0,0:0:0:0:
156,310,126342,1,8,0:1:0:0:
128,124,126509,1,0,0:0:0:0:
1,235,126675,6,0,L|93:214,1,95,0|0,1:0|0:0,0:0:0:0:
193,48,127009,2,0,P|204:118|218:196,1,142.5,8|0,0:1|0:0,0:0:0:0:
225,218,127342,6,0,P|264:192|311:187,1,95,0|0,1:0|0:0,0:0:0:0:
481,315,127675,1,8,0:1:0:0:
438,342,127759,1,0,0:0:0:0:
387,335,127842,1,0,0:0:0:0:
311,187,128009,1,0,0:0:0:0:
419,253,128175,6,0,L|438:117,1,95,0|8,0:0|0:1,0:0:0:0:
512,88,128509,1,0,0:0:0:0:
310,20,128675,1,0,1:0:0:0:
490,77,128842,1,0,0:0:0:0:
270,130,129009,1,8,0:1:0:0:
408,42,129175,1,0,0:0:0:0:
214,62,129342,6,0,P|239:129|244:200,1,142.5,0|0,1:0|0:0,0:0:0:0:
242,229,129675,2,0,P|195:239|144:254,1,95,8|0,0:1|0:0,0:0:0:0:
30,292,130009,2,0,P|21:245|6:200,1,95,0|0,1:0|0:0,0:0:0:0:
196,97,130342,1,8,0:1:0:0:
104,27,130509,6,0,P|84:75|87:135,1,95,0|0,0:0|1:0,0:0:0:0:
111,237,130842,1,0,0:0:0:0:
309,145,131009,2,0,P|331:192|331:252,1,95,8|0,0:1|0:0,0:0:0:0:
281,339,131342,2,0,P|234:328|188:317,1,95,0|0,1:0|0:0,0:0:0:0:
160,327,131592,1,0,0:0:0:0:
138,338,131675,1,8,0:1:0:0:
83,148,131842,1,0,0:0:0:0:
32,339,132009,5,0,1:0:0:0:
204,247,132175,1,0,0:0:0:0:
35,235,132342,2,0,P|33:163|18:94,1,142.5,8|0,0:1|0:0,0:0:0:0:
1,64,132675,1,0,1:0:0:0:
110,131,132842,2,0,B|145:139|145:139|216:122,1,95,0|8,0:0|0:1,0:0:0:0:
314,77,133175,1,0,0:0:0:0:
155,35,133342,1,8,0:0:0:0:
277,149,133509,6,0,P|289:194|297:241,1,95,4|0,1:2|0:0,0:0:0:0:
274,230,133759,6,0,P|262:269|252:326,1,95,12|0,1:1|0:0,0:0:0:0:
257,352,134009,6,0,L|351:329,1,95,12|8,0:1|0:1,0:0:0:0:
370,337,134259,1,8,0:1:0:0:
388,342,134342,1,8,0:1:0:0:
138,210,134509,2,0,L|149:291,1,47.5,0|0,0:0|0:0,0:0:0:0:
155,292,134675,6,0,P|110:276|63:266,1,95,8|0,0:1|0:0,0:0:0:0:
234,164,135009,2,0,P|278:181|323:194,1,95,8|0,0:1|0:0,0:0:0:0:
465,321,135342,2,0,P|473:274|487:228,1,95,8|0,0:1|0:0,0:0:0:0:
414,16,135675,5,8,0:1:0:0:
436,41,135758,1,0,0:0:0:0:
449,72,135841,1,0,0:0:0:0:
452,105,135925,1,0,0:0:0:0:
445,137,136008,1,10,0:2:0:0:
428,166,136091,1,2,0:0:0:0:
403,185,136175,1,2,0:0:0:0:
319,145,136342,1,10,0:2:0:0:
488,229,136509,1,0,0:0:0:0:
321,237,136675,6,0,L|335:331,1,95,8|0,0:1|0:0,0:0:0:0:
224,279,136925,1,0,0:0:0:0:
209,259,137009,2,0,L|228:364,1,95,8|0,0:1|0:0,0:0:0:0:
97,221,137342,5,8,0:1:0:0:
121,327,137508,1,0,0:0:0:0:
187,163,137675,2,0,P|118:144|44:119,1,142.5,8|0,0:1|0:0,0:0:0:0:
30,113,138009,2,0,P|51:75|67:25,1,95,8|0,0:1|0:0,0:0:0:0:
211,41,138342,5,8,0:1:0:0:
220,72,138425,1,0,0:0:0:0:
226,104,138509,1,0,0:0:0:0:
225,136,138592,1,0,0:0:0:0:
218,169,138675,1,10,0:2:0:0:
212,202,138759,1,2,0:0:0:0:
216,234,138842,1,2,0:0:0:0:
248,328,139009,5,10,0:2:0:0:
384,239,139175,1,0,0:0:0:0:
491,348,139342,1,8,0:1:0:0:
301,224,139509,6,0,L|313:275,1,47.5,0|0,0:0|0:0,0:0:0:0:
321,306,139675,1,8,0:1:0:0:
481,185,139842,2,0,L|471:231,1,47.5,0|0,0:0|0:0,0:0:0:0:
464,261,140009,5,8,0:1:0:0:
354,70,140175,1,2,0:0:0:0:
406,162,140342,5,8,0:1:0:0:
448,15,140509,1,2,0:0:0:0:
199,162,140675,5,8,0:1:0:0:
326,228,140842,1,2,0:0:0:0:
258,55,141009,5,8,0:1:0:0:
239,87,141092,1,0,0:0:0:0:
214,115,141175,1,2,0:0:0:0:
178,127,141259,1,0,0:0:0:0:
139,131,141342,1,8,0:2:0:0:
101,124,141425,1,0,0:0:0:0:
70,102,141509,1,2,0:0:0:0:
114,31,141675,5,8,0:2:0:0:
13,169,141842,1,2,0:0:0:0:
103,311,142009,1,8,0:1:0:0:
93,208,142175,1,2,0:0:0:0:
93,208,142259,1,0,0:0:0:0:
93,208,142342,1,8,0:1:0:0:
7,285,142509,1,2,0:0:0:0:
194,330,142675,5,8,0:1:0:0:
212,301,142759,1,0,0:0:0:0:
225,270,142842,1,0,0:0:0:0:
229,237,142925,1,0,0:0:0:0:
220,204,143009,5,8,0:1:0:0:
209,172,143092,1,0,0:0:0:0:
187,146,143175,1,0,0:0:0:0:
174,115,143259,1,0,0:0:0:0:
170,82,143342,5,8,0:1:0:0:
174,49,143425,1,0,0:0:0:0:
198,26,143509,1,0,0:0:0:0:
228,12,143592,1,0,0:0:0:0:
261,9,143675,5,8,0:1:0:0:
293,16,143759,1,0,0:0:0:0:
318,37,143842,1,0,0:0:0:0:
331,67,143925,1,0,0:0:0:0:
330,100,144009,5,8,1:2:0:0:
471,253,144175,2,0,P|477:205|490:160,1,95,0|0,0:0|0:0,0:0:0:0:
434,99,144425,1,0,0:0:0:0:
425,82,144509,2,0,L|410:160,1,47.5,8|0,1:2|0:0,0:0:0:0:
359,190,144675,2,0,P|372:235|379:284,1,95,8|8,0:1|0:1,0:0:0:0:
350,353,144925,5,8,0:1:0:0:
324,349,145009,1,8,0:1:0:0:
296,344,145092,1,0,0:0:0:0:
268,337,145175,1,8,0:0:0:0:
239,331,145259,1,8,0:0:0:0:
214,332,145342,6,0,B|180:341|180:341|160:323|160:323|127:345|74:336,1,142.5,4|0,0:0|0:0,0:0:0:0:
52,330,145675,1,8,0:1:0:0:
95,166,145842,1,0,0:0:0:0:
101,206,145925,1,0,0:0:0:0:
106,246,146009,1,0,0:0:0:0:
198,194,146175,1,4,0:3:0:0:
12,208,146342,2,0,P|6:160|0:113,1,95,8|0,0:1|0:0,0:0:0:0:
69,40,146675,6,0,P|107:67|152:81,1,95,4|0,0:3|0:0,0:0:0:0:
372,33,147009,2,0,P|325:42|284:66,1,95,8|0,0:1|0:0,0:0:0:0:
260,102,147259,1,0,0:0:0:0:
255,144,147342,1,0,0:0:0:0:
266,185,147425,1,0,0:0:0:0:
298,213,147509,1,4,0:3:0:0:
371,167,147675,5,8,0:1:0:0:
294,303,147842,1,0,0:0:0:0:
341,141,148009,6,0,P|398:155|486:172,1,142.5,4|0,0:3|0:0,0:0:0:0:
512,169,148342,1,8,0:1:0:0:
366,25,148509,1,0,0:0:0:0:
335,54,148592,1,0,0:0:0:0:
294,68,148675,1,0,0:0:0:0:
250,65,148759,1,0,0:0:0:0:
220,34,148842,1,4,0:3:0:0:
123,49,149009,2,0,P|136:94|145:141,1,95,8|0,0:1|0:0,0:0:0:0:
216,293,149342,6,0,P|222:245|234:199,1,95,4|0,0:3|0:0,0:0:0:0:
321,272,149675,1,8,0:1:0:0:
110,311,149842,1,0,0:0:0:0:
115,276,149925,1,0,0:0:0:0:
112,241,150008,1,0,0:0:0:0:
106,207,150092,1,0,0:0:0:0:
92,175,150175,1,4,0:3:0:0:
19,216,150342,1,8,0:1:0:0:
185,180,150509,1,0,0:0:0:0:
157,14,150675,6,0,L|140:118,1,95,4|0,0:3|0:0,0:0:0:0:
141,107,150925,1,0,0:0:0:0:
141,107,151009,1,8,0:1:0:0:
72,48,151175,1,0,0:0:0:0:
241,103,151342,2,0,P|289:93|333:79,1,95,0|4,0:0|0:3,0:0:0:0:
222,240,151675,2,0,P|174:226|130:214,1,95,8|0,0:1|0:0,0:0:0:0:
310,185,152009,2,0,P|319:238|332:304,1,95,4|0,0:3|0:0,0:0:0:0:
321,313,152259,1,0,0:0:0:0:
321,313,152342,2,0,P|370:298|413:291,1,95,8|0,0:1|0:0,0:0:0:0:
228,101,152675,5,0,0:0:0:0:
220,128,152759,1,0,0:0:0:0:
213,156,152842,1,4,0:3:0:0:
213,184,152925,1,0,0:0:0:0:
218,212,153009,1,8,0:1:0:0:
222,240,153092,1,0,0:0:0:0:
221,268,153175,1,0,0:0:0:0:
216,295,153259,1,0,0:0:0:0:
230,333,153342,6,0,P|184:319|135:311,1,95,4|0,0:3|0:0,0:0:0:0:
110,88,153675,1,8,0:1:0:0:
42,177,153842,1,0,0:0:0:0:
42,177,153925,1,0,0:0:0:0:
42,177,154009,2,0,P|86:196|133:198,1,95,0|4,0:0|0:3,0:0:0:0:
259,62,154342,2,0,L|272:126,1,47.5,8|0,0:1|0:0,0:0:0:0:
348,201,154509,2,0,L|355:135,1,47.5,0|0,0:0|0:0,0:0:0:0:
433,87,154675,6,0,P|386:78|337:61,1,95,8|0,0:1|0:0,0:0:0:0:
268,108,154925,2,0,P|220:111|174:123,1,95,4|0,1:3|0:0,0:0:0:0:
99,150,155175,2,0,P|91:103|79:57,1,95,8|0,0:1|0:0,0:0:0:0:
163,199,155425,2,0,P|145:255|138:322,1,95,4|0,1:3|0:0,0:0:0:0:
149,329,155675,1,8,0:1:0:0:
185,359,155759,1,0,0:0:0:0:
232,365,155842,1,4,0:3:0:0:
275,348,155925,1,0,0:0:0:0:
300,307,156009,5,4,1:3:0:0:
249,227,156175,1,0,0:0:0:0:
306,147,156342,1,0,0:0:0:0:
306,147,156425,1,0,0:0:0:0:
454,34,156592,5,0,0:0:0:0:
495,119,156759,1,0,0:0:0:0:
423,177,156925,1,0,0:0:0:0:
423,177,157008,2,0,L|415:231,1,47.5,0|0,0:0|0:0,0:0:0:0:
494,233,157175,2,0,L|506:295,1,47.5,0|0,0:0|0:0,0:0:0:0:
429,313,157342,6,0,P|390:299|336:291,1,95,4|0,0:1|0:0,0:0:0:0:
240,340,157675,1,8,0:1:0:0:
94,200,157842,1,0,0:0:0:0:
94,200,157925,1,0,0:0:0:0:
94,200,158009,2,0,P|140:226|205:224,1,95,6|0,0:3|0:0,0:0:0:0:
217,221,158259,2,0,P|222:173|228:126,1,95,6|0,0:3|0:0,0:0:0:0:
249,93,158509,1,10,0:2:0:0:
404,138,158675,6,0,P|359:154|316:174,1,95,0|4,0:0|0:3,0:0:0:0:
482,203,159009,2,0,P|470:250|454:294,1,95,8|0,0:1|0:0,0:0:0:0:
337,65,159342,1,4,0:3:0:0:
387,229,159509,1,4,0:3:0:0:
228,196,159675,1,8,0:1:0:0:
190,175,159759,1,0,0:0:0:0:
147,176,159842,1,0,0:0:0:0:
110,197,159925,1,0,0:0:0:0:
98,238,160009,6,0,P|109:284|117:332,1,95,4|0,0:3|0:0,0:0:0:0:
445,282,160342,2,0,P|383:313|323:279,1,142.5,8|0,0:1|0:0,0:0:0:0:
302,251,160675,6,0,P|311:204|318:157,1,95,6|0,0:3|0:0,0:0:0:0:
312,119,160925,2,0,B|343:134|343:134|404:138,1,95,6|0,0:3|0:0,0:0:0:0:
440,116,161175,1,8,0:2:0:0:
324,20,161342,1,0,0:0:0:0:
236,164,161509,6,0,P|190:158|147:137,1,95,6|8,0:3|0:2,0:0:0:0:
98,56,161842,1,0,0:0:0:0:
98,56,161925,1,0,0:0:0:0:
98,56,162009,1,4,0:3:0:0:
35,175,162175,1,4,0:3:0:0:
222,71,162342,1,8,0:1:0:0:
92,28,162509,1,0,0:0:0:0:
120,157,162675,6,0,P|103:205|99:253,1,95,4|0,0:3|0:0,0:0:0:0:
313,334,163009,2,0,P|344:271|344:200,1,142.5,8|0,0:1|0:0,0:0:0:0:
358,167,163342,6,0,L|264:184,1,95,6|0,0:3|0:0,0:0:0:0:
225,168,163592,2,0,P|236:214|240:261,1,95,6|0,0:3|0:0,0:0:0:0:
223,302,163842,1,10,0:2:0:0:
289,79,164009,6,0,P|242:69|196:58,1,95,0|6,0:0|0:3,0:0:0:0:
114,250,164342,1,8,0:1:0:0:
28,124,164509,1,0,0:0:0:0:
28,124,164592,1,0,0:0:0:0:
28,124,164675,2,0,L|140:149,1,95,4|4,0:3|0:3,0:0:0:0:
349,259,165009,2,0,P|302:267|255:277,1,95,8|0,0:1|0:0,0:0:0:0:
90,348,165342,5,4,0:0:0:0:
189,207,165509,1,8,0:1:0:0:
95,54,165675,1,0,0:0:0:0:
189,207,165842,1,0,0:0:0:0:
219,78,166008,5,12,0:1:0:0:
86,242,166175,1,0,0:0:0:0:
274,271,166342,1,0,0:0:0:0:
90,129,166509,6,0,L|118:296,1,142.5,4|0,0:3|0:0,0:0:0:0:
192,303,166842,1,6,1:3:0:0:
192,303,166925,2,0,L|180:370,1,47.5,0|0,0:0|0:0,0:0:0:0:
274,271,167092,1,6,1:3:0:0:
274,271,167175,2,0,L|319:310,1,47.5,0|0,0:0|0:0,0:0:0:0:
292,188,167342,1,8,0:1:0:0:
318,48,167509,1,4,0:3:0:0:
479,93,167675,1,8,0:1:0:0:
481,104,167759,1,0,0:0:0:0:
484,116,167842,1,0,0:0:0:0:
486,128,167925,1,0,0:0:0:0:
489,141,168009,6,0,P|419:123|349:115,1,142.5,4|0,0:1|0:0,0:0:0:0:
306,120,168342,1,8,0:1:0:0:
110,47,168509,1,0,0:0:0:0:
110,47,168592,1,0,0:0:0:0:
110,47,168675,2,0,P|128:104|135:162,1,95,6|0,0:3|0:0,0:0:0:0:
168,135,168925,2,0,P|151:185|139:251,1,95,6|0,0:3|0:0,0:0:0:0:
144,309,169175,5,10,0:2:0:0:
144,309,169259,1,0,0:2:0:0:
144,309,169342,2,0,L|35:276,1,95,0|4,0:0|0:3,0:0:0:0:
168,135,169675,1,8,0:1:0:0:
243,259,169842,1,0,0:0:0:0:
395,170,170009,5,4,0:3:0:0:
255,233,170175,1,4,0:3:0:0:
467,311,170342,1,8,0:2:0:0:
297,79,170509,1,0,0:0:0:0:
297,79,170592,1,0,0:0:0:0:
297,79,170675,2,0,B|312:115|312:115|304:180,1,95,4|0,0:3|0:0,0:0:0:0:
144,309,171009,2,0,P|95:315|44:326,1,95,8|0,0:1|0:0,0:0:0:0:
107,118,171342,6,0,P|152:131|199:139,1,95,6|0,0:3|0:0,0:0:0:0:
235,162,171592,1,6,0:3:0:0:
235,162,171675,2,0,L|248:89,1,47.5,0|0,0:0|0:0,0:0:0:0:
262,29,171842,1,10,0:2:0:0:
456,145,172009,2,0,P|408:141|364:156,1,95,0|4,0:0|0:3,0:0:0:0:
338,178,172259,1,0,0:0:0:0:
328,210,172342,1,8,0:1:0:0:
482,348,172509,1,0,0:0:0:0:
398,292,172675,6,0,P|347:307|294:324,1,95,4|4,0:3|0:3,0:0:0:0:
50,271,173009,1,8,0:1:0:0:
94,253,173092,1,0,0:0:0:0:
140,261,173175,1,0,0:0:0:0:
174,294,173259,1,0,0:0:0:0:
185,340,173342,6,0,L|200:246,1,95,4|0,0:3|0:0,0:0:0:0:
348,59,173675,2,0,L|326:178,1,95,8|0,0:1|0:0,0:0:0:0:
488,319,174009,2,0,P|441:303|395:290,1,95,6|0,0:3|0:0,0:0:0:0:
379,266,174259,2,0,P|333:278|286:288,1,95,6|0,0:3|0:0,0:0:0:0:
257,308,174509,6,0,P|228:243|235:173,1,142.500005435944,10|4,0:2|0:3,0:0:0:0:
338,133,175009,1,8,0:1:0:0:
171,80,175175,1,0,0:0:0:0:
28,305,175342,5,4,0:3:0:0:
202,250,175509,1,4,0:3:0:0:
202,250,175592,1,0,0:0:0:0:
202,250,175675,1,8,0:1:0:0:
93,133,175842,1,0,0:0:0:0:
220,330,176009,6,0,L|236:236,1,95,4|0,1:2|0:0,0:0:0:0:
210,70,176342,2,0,P|275:97|346:100,1,142.5,0|0,0:0|0:0,0:0:0:0:
389,83,176675,5,4,1:2:0:0:
272,188,176842,1,0,0:0:0:0:
418,235,177009,1,0,0:0:0:0:
251,160,177175,2,0,P|261:230|270:301,1,142.5,4|0,0:0|0:0,0:0:0:0:
214,359,177509,1,6,1:3:0:0:
214,359,177592,2,0,L|140:343,1,47.5,0|0,0:0|0:0,0:0:0:0:
79,351,177759,2,0,P|88:306|98:258,1,95,6|0,1:3|0:0,0:0:0:0:
110,220,178009,5,8,0:1:0:0:
91,117,178175,1,4,0:3:0:0:
74,13,178342,1,8,0:1:0:0:
439,51,178675,6,0,P|426:112|421:144,1,71.2500027179719,4|0,1:1|0:0,0:0:0:0:
441,212,179009,1,0,0:0:0:0:
358,185,179175,2,0,P|285:170|210:158,1,142.500005435944,2|2,0:0|0:0,0:0:0:0:
376,273,179675,2,0,P|396:335|403:362,1,71.2500027179719,0|2,0:0|0:0,0:0:0:0:
441,212,180009,5,0,0:0:0:0:
451,125,180175,1,2,0:0:0:0:
462,40,180342,1,2,0:0:0:0:
310,122,180509,2,0,P|242:128|187:82,1,142.500005435944,2|0,0:0|0:0,0:0:0:0:
84,35,181009,2,0,P|79:70|72:112,1,71.2500027179719,2|2,0:0|0:0,0:0:0:0:
142,157,181342,5,2,0:0:0:0:
58,189,181509,1,0,0:0:0:0:
0,127,181675,1,0,0:0:0:0:
56,201,181842,2,0,P|67:250|72:357,1,142.500005435944,2|0,0:0|0:0,0:0:0:0:
153,273,182342,2,0,P|188:265|230:261,1,71.2500027179719,0|2,0:0|0:0,0:0:0:0:
394,278,182675,6,0,P|389:313|383:348,1,71.2500027179719,0|2,0:0|0:0,0:0:0:0:
307,305,183009,1,2,0:0:0:0:
479,320,183175,2,0,L|488:249|497:178,1,142.500005435944,2|0,0:0|0:0,0:0:0:0:
350,75,183675,2,0,P|348:110|357:144,1,71.2500027179719,2|2,0:0|0:0,0:0:0:0:
438,106,184009,1,2,0:0:0:0:
263,56,184175,1,0,0:0:0:0:
425,15,184342,1,0,0:0:0:0:
362,184,184509,6,0,P|306:142|232:154,1,142.500005435944,2|0,0:0|0:0,0:0:0:0:
161,190,185009,2,0,P|157:219|150:260,1,71.2500027179719,0|2,0:0|0:0,0:0:0:0:
46,75,185342,5,0,0:0:0:0:
76,160,185509,1,2,0:0:0:0:
58,247,185675,1,2,0:0:0:0:
106,320,185842,2,0,P|176:310|247:299,1,142.500005435944,2|0,0:0|0:0,0:0:0:0:
365,222,186342,2,0,P|330:214|297:200,1,71.2500027179719,2|2,0:0|0:0,0:0:0:0:
164,84,186675,6,0,L|176:154,1,71.2500027179719,2|0,0:0|0:0,0:0:0:0:
255,22,187009,1,0,0:0:0:0:
343,86,187175,2,0,P|332:156|322:226,1,142.500005435944,2|0,0:0|0:0,0:0:0:0:
320,335,187675,2,0,P|285:326|244:317,1,71.2500027179719,0|2,0:0|0:0,0:0:0:0:
226,314,187925,1,0,0:0:0:0:
205,310,188009,1,0,0:0:0:0:
146,203,188175,1,0,0:0:0:0:
63,360,188342,5,0,0:0:0:0:
33,340,188425,1,0,0:0:0:0:
20,306,188509,1,0,0:0:0:0:
20,270,188592,1,0,0:0:0:0:
33,229,188675,5,0,0:0:0:0:
64,199,188759,1,0,0:0:0:0:
83,161,188842,1,0,0:0:0:0:
83,118,188925,1,0,0:0:0:0:
62,77,189009,6,0,P|42:67|22:62,1,42.7499986953736,0|0,0:0|0:0,0:0:0:0:
150,23,189175,2,0,P|173:18|191:11,1,42.7499986953736,0|0,0:0|0:0,0:0:0:0:
163,118,189342,6,0,P|167:160|175:213,1,85.4999973907472,2|0,0:0|0:0,0:0:0:0:
205,310,189675,1,0,0:0:0:0:
369,229,189842,1,2,0:0:0:0:
369,229,189925,1,0,0:0:0:0:
369,229,190009,2,0,P|303:217|270:209,1,85.4999973907472,0|0,0:0|0:0,0:0:0:0:
120,324,190342,2,0,P|162:317|204:309,1,85.4999973907472,2|0,0:0|0:0,0:0:0:0:
384,199,190675,6,0,P|390:242|397:284,1,85.4999973907472,2|0,0:0|0:0,0:0:0:0:
452,100,191009,1,0,0:0:0:0:
303,175,191175,1,2,0:0:0:0:
267,167,191259,1,0,0:0:0:0:
236,158,191342,1,0,0:0:0:0:
243,258,191509,1,0,0:0:0:0:
296,80,191675,2,0,P|336:70|384:57,1,85.4999973907472,2|0,0:0|0:0,0:0:0:0:
162,216,192009,6,0,P|145:176|146:134,1,85.4999973907472,2|0,0:0|0:0,0:0:0:0:
211,55,192342,1,0,0:0:0:0:
36,32,192509,1,2,0:0:0:0:
36,32,192592,1,0,0:0:0:0:
36,32,192675,2,0,B|50:65|50:65|52:135,1,85.4999973907472,0|0,0:0|0:0,0:0:0:0:
162,216,193009,2,0,P|120:227|74:240,1,85.4999973907472,2|0,0:0|0:0,0:0:0:0:
4,295,193342,5,0,0:0:0:0:
83,345,193509,1,2,0:0:0:0:
168,306,193675,1,0,0:0:0:0:
248,355,193842,1,0,0:0:0:0:
263,350,193925,1,0,0:0:0:0:
275,345,194009,1,2,0:0:0:0:
224,146,194175,1,0,0:0:0:0:
246,249,194342,1,2,0:0:0:0:
311,74,194509,1,0,0:0:0:0:
140,109,194675,6,0,P|98:97|57:86,1,85.4999973907472,2|0,0:0|0:0,0:0:0:0:
168,306,195009,1,0,0:0:0:0:
279,236,195175,1,2,0:0:0:0:
279,236,195259,1,0,0:0:0:0:
279,236,195342,2,0,L|388:265,1,85.4999973907472,0|0,0:0|0:0,0:0:0:0:
474,110,195675,1,2,0:0:0:0:
370,167,195842,1,0,0:0:0:0:
473,224,196009,5,2,0:0:0:0:
357,61,196175,1,0,0:0:0:0:
357,61,196259,1,0,0:0:0:0:
356,61,196342,2,0,P|350:103|345:146,1,85.4999973907472,0|2,0:0|0:0,0:0:0:0:
192,286,196675,2,0,P|197:245|205:191,1,85.4999973907472,0|0,0:0|0:0,0:0:0:0:
78,20,197009,2,0,L|59:132,1,85.4999973907472,2|0,0:0|0:0,0:0:0:0:
59,130,197259,1,0,0:0:0:0:
55,155,197342,1,2,0:0:0:0:
153,110,197509,6,0,P|196:117|236:130,1,85.4999973907472,0|0,0:0|0:0,0:0:0:0:
386,74,197842,2,0,P|368:112|358:154,1,85.4999973907472,2|0,0:0|0:0,0:0:0:0:
389,289,198175,1,0,0:0:0:0:
287,245,198342,2,0,L|245:253|203:261,1,85.4999973907472,2|0,0:0|0:0,0:0:0:0:
33,180,198675,5,2,0:0:0:0:
98,329,198842,1,0,0:0:0:0:
126,159,199009,1,0,0:0:0:0:
3,352,199175,5,2,0:0:0:0:
88,235,199342,1,0,0:0:0:0:
0,104,199509,1,0,0:0:0:0:
6,265,199675,5,2,0:0:0:0:
166,226,199842,1,0,0:0:0:0:
338,181,200009,6,0,P|329:227|323:274,1,95,0|0,1:0|0:0,0:0:0:0:
237,105,200342,2,0,P|245:58|251:11,1,95,0|0,1:0|0:0,0:0:0:0:
483,119,200675,2,0,P|441:95|391:86,1,95,0|0,1:0|0:0,0:0:0:0:
367,83,200925,1,0,0:0:0:0:
335,90,201009,1,0,1:0:0:0:
250,196,201175,5,0,0:0:0:0:
186,22,201342,1,0,1:0:0:0:
48,145,201509,1,0,0:0:0:0:
48,145,201592,1,0,0:0:0:0:
48,145,201675,2,0,P|95:145|150:131,1,95,0|0,1:0|0:0,0:0:0:0:
237,105,202009,1,0,1:0:0:0:
210,276,202175,1,0,0:0:0:0:
385,215,202342,2,0,P|336:198|291:193,1,95,0|0,1:0|0:0,0:0:0:0:
144,216,202675,6,0,P|133:268|125:308,1,95,0|0,1:0|0:0,0:0:0:0:
237,105,203009,2,0,P|246:58|253:11,1,95,0|0,1:0|0:0,0:0:0:0:
253,11,203259,1,0,0:0:0:0:
253,11,203342,1,0,1:0:0:0:
314,171,203509,1,0,0:0:0:0:
149,112,203675,2,0,P|102:118|60:153,1,95,0|0,1:0|0:0,0:0:0:0:
222,279,204009,6,0,P|239:235|234:174,1,95,0|0,1:0|0:0,0:0:0:0:
56,259,204342,2,0,P|84:296|136:315,1,95,0|0,1:0|0:0,0:0:0:0:
144,216,204675,1,0,1:0:0:0:
105,32,204842,1,0,0:0:0:0:
234,156,205009,1,0,1:0:0:0:
54,140,205176,1,0,0:0:0:0:
220,50,205342,6,0,P|272:61|319:70,1,95,0|0,1:0|1:0,0:0:0:0:
313,68,205592,1,0,0:0:0:0:
313,68,205675,1,0,1:0:0:0:
454,30,205842,1,0,1:0:0:0:
457,63,205925,1,0,0:0:0:0:
460,96,206009,2,0,L|446:200,1,95,0|0,1:0|1:0,0:0:0:0:
366,324,206342,2,0,P|354:278|332:235,1,95,0|0,1:0|1:0,0:0:0:0:
234,156,206675,6,0,P|183:165|128:174,1,95,0|0,1:0|1:0,0:0:0:0:
332,235,207009,2,0,L|447:205,1,95,0|0,1:0|1:0,0:0:0:0:
240,312,207342,1,0,1:0:0:0:
329,147,207509,2,0,L|318:96,1,47.5,0|0,1:0|0:0,0:0:0:0:
273,35,207675,1,0,1:0:0:0:
236,47,207759,1,0,1:0:0:0:
198,53,207842,1,0,1:0:0:0:
161,59,207925,1,0,1:0:0:0:
120,33,208009,5,0,1:0:0:0:
72,34,208092,1,0,1:0:0:0:
33,61,208175,1,0,1:0:0:0:
17,106,208259,1,0,1:0:0:0:
34,148,208342,6,0,P|38:172|41:202,1,47.5,0|0,1:0|1:0,0:0:0:0:
93,266,208509,2,0,P|87:289|82:318,1,47.5,0|0,1:0|1:0,0:0:0:0:
180,306,208675,5,0,1:0:0:0:
220,291,208759,1,0,1:0:0:0:
262,287,208842,1,0,1:0:0:0:
304,293,208925,1,0,1:0:0:0:
342,311,209009,2,0,L|388:322,1,47.5,0|0,1:0|1:0,0:0:0:0:
387,192,209175,2,0,L|442:192,1,47.5,0|0,1:0|1:0,0:0:0:0:
334,76,209342,6,0,B|391:56|391:56|485:75|485:75|419:22,1,237.5,0|0,3:0|0:0,0:0:0:0:
258,13,210342,1,0,0:0:0:0:
230,51,210425,1,0,0:0:0:0:
227,98,210509,1,0,0:0:0:0:
244,142,210592,1,0,0:0:0:0:
283,168,210675,6,0,P|307:216|304:286,1,113.999996520996,4|0,1:0|2:0,0:0:0:0:
103,328,211008,2,0,P|79:280|82:210,1,113.999996520996,0|0,1:0|1:0,0:0:0:0:
192,249,211342,1,8,1:1:0:0:
192,249,211675,5,0,1:0:0:0:
213,362,211842,2,0,P|283:316|401:343,1,190,0|0,1:0|1:0,0:0:0:0:
384,331,212259,1,0,1:0:0:0:
383,331,212342,2,0,P|397:285|405:238,1,95,0|0,1:0|0:0,0:0:0:0:
257,30,212675,5,8,1:0:0:0:
312,185,212842,1,0,1:0:0:0:
430,73,213009,1,8,1:0:0:0:
228,127,213175,1,0,1:0:0:0:
228,127,213259,1,0,1:0:0:0:
228,126,213342,2,0,P|180:121|138:100,1,95,4|0,1:2|0:0,0:0:0:0:
105,82,213592,2,0,P|110:129|117:176,1,95,4|0,1:2|0:0,0:0:0:0:
107,210,213842,1,8,1:0:0:0:
286,267,214009,6,0,P|334:263|375:241,1,95,4|0,1:2|0:0,0:0:0:0:
409,222,214259,2,0,P|403:269|396:316,1,95,4|0,1:2|0:0,0:0:0:0:
421,343,214509,1,8,1:0:0:0:
122,62,214842,5,0,1:0:0:0:
255,114,215008,1,0,0:0:0:0:
255,114,215092,1,0,1:0:0:0:
396,65,215259,1,0,0:0:0:0:
396,65,215342,1,8,1:0:0:0:
255,5,215509,1,0,1:0:0:0:
254,115,215675,6,0,B|228:204|290:204|251:304,1,190,8|4,1:0|1:0,0:0:0:0:
233,345,216092,1,0,0:0:0:0:
189,363,216175,1,0,0:0:0:0:
141,355,216259,1,0,0:0:0:0:
107,322,216342,2,0,P|64:301|17:295,1,95,8|0,1:0|0:0,0:0:0:0:
122,75,216675,5,0,0:0:0:0:
127,112,216759,1,0,0:0:0:0:
131,149,216842,1,4,1:3:0:0:
134,186,216925,1,0,0:0:0:0:
138,224,217009,2,0,P|183:238|230:244,1,95,8|0,1:0|0:0,0:0:0:0:
461,164,217342,5,4,1:3:0:0:
415,149,217425,1,0,0:0:0:0:
370,166,217509,1,0,0:0:0:0:
345,206,217592,1,0,0:0:0:0:
344,252,217675,2,0,P|364:295|370:342,1,95,8|0,1:0|0:0,0:0:0:0:
241,242,218009,5,0,0:0:0:0:
239,194,218092,1,0,0:0:0:0:
258,150,218175,1,4,1:3:0:0:
281,108,218259,1,0,0:0:0:0:
269,62,218342,2,0,P|226:40|176:37,1,95,8|0,1:0|0:0,0:0:0:0:
145,48,218592,1,0,0:0:0:0:
145,48,218675,6,0,L|158:113,1,47.5,4|0,1:3|0:0,0:0:0:0:
64,96,218842,2,0,L|41:166,1,47.5,0|0,0:0|0:0,0:0:0:0:
145,179,219009,2,0,L|163:226,1,47.5,8|0,1:0|0:0,0:0:0:0:
52,229,219175,2,0,L|39:274,1,47.5,0|0,0:0|0:0,0:0:0:0:
100,350,219342,6,0,L|146:340,1,47.5,0|0,0:0|0:0,0:0:0:0:
239,286,219509,2,0,L|283:302,1,47.5,4|0,1:3|0:0,0:0:0:0:
386,349,219675,1,8,1:0:0:0:
396,317,219759,1,0,0:0:0:0:
408,286,219842,1,0,0:0:0:0:
416,253,219925,1,0,0:0:0:0:
425,220,220009,6,0,P|414:173|407:126,1,95,8|0,1:0|0:0,0:0:0:0:
345,85,220259,1,4,1:3:0:0:
332,73,220342,2,0,L|342:6,1,47.5,0|0,0:0|0:0,0:0:0:0:
322,157,220509,6,0,P|275:164|230:178,1,95,8|0,1:0|0:0,0:0:0:0:
204,191,220758,1,4,1:3:0:0:
182,212,220842,1,0,0:0:0:0:
1,103,221009,1,8,1:0:0:0:
23,143,221092,1,0,0:0:0:0:
63,165,221175,1,8,1:0:0:0:
110,160,221259,1,0,0:0:0:0:
149,133,221342,6,0,P|165:78|171:22,1,113.999996520996,4|0,1:0|0:0,0:0:0:0:
362,250,221675,2,0,P|346:305|340:361,1,113.999996520996,8|0,1:0|0:0,0:0:0:0:
257,194,222009,1,8,1:0:0:0:
257,194,222342,5,8,1:0:0:0:
66,238,222509,2,0,P|94:294|221:280,1,190,0|4,1:0|1:3,0:0:0:0:
208,293,222925,1,4,1:3:0:0:
207,293,223009,2,0,P|253:307|298:322,1,95,4|0,1:2|0:0,0:0:0:0:
297,16,223342,5,8,1:0:0:0:
333,180,223509,1,0,1:0:0:0:
166,125,223675,2,0,P|120:137|73:145,1,95,8|4,1:0|1:3,0:0:0:0:
274,244,224009,2,0,P|342:225|415:217,1,142.5,8|0,1:0|0:0,0:0:0:0:
452,220,224342,1,4,1:2:0:0:
452,220,224675,6,0,L|442:284,1,47.5,4|0,1:2|2:0,0:0:0:0:
284,98,224925,6,0,L|274:43,1,47.5,4|0,1:2|2:0,0:0:0:0:
433,79,225175,6,0,L|420:151,1,47.5,4|0,1:2|2:0,0:0:0:0:
274,244,225425,6,0,L|258:157,1,47.5,4|0,1:2|2:0,0:0:0:0:
120,338,225675,6,0,L|167:327,1,47.5,4|0,1:2|2:0,0:0:0:0:
418,233,225925,6,0,L|362:220,1,47.5,4|0,1:2|2:0,0:0:0:0:
131,44,226175,6,0,L|118:103,1,47.5,4|0,1:2|2:0,0:0:0:0:
102,131,226342,6,0,L|116:195,2,63.3333333333333,2|2|2,0:0|0:0|0:0,0:0:0:0:
46,73,226675,5,4,1:1:0:0:
201,157,226842,1,0,0:0:0:0:
217,122,226925,1,0,0:0:0:0:
250,102,227009,1,0,1:0:0:0:
287,96,227092,1,0,0:0:0:0:
324,100,227175,1,0,0:0:0:0:
358,117,227259,1,0,0:0:0:0:
378,148,227342,6,0,L|367:198,3,47.5,0|0|0|0,1:0|0:0|0:0|0:0,0:0:0:0:
437,254,227675,2,0,L|447:300,3,47.5,0|0|0|0,1:0|0:0|0:0|0:0,0:0:0:0:
352,296,228009,5,0,1:0:0:0:
318,277,228092,1,0,0:0:0:0:
281,268,228175,1,0,0:0:0:0:
242,272,228259,1,0,0:0:0:0:
209,292,228342,5,0,1:0:0:0:
176,326,228425,1,0,0:0:0:0:
130,342,228509,1,0,0:0:0:0:
84,330,228592,1,0,0:0:0:0:
50,296,228675,6,0,P|46:278|39:250,3,47.5,0|0|0|0,1:0|0:0|0:0|0:0,0:0:0:0:
72,166,229009,2,0,L|60:109,3,47.5,0|0|0|0,1:0|0:0|0:0|0:0,0:0:0:0:
153,189,229342,1,0,1:0:0:0:
176,184,229425,1,0,0:0:0:0:
199,177,229509,2,0,L|263:158,1,47.5,0|0,0:0|0:0,0:0:0:0:
394,27,229675,1,0,1:0:0:0:
371,32,229758,1,0,0:0:0:0:
348,39,229842,2,0,L|284:58,1,47.5,0|0,0:0|0:0,0:0:0:0:
202,27,230009,6,0,L|221:111,1,47.5,0|0,1:0|0:0,0:0:0:0:
340,187,230175,2,0,L|328:138,1,47.5,0|0,0:0|0:0,0:0:0:0:
490,203,230342,2,0,L|467:288,1,47.5,0|0,1:0|0:0,0:0:0:0:
330,348,230509,2,0,L|341:289,1,47.5,0|0,0:0|0:0,0:0:0:0:
248,184,230675,5,4,1:3:0:0:
214,217,230759,1,4,0:3:0:0:
166,221,230842,1,4,0:3:0:0:
121,205,230925,1,4,0:3:0:0:
90,167,231009,2,0,L|60:181,6,23.75,4|0|4|0|4|0|4,1:3|0:0|0:3|0:0|0:3|0:0|0:3,0:0:0:0:
50,93,231342,2,0,L|-8:77,3,47.5,4|4|4|4,1:3|0:3|0:3|0:3,0:0:0:0:
134,96,231675,6,0,L|150:19,1,47.5,4|4,1:3|0:3,0:0:0:0:
233,257,231842,2,0,L|217:338,1,47.5,4|4,0:3|0:3,0:0:0:0:
400,154,232009,5,4,1:3:0:0:
256,192,232092,12,0,234675,0:0:0:0:
