osu file format v14

[General]
AudioFilename: audio.mp3
AudioLeadIn: 0
PreviewTime: 210258
Countdown: 0
SampleSet: Soft
StackLeniency: 0.7
Mode: 0
LetterboxInBreaks: 0
WidescreenStoryboard: 1

[Editor]
Bookmarks: 26689,37355,49354,60020,70686,81352,92018,102684,113350,124017,134683,145349,157348,168014,178680,189346,200012,209345,221345,232011
DistanceSpacing: 1.5
BeatDivisor: 4
GridSize: 4
TimelineZoom: 3.299999

[Metadata]
Title:STORIA
TitleUnicode:STORIA
Artist:xi vs sakuzyo
ArtistUnicode:xi vs sakuzyo
Creator:Len
Version:Collab ULTRA
Source:
Tags:Halcyon Niflheimr VitMaster Black Lair AXION Leader -kevincela- Bonzi Reana Cellina Rose Pacifica Dailycare Crier Fortune Anishina Kodoku Regou Little CloudSplash16
BeatmapID:1260751
BeatmapSetID:586622

[Difficulty]
HPDrainRate:5
CircleSize:4
OverallDifficulty:9
ApproachRate:9.3
SliderMultiplier:1.6
SliderTickRate:1

[Events]
//Background and Video events
0,0,"bg0.png",0,0
//Break Periods
2,102876,111455
//Storyboard Layer 0 (Background)
//Storyboard Layer 1 (Fail)
//Storyboard Layer 2 (Pass)
//Storyboard Layer 3 (Foreground)
//Storyboard Sound Samples

[TimingPoints]
9,333.333333333333,4,2,5,70,1,0
16009,-200,4,2,11,90,0,0
16092,-200,4,2,5,70,0,0
21759,-200,4,2,5,5,0,0
21842,-200,4,2,5,70,0,0
22259,-200,4,2,5,5,0,0
22342,-200,4,2,5,70,0,0
24176,-200,4,2,5,70,0,0
24676,-153.846153846154,4,2,5,70,0,0
25009,-125,4,2,5,70,0,0
25342,-105.263157894737,4,2,5,70,0,0
25676,-90.9090909090909,4,2,5,70,0,0
26676,-90.9090909090909,4,2,11,90,0,0
26759,-90.9090909090909,4,2,15,70,0,0
33342,-90.9090909090909,4,2,20,80,0,0
37676,-90.9090909090909,4,2,7,70,0,0
38676,-66.6666666666667,4,2,7,85,0,0
38759,-66.6666666666667,4,2,5,70,0,0
39176,-100,4,2,5,70,0,0
43009,-100,4,2,7,70,0,0
43092,-100,4,2,5,70,0,0
43509,-50,4,2,5,70,0,0
43676,-50,4,2,5,5,0,0
43842,-100,4,2,7,85,0,0
43926,-100,4,2,5,70,0,0
48676,-66.6666666666667,4,2,5,70,0,0
49009,-90.9090909090909,4,2,5,70,0,0
49342,-90.9090909090909,4,2,7,85,0,0
49426,-90.9090909090909,4,2,5,70,0,0
54676,-90.9090909090909,4,2,7,85,0,0
54759,-90.9090909090909,4,2,5,70,0,0
56176,-76.9230769230769,4,2,5,70,0,0
56509,-90.9090909090909,4,2,5,70,0,0
58842,-66.6666666666667,4,2,5,70,0,0
59342,-50,4,2,5,70,0,0
59509,-90.9090909090909,4,2,5,70,0,0
59551,-90.9090909090909,4,2,5,5,0,0
59676,-66.6666666666667,4,2,5,70,0,0
59759,-66.6666666666667,4,2,5,5,0,0
60009,-90.9090909090909,4,2,7,85,0,0
60092,-90.9090909090909,4,2,5,70,0,0
65342,-90.9090909090909,4,2,7,85,0,0
65426,-90.9090909090909,4,2,5,70,0,0
70676,-90.9090909090909,4,2,7,85,0,0
70759,-90.9090909090909,4,2,5,70,0,0
78676,-90.9090909090909,4,2,7,85,0,0
78759,-90.9090909090909,4,2,5,70,0,0
80009,-90.9090909090909,4,2,7,70,0,0
80092,-90.9090909090909,4,2,5,70,0,0
84009,-76.9230769230769,4,2,6,75,0,0
84342,-76.9230769230769,4,2,5,75,0,0
84426,-76.9230769230769,4,2,6,75,0,0
85009,-76.9230769230769,4,2,5,75,0,0
85092,-76.9230769230769,4,2,6,75,0,0
85676,-76.9230769230769,4,2,5,75,0,0
85759,-76.9230769230769,4,2,6,75,0,0
86342,-76.9230769230769,4,2,5,75,0,0
86426,-76.9230769230769,4,2,6,75,0,0
86676,-90.9090909090909,4,2,5,70,0,0
89342,-76.9230769230769,4,2,6,75,0,0
89676,-76.9230769230769,4,2,5,75,0,0
89759,-76.9230769230769,4,2,6,75,0,0
90342,-76.9230769230769,4,2,5,75,0,0
90426,-76.9230769230769,4,2,6,75,0,0
91009,-76.9230769230769,4,2,5,75,0,0
91092,-76.9230769230769,4,2,6,75,0,0
91676,-76.9230769230769,4,2,5,75,0,0
91759,-76.9230769230769,4,2,6,75,0,0
92009,-90.9090909090909,4,2,5,70,0,0
97342,-76.9230769230769,4,2,5,70,0,0
101009,-66.6666666666667,4,2,5,70,0,0
113342,-100,4,2,8,70,0,0
124009,-80,4,2,5,70,0,0
133217,-80,4,2,5,5,0,0
133342,-50,4,2,5,70,0,0
134676,-80,4,2,5,70,0,0
139676,-58.8235294117647,4,2,5,70,0,0
140009,-80,4,2,5,70,0,0
144009,-50,4,2,5,70,0,0
144259,-50,4,2,8,70,0,0
144676,-66.6666666666667,4,2,5,70,0,0
145176,-66.6666666666667,4,2,8,70,0,0
145342,-80,4,2,5,70,0,0
154676,-50,4,2,5,70,0,0
154925,-66.6666666666667,4,2,5,70,0,0
155175,-100,4,2,5,70,0,0
155342,-133.333333333333,4,2,5,70,0,0
156342,-100,4,2,5,70,0,0
157342,-100,4,2,7,70,0,0
157426,-100,4,2,5,70,0,0
157676,-66.6666666666667,4,2,5,70,0,0
159009,-90.9090909090909,4,2,5,70,0,0
160342,-66.6666666666667,4,2,5,70,0,0
161676,-90.9090909090909,4,2,5,70,0,0
163009,-66.6666666666667,4,2,5,70,0,0
164342,-90.9090909090909,4,2,5,70,0,0
165842,-66.6666666666667,4,2,5,70,0,0
166509,-200,4,2,5,70,0,0
166842,-66.6666666666667,4,2,5,70,0,0
167676,-100,4,2,5,70,0,0
168009,-66.6666666666667,4,2,7,70,0,0
168092,-66.6666666666667,4,2,5,70,0,0
176009,-100,4,2,5,70,0,0
176676,-76.9230769230769,4,2,5,70,0,0
177176,-66.6666666666667,4,2,5,70,0,0
177509,-62.5,4,2,5,70,0,0
177759,-58.8235294117647,4,2,5,70,0,0
178009,-55.5555555555556,4,2,5,70,0,0
178342,-52.6315789473684,4,2,5,70,0,0
178676,-100,4,2,5,70,0,0
188009,-100,4,2,5,40,0,0
188176,-100,4,2,5,45,0,0
188342,-100,4,2,5,50,0,0
188509,-100,4,2,5,55,0,0
188676,-100,4,2,5,60,0,0
188842,-100,4,2,5,65,0,0
189009,-100,4,2,5,70,0,0
189176,-100,4,2,5,75,0,0
189342,-100,4,2,5,70,0,0
200009,-83.3333333333333,4,2,5,70,0,0
209342,-200,4,2,5,70,0,0
210676,-66.6666666666667,4,2,7,70,0,0
210759,-66.6666666666667,4,2,5,70,0,0
211342,-57.1428571428571,4,2,5,70,0,0
211676,-66.6666666666667,4,2,5,70,0,0
211842,-57.1428571428571,4,2,5,70,0,0
212342,-66.6666666666667,4,2,5,70,0,0
212676,-57.1428571428571,4,2,5,70,0,0
213342,-50,4,2,5,70,0,0
214842,-57.1428571428571,4,2,5,70,0,0
215676,-100,4,2,5,70,0,0
216009,-100,4,2,7,70,0,0
216092,-100,4,2,5,70,0,0
221342,-62.5,4,2,7,70,0,0
221426,-62.5,4,2,5,70,0,0
222509,-76.9230769230769,4,2,5,70,0,0
222842,-100,4,2,5,70,0,0
223009,-62.5,4,2,12,70,0,0
223092,-62.5,4,2,5,70,0,0
223509,-100,4,2,5,70,0,0
223676,-62.5,4,2,5,70,0,0
223842,-100,4,2,5,70,0,0
224009,-100,4,2,5,70,0,0
224676,-57.1428571428571,4,2,12,70,0,0
226676,-100,4,2,7,70,0,0
226759,-100,4,2,5,70,0,0
232009,-100,4,2,8,70,0,0

[Colours]
Combo1 : 128,117,223
Combo2 : 111,176,198
Combo3 : 187,128,213

[HitObjects]
216,88,5342,6,0,B|200:132|216:168|216:168|232:204|216:250,1,160,4|0,0:0|0:0,0:0:0:0:
292,136,5842,1,0,0:0:0:0:
144,208,6009,2,0,P|104:221|66:212,1,80,0|0,0:0|0:0,0:0:0:0:
324,60,6342,2,0,P|356:81|374:117,1,80,0|0,0:0|0:0,0:0:0:0:
144,128,6676,2,0,P|130:88|139:50,1,80,0|0,0:0|0:0,0:0:0:0:
352,200,7009,2,0,P|359:238|347:276,1,80,0|0,0:0|0:0,0:0:0:0:
216,88,7342,5,0,0:0:0:0:
372,124,7509,1,0,0:0:0:0:
324,60,7676,5,0,0:0:0:0:
284,232,7842,1,0,0:0:0:0:
288,236,8009,6,0,L|180:244,1,80,0|0,0:0|0:0,0:0:0:0:
72,160,8342,2,0,P|64:116|84:76,1,80,0|0,0:0|0:0,0:0:0:0:
116,240,8676,2,0,P|108:284|128:324,1,80,0|0,0:0|0:0,0:0:0:0:
260,96,9009,2,0,P|221:95|188:116,1,80,0|0,0:0|0:0,0:0:0:0:
232,296,9342,2,0,P|265:316|304:315,1,80,0|0,0:0|0:0,0:0:0:0:
416,152,9676,2,0,L|320:160,1,80,0|0,0:0|0:0,0:0:0:0:
232,296,10009,5,0,0:0:0:0:
380,240,10176,1,0,0:0:0:0:
316,48,10342,5,0,0:0:0:0:
310,204,10509,1,0,0:0:0:0:
416,152,10676,2,0,P|380:132|340:136,1,80,0|0,0:0|0:0,0:0:0:0:
240,0,11009,6,0,P|260:36|256:76,1,80,0|0,0:0|0:0,0:0:0:0:
184,216,11342,2,0,P|221:205|247:174,1,80,0|0,0:0|0:0,0:0:0:0:
170,49,11676,2,0,P|134:33|96:40,1,80,0|0,0:0|0:0,0:0:0:0:
52,136,12009,2,0,P|90:142|126:126,1,80,0|0,0:0|0:0,0:0:0:0:
258,225,12342,2,0,P|221:209|183:215,1,80,0|0,0:0|0:0,0:0:0:0:
104,280,12676,5,0,0:0:0:0:
160,336,12842,1,0,0:0:0:0:
184,108,13009,5,0,0:0:0:0:
212,282,13176,1,0,0:0:0:0:
336,44,13342,2,0,P|376:40|416:56,1,80,0|0,0:0|0:0,0:0:0:0:
184,108,13676,6,0,P|146:121|107:117,1,80,0|0,0:0|0:0,0:0:0:0:
336,188,14009,2,0,P|352:224|383:249,1,80,0|0,0:0|0:0,0:0:0:0:
268,124,14342,2,0,P|251:160|220:185,1,80,0|0,0:0|0:0,0:0:0:0:
420,172,14676,2,0,P|457:185|496:181,1,80,0|0,0:0|0:0,0:0:0:0:
340,84,15009,2,0,P|326:46|330:7,1,80,0|0,0:0|0:0,0:0:0:0:
448,64,15342,5,0,0:0:0:0:
420,172,15509,1,0,0:0:0:0:
380,104,15676,1,0,0:0:0:0:
488,132,15842,1,0,0:0:0:0:
340,172,16009,6,0,B|272:208|260:308|296:364|372:348|388:284|316:228|228:228|184:256|184:256|144:280|72:284|48:232|48:184|72:152|112:140|140:172,1,640,4|0,0:1|0:0,0:0:0:0:
140,172,19009,5,0,0:0:0:0:
204,124,19176,1,0,0:0:0:0:
80,72,19342,2,0,P|44:55|5:63,1,80,0|0,0:0|0:0,0:0:0:0:
204,124,20009,2,0,P|244:132|288:104,1,80,0|0,0:0|0:0,0:0:0:0:
80,72,20676,1,0,0:0:0:0:
24,240,21009,1,0,0:0:0:0:
201,215,21342,6,0,P|220:260|204:306,1,100,0|0,0:0|0:0,0:0:0:0:
77,163,21842,6,0,P|60:116|79:71,1,100,0|0,0:0|0:0,0:0:0:0:
203,123,22342,6,0,B|188:72|220:72|200:12|200:12|283:59|288:144|260:184|260:184|239:220|203:275|244:344|296:380|368:368|416:324|416:256|376:212|316:212|328:264,1,720,0|0,0:0|0:0,0:0:0:0:
367,338,25676,5,0,0:0:0:0:
367,338,26009,5,0,0:0:0:0:
396,164,26176,1,0,0:0:0:0:
272,288,26342,1,0,0:0:0:0:
446,261,26509,1,0,0:0:0:0:
288,184,26676,6,0,P|244:188|200:216,1,88.000002685547,4|2,0:1|0:3,0:0:0:0:
356,244,27009,1,8,0:3:0:0:
416,80,27176,1,0,0:0:0:0:
445,94,27259,1,0,0:0:0:0:
467,118,27342,1,0,0:0:0:0:
477,149,27426,1,0,0:0:0:0:
475,182,27509,1,2,0:3:0:0:
328,100,27676,2,0,L|336:-4,1,88.000002685547,8|0,0:3|0:0,0:0:0:0:
172,88,28009,6,0,L|178:175,1,88.000002685547,2|2,0:3|0:3,0:0:0:0:
244,24,28342,1,8,0:3:0:0:
76,136,28509,1,0,0:0:0:0:
74,174,28592,1,0,0:0:0:0:
72,212,28676,1,0,0:0:0:0:
70,251,28759,1,0,0:0:0:0:
68,289,28842,1,2,0:3:0:0:
200,364,29009,1,8,0:3:0:0:
204,208,29176,1,0,0:0:0:0:
332,292,29342,6,0,L|244:284,1,88.000002685547,2|2,0:3|0:3,0:0:0:0:
392,364,29676,1,8,0:3:0:0:
328,200,29842,1,0,0:0:0:0:
315,158,29926,1,0,0:0:0:0:
322,115,30009,1,0,0:0:0:0:
349,80,30092,1,0,0:0:0:0:
388,61,30176,1,2,0:3:0:0:
497,159,30342,2,0,L|405:151,1,88.000002685547,8|0,0:3|0:0,0:0:0:0:
436,236,30592,5,0,0:0:0:0:
436,236,30676,2,0,P|444:276|440:328,1,88.000002685547,2|2,0:3|0:3,0:0:0:0:
409,151,31009,1,8,0:3:0:0:
332,292,31176,1,0,0:0:0:0:
289,280,31259,1,0,0:0:0:0:
257,252,31342,1,0,0:0:0:0:
241,211,31426,1,0,0:0:0:0:
244,168,31509,1,2,0:3:0:0:
395,58,31676,2,0,L|392:156,1,88.000002685547,8|0,0:3|0:0,0:0:0:0:
448,216,31926,1,0,0:0:0:0:
448,216,32009,5,2,0:3:0:0:
304,108,32176,1,2,0:3:0:0:
476,32,32342,1,8,0:3:0:0:
340,204,32509,1,0,0:0:0:0:
340,204,32592,1,0,0:0:0:0:
340,204,32676,2,0,L|328:248,2,44.0000013427735,0|0|2,0:3|0:0|0:3,0:0:0:0:
364,20,33009,1,8,0:3:0:0:
504,124,33176,5,0,0:0:0:0:
504,124,33259,1,0,0:0:0:0:
504,124,33342,1,2,0:1:0:0:
304,108,33509,1,2,0:1:0:0:
104,96,33676,2,0,L|120:200,1,88.000002685547,8|0,0:1|0:0,0:0:0:0:
140,224,33926,1,0,0:0:0:0:
180,240,34009,1,0,0:0:0:0:
224,240,34092,1,0,0:0:0:0:
264,220,34176,1,2,0:1:0:0:
300,28,34342,2,0,P|260:40|228:84,1,88.000002685547,8|0,0:1|0:0,0:0:0:0:
304,108,34592,5,0,0:0:0:0:
304,108,34676,2,0,L|404:100,1,88.000002685547,2|2,0:1|0:1,0:0:0:0:
231,74,35009,1,8,0:1:0:0:
391,100,35176,1,0,0:0:0:0:
417,135,35259,1,0,0:0:0:0:
428,177,35342,1,0,0:0:0:0:
422,220,35426,1,0,0:0:0:0:
400,258,35509,1,2,0:1:0:0:
268,320,35676,2,0,L|172:312,1,88.000002685547,8|0,0:1|0:0,0:0:0:0:
116,264,35926,1,0,0:0:0:0:
100,252,36009,6,0,B|84:292|84:292|92:344,1,88.000002685547,2|2,0:1|0:1,0:0:0:0:
160,180,36342,2,0,L|168:80,1,88.000002685547,8|0,0:1|0:0,0:0:0:0:
200,60,36592,1,0,0:0:0:0:
244,48,36676,1,0,0:0:0:0:
288,60,36759,1,0,0:0:0:0:
320,92,36842,1,2,0:1:0:0:
372,256,37009,5,8,0:1:0:0:
244,136,37176,1,0,0:0:0:0:
412,88,37342,5,4,0:3:0:0:
412,88,37676,1,8,0:3:0:0:
412,88,38009,1,0,0:0:0:0:
412,88,38092,1,0,0:0:0:0:
412,88,38176,1,0,0:0:0:0:
412,88,38259,1,0,0:0:0:0:
412,88,38342,6,0,L|408:136,1,44.0000013427735,0|0,0:0|0:0,0:0:0:0:
492,184,38509,2,0,L|496:232,1,44.0000013427735,0|0,0:0|0:0,0:0:0:0:
436,300,38676,6,0,B|312:264|316:340|196:300,1,240.000009155274,4|0,0:1|0:0,0:0:0:0:
112,228,39176,6,0,L|100:148,1,80,6|8,1:3|0:1,0:0:0:0:
200,301,39509,2,0,L|188:381,1,80,2|0,0:0|0:0,0:0:0:0:
44,88,39842,6,0,P|80:76|144:80,1,80,2|0,0:0|0:0,0:0:0:0:
308,200,40176,2,0,P|268:199|230:187,1,80,2|0,0:0|0:0,0:0:0:0:
380,132,40509,1,6,1:3:0:0:
380,132,40592,1,0,0:0:0:0:
380,132,40676,1,8,0:1:0:0:
464,212,40842,1,2,0:0:0:0:
228,368,41009,5,0,0:0:0:0:
205,330,41092,1,0,0:0:0:0:
200,286,41176,1,0,0:0:0:0:
212,244,41259,1,0,0:0:0:0:
228,212,41342,6,0,L|320:200,2,80,2|0|0,0:0|0:0|0:0,0:0:0:0:
16,152,41842,1,6,1:3:0:0:
80,212,42009,1,8,0:1:0:0:
156,160,42176,2,0,L|168:80,1,80,2|0,0:0|0:0,0:0:0:0:
272,24,42509,6,0,P|316:24|360:44,1,80,2|0,0:0|0:0,0:0:0:0:
316,248,42842,2,0,P|272:248|228:228,1,80,2|8,0:0|0:3,0:0:0:0:
408,232,43176,2,0,L|392:316,1,80,6|8,1:3|0:1,0:0:0:0:
136,372,43509,6,0,P|112:300|132:220,1,160,2|0,0:0|0:0,0:0:0:0:
192,144,43842,5,4,1:0:0:0:
131,220,44009,2,0,L|39:212,1,80,0|0,0:0|0:0,0:0:0:0:
128,60,44342,1,0,0:0:0:0:
169,47,44426,1,0,0:0:0:0:
213,50,44509,1,4,1:3:0:0:
252,68,44592,1,0,0:0:0:0:
282,100,44676,1,8,0:1:0:0:
276,196,44842,5,2,0:0:0:0:
192,144,45009,1,2,0:0:0:0:
28,344,45176,2,0,P|64:312|140:344,1,120,2|0,0:0|0:0,0:0:0:0:
152,344,45509,2,0,L|272:332,1,120,0|0,0:0|0:0,0:0:0:0:
292,312,45842,1,4,1:3:0:0:
192,144,46009,2,0,L|180:224,1,80,8|0,0:1|0:0,0:0:0:0:
272,104,46342,1,2,0:0:0:0:
192,60,46509,1,2,0:0:0:0:
120,296,46676,6,0,P|168:312|260:264,1,160,4|0,0:1|0:0,0:0:0:0:
40,248,47176,2,0,P|32:292|40:336,1,80,4|8,1:3|0:1,0:0:0:0:
120,196,47509,1,2,0:0:0:0:
36,152,47676,1,2,0:0:0:0:
198,347,47842,2,0,L|318:338,1,120,4|0,0:1|0:0,0:0:0:0:
338,318,48176,2,0,P|388:290|440:316,1,120,0|0,0:0|0:0,0:0:0:0:
464,344,48509,1,4,1:3:0:0:
260,236,48676,6,0,B|252:204|268:168|268:168|248:136|248:136|264:96|252:56,1,180.000006866455,8|0,0:1|0:0,0:0:0:0:
180,28,49009,6,0,L|168:80,1,44.0000013427735,0|0,0:0|0:0,0:0:0:0:
348,124,49176,2,0,L|338:81,1,44.0000013427735,0|0,0:0|0:0,0:0:0:0:
260,236,49342,6,0,P|328:268|400:228,1,132.00000402832,4|0,0:1|0:0,0:0:0:0:
392,232,49676,1,0,0:0:0:0:
484,356,49842,2,0,P|436:336|368:356,1,88.000002685547,6|8,1:3|0:1,0:0:0:0:
308,104,50176,2,0,P|328:152|308:220,1,88.000002685547,2|0,0:0|0:0,0:0:0:0:
206,345,50509,6,0,P|248:333|280:304,1,88.000002685547,2|0,0:0|0:0,0:0:0:0:
228,60,50842,2,0,P|217:102|227:144,1,88.000002685547,2|0,0:0|0:0,0:0:0:0:
465,221,51176,1,6,1:3:0:0:
465,221,51259,1,0,0:0:0:0:
465,221,51342,2,0,P|433:190|391:178,1,88.000002685547,8|2,0:1|0:0,0:0:0:0:
206,345,51676,5,0,0:0:0:0:
220,348,51759,1,0,0:0:0:0:
232,352,51842,1,0,0:0:0:0:
244,356,51926,1,0,0:0:0:0:
256,360,52009,6,0,B|268:323|256:291|256:291|244:259|256:227,1,132.00000402832,2|0,0:0|0:0,0:0:0:0:
268,212,52342,1,0,0:0:0:0:
128,104,52509,2,0,L|24:112,1,88.000002685547,6|8,1:3|0:1,0:0:0:0:
268,212,52842,2,0,L|313:117,1,88.000002685547,2|0,0:0|0:0,0:0:0:0:
104,279,53176,6,0,L|162:365,1,88.000002685547,6|0,0:0|0:0,0:0:0:0:
128,104,53509,2,0,L|24:112,1,88.000002685547,6|0,0:0|0:0,0:0:0:0:
372,16,53842,2,0,L|268:24,1,88.000002685547,6|8,0:0|0:1,0:0:0:0:
308,312,54176,2,0,L|204:320,1,88.000002685547,6|0,0:0|0:0,0:0:0:0:
376,176,54509,1,0,0:0:0:0:
386,179,54592,1,0,0:0:0:0:
396,182,54676,6,0,P|424:228|292:304,1,220.000006713867,4|0,0:1|0:0,0:0:0:0:
308,312,55176,1,4,1:3:0:0:
136,348,55342,2,0,L|128:212,1,132.00000402832,8|0,0:1|0:0,0:0:0:0:
112,200,55676,2,0,L|44:212,1,44.0000013427735,4|0,1:3|0:0,0:0:0:0:
228,232,55842,6,0,B|232:176|232:176|226:155|226:155|233:79,1,132.00000402832,4|0,0:0|0:0,0:0:0:0:
224,84,56176,2,0,B|252:152|252:152|328:88,1,155.999992858887,4|4,0:3|0:3,0:0:0:0:
332,84,56509,1,4,0:3:0:0:
160,148,56676,2,0,L|192:220,1,44.0000013427735,8|0,0:1|0:0,0:0:0:0:
76,68,56842,5,0,0:0:0:0:
44,244,57009,2,0,L|28:320,1,44.0000013427735,4|0,0:3|0:0,0:0:0:0:
180,332,57176,2,0,B|220:344|268:332|268:332|316:320|356:332,1,176.000005371094,4|0,0:0|0:0,0:0:0:0:
444,360,57676,5,0,0:0:0:0:
424,368,57842,1,4,1:3:0:0:
448,204,58009,5,8,0:1:0:0:
420,280,58176,1,0,0:0:0:0:
336,48,58342,5,0,0:0:0:0:
364,168,58509,2,0,L|348:96,1,44.0000013427735,0|0,0:0|0:0,0:0:0:0:
354,125,58842,6,0,L|336:272,1,120.000004577637,4|0,0:3|0:0,0:0:0:0:
408,344,59092,2,0,L|422:224,1,120.000004577637,4|0,0:3|0:0,0:0:0:0:
204,228,59342,2,0,L|260:284,1,80,8|0,0:1|0:0,0:0:0:0:
354,125,59509,6,0,L|326:129,1,22.0000006713867,0|0,0:0|0:0,0:0:0:0:
438,223,59676,6,0,L|428:151,1,60.0000022888184,2|0,0:0|0:0,0:0:0:0:
430,164,60009,5,4,0:1:0:0:
332,244,60176,1,0,0:0:0:0:
408,344,60342,2,0,L|504:336,1,88.000002685547,8|0,0:1|0:0,0:0:0:0:
332,244,60676,2,0,L|236:236,1,88.000002685547,0|4,0:0|0:3,0:0:0:0:
148,276,61009,1,8,0:1:0:0:
56,168,61176,6,0,L|60:116,2,44.0000013427735,0|0|4,0:0|0:0|0:3,0:0:0:0:
148,276,61509,2,0,L|152:376,1,88.000002685547,0|8,0:0|0:1,0:0:0:0:
256,200,61842,1,0,0:0:0:0:
286,168,61926,1,0,0:0:0:0:
327,155,62009,1,0,0:0:0:0:
370,165,62092,1,0,0:0:0:0:
402,193,62176,1,4,0:3:0:0:
328,331,62342,2,0,L|332:244,1,88.000002685547,8|0,0:1|0:0,0:0:0:0:
480,148,62676,6,0,P|488:204|472:252,1,88.000002685547,4|0,0:3|0:0,0:0:0:0:
328,332,63009,2,0,B|264:332|264:332|220:308|220:308|152:308,1,176.000005371094,8|0,0:1|0:0,0:0:0:0:
56,356,63509,1,4,0:3:0:0:
158,308,63676,1,8,0:1:0:0:
77,71,63842,6,0,P|51:154|68:240,1,176.000005371094,0|0,0:0|0:0,0:0:0:0:
158,308,64342,1,8,0:1:0:0:
248,200,64509,1,0,0:0:0:0:
328,332,64676,5,0,0:0:0:0:
370,340,64759,1,0,0:0:0:0:
413,332,64842,1,4,0:3:0:0:
449,307,64926,1,0,0:0:0:0:
492,328,65009,5,8,0:1:0:0:
469,290,65092,1,0,0:0:0:0:
457,248,65176,1,0,0:0:0:0:
458,204,65259,1,0,0:0:0:0:
470,162,65342,6,0,L|356:152,1,88.000002685547,4|0,0:1|0:0,0:0:0:0:
176,112,65676,2,0,B|228:108|228:108|256:96|256:96|328:92,1,132.00000402832,10|0,0:2|0:0,0:0:0:0:
305,93,66009,2,0,L|295:200,1,88.000002685547,2|4,0:0|0:3,0:0:0:0:
368,24,66342,1,8,0:1:0:0:
297,180,66509,1,0,0:0:0:0:
204,32,66676,5,6,0:3:0:0:
160,27,66759,1,0,0:0:0:0:
120,45,66842,1,0,0:0:0:0:
95,80,66926,1,0,0:0:0:0:
176,112,67009,5,10,0:2:0:0:
219,117,67092,1,0,0:0:0:0:
254,143,67176,1,0,0:0:0:0:
271,183,67259,1,0,0:0:0:0:
176,200,67342,5,2,0:0:0:0:
132,195,67426,1,0,0:0:0:0:
92,213,67509,1,4,0:3:0:0:
67,248,67592,1,0,0:0:0:0:
148,280,67676,6,0,L|152:356,1,44.0000013427735,10|0,0:2|0:0,0:0:0:0:
236,304,67842,2,0,L|240:380,1,44.0000013427735,0|0,0:0|0:0,0:0:0:0:
312,264,68009,5,4,0:3:0:0:
150,323,68176,1,0,0:0:0:0:
320,348,68342,2,0,P|360:336|396:280,1,88.000002685547,8|0,0:1|0:0,0:0:0:0:
388,216,68592,1,0,0:0:0:0:
384,192,68676,2,0,L|372:92,1,88.000002685547,0|4,0:0|0:3,0:0:0:0:
236,68,69009,1,8,0:1:0:0:
201,95,69092,1,0,0:0:0:0:
159,102,69176,1,0,0:0:0:0:
118,87,69259,1,0,0:0:0:0:
89,54,69342,5,4,0:3:0:0:
244,172,69509,2,0,L|264:216,2,44.0000013427735,0|0|8,0:0|0:0|0:1,0:0:0:0:
168,16,69842,1,0,0:0:0:0:
48,156,70009,6,0,P|40:196|56:256,1,88.000002685547,2|4,0:3|0:3,0:0:0:0:
32,288,70259,1,0,0:0:0:0:
75,281,70342,1,8,0:1:0:0:
118,286,70426,1,0,0:0:0:0:
161,297,70509,1,0,0:0:0:0:
205,295,70592,1,0,0:0:0:0:
248,285,70676,5,4,0:1:0:0:
339,231,70842,1,0,0:0:0:0:
456,352,71009,2,0,L|464:264,1,88.000002685547,8|0,0:1|0:0,0:0:0:0:
384,64,71342,1,0,0:0:0:0:
332,144,71509,2,0,L|340:232,1,88.000002685547,4|8,0:3|0:1,0:0:0:0:
384,64,71842,2,0,L|428:48,2,44.0000013427735,0|0|4,0:0|0:0|0:3,0:0:0:0:
152,136,72176,5,0,0:0:0:0:
60,112,72342,1,8,0:1:0:0:
85,76,72426,1,0,0:0:0:0:
122,53,72509,1,0,0:0:0:0:
165,49,72592,1,0,0:0:0:0:
207,62,72676,1,0,0:0:0:0:
332,144,72842,1,4,0:3:0:0:
244,260,73009,2,0,L|228:172,1,88.000002685547,8|0,0:1|0:0,0:0:0:0:
220,356,73342,6,0,L|308:344,1,88.000002685547,4|0,0:3|0:0,0:0:0:0:
488,264,73676,2,0,P|452:224|384:244,1,132.00000402832,8|0,0:1|0:0,0:0:0:0:
364,264,74009,1,0,0:0:0:0:
428,324,74176,1,4,0:3:0:0:
476,88,74342,1,8,0:1:0:0:
396,136,74509,5,0,0:0:0:0:
396,136,74592,1,0,0:0:0:0:
396,136,74676,2,0,B|312:108|312:172|216:136,1,176.000005371094,4|8,0:3|0:1,0:0:0:0:
48,80,75176,1,0,0:0:0:0:
108,160,75342,5,0,0:0:0:0:
121,201,75426,1,0,0:0:0:0:
122,245,75509,1,4,0:3:0:0:
110,287,75592,1,0,0:0:0:0:
88,324,75676,5,8,0:1:0:0:
129,309,75759,1,0,0:0:0:0:
173,308,75842,1,0,0:0:0:0:
215,319,75926,1,0,0:0:0:0:
252,343,76009,6,0,L|348:336,1,88.000002685547,0|0,0:0|0:0,0:0:0:0:
392,240,76342,2,0,P|376:196|384:144,1,88.000002685547,10|0,0:2|0:0,0:0:0:0:
396,136,76592,1,0,0:0:0:0:
396,136,76676,2,0,L|404:48,1,88.000002685547,2|4,0:0|0:3,0:0:0:0:
476,192,77009,1,8,0:1:0:0:
476,192,77176,1,0,0:0:0:0:
444,320,77342,5,6,0:3:0:0:
402,333,77426,1,0,0:0:0:0:
359,328,77509,1,0,0:0:0:0:
321,306,77592,1,0,0:0:0:0:
240,324,77676,5,10,0:2:0:0:
202,301,77759,1,0,0:0:0:0:
159,296,77842,1,0,0:0:0:0:
117,310,77926,1,0,0:0:0:0:
48,364,78009,5,2,0:0:0:0:
34,322,78092,1,0,0:0:0:0:
39,279,78176,1,4,0:3:0:0:
61,241,78259,1,0,0:0:0:0:
140,176,78342,6,0,L|152:232,1,44.0000013427735,10|0,0:2|0:0,0:0:0:0:
32,160,78509,2,0,L|41:116,1,44.0000013427735,0|0,0:0|0:0,0:0:0:0:
124,52,78676,6,0,L|224:44,1,88.000002685547,4|0,0:1|0:0,0:0:0:0:
408,96,79009,2,0,P|352:76|296:120,1,132.00000402832,8|0,0:1|0:0,0:0:0:0:
288,144,79342,1,4,0:1:0:0:
376,188,79509,1,0,0:0:0:0:
224,288,79676,2,0,L|216:240,1,44.0000013427735,8|0,0:1|0:0,0:0:0:0:
320,344,79842,2,0,L|328:296,1,44.0000013427735,0|0,0:0|0:0,0:0:0:0:
192,368,80009,6,0,L|144:360,3,44.0000013427735,4|0|0|0,0:1|0:0|0:0|0:0,0:0:0:0:
104,288,80342,2,0,L|56:280,3,44.0000013427735,0|0|0|0,0:0|0:0|0:0|0:0,0:0:0:0:
20,208,80676,5,0,0:0:0:0:
1,168,80759,1,0,0:0:0:0:
3,124,80842,1,0,0:0:0:0:
25,87,80926,1,0,0:0:0:0:
56,56,81009,6,0,P|88:48|124:48,1,44.0000013427735,0|0,0:0|0:0,0:0:0:0:
196,156,81176,2,0,P|174:153|153:147,1,44.0000013427735,0|0,0:0|0:0,0:0:0:0:
256,52,81342,5,4,0:1:0:0:
384,92,81509,1,0,0:0:0:0:
208,238,81676,2,0,P|189:191|205:139,1,88.000002685547,8|0,0:1|0:0,0:0:0:0:
364,216,82009,2,0,L|352:336,1,88.000002685547,0|4,0:0|0:3,0:0:0:0:
296,136,82342,1,8,0:1:0:0:
468,180,82509,1,0,0:0:0:0:
472,192,82592,1,0,0:0:0:0:
476,204,82676,1,4,0:3:0:0:
343,327,82842,5,0,0:0:0:0:
347,319,82898,1,0,0:0:0:0:
351,311,82954,1,0,0:0:0:0:
355,303,83009,1,8,0:1:0:0:
196,172,83176,1,0,0:0:0:0:
296,136,83342,1,0,0:0:0:0:
184,316,83509,5,4,0:3:0:0:
40,264,83676,2,0,L|28:144,1,88.000002685547,8|0,0:1|0:0,0:0:0:0:
204,36,84009,5,2,1:2:0:0:
192,40,84092,1,2,1:2:0:0:
188,48,84176,2,0,P|244:24|308:44,1,103.999995239258,2|8,1:2|1:0,0:0:0:0:
428,124,84426,2,0,P|377:129|331:107,1,103.999995239258,2|0,1:2|1:0,0:0:0:0:
184,216,84676,6,0,P|231:178|298:181,1,103.999995239258,2|0,1:2|1:0,0:0:0:0:
387,251,84926,2,0,P|358:247|327:223,2,51.999997619629,2|8|0,1:2|0:1|1:0,0:0:0:0:
427,123,85176,2,0,P|446:141|455:166,1,51.999997619629,2|0,1:2|0:0,0:0:0:0:
236,89,85342,6,0,L|241:21,1,51.999997619629,0|0,1:0|1:0,0:0:0:0:
323,94,85509,2,0,B|343:141|343:141|323:189,1,103.999995239258,2|8,1:2|1:0,0:0:0:0:
184,216,85759,2,0,L|176:112,1,103.999995239258,2|0,1:2|1:0,0:0:0:0:
47,59,86009,6,0,B|24:109|24:109|40:155,1,103.999995239258,2|0,1:2|1:0,0:0:0:0:
234,60,86259,2,0,L|239:8,2,51.999997619629,2|8|0,1:2|0:1|1:2,0:0:0:0:
101,211,86509,2,0,L|106:262,1,51.999997619629,2|0,1:2|0:0,0:0:0:0:
292,315,86676,5,4,0:3:0:0:
392,282,86842,1,0,0:0:0:0:
231,157,87009,2,0,P|215:194|234:251,1,88.000002685547,8|0,0:1|0:0,0:0:0:0:
396,288,87342,2,0,L|400:188,1,88.000002685547,0|4,0:0|0:3,0:0:0:0:
280,332,87676,1,8,0:1:0:0:
231,157,87842,1,0,0:0:0:0:
227,173,87926,1,0,0:0:0:0:
223,189,88009,1,4,0:3:0:0:
364,88,88176,5,0,0:0:0:0:
356,84,88231,1,0,0:0:0:0:
348,80,88287,1,0,0:0:0:0:
340,76,88342,1,8,0:1:0:0:
316,248,88509,5,0,0:0:0:0:
388,196,88676,1,0,0:0:0:0:
231,157,88842,5,4,0:3:0:0:
396,288,89009,2,0,L|492:284,1,88.000002685547,8|0,0:1|0:1,0:0:0:0:
364,88,89342,5,2,1:2:0:0:
348,80,89426,1,2,1:2:0:0:
328,72,89509,2,0,P|272:64|204:104,1,103.999995239258,2|8,1:2|1:0,0:0:0:0:
136,200,89759,2,0,P|80:208|12:168,1,103.999995239258,2|0,1:2|1:0,0:0:0:0:
224,172,90009,6,0,L|248:312,1,103.999995239258,2|0,1:2|1:0,0:0:0:0:
96,112,90259,2,0,L|104:36,2,51.999997619629,2|8|0,1:2|0:1|1:0,0:0:0:0:
104,256,90509,2,0,L|32:264,1,51.999997619629,2|0,1:2|0:0,0:0:0:0:
212,80,90676,6,0,B|240:76|240:76|280:92,1,51.999997619629,2|2,1:2|1:2,0:0:0:0:
224,172,90842,2,0,L|88:176,1,103.999995239258,2|8,1:2|1:0,0:0:0:0:
44,108,91092,2,0,B|24:64|24:64|52:-32,1,103.999995239258,2|0,1:2|1:0,0:0:0:0:
144,160,91342,2,0,L|136:296,1,103.999995239258,2|0,1:2|1:0,0:0:0:0:
236,56,91592,2,0,L|240:-8,2,51.999997619629,2|8|0,1:2|0:1|1:2,0:0:0:0:
247,148,91842,2,0,L|244:200,1,51.999997619629,2|0,1:2|0:0,0:0:0:0:
272,284,92009,5,4,0:3:0:0:
368,248,92176,1,0,0:0:0:0:
256,380,92342,2,0,P|224:368|180:312,1,88.000002685547,8|0,0:1|0:0,0:0:0:0:
248,148,92676,1,0,0:0:0:0:
368,248,92842,2,0,L|364:352,1,88.000002685547,4|8,0:3|0:1,0:0:0:0:
492,156,93176,5,0,0:0:0:0:
476,144,93259,1,0,0:0:0:0:
460,132,93342,1,4,0:3:0:0:
368,248,93509,5,0,0:0:0:0:
369,261,93565,1,0,0:0:0:0:
369,274,93620,1,0,0:0:0:0:
370,287,93676,1,8,0:1:0:0:
248,148,93842,1,0,0:0:0:0:
136,288,94009,6,0,L|148:184,1,88.000002685547,0|4,0:0|0:3,0:0:0:0:
16,268,94342,2,0,L|26:355,1,88.000002685547,8|0,0:1|0:0,0:0:0:0:
146,200,94676,5,4,0:3:0:0:
64,140,94842,1,0,0:0:0:0:
248,148,95009,2,0,P|256:188|252:240,1,88.000002685547,8|0,0:1|0:0,0:0:0:0:
156,80,95342,1,0,0:0:0:0:
348,184,95509,2,0,L|452:176,1,88.000002685547,4|8,0:3|0:1,0:0:0:0:
253,234,95842,5,0,0:0:0:0:
248,252,95926,1,0,0:0:0:0:
244,268,96009,1,4,0:3:0:0:
88,328,96176,5,0,0:0:0:0:
84,314,96231,1,0,0:0:0:0:
79,299,96287,1,0,0:0:0:0:
74,284,96342,1,8,0:1:0:0:
100,172,96509,1,0,0:0:0:0:
244,268,96676,6,0,P|288:276|336:256,1,88.000002685547,0|4,0:0|0:3,0:0:0:0:
468,168,97009,2,0,P|426:153|384:162,1,88.000002685547,8|0,0:1|0:0,0:0:0:0:
244,268,97342,6,0,L|236:372,1,103.999995239258,4|0,0:3|0:0,0:0:0:0:
164,216,97676,2,0,B|156:160|156:160|172:112|172:112|160:44,1,155.999992858887,8|0,0:1|0:0,0:0:0:0:
80,104,98009,2,0,L|28:92,2,51.999997619629,0|0|4,0:0|0:0|0:3,0:0:0:0:
248,176,98342,1,8,0:1:0:0:
116,308,98509,1,0,0:0:0:0:
96,284,98592,1,0,0:0:0:0:
80,264,98676,6,0,L|68:192,1,51.999997619629,4|0,0:3|0:0,0:0:0:0:
244,268,98842,2,0,L|235:319,1,51.999997619629,0|0,0:0|0:0,0:0:0:0:
160,140,99009,1,8,0:1:0:0:
188,136,99092,2,0,L|260:124,1,51.999997619629,0|0,0:0|0:0,0:0:0:0:
352,96,99259,6,0,L|344:228,1,103.999995239258,0|0,0:0|0:0,0:0:0:0:
476,212,99509,2,0,L|472:152,1,51.999997619629,4|0,0:3|0:0,0:0:0:0:
345,199,99676,2,0,L|353:331,1,103.999995239258,8|0,0:1|0:0,0:0:0:0:
212,368,100009,5,4,1:3:0:0:
160,366,100092,1,0,0:0:0:0:
114,342,100176,1,4,0:3:0:0:
84,301,100259,1,0,0:0:0:0:
75,250,100342,5,4,1:3:0:0:
126,248,100426,1,0,0:0:0:0:
172,224,100509,1,4,0:3:0:0:
202,183,100592,1,0,0:0:0:0:
211,132,100676,5,4,1:3:0:0:
160,130,100759,1,0,0:0:0:0:
114,106,100842,1,4,0:3:0:0:
84,65,100926,1,0,0:0:0:0:
75,14,101009,6,0,L|156:24,1,60.0000022888184,8|0,0:1|0:0,0:0:0:0:
284,36,101176,1,4,1:2:0:0:
256,192,101259,12,4,102676,0:1:0:0:
256,192,112009,12,0,113176,0:0:0:0:
240,160,113342,6,0,L|328:152,1,80,10|0,0:0|0:0,0:0:0:0:
352,336,113676,2,0,L|264:344,1,80,8|0,0:0|0:0,0:0:0:0:
108,232,114009,2,0,P|96:192|100:148,1,80,8|0,0:0|0:0,0:0:0:0:
408,64,114342,2,0,P|420:104|416:148,1,80,8|0,0:0|0:0,0:0:0:0:
188,368,114676,6,0,B|276:356|276:356|244:336,1,120,10|0,0:0|0:0,0:0:0:0:
192,284,115009,2,0,B|180:244|180:244|192:200,1,80,8|0,0:0|0:0,0:0:0:0:
420,100,115342,2,0,B|432:140|432:140|420:184,1,80,8|0,0:0|0:0,0:0:0:0:
316,56,115676,1,8,0:0:0:0:
392,8,115842,1,0,0:0:0:0:
220,176,116009,6,0,P|144:184|76:124,1,160,10|8,0:0|0:0,0:0:0:0:
172,104,116509,1,0,0:0:0:0:
288,240,116676,2,0,L|276:320,1,80,8|0,0:0|0:0,0:0:0:0:
356,168,117009,2,0,L|344:88,1,80,8|0,0:0|0:0,0:0:0:0:
412,252,117342,6,0,L|492:240,1,80,10|0,0:0|0:0,0:0:0:0:
340,332,117676,2,0,L|260:344,1,80,8|0,0:0|0:0,0:0:0:0:
112,328,118009,2,0,P|104:288|112:248,1,80,10|0,0:0|0:0,0:0:0:0:
124,224,118259,1,0,0:0:0:0:
136,192,118342,2,0,P|143:152|135:113,1,80,8|0,0:0|0:0,0:0:0:0:
84,36,118676,6,0,B|132:28|132:28|188:40|188:40|260:28,1,160,10|8,0:0|0:0,0:0:0:0:
328,84,119092,2,0,L|376:92,2,40,0|0|0,0:0|0:0|0:0,0:0:0:0:
240,136,119342,2,0,L|260:220,1,80,8|0,0:0|0:0,0:0:0:0:
360,264,119592,2,0,L|368:224,1,40,0|8,0:0|0:0,0:0:0:0:
408,344,119759,2,0,L|464:356,2,40,0|0|0,0:0|0:0|0:0,0:0:0:0:
280,316,120009,6,0,B|208:292|208:352|112:320,1,160,10|8,0:0|0:0,0:0:0:0:
36,280,120426,2,0,L|-8:272,2,40,0|0|0,0:0|0:0|0:0,0:0:0:0:
104,216,120676,2,0,P|112:176|92:132,1,80,8|0,0:0|0:0,0:0:0:0:
32,24,120926,1,0,0:0:0:0:
20,40,121009,2,0,P|6:77|14:115,1,80,8|0,0:0|0:0,0:0:0:0:
176,324,121342,5,10,0:0:0:0:
304,248,121509,1,8,0:0:0:0:
480,348,121676,5,8,0:0:0:0:
408,296,121842,1,8,0:0:0:0:
264,372,122009,5,8,0:0:0:0:
328,132,122176,1,8,0:0:0:0:
408,296,122342,5,8,0:0:0:0:
464,184,122509,1,8,0:0:0:0:
384,52,122676,5,8,0:0:0:0:
345,40,122759,1,8,0:0:0:0:
306,43,122842,1,8,0:0:0:0:
269,59,122926,1,8,0:0:0:0:
240,88,123009,5,8,0:0:0:0:
201,99,123092,1,8,0:0:0:0:
162,96,123176,1,8,0:0:0:0:
125,80,123259,1,8,0:0:0:0:
97,52,123342,1,8,0:0:0:0:
32,156,123509,5,0,0:0:0:0:
192,8,123676,1,2,0:0:0:0:
256,196,123842,1,2,0:0:0:0:
116,308,124009,6,0,B|119:244|119:244|112:219|112:219|116:147,1,150,4|0,1:0|0:0,0:0:0:0:
132,140,124342,1,8,0:1:0:0:
328,96,124509,2,0,L|240:80,1,50,0|0,0:0|0:0,0:0:0:0:
212,160,124676,2,0,L|404:196,1,150,0|0,1:0|0:0,0:0:0:0:
384,176,125009,1,8,0:1:0:0:
492,344,125176,1,0,0:0:0:0:
508,144,125342,1,0,1:0:0:0:
372,292,125509,1,0,0:0:0:0:
508,144,125676,6,0,P|524:188|504:244,1,100,8|0,0:1|0:0,0:0:0:0:
384,280,125926,1,0,0:0:0:0:
372,292,126009,2,0,B|352:300|324:292|324:292|296:284|272:292,1,100,0|0,1:0|0:0,0:0:0:0:
184,344,126259,1,0,0:0:0:0:
168,336,126342,2,0,L|148:264,1,50,8|0,0:1|0:0,0:0:0:0:
208,192,126509,2,0,L|228:120,1,50,0|0,0:0|0:0,0:0:0:0:
64,52,126676,5,0,1:0:0:0:
92,200,126842,1,0,0:0:0:0:
304,104,127009,2,0,L|140:92,1,150,8|0,0:1|0:0,0:0:0:0:
136,104,127342,1,0,1:0:0:0:
360,40,127509,1,0,0:0:0:0:
252,312,127676,6,0,L|240:232,1,50,8|0,0:1|0:0,0:0:0:0:
261,162,127842,2,0,L|249:350,1,150,0|0,0:0|0:0,0:0:0:0:
236,328,128176,1,0,0:0:0:0:
392,272,128342,1,8,0:1:0:0:
108,232,128509,1,0,0:0:0:0:
268,156,128676,6,0,P|280:112|248:56,1,100,0|0,1:0|0:0,0:0:0:0:
184,36,128926,1,0,0:0:0:0:
120,80,129009,2,0,P|108:124|140:180,1,100,8|0,0:1|0:0,0:0:0:0:
282,162,129342,6,0,B|342:159|342:159|374:165|374:165|446:161,1,150,0|0,1:0|0:0,0:0:0:0:
448,152,129676,1,8,0:1:0:0:
316,4,129842,2,0,L|308:72,1,50,0|0,0:0|0:0,0:0:0:0:
272,300,130009,2,0,L|253:144,1,150,0|0,1:0|0:0,0:0:0:0:
264,136,130342,1,8,0:1:0:0:
72,84,130509,1,0,0:0:0:0:
268,48,130676,1,0,1:0:0:0:
104,160,130842,1,0,0:0:0:0:
296,216,131009,6,0,L|288:348,1,100,8|0,0:1|0:0,0:0:0:0:
92,340,131342,2,0,P|64:292|84:224,1,100,0|0,1:0|0:0,0:0:0:0:
120,192,131592,1,0,0:0:0:0:
196,212,131676,2,0,L|320:216,1,100,8|0,0:1|0:0,0:0:0:0:
408,112,132009,6,0,L|428:4,1,100,0|0,1:0|0:0,0:0:0:0:
236,248,132342,2,0,L|256:356,1,100,8|0,0:1|0:0,0:0:0:0:
344,296,132676,1,0,1:0:0:0:
200,156,132842,2,0,P|232:120|304:116,1,100,0|8,0:0|0:1,0:0:0:0:
320,344,133176,6,0,L|344:339,1,25,0|0,0:0|0:0,0:0:0:0:
400,296,133342,6,0,L|313:279,1,80,8|0,0:0|0:0,0:0:0:0:
252,312,133509,6,0,L|456:280,1,160,4|0,1:2|0:0,0:0:0:0:
238,117,133759,2,0,L|164:310,1,160,12|0,1:1|0:0,0:0:0:0:
412,202,134009,2,0,L|347:121,1,80,12|0,0:1|0:0,0:0:0:0:
268,40,134176,5,8,0:1:0:0:
268,40,134259,1,8,0:1:0:0:
268,40,134342,2,0,B|220:36|220:36|180:56,1,80,8|0,0:1|0:0,0:0:0:0:
208,196,134509,2,0,B|256:200|256:200|296:180,1,80,0|0,0:0|0:0,0:0:0:0:
408,116,134676,6,0,L|420:268,1,150,8|0,0:1|0:0,0:0:0:0:
496,384,135009,2,0,P|508:350|504:287,1,100,8|0,0:1|0:0,0:0:0:0:
360,328,135342,6,0,P|304:343|220:299,1,150,8|0,0:1|0:0,0:0:0:0:
300,200,135676,2,0,L|303:250,1,50,8|0,0:1|0:0,0:0:0:0:
208,196,135842,1,0,0:0:0:0:
212,168,135926,1,0,0:0:0:0:
216,140,136009,5,10,0:2:0:0:
183,102,136092,1,2,0:0:0:0:
135,90,136176,1,2,0:0:0:0:
89,107,136259,1,2,0:0:0:0:
60,146,136342,2,0,L|56:264,1,100,10|0,0:2|0:0,0:0:0:0:
176,356,136676,5,8,0:1:0:0:
308,256,136842,1,0,0:0:0:0:
304,228,136926,1,0,0:0:0:0:
300,200,137009,1,8,0:1:0:0:
452,336,137176,1,0,0:0:0:0:
504,140,137342,6,0,P|488:92|400:28,1,150,8|0,0:1|0:0,0:0:0:0:
332,80,137676,2,0,L|224:72,1,100,8|0,0:1|0:0,0:0:0:0:
36,144,138009,1,8,0:1:0:0:
212,168,138176,1,0,0:0:0:0:
136,8,138342,1,8,0:1:0:0:
124,192,138509,1,0,0:0:0:0:
121,226,138592,1,0,0:0:0:0:
118,260,138676,5,10,0:2:0:0:
156,291,138759,1,2,0:0:0:0:
205,300,138842,1,2,0:0:0:0:
252,287,138926,1,2,0:0:0:0:
288,253,139009,2,0,L|280:372,1,100,10|0,0:2|0:0,0:0:0:0:
404,196,139342,2,0,L|412:315,1,100,8|0,0:1|0:0,0:0:0:0:
504,344,139592,5,0,0:0:0:0:
500,320,139676,2,0,L|493:252,1,68.0000012969971,8|0,0:1|0:0,0:0:0:0:
404,196,139842,2,0,L|410:128,1,68.0000012969971,0|0,0:0|0:0,0:0:0:0:
464,36,140009,5,8,0:1:0:0:
292,112,140176,1,2,0:0:0:0:
410,128,140342,1,8,0:1:0:0:
264,12,140509,1,2,0:0:0:0:
212,184,140676,5,8,0:1:0:0:
364,24,140842,1,2,0:0:0:0:
180,80,141009,1,8,0:1:0:0:
336,212,141176,1,2,0:0:0:0:
340,248,141259,1,0,0:0:0:0:
344,284,141342,5,8,0:2:0:0:
391,269,141426,1,0,0:0:0:0:
425,233,141509,1,2,0:0:0:0:
438,186,141592,1,0,0:0:0:0:
427,138,141676,5,8,0:2:0:0:
364,24,141842,1,2,0:0:0:0:
180,80,142009,2,0,L|68:72,1,100,8|2,0:1|0:0,0:0:0:0:
16,140,142259,1,0,0:0:0:0:
84,208,142342,2,0,L|196:200,1,100,8|2,0:1|0:0,0:0:0:0:
260,256,142592,5,0,0:0:0:0:
260,256,142676,2,0,L|264:300,7,25,8|0|0|0|0|0|0|0,0:1|0:0|0:0|0:0|0:0|0:0|0:0|0:0,0:0:0:0:
324,180,143009,2,0,L|328:136,7,25,8|0|0|0|0|0|0|0,0:1|0:0|0:0|0:0|0:0|0:0|0:0|0:0,0:0:0:0:
372,304,143342,6,0,L|376:348,7,25,8|0|0|0|0|0|0|0,0:1|0:0|0:0|0:0|0:0|0:0|0:0|0:0,0:0:0:0:
440,156,143676,2,0,L|444:112,7,25,8|0|0|0|0|0|0|0,0:1|0:0|0:0|0:0|0:0|0:0|0:0|0:0,0:0:0:0:
324,180,144009,6,0,L|144:160,1,160,8|0,1:2|0:0,0:0:0:0:
64,312,144259,2,0,L|244:292,1,160,8|0,1:2|0:0,0:0:0:0:
76,132,144509,2,0,B|72:172|72:172|92:232,1,80,8|0,1:2|0:0,0:0:0:0:
223,294,144676,6,0,L|231:150,1,120.000004577637,8|8,0:1|0:1,0:0:0:0:
344,256,144926,1,8,0:1:0:0:
347,284,145009,2,0,L|355:372,1,60.0000022888184,8|0,0:1|0:0,0:0:0:0:
468,280,145176,2,0,L|473:220,1,60.0000022888184,8|8,0:0|0:0,0:0:0:0:
348,148,145342,6,0,L|332:44,1,100,4|0,0:0|0:0,0:0:0:0:
436,64,145676,1,8,0:1:0:0:
240,128,145842,2,0,L|184:120,2,50,0|0|0,0:0|0:0|0:0,0:0:0:0:
348,148,146176,1,4,0:3:0:0:
124,376,146342,2,0,P|116:324|132:260,1,100,8|0,0:1|0:0,0:0:0:0:
144,208,146592,5,0,0:0:0:0:
152,188,146676,2,0,P|160:138|151:89,1,100,4|0,0:3|0:0,0:0:0:0:
80,8,146926,1,0,0:0:0:0:
96,24,147009,2,0,L|144:12,1,50,8|0,0:1|0:0,0:0:0:0:
220,48,147176,2,0,P|272:56|324:32,1,100,0|0,0:0|0:0,0:0:0:0:
476,112,147509,1,4,0:3:0:0:
424,24,147676,1,8,0:1:0:0:
372,152,147842,5,0,0:0:0:0:
372,152,147926,1,0,0:0:0:0:
372,152,148009,2,0,L|360:256,1,100,4|0,0:3|0:0,0:0:0:0:
264,208,148342,1,8,0:1:0:0:
452,280,148509,2,0,L|512:296,2,50,0|0|0,0:0|0:0|0:0,0:0:0:0:
356,260,148842,1,4,0:3:0:0:
228,352,149009,2,0,L|124:344,1,100,8|0,0:1|0:0,0:0:0:0:
76,292,149259,5,0,0:0:0:0:
68,272,149342,2,0,P|60:208|76:152,1,100,4|0,0:3|0:0,0:0:0:0:
172,36,149676,1,8,0:1:0:0:
60,48,149842,1,0,0:0:0:0:
60,48,149926,1,0,0:0:0:0:
60,48,150009,1,0,0:0:0:0:
188,144,150176,2,0,P|196:188|184:256,1,100,4|8,0:3|0:1,0:0:0:0:
272,360,150509,1,0,0:0:0:0:
272,360,150592,1,0,0:0:0:0:
272,360,150676,6,0,L|332:352,3,50,4|0|0|0,0:3|0:0|0:0|0:0,0:0:0:0:
376,296,151009,2,0,L|436:288,3,50,8|0|0|0,0:1|0:0|0:0|0:0,0:0:0:0:
456,212,151342,2,0,P|460:184|452:140,3,50,0|0|4|0,0:0|0:0|0:3|0:0,0:0:0:0:
360,144,151676,2,0,P|356:112|364:72,3,50,8|0|0|0,0:1|0:0|0:0|0:0,0:0:0:0:
404,24,152009,6,0,P|372:16|348:16,1,50,4|0,0:3|0:0,0:0:0:0:
212,136,152176,2,0,P|236:134|260:127,1,50,0|0,0:0|0:0,0:0:0:0:
40,40,152342,2,0,L|32:92,1,50,8|0,0:1|0:0,0:0:0:0:
128,116,152509,2,0,L|136:168,1,50,0|0,0:0|0:0,0:0:0:0:
24,232,152676,6,0,P|16:200|12:156,1,50,0|0,0:0|0:0,0:0:0:0:
116,320,152842,2,0,P|111:344|105:368,1,50,4|0,0:3|0:0,0:0:0:0:
176,260,153009,1,8,0:1:0:0:
176,260,153092,1,0,0:0:0:0:
176,260,153176,1,0,0:0:0:0:
176,260,153259,1,0,0:0:0:0:
176,260,153342,5,4,0:3:0:0:
219,284,153426,1,0,0:0:0:0:
268,286,153509,1,0,0:0:0:0:
313,265,153592,1,0,0:0:0:0:
340,236,153676,5,8,0:1:0:0:
383,212,153759,1,0,0:0:0:0:
432,210,153842,1,0,0:0:0:0:
477,231,153926,1,0,0:0:0:0:
508,264,154009,5,0,0:0:0:0:
486,219,154092,1,0,0:0:0:0:
479,169,154176,1,4,0:3:0:0:
488,120,154259,1,0,0:0:0:0:
504,76,154342,5,8,0:1:0:0:
456,88,154426,1,0,0:0:0:0:
407,88,154509,1,0,0:0:0:0:
361,68,154592,1,0,0:0:0:0:
320,43,154676,6,0,B|266:34|266:34|206:54|206:54|146:46,1,160,8|0,0:1|0:0,0:0:0:0:
71,19,154926,6,0,L|83:142,1,120.000004577637,4|0,1:3|0:0,0:0:0:0:
154,182,155176,6,0,P|161:149|162:124,1,40,8|0,0:1|0:0,0:0:0:0:
86,241,155342,6,0,P|89:258|92:270,1,30.0000011444092,0|4,0:0|1:3,0:0:0:0:
160,328,155509,5,0,0:0:0:0:
206,315,155592,1,0,0:0:0:0:
253,311,155676,1,8,0:1:0:0:
301,319,155759,1,0,0:0:0:0:
347,332,155842,1,4,0:3:0:0:
395,336,155926,1,0,0:0:0:0:
442,328,156009,5,4,1:3:0:0:
442,328,156342,2,0,L|448:244,1,80,0|0,0:0|0:0,0:0:0:0:
352,172,156592,2,0,L|356:212,1,40,0|0,0:0|0:0,0:0:0:0:
440,144,156759,2,0,L|444:104,2,40,0|0|0,0:0|0:0|0:0,0:0:0:0:
392,40,157009,6,0,P|424:28|452:28,1,40,0|0,0:0|0:0,0:0:0:0:
304,88,157176,2,0,P|284:83|266:75,1,40,0|0,0:0|0:0,0:0:0:0:
136,56,157342,6,0,L|156:120,1,40,4|0,0:1|0:0,0:0:0:0:
16,220,157509,2,0,L|4:168,1,40,0|0,0:0|0:0,0:0:0:0:
56,64,157676,2,0,L|104:256,1,180.000006866455,8|0,0:1|0:0,0:0:0:0:
156,312,158009,6,0,P|116:280|24:320,1,120.000004577637,6|0,0:3|0:0,0:0:0:0:
244,360,158259,2,0,P|288:320|272:216,1,120.000004577637,6|0,0:3|0:0,0:0:0:0:
248,28,158509,2,0,P|194:83|237:191,1,180.000006866455,10|0,0:2|0:0,0:0:0:0:
234,187,158842,1,4,0:3:0:0:
440,100,159009,6,0,L|276:112,1,132.00000402832,8|0,0:1|0:0,0:0:0:0:
284,112,159342,1,4,0:3:0:0:
420,224,159509,1,4,0:3:0:0:
292,344,159676,2,0,P|276:304|288:256,1,88.000002685547,8|0,0:1|0:0,0:0:0:0:
320,192,159926,1,0,0:0:0:0:
308,180,160009,6,0,L|312:120,1,44.0000013427735,4|0,0:3|0:0,0:0:0:0:
128,80,160176,2,0,L|125:123,1,44.0000013427735,0|0,0:0|0:0,0:0:0:0:
204,232,160342,2,0,L|224:24,1,180.000006866455,8|0,0:1|0:0,0:0:0:0:
128,80,160676,6,0,P|80:92|16:52,1,120.000004577637,6|0,0:3|0:0,0:0:0:0:
312,104,160926,2,0,P|355:128|427:105,1,120.000004577637,6|0,0:3|0:0,0:0:0:0:
208,304,161176,2,0,P|240:252|184:124,1,180.000006866455,8|0,0:2|0:0,0:0:0:0:
192,136,161509,1,6,0:3:0:0:
320,16,161676,6,0,P|296:56|316:144,1,132.00000402832,8|0,0:2|0:0,0:0:0:0:
328,148,162009,1,4,0:3:0:0:
472,48,162176,1,4,0:3:0:0:
428,296,162342,2,0,L|420:184,1,88.000002685547,8|0,0:1|0:0,0:0:0:0:
504,132,162592,1,0,0:0:0:0:
512,144,162676,6,0,L|504:224,1,44.0000013427735,4|0,0:3|0:0,0:0:0:0:
340,132,162842,2,0,L|344:88,1,44.0000013427735,0|0,0:0|0:0,0:0:0:0:
433,192,163009,2,0,B|357:188|357:188|337:174|337:174|249:170,1,180.000006866455,8|0,0:1|0:0,0:0:0:0:
184,220,163342,6,0,P|204:244|308:232,1,120.000004577637,6|0,0:3|0:0,0:0:0:0:
328,120,163592,2,0,P|308:96|204:108,1,120.000004577637,6|0,0:3|0:0,0:0:0:0:
257,170,163842,2,0,L|456:164,1,180.000006866455,10|0,0:2|0:0,0:0:0:0:
456,152,164176,1,6,0:3:0:0:
476,328,164342,6,0,L|324:320,1,132.00000402832,8|0,0:1|0:0,0:0:0:0:
328,304,164676,2,0,L|336:352,1,44.0000013427735,4|0,0:3|0:0,0:0:0:0:
448,212,164842,2,0,L|440:260,1,44.0000013427735,4|0,0:3|0:0,0:0:0:0:
296,136,165009,2,0,L|304:184,1,44.0000013427735,8|0,0:1|0:0,0:0:0:0:
476,56,165176,2,0,L|468:104,1,44.0000013427735,0|0,0:0|0:0,0:0:0:0:
268,8,165342,5,4,0:0:0:0:
272,12,165509,1,8,0:1:0:0:
272,12,165842,6,0,L|260:84,1,60.0000022888184,0|0,0:0|0:0,0:0:0:0:
240,188,166009,1,12,0:1:0:0:
244,192,166509,6,0,L|308:188,1,60,4|0,0:3|0:0,0:0:0:0:
320,172,166842,6,0,L|144:180,1,120.000004577637,6|0,1:3|0:0,0:0:0:0:
368,256,167092,2,0,L|449:99,1,120.000004577637,6|0,1:3|0:0,0:0:0:0:
271,255,167342,2,0,L|318:329,1,60.0000022888184,8|0,0:1|0:0,0:0:0:0:
352,372,167509,1,4,0:3:0:0:
356,376,167676,5,8,0:1:0:0:
305,345,167759,1,0,0:0:0:0:
285,290,167842,1,0,0:0:0:0:
303,234,167926,1,0,0:0:0:0:
352,201,168009,6,0,B|400:208|444:188|444:188|476:256|476:256|432:280|392:272,1,240.000009155274,4|8,0:1|0:1,0:0:0:0:
216,236,168509,1,0,0:0:0:0:
216,236,168592,1,0,0:0:0:0:
216,236,168676,2,0,B|212:188|212:188|220:164|220:164|216:104,1,120.000004577637,6|0,0:3|0:0,0:0:0:0:
132,24,168926,2,0,B|135:70|135:70|127:94|127:94|131:142,1,120.000004577637,6|0,0:3|0:0,0:0:0:0:
92,256,169176,1,10,0:2:0:0:
76,232,169259,1,0,0:2:0:0:
60,208,169342,1,0,0:0:0:0:
219,295,169509,6,0,L|215:227,1,60.0000022888184,4|0,0:3|0:0,0:0:0:0:
44,188,169676,2,0,L|36:312,1,120.000004577637,8|0,0:1|0:0,0:0:0:0:
219,295,170009,6,0,L|215:227,1,60.0000022888184,4|0,0:3|0:0,0:0:0:0:
168,100,170176,2,0,L|164:159,1,60.0000022888184,4|0,0:3|0:0,0:0:0:0:
20,288,170342,2,0,L|27:168,1,120.000004577637,8|0,0:2|0:0,0:0:0:0:
168,100,170676,6,0,B|228:92|228:92|284:48,1,120.000004577637,4|0,0:3|0:0,0:0:0:0:
96,48,171009,2,0,P|80:128|168:188,1,180.000006866455,8|0,0:1|0:0,0:0:0:0:
274,144,171342,6,0,B|228:108|228:108|168:100,1,120.000004577637,6|0,0:3|0:0,0:0:0:0:
42,232,171592,2,0,B|102:224|102:224|148:187,1,120.000004577637,6|0,0:3|0:0,0:0:0:0:
208,24,171842,6,0,B|271:30|271:30|304:56|304:56|392:64,1,180.000006866455,10|0,0:2|0:0,0:0:0:0:
472,84,172176,6,0,L|468:4,1,60.0000022888184,4|0,0:3|0:0,0:0:0:0:
236,108,172342,2,0,B|272:136|272:136|372:148,1,120.000004577637,8|0,0:1|0:0,0:0:0:0:
469,24,172676,6,0,L|472:84,1,60.0000022888184,4|0,0:3|0:0,0:0:0:0:
345,144,172842,2,0,L|347:203,1,60.0000022888184,4|0,0:3|0:0,0:0:0:0:
452,304,173009,1,8,0:1:0:0:
456,276,173092,1,0,0:0:0:0:
460,248,173176,1,0,0:0:0:0:
464,220,173259,1,0,0:0:0:0:
468,192,173342,6,0,L|476:336,1,120.000004577637,4|0,0:3|0:0,0:0:0:0:
345,144,173676,2,0,L|355:333,1,180.000006866455,8|0,0:1|0:0,0:0:0:0:
260,288,174009,6,0,P|296:240|360:224,1,120.000004577637,6|0,0:3|0:0,0:0:0:0:
264,380,174259,2,0,P|207:362|172:315,1,120.000004577637,6|0,0:3|0:0,0:0:0:0:
266,120,174509,2,0,B|265:143|265:143|272:155|272:155|264:167|264:167|255:178|255:178|262:190|262:190|281:236|259:288,1,180.000006866455,10|0,0:2|0:0,0:0:0:0:
124,228,174842,6,0,L|184:235,1,60.0000022888184,4|0,0:3|0:0,0:0:0:0:
360,248,175009,1,8,0:1:0:0:
264,380,175176,1,0,0:0:0:0:
124,228,175342,6,0,L|116:144,1,60.0000022888184,4|0,0:3|0:0,0:0:0:0:
132,68,175509,1,4,0:3:0:0:
180,79,175592,1,0,0:0:0:0:
230,74,175676,1,8,0:1:0:0:
276,55,175759,1,0,0:0:0:0:
324,42,175842,1,0,0:0:0:0:
374,44,175926,1,0,0:0:0:0:
420,62,176009,6,0,L|416:236,1,160,4|0,1:2|0:0,0:0:0:0:
444,180,176676,6,0,L|441:308,1,103.999995239258,4|0,1:2|0:0,0:0:0:0:
504,112,177009,1,0,0:0:0:0:
352,248,177176,6,0,P|296:256|216:168,1,180.000006866455,4|0,0:0|0:0,0:0:0:0:
331,40,177509,6,0,P|344:104|312:159,1,128,6|0,1:3|0:0,0:0:0:0:
132,130,177759,2,0,P|176:84|244:83,1,136.000002593994,6|0,1:3|0:0,0:0:0:0:
249,235,178009,6,0,P|226:207|217:173,1,71.9999978027344,8|0,0:1|0:0,0:0:0:0:
244,84,178176,1,4,0:3:0:0:
352,248,178342,2,0,P|304:316|160:288,1,227.999993911743,8|0,0:1|0:0,0:0:0:0:
92,256,178676,6,0,P|48:252|8:256,2,80,4|0|0,1:1|0:0|0:0,0:0:0:0:
172,302,179176,2,0,L|184:218,1,80,2|0,0:0|0:0,0:0:0:0:
256,348,179509,2,0,L|268:264,1,80,2|0,0:0|0:0,0:0:0:0:
352,368,179842,5,2,0:0:0:0:
352,368,180176,2,0,P|396:360|436:364,2,80,2|2|2,0:0|0:0|0:0,0:0:0:0:
256,348,180676,2,0,L|244:264,1,80,0|0,0:0|0:0,0:0:0:0:
163,301,181009,1,2,0:0:0:0:
312,196,181176,1,2,0:0:0:0:
88,376,181342,6,0,P|68:320|112:212,1,160,2|0,0:0|0:0,0:0:0:0:
176,180,181842,2,0,P|196:124|152:16,1,160,2|0,0:0|0:0,0:0:0:0:
167,31,182509,2,0,P|123:27|83:31,1,80,2|0,0:0|0:0,0:0:0:0:
8,76,182842,1,2,0:0:0:0:
8,76,183009,1,2,0:0:0:0:
68,144,183176,1,2,0:0:0:0:
68,144,183509,1,0,0:0:0:0:
104,232,183676,1,2,0:0:0:0:
8,220,183842,1,2,0:0:0:0:
44,316,184009,6,0,P|120:328|196:284,1,160,2|0,0:0|0:0,0:0:0:0:
264,236,184509,2,0,P|340:224|416:268,1,160,2|0,0:0|0:0,0:0:0:0:
410,261,185176,2,0,P|416:224|432:176,1,80,2|0,0:0|0:0,0:0:0:0:
464,84,185509,1,2,0:0:0:0:
464,84,185676,1,2,0:0:0:0:
368,108,185842,2,0,P|320:120|224:48,1,160,2|0,0:0|0:0,0:0:0:0:
88,96,186342,1,2,0:0:0:0:
148,32,186509,1,2,0:0:0:0:
172,152,186676,6,0,L|200:332,1,160,2|0,0:0|0:0,0:0:0:0:
288,356,187176,2,0,P|352:368|436:320,2,160,2|0|2,0:0|0:0|0:0,0:0:0:0:
140,360,188008,5,0,0:0:0:0:
140,360,188092,1,0,0:0:0:0:
140,360,188176,1,0,0:0:0:0:
155,323,188259,1,0,0:0:0:0:
160,283,188342,5,0,0:0:0:0:
154,244,188426,1,0,0:0:0:0:
138,207,188509,1,0,0:0:0:0:
122,170,188592,1,0,0:0:0:0:
117,130,188676,5,0,0:0:0:0:
123,91,188759,1,0,0:0:0:0:
136,52,188842,1,0,0:0:0:0:
163,23,188926,1,0,0:0:0:0:
199,7,189009,5,0,0:0:0:0:
239,6,189092,1,0,0:0:0:0:
276,22,189176,1,0,0:0:0:0:
311,40,189259,1,0,0:0:0:0:
334,72,189342,6,0,P|344:116|328:160,1,80,2|0,0:0|0:0,0:0:0:0:
328,156,189592,1,0,0:0:0:0:
322,164,189676,1,0,0:0:0:0:
436,328,189842,2,0,L|424:192,1,120,2|0,0:0|0:0,0:0:0:0:
436,200,190176,1,0,0:0:0:0:
322,164,190342,1,2,0:0:0:0:
464,92,190509,1,0,0:0:0:0:
311,40,190676,6,0,L|208:48,1,80,2|0,0:0|0:0,0:0:0:0:
219,48,190926,1,0,0:0:0:0:
207,50,191009,1,0,0:0:0:0:
104,172,191176,2,0,P|148:192|228:140,1,120,2|0,0:0|0:0,0:0:0:0:
224,148,191509,1,0,0:0:0:0:
196,52,191676,1,2,0:0:0:0:
316,172,191842,1,0,0:0:0:0:
432,120,192009,6,0,P|448:84|440:36,1,80,2|0,0:0|0:0,0:0:0:0:
436,36,192259,1,0,0:0:0:0:
429,28,192342,1,0,0:0:0:0:
316,172,192509,2,0,L|336:324,1,120,2|0,0:0|0:0,0:0:0:0:
344,308,192842,1,0,0:0:0:0:
444,240,193009,1,2,0:0:0:0:
224,312,193176,1,0,0:0:0:0:
204,308,193259,1,0,0:0:0:0:
184,304,193342,1,0,0:0:0:0:
314,60,193509,6,0,P|333:109|311:176,1,120,2|0,0:0|0:0,0:0:0:0:
303,187,193842,1,0,0:0:0:0:
156,128,194009,2,0,P|208:112|256:128,1,80,2|0,0:0|0:0,0:0:0:0:
224,312,194342,2,0,L|124:292,1,80,2|0,0:0|0:0,0:0:0:0:
51,310,194592,1,0,0:0:0:0:
62,328,194676,6,0,P|87:288|57:194,1,120,2|0,0:0|0:0,0:0:0:0:
68,205,195009,1,0,0:0:0:0:
218,72,195176,2,0,P|192:124|205:182,1,120,2|0,0:0|0:0,0:0:0:0:
221,198,195509,1,0,0:0:0:0:
355,110,195676,2,0,L|348:20,1,80,2|0,0:0|0:0,0:0:0:0:
334,249,196009,6,0,L|348:352,1,80,2|0,0:0|0:0,0:0:0:0:
352,336,196259,1,0,0:0:0:0:
360,344,196342,1,0,0:0:0:0:
400,188,196509,2,0,P|340:152|264:180,1,120,2|0,0:0|0:0,0:0:0:0:
280,168,196842,1,0,0:0:0:0:
364,352,197009,2,0,L|452:344,1,80,2|0,0:0|0:0,0:0:0:0:
208,268,197342,6,0,L|104:272,1,80,2|0,0:0|0:0,0:0:0:0:
116,272,197592,1,0,0:0:0:0:
104,273,197676,1,0,0:0:0:0:
20,136,197842,2,0,B|63:138|63:138|96:131|96:131|144:134,1,120,2|0,0:0|0:0,0:0:0:0:
156,144,198176,1,0,0:0:0:0:
304,88,198342,2,0,P|320:48|312:8,1,80,2|0,0:0|0:0,0:0:0:0:
240,200,198676,6,0,P|234:239|250:275,1,80,2|0,0:0|0:0,0:0:0:0:
260,284,198926,1,0,0:0:0:0:
268,292,199009,1,0,0:0:0:0:
480,220,199176,2,0,L|336:212,1,120,2|0,0:0|0:0,0:0:0:0:
348,220,199509,1,0,0:0:0:0:
388,372,199676,2,0,P|404:336|396:296,1,80,2|0,0:0|0:0,0:0:0:0:
240,200,200009,6,0,L|124:208,1,95.9999970703126,0|0,1:0|0:0,0:0:0:0:
40,160,200342,1,0,1:0:0:0:
119,296,200509,2,0,P|140:253|144:206,1,95.9999970703126,0|0,0:0|1:0,0:0:0:0:
128,92,200842,1,0,0:0:0:0:
20,260,201009,2,0,L|24:368,1,95.9999970703126,0|0,1:0|0:0,0:0:0:0:
36,364,201259,1,0,0:0:0:0:
48,372,201342,6,0,P|88:376|144:348,1,95.9999970703126,0|0,1:0|0:0,0:0:0:0:
200,264,201676,1,0,1:0:0:0:
128,92,201842,2,0,L|124:192,1,95.9999970703126,0|0,0:0|1:0,0:0:0:0:
200,264,202176,1,0,0:0:0:0:
280,144,202342,2,0,L|276:48,1,95.9999970703126,0|0,1:0|0:0,0:0:0:0:
268,28,202592,1,0,0:0:0:0:
260,8,202676,5,0,1:0:0:0:
360,84,202842,1,0,0:0:0:0:
472,24,203009,1,0,1:0:0:0:
464,156,203176,5,0,0:0:0:0:
360,84,203342,1,0,1:0:0:0:
247,139,203509,1,0,0:0:0:0:
260,8,203676,5,0,1:0:0:0:
360,84,203842,1,0,0:0:0:0:
464,156,204009,1,0,1:0:0:0:
471,24,204176,5,0,0:0:0:0:
360,84,204342,1,0,1:0:0:0:
247,139,204509,1,0,0:0:0:0:
316,276,204676,6,0,P|340:228|332:164,1,95.9999970703126,0|0,1:0|0:0,0:0:0:0:
152,116,205009,2,0,P|153:163|175:205,1,95.9999970703126,0|0,1:0|0:0,0:0:0:0:
175,205,205259,1,0,0:0:0:0:
175,205,205342,5,0,1:0:0:0:
216,48,205509,1,0,1:0:0:0:
175,205,205676,1,0,1:0:0:0:
247,139,205842,5,0,1:0:0:0:
124,28,206009,1,0,1:0:0:0:
247,139,206176,1,0,1:0:0:0:
84,180,206342,1,0,1:0:0:0:
216,48,206509,5,0,1:0:0:0:
216,48,206592,1,0,1:0:0:0:
216,48,206676,1,0,1:0:0:0:
175,205,206842,1,0,1:0:0:0:
216,48,207009,1,0,1:0:0:0:
247,139,207176,5,0,1:0:0:0:
64,88,207342,1,0,1:0:0:0:
247,139,207509,1,0,1:0:0:0:
420,68,207676,1,0,1:0:0:0:
434,100,207759,1,0,1:0:0:0:
440,136,207842,1,0,1:0:0:0:
437,172,207926,1,0,1:0:0:0:
426,206,208009,5,0,1:0:0:0:
411,238,208092,1,0,1:0:0:0:
405,274,208176,1,0,1:0:0:0:
408,310,208259,1,0,1:0:0:0:
419,344,208342,1,0,1:0:0:0:
377,320,208426,1,0,1:0:0:0:
330,312,208509,1,0,1:0:0:0:
282,318,208592,1,0,1:0:0:0:
240,339,208676,5,0,1:0:0:0:
184,358,208759,1,0,1:0:0:0:
127,341,208842,1,0,1:0:0:0:
91,294,208926,1,0,1:0:0:0:
90,235,209009,1,0,1:0:0:0:
120,184,209092,1,0,1:0:0:0:
176,168,209176,1,0,1:0:0:0:
231,193,209259,1,0,1:0:0:0:
262,243,209342,6,0,B|252:152|252:152|272:100|272:100|264:0,1,240.000009155274,0|0,3:0|0:0,0:0:0:0:
256,12,210426,5,0,0:0:0:0:
180,24,210509,1,0,0:0:0:0:
104,40,210592,1,0,0:0:0:0:
24,60,210676,6,0,P|16:88|16:124,2,60.0000022888184,4|0|0,1:0|2:0|2:0,0:0:0:0:
88,160,210926,1,0,2:0:0:0:
96,176,211009,2,0,P|104:204|104:240,1,60.0000022888184,0|0,1:0|2:0,0:0:0:0:
12,340,211176,2,0,P|12:310|20:281,1,60.0000022888184,0|0,1:0|2:0,0:0:0:0:
216,184,211342,6,0,P|292:192|392:96,1,210.000002002716,8|0,1:1|2:0,0:0:0:0:
288,48,211676,2,0,P|278:78|268:124,1,60.0000022888184,0|0,1:0|0:0,0:0:0:0:
476,292,211842,6,0,P|496:228|408:264,1,210.000002002716,0|0,1:0|0:0,0:0:0:0:
404,344,212176,1,0,1:0:0:0:
320,328,212259,1,0,1:0:0:0:
236,316,212342,2,0,B|188:312|148:332|148:332|168:288,1,120.000004577637,0|0,1:0|0:0,0:0:0:0:
288,48,212676,6,0,P|321:49|360:60,1,70.000000667572,8|0,1:0|0:0,0:0:0:0:
232,208,212842,2,0,P|216:178|206:139,1,70.000000667572,0|0,1:0|0:0,0:0:0:0:
412,184,213009,2,0,P|393:212|365:240,1,70.000000667572,8|0,1:0|0:0,0:0:0:0:
236,316,213176,2,0,L|156:320,1,70.000000667572,0|0,1:0|1:0,0:0:0:0:
64,216,213342,6,0,B|36:76|36:76|68:92,1,160,4|0,1:2|0:0,0:0:0:0:
224,148,213592,2,0,B|252:8|252:8|220:24,1,160,4|0,1:2|0:0,0:0:0:0:
40,300,213842,2,0,P|76:300|120:284,1,80,8|0,1:0|0:0,0:0:0:0:
312,384,214009,6,0,P|328:300|288:224,1,160,4|0,1:2|0:0,0:0:0:0:
400,44,214259,2,0,P|319:72|273:144,1,160,4|0,1:2|0:0,0:0:0:0:
56,128,214509,2,0,P|120:183|206:187,1,160,8|0,1:0|0:0,0:0:0:0:
399,273,214842,6,0,L|243:295,1,140.000001335144,0|0,1:0|0:0,0:0:0:0:
112,349,215092,2,0,L|268:371,1,140.000001335144,0|0,1:0|0:0,0:0:0:0:
300,207,215342,2,0,L|384:195,1,70.000000667572,8|0,1:0|0:0,0:0:0:0:
200,144,215509,2,0,L|116:132,1,70.000000667572,0|0,1:0|0:0,0:0:0:0:
296,84,215676,6,0,L|386:72,1,80,8|0,1:0|0:0,0:0:0:0:
60,72,216009,5,4,1:0:0:0:
42,107,216092,1,0,0:0:0:0:
36,147,216175,1,0,0:0:0:0:
42,186,216259,1,0,0:0:0:0:
59,222,216342,2,0,L|76:272,2,40,8|0|0,1:0|0:0|0:0,0:0:0:0:
120,348,216592,5,0,0:0:0:0:
155,330,216675,1,0,0:0:0:0:
195,328,216758,1,0,0:0:0:0:
233,340,216842,1,4,1:3:0:0:
264,368,216926,2,0,L|304:360,2,40,0|8|0,0:0|1:0|0:0,0:0:0:0:
352,276,217176,5,0,0:0:0:0:
380,249,217259,1,0,0:0:0:0:
419,244,217342,1,4,1:3:0:0:
454,264,217426,1,0,0:0:0:0:
470,299,217509,1,0,0:0:0:0:
462,338,217592,1,0,0:0:0:0:
433,364,217676,2,0,L|384:360,3,40,8|0|0|0,1:0|0:0|0:0|0:0,0:0:0:0:
296,384,218009,5,0,0:0:0:0:
275,340,218092,1,0,0:0:0:0:
269,293,218175,1,4,1:3:0:0:
276,245,218259,1,0,0:0:0:0:
281,202,218342,2,0,L|287:156,3,40,8|0|0|0,1:0|0:0|0:0|0:0,0:0:0:0:
247,83,218675,5,4,1:3:0:0:
215,58,218758,1,0,0:0:0:0:
177,47,218841,1,0,0:0:0:0:
138,51,218925,1,0,0:0:0:0:
102,70,219008,1,8,1:0:0:0:
76,99,219091,1,0,0:0:0:0:
62,136,219175,1,0,0:0:0:0:
62,176,219258,1,0,0:0:0:0:
77,213,219341,1,0,0:0:0:0:
99,246,219425,1,0,0:0:0:0:
132,268,219508,1,4,1:3:0:0:
171,276,219592,1,0,0:0:0:0:
210,269,219675,1,8,1:0:0:0:
243,248,219758,1,0,0:0:0:0:
267,216,219842,1,0,0:0:0:0:
276,177,219925,1,0,0:0:0:0:
270,138,220009,6,0,L|265:94,1,40,8|0,1:0|0:0,0:0:0:0:
170,151,220176,2,0,L|176:208,1,40,0|4,0:0|1:3,0:0:0:0:
43,213,220342,5,0,0:0:0:0:
26,139,220425,1,0,0:0:0:0:
53,68,220508,1,8,1:0:0:0:
111,23,220592,1,0,0:0:0:0:
185,15,220675,1,0,0:0:0:0:
252,49,220758,1,4,1:3:0:0:
292,113,220842,1,0,0:0:0:0:
301,188,220925,1,0,0:0:0:0:
309,268,221009,5,8,1:0:0:0:
289,280,221092,1,0,0:0:0:0:
269,292,221175,1,8,1:0:0:0:
249,305,221259,1,0,0:0:0:0:
230,314,221342,6,0,B|223:239|223:239|235:201|235:201|228:109,1,192,4|0,1:0|0:0,0:0:0:0:
276,56,221676,1,8,1:0:0:0:
96,120,221842,1,0,0:0:0:0:
340,196,222009,2,0,P|380:264|296:336,1,192,8|0,1:0|0:0,0:0:0:0:
230,314,222342,2,0,L|220:240,1,64,8|0,1:0|0:0,0:0:0:0:
448,36,222509,6,0,L|436:224,1,155.999992858887,0|0,1:0|0:0,0:0:0:0:
476,272,222842,2,0,L|520:260,1,40,4|4,1:3|1:3,0:0:0:0:
311,336,223009,6,0,B|263:320|215:336|215:336|171:352|119:336,1,192,4|0,1:2|0:0,0:0:0:0:
28,328,223342,2,0,P|16:296|32:244,1,64,8|0,1:0|0:0,0:0:0:0:
128,180,223509,2,0,L|120:240,1,40,0|0,1:0|0:0,0:0:0:0:
24,80,223676,6,0,P|56:60|100:60,1,64,8|0,1:0|0:0,0:0:0:0:
168,184,223842,2,0,L|97:177,1,40,4|4,1:3|1:3,0:0:0:0:
249,76,224009,6,0,B|312:79|312:79|349:73|349:73|433:77,1,160,8|4,1:0|1:2,0:0:0:0:
308,20,224676,6,0,L|341:103,1,70.000000667572,4|0,1:2|2:0,0:0:0:0:
132,313,224926,2,0,L|153:225,1,70.000000667572,4|0,1:2|2:0,0:0:0:0:
441,179,225176,2,0,L|371:235,1,70.000000667572,4|0,1:2|2:0,0:0:0:0:
112,102,225426,2,0,L|200:95,1,70.000000667572,4|0,1:2|2:0,0:0:0:0:
338,361,225676,2,0,L|260:312,1,70.000000667572,4|0,1:2|2:0,0:0:0:0:
308,20,225926,2,0,L|341:103,1,70.000000667572,4|0,1:2|2:0,0:0:0:0:
132,313,226176,2,0,L|153:225,1,70.000000667572,4|0,1:2|2:0,0:0:0:0:
112,102,226342,5,2,0:0:0:0:
176,168,226454,1,2,0:0:0:0:
28,140,226565,1,2,0:0:0:0:
126,25,226676,5,4,1:1:0:0:
147,45,226759,1,0,0:0:0:0:
175,55,226842,1,0,0:0:0:0:
205,54,226926,1,0,0:0:0:0:
231,41,227009,1,0,1:0:0:0:
255,23,227092,1,0,0:0:0:0:
284,18,227175,1,0,0:0:0:0:
314,25,227259,1,0,0:0:0:0:
348,28,227342,5,0,1:0:0:0:
315,50,227425,1,0,0:0:0:0:
302,87,227508,1,0,0:0:0:0:
311,126,227592,1,0,0:0:0:0:
341,152,227675,1,0,1:0:0:0:
380,157,227758,1,0,0:0:0:0:
415,139,227842,1,0,0:0:0:0:
434,105,227925,1,0,0:0:0:0:
430,66,228009,5,0,1:0:0:0:
391,93,228092,1,0,0:0:0:0:
371,136,228175,1,0,0:0:0:0:
373,183,228259,1,0,0:0:0:0:
399,223,228342,1,0,1:0:0:0:
431,256,228426,1,0,0:0:0:0:
444,302,228509,1,0,0:0:0:0:
433,347,228593,1,0,0:0:0:0:
402,382,228676,5,0,1:0:0:0:
362,348,228759,1,0,0:0:0:0:
349,299,228842,1,0,0:0:0:0:
365,251,228926,1,0,0:0:0:0:
399,223,229009,1,0,1:0:0:0:
432,183,229092,1,0,0:0:0:0:
436,133,229175,1,0,0:0:0:0:
412,88,229259,1,0,0:0:0:0:
360,64,229342,5,0,1:0:0:0:
418,60,229425,1,0,0:0:0:0:
469,91,229508,1,0,0:0:0:0:
493,145,229592,1,0,0:0:0:0:
481,203,229675,1,0,1:0:0:0:
439,244,229758,1,0,0:0:0:0:
381,253,229842,1,0,0:0:0:0:
328,228,229925,1,0,0:0:0:0:
298,177,230009,5,0,1:0:0:0:
303,239,230092,1,0,0:0:0:0:
264,287,230175,1,0,0:0:0:0:
202,294,230259,1,0,0:0:0:0:
152,255,230342,1,0,1:0:0:0:
157,193,230426,1,0,0:0:0:0:
117,145,230509,1,0,0:0:0:0:
55,138,230593,1,0,0:0:0:0:
6,177,230676,5,4,1:3:0:0:
32,178,230759,1,4,0:3:0:0:
59,180,230842,1,4,0:3:0:0:
85,182,230926,1,4,0:3:0:0:
145,226,231009,5,4,1:3:0:0:
171,225,231092,1,4,0:3:0:0:
198,223,231175,1,4,0:3:0:0:
224,221,231259,1,4,0:3:0:0:
269,163,231342,5,4,1:3:0:0:
295,164,231425,1,4,0:3:0:0:
322,166,231508,1,4,0:3:0:0:
348,168,231592,1,4,0:3:0:0:
408,212,231676,5,4,1:3:0:0:
440,247,231759,1,4,0:3:0:0:
432,294,231842,1,4,0:3:0:0:
389,316,231926,1,4,0:3:0:0:
346,294,232009,1,4,1:3:0:0:
