osu file format v14

[General]
AudioFilename: audio.mp3
AudioLeadIn: 0
PreviewTime: 210258
Countdown: 0
SampleSet: Soft
StackLeniency: 0.2
Mode: 0
LetterboxInBreaks: 0
WidescreenStoryboard: 1

[Editor]
Bookmarks: 5342,11592,38675,60008,81342,102675,124008,145342,157342,168175,189342,210675,232008
DistanceSpacing: 0.1
BeatDivisor: 4
GridSize: 32
TimelineZoom: 4.099998

[Metadata]
Title:STORIA
TitleUnicode:STORIA
Artist:xi vs sakuzyo
ArtistUnicode:xi vs sakuzyo
Creator:Len
Version:Collab STORIA
Source:
Tags:Halcyon Niflheimr VitMaster Black Lair AXION Leader -kevincela- Bonzi Reana Cellina Rose Pacifica Dailycare Crier Fortune Anishina Kodoku Regou Little CloudSplash16
BeatmapID:1461844
BeatmapSetID:586622

[Difficulty]
HPDrainRate:6
CircleSize:4.3
OverallDifficulty:9
ApproachRate:9.3
SliderMultiplier:2
SliderTickRate:1

[Events]
//Background and Video events
0,0,"bg0.png",0,0
//Break Periods
//Storyboard Layer 0 (Background)
//Storyboard Layer 1 (Fail)
//Storyboard Layer 2 (Pass)
//Storyboard Layer 3 (Foreground)
//Storyboard Layer 4 (Overlay)
//Storyboard Sound Samples

[TimingPoints]
9,333.333333333333,4,2,5,70,1,0
5342,-200,4,2,5,70,0,0
15508,-303.030303030303,4,2,5,70,0,0
16009,-303.030303030303,4,2,11,90,0,0
16092,-303.030303030303,4,2,5,70,0,0
21759,-303.030303030303,4,2,5,5,0,0
21842,-303.030303030303,4,2,5,70,0,0
22259,-303.030303030303,4,2,5,5,0,0
22342,-303.030303030303,4,2,5,70,0,0
26675,-111.111111111111,4,2,5,70,0,0
26676,-111.111111111111,4,2,11,90,0,0
26759,-111.111111111111,4,2,15,70,0,0
32342,-100,4,2,15,70,0,0
33342,-100,4,2,20,80,0,0
37676,-100,4,2,7,70,0,0
38675,-62.5,4,2,7,70,0,0
38676,-62.5,4,2,7,85,0,0
38759,-62.5,4,2,5,70,0,0
39508,-100,4,2,5,70,0,0
39842,-100,4,2,5,70,0,0
40842,-100,4,2,5,70,0,0
43009,-100,4,2,7,70,0,0
43092,-100,4,2,5,70,0,0
43342,-60.2409638554217,4,2,5,70,0,0
43676,-60.2409638554217,4,2,5,5,0,0
43842,-60.2409638554217,4,2,7,85,0,0
43926,-60.2409638554217,4,2,5,70,0,0
44008,-100,4,2,5,70,0,0
45008,-62.5,4,2,5,70,0,0
45175,-100,4,2,5,70,0,0
45508,-62.5,4,2,5,70,0,0
46342,-100,4,2,5,70,0,0
46675,-62.5,4,2,5,70,0,0
46925,-100,4,2,5,70,0,0
47175,-62.5,4,2,5,70,0,0
48675,-151.515151515152,4,2,5,70,0,0
49342,-100,4,2,7,85,0,0
49426,-100,4,2,5,70,0,0
49842,-62.5,4,2,5,70,0,0
50175,-100,4,2,5,70,0,0
53175,-62.5,4,2,5,70,0,0
54675,-100,4,2,5,70,0,0
54676,-100,4,2,7,85,0,0
54759,-100,4,2,5,70,0,0
56092,-62.5,4,2,5,70,0,0
56842,-100,4,2,5,70,0,0
57175,-62.5,4,2,5,70,0,0
58008,-76.9230769230769,4,2,5,70,0,0
58342,-62.5,4,2,5,70,0,0
59508,-100,4,2,5,70,0,0
59551,-100,4,2,5,5,0,0
59675,-62.5,4,2,5,5,0,0
59676,-62.5,4,2,5,70,0,0
59759,-62.5,4,2,5,5,0,0
60008,-100,4,2,5,5,0,0
60009,-100,4,2,7,85,0,0
60092,-100,4,2,5,70,0,0
61175,-151.515151515152,4,2,5,70,0,0
62342,-100,4,2,5,70,0,0
65342,-100,4,2,7,85,0,0
65426,-100,4,2,5,70,0,0
67675,-76.9230769230769,4,2,5,70,0,0
68008,-100,4,2,5,70,0,0
70676,-100,4,2,7,85,0,0
70759,-100,4,2,5,70,0,0
71842,-151.515151515152,4,2,5,70,0,0
73008,-100,4,2,5,70,0,0
78342,-76.9230769230769,4,2,5,70,0,0
78676,-76.9230769230769,4,2,7,85,0,0
78759,-76.9230769230769,4,2,5,70,0,0
80009,-76.9230769230769,4,2,7,70,0,0
80092,-76.9230769230769,4,2,5,70,0,0
82008,-200,4,2,5,70,0,0
82175,-76.9230769230769,4,2,5,70,0,0
82508,-100,4,2,5,70,0,0
83175,-200,4,2,5,70,0,0
83675,-62.5,4,2,5,70,0,0
84009,-62.5,4,2,6,75,0,0
84342,-62.5,4,2,5,75,0,0
84426,-62.5,4,2,6,75,0,0
85008,-100,4,2,6,75,0,0
85009,-100,4,2,5,75,0,0
85092,-100,4,2,6,75,0,0
85675,-62.5,4,2,6,75,0,0
85676,-62.5,4,2,5,75,0,0
85759,-62.5,4,2,6,75,0,0
86342,-76.9230769230769,4,2,5,75,0,0
86426,-76.9230769230769,4,2,6,75,0,0
86676,-76.9230769230769,4,2,5,70,0,0
87342,-200,4,2,5,70,0,0
87508,-76.9230769230769,4,2,5,70,0,0
87842,-100,4,2,5,70,0,0
88508,-200,4,2,5,70,0,0
89008,-62.5,4,2,5,70,0,0
89342,-62.5,4,2,6,75,0,0
89676,-62.5,4,2,5,75,0,0
89759,-62.5,4,2,6,75,0,0
90342,-100,4,2,5,75,0,0
90426,-100,4,2,6,75,0,0
91008,-62.5,4,2,6,75,0,0
91009,-62.5,4,2,5,75,0,0
91092,-62.5,4,2,6,75,0,0
91675,-76.9230769230769,4,2,6,75,0,0
91676,-76.9230769230769,4,2,5,75,0,0
91759,-76.9230769230769,4,2,6,75,0,0
92008,-100,4,2,6,75,0,0
92009,-100,4,2,5,70,0,0
97675,-62.5,4,2,5,70,0,0
101342,-100,4,2,5,70,0,0
102342,-125,4,2,5,70,0,0
102675,-333.333333333333,4,2,5,70,0,0
113342,-200,4,2,8,70,0,0
114675,-166.666666666667,4,2,8,70,0,0
116008,-142.857142857143,4,2,8,70,0,0
118675,-125,4,2,8,70,0,0
120008,-111.111111111111,4,2,8,70,0,0
123342,-200,4,2,8,70,0,0
124008,-100,4,2,8,70,0,0
124009,-100,4,2,5,70,0,0
133217,-100,4,2,5,5,0,0
133342,-100,4,2,5,70,0,0
133508,-76.9230769230769,4,2,5,70,0,0
134675,-100,4,2,5,70,0,0
141008,-76.9230769230769,4,2,5,70,0,0
144175,-62.5,4,2,5,70,0,0
144259,-62.5,4,2,8,70,0,0
144676,-62.5,4,2,5,70,0,0
145176,-62.5,4,2,8,70,0,0
145342,-66.6666666666667,4,2,5,70,0,0
145675,-76.9230769230769,4,2,5,70,0,0
146675,-66.6666666666667,4,2,5,70,0,0
147008,-76.9230769230769,4,2,5,70,0,0
148008,-66.6666666666667,4,2,5,70,0,0
148342,-76.9230769230769,4,2,5,70,0,0
149342,-66.6666666666667,4,2,5,70,0,0
149675,-76.9230769230769,4,2,5,70,0,0
150175,-66.6666666666667,4,2,5,70,0,0
150508,-100,4,2,5,70,0,0
150675,-125,4,2,5,70,0,0
151342,-100,4,2,5,70,0,0
152008,-83.3333333333333,4,2,5,70,0,0
156842,-83.3333333333333,4,2,5,70,0,0
156925,-71.4285714285714,4,2,5,70,0,0
157008,-62.5,4,2,5,70,0,0
157092,-55.5555555555556,4,2,5,70,0,0
157175,-50,4,2,5,70,0,0
157258,-45.4545454545455,4,2,5,70,0,0
157342,-62.5,4,2,7,70,0,0
157426,-62.5,4,2,5,70,0,0
157675,-62.5,4,2,5,70,0,0
157842,-66.6666666666667,4,2,5,70,0,0
158508,-83.3333333333333,4,2,5,70,0,0
159342,-66.6666666666667,4,2,5,70,0,0
159675,-62.5,4,2,5,70,0,0
160008,-66.6666666666667,4,2,5,70,0,0
160342,-62.5,4,2,5,70,0,0
160675,-142.857142857143,4,2,5,70,0,0
161175,-66.6666666666667,4,2,5,70,0,0
161508,-83.3333333333333,4,2,5,70,0,0
161675,-66.6666666666667,4,2,5,70,0,0
161842,-55.5555555555556,4,2,5,70,0,0
162008,-66.6666666666667,4,2,5,70,0,0
162342,-62.5,4,2,5,70,0,0
162675,-66.6666666666667,4,2,5,70,0,0
163008,-62.5,4,2,5,70,0,0
163342,-66.6666666666667,4,2,5,70,0,0
163842,-62.5,4,2,5,70,0,0
164175,-66.6666666666667,4,2,5,70,0,0
165008,-62.5,4,2,5,70,0,0
165342,-66.6666666666667,4,2,5,70,0,0
165675,-200,4,2,5,70,0,0
166508,-142.857142857143,4,2,5,70,0,0
166842,-62.5,4,2,5,70,0,0
168008,-100,4,2,5,70,0,0
168009,-100,4,2,7,70,0,0
168092,-100,4,2,5,70,0,0
168675,-83.3333333333333,4,2,5,70,0,0
174508,-66.6666666666667,4,2,5,70,0,0
174842,-83.3333333333333,4,2,5,70,0,0
176008,-100,4,2,5,70,0,0
176342,-166.666666666667,4,2,5,70,0,0
176675,-100,4,2,5,70,0,0
177175,-166.666666666667,4,2,5,70,0,0
177508,-66.6666666666667,4,2,5,70,0,0
178008,-125,4,2,5,70,0,0
178342,-90.9090909090909,4,2,5,70,0,0
178675,-200,4,2,5,70,0,0
184008,-142.857142857143,4,2,5,70,0,0
188009,-142.857142857143,4,2,5,40,0,0
188176,-142.857142857143,4,2,5,45,0,0
188342,-142.857142857143,4,2,5,50,0,0
188509,-142.857142857143,4,2,5,55,0,0
188676,-142.857142857143,4,2,5,60,0,0
188842,-142.857142857143,4,2,5,65,0,0
189009,-142.857142857143,4,2,5,70,0,0
189176,-142.857142857143,4,2,5,75,0,0
189342,-111.111111111111,4,2,5,70,0,0
197342,-100,4,2,5,70,0,0
200008,-250,4,2,5,70,0,0
202675,-166.666666666667,4,2,5,70,0,0
204008,-100,4,2,5,70,0,0
205342,-166.666666666667,4,2,5,70,0,0
207675,-500.000000000003,4,2,5,70,0,0
209342,-100,4,2,5,70,0,0
210675,-62.5,4,2,5,70,0,0
210676,-62.5,4,2,7,70,0,0
210759,-62.5,4,2,5,70,0,0
210967,-62.5,4,2,5,70,0,0
211008,-66.6666666666667,4,2,5,70,0,0
213342,-62.5,4,2,5,70,0,0
213550,-66.6666666666667,4,2,5,70,0,0
213592,-200,4,2,5,70,0,0
213758,-62.5,4,2,5,70,0,0
213967,-66.6666666666667,4,2,5,70,0,0
214008,-200,4,2,5,70,0,0
214175,-62.5,4,2,5,70,0,0
214842,-66.6666666666667,4,2,5,70,0,0
215675,-200,4,2,5,70,0,0
216008,-166.666666666667,4,2,5,70,0,0
216009,-166.666666666667,4,2,7,70,0,0
216092,-166.666666666667,4,2,5,70,0,0
220342,-66.6666666666667,4,2,5,70,0,0
221342,-62.5,4,2,7,70,0,0
221426,-62.5,4,2,5,70,0,0
221633,-62.5,4,2,5,70,0,0
221675,-66.6666666666667,4,2,5,70,0,0
223009,-66.6666666666667,4,2,12,70,0,0
223092,-66.6666666666667,4,2,5,70,0,0
223675,-62.5,4,2,5,70,0,0
224008,-500.000000000003,4,2,5,70,0,0
224342,-55.5555555555556,4,2,5,70,0,0
224675,-33.3333333333333,4,2,5,70,0,0
224676,-33.3333333333333,4,2,12,70,0,0
224925,-40,4,2,12,70,0,0
225175,-50,4,2,12,70,0,0
225425,-66.6666666666667,4,2,12,70,0,0
225675,-100,4,2,12,70,0,0
225925,-200,4,2,12,70,0,0
226175,-100,4,2,12,70,0,0
226675,-50,4,2,12,70,0,0
226676,-50,4,2,7,70,0,0
226759,-50,4,2,5,70,0,0
227008,-100,4,2,5,70,0,0
227342,-90.9090909090909,4,2,5,70,0,0
227675,-83.3333333333333,4,2,5,70,0,0
228008,-76.9230769230769,4,2,5,70,0,0
228342,-71.4285714285714,4,2,5,70,0,0
228675,-66.6666666666667,4,2,5,70,0,0
229008,-62.5,4,2,5,70,0,0
229342,-58.8235294117647,4,2,5,70,0,0
229675,-55.5555555555556,4,2,5,70,0,0
230008,-52.6315789473684,4,2,5,70,0,0
230342,-50,4,2,5,70,0,0
230675,-66.6666666666667,4,2,5,70,0,0
231175,-40,4,2,5,70,0,0
231342,-66.6666666666667,4,2,5,70,0,0
232009,-66.6666666666667,4,2,8,70,0,0

[Colours]
Combo1 : 255,231,157
Combo2 : 125,255,125
Combo3 : 159,203,255
Combo4 : 249,151,166

[HitObjects]
55,166,5342,6,0,P|53:116|43:62,1,100,4|0,0:0|0:0,0:0:0:0:
145,94,5842,1,0,0:0:0:0:
145,94,6008,2,0,L|197:89,1,50,0|0,0:0|0:0,0:0:0:0:
149,188,6342,2,0,L|203:196,1,50,0|0,0:0|0:0,0:0:0:0:
71,270,6675,2,0,L|19:265,1,50,0|0,0:0|0:0,0:0:0:0:
67,364,7009,2,0,L|13:372,1,50,0|0,0:0|0:0,0:0:0:0:
174,302,7342,5,0,0:0:0:0:
188,381,7508,1,0,0:0:0:0:
338,302,7675,5,0,0:0:0:0:
324,381,7841,1,0,0:0:0:0:
255,327,8008,6,0,L|255:268,1,50,0|0,0:0|0:0,0:0:0:0:
169,215,8342,6,0,L|126:189,1,50,0|0,0:0|0:0,0:0:0:0:
255,163,8675,2,0,L|255:104,1,50,0|0,0:0|0:0,0:0:0:0:
342,215,9008,2,0,L|385:189,1,50,0|0,0:0|0:0,0:0:0:0:
479,170,9342,6,0,P|481:120|491:66,1,100,0|0,0:0|0:0,0:0:0:0:
372,103,9842,2,0,L|366:53,1,50,0|0,0:0|0:0,0:0:0:0:
385,189,10175,2,0,L|338:215,2,50,0|0|0,0:0|0:0|0:0,0:0:0:0:
444,346,10675,6,0,L|437:289,1,50,0|0,0:0|0:0,0:0:0:0:
353,377,11008,2,0,L|346:320,1,50,0|0,0:0|0:0,0:0:0:0:
254,209,11342,2,0,L|247:266,1,50,0|0,0:0|0:0,0:0:0:0:
163,178,11675,2,0,L|156:235,1,50,0|0,0:0|0:0,0:0:0:0:
22,364,12008,2,0,P|73:365|116:331,1,100,0|0,0:0|0:0,0:0:0:0:
48,271,12508,2,0,L|34:212,1,50,0|0,0:0|0:0,0:0:0:0:
7,135,12842,5,0,0:0:0:0:
90,104,13008,1,0,0:0:0:0:
7,135,13175,1,0,0:0:0:0:
148,9,13342,6,0,L|99:7,1,50,0|0,0:0|0:0,0:0:0:0:
187,112,13675,2,0,L|169:159,1,50,0|0,0:0|0:0,0:0:0:0:
324,112,14008,2,0,L|343:159,1,50,0|0,0:0|0:0,0:0:0:0:
363,9,14341,2,0,L|413:7,1,50,0|0,0:0|0:0,0:0:0:0:
254,55,14675,1,0,0:0:0:0:
257,252,15008,5,0,0:0:0:0:
332,311,15175,1,0,0:0:0:0:
180,311,15342,1,0,0:0:0:0:
194,189,15508,1,0,0:0:0:0:
257,252,15675,1,0,0:0:0:0:
318,189,15842,1,0,0:0:0:0:
258,292,16008,6,0,B|366:264|322:386|443:364|443:364|381:350|363:308|355:252|411:161|522:193|506:290|460:288,1,527.999998388672,4|0,0:1|0:0,0:0:0:0:
461,288,19008,2,0,L|455:254,1,32.999999899292,0|0,0:0|0:0,0:0:0:0:
345,181,19342,5,0,0:0:0:0:
375,45,19592,1,0,0:0:0:0:
475,138,19842,1,0,0:0:0:0:
395,120,20008,5,0,0:0:0:0:
395,120,20342,1,0,0:0:0:0:
345,181,20508,2,0,L|340:218,1,32.999999899292,0|0,0:0|0:0,0:0:0:0:
266,121,20842,2,0,L|270:156,1,32.999999899292,0|0,0:0|0:0,0:0:0:0:
254,243,21175,1,0,0:0:0:0:
254,243,21342,5,0,0:0:0:0:
256,37,21842,1,0,0:0:0:0:
254,243,22342,2,0,B|259:328|206:375|132:362|109:306|136:225|174:172|257:154|257:154|212:63|104:65|104:65|156:77|167:113,1,659.99999798584,0|0,0:0|0:0,0:0:0:0:
168,108,26008,5,0,0:0:0:0:
74,71,26175,1,0,0:0:0:0:
20,153,26342,1,0,0:0:0:0:
86,232,26508,1,0,0:0:0:0:
86,232,26592,5,0,0:0:0:0:
86,232,26675,2,0,P|139:260|134:344,1,134.999995880127,4|0,0:1|0:0,0:0:0:0:
136,343,27008,1,8,0:3:0:0:
60,379,27175,2,0,P|7:350|11:267,1,134.999995880127,0|0,0:0|0:0,0:0:0:0:
9,267,27508,1,2,0:3:0:0:
143,253,27675,2,0,L|135:343,1,89.9999972534181,8|0,0:3|0:0,0:0:0:0:
107,167,28008,6,0,P|193:171|252:244,1,179.999994506836,2|8,0:3|0:3,0:0:0:0:
325,155,28508,1,0,0:0:0:0:
325,155,28592,1,0,0:0:0:0:
325,155,28675,2,0,P|332:107|348:67,1,89.9999972534181,0|2,0:0|0:3,0:0:0:0:
240,94,29008,2,0,P|236:48|237:-3,1,89.9999972534181,8|0,0:3|0:0,0:0:0:0:
404,201,29342,6,0,P|333:256|243:233,1,179.999994506836,2|8,0:3|0:3,0:0:0:0:
162,182,29842,1,0,0:0:0:0:
162,182,29925,1,0,0:0:0:0:
162,182,30008,2,0,L|103:175,2,44.999998626709,0|0|2,0:0|0:0|0:3,0:0:0:0:
169,275,30342,2,0,P|175:327|174:379,1,89.9999972534181,8|0,0:3|0:0,0:0:0:0:
356,336,30592,1,0,0:0:0:0:
362,352,30675,6,0,L|262:373,2,89.9999972534181,2|2|8,0:3|0:3|0:3,0:0:0:0:
391,227,31175,1,0,0:0:0:0:
411,205,31258,1,0,0:0:0:0:
435,193,31342,1,0,0:0:0:0:
462,193,31425,1,0,0:0:0:0:
490,202,31508,1,2,0:3:0:0:
463,288,31675,2,0,P|462:338|460:382,1,89.9999972534181,8|0,0:3|0:0,0:0:0:0:
460,377,31925,1,0,0:0:0:0:
460,377,32008,5,2,0:3:0:0:
297,251,32342,6,0,P|294:194|289:138,1,100,8|0,0:3|0:0,0:0:0:0:
298,106,32592,1,0,0:0:0:0:
269,138,32675,1,0,0:3:0:0:
232,146,32758,1,0,0:0:0:0:
194,141,32842,1,2,0:3:0:0:
222,23,33008,1,8,0:3:0:0:
105,211,33175,5,0,0:0:0:0:
105,211,33258,1,0,0:0:0:0:
105,211,33342,2,0,P|48:218|0:230,1,100,2|2,0:1|0:1,0:0:0:0:
56,79,33675,1,8,0:1:0:0:
194,141,33842,5,0,0:0:0:0:
198,183,33925,1,0,0:0:0:0:
202,225,34008,1,0,0:0:0:0:
207,267,34092,1,0,0:0:0:0:
212,307,34175,1,2,0:1:0:0:
309,357,34342,2,0,P|366:364|414:376,1,100,8|0,0:1|0:0,0:0:0:0:
407,373,34592,1,0,0:0:0:0:
407,373,34675,6,0,L|389:163,1,200,2|8,0:1|0:1,0:0:0:0:
370,88,35175,1,0,0:0:0:0:
406,76,35258,1,0,0:0:0:0:
441,83,35342,1,0,0:0:0:0:
466,109,35425,1,0,0:0:0:0:
470,146,35508,1,2,0:1:0:0:
292,6,35675,1,8,0:1:0:0:
303,195,35842,5,0,0:0:0:0:
301,217,35925,1,0,0:0:0:0:
300,240,36008,1,2,0:1:0:0:
238,135,36175,1,2,0:1:0:0:
208,293,36342,1,8,0:1:0:0:
132,130,36508,5,0,0:0:0:0:
96,119,36591,1,0,0:0:0:0:
60,126,36675,1,0,0:0:0:0:
36,152,36758,1,0,0:0:0:0:
32,189,36841,1,2,0:1:0:0:
151,53,37008,2,0,P|162:146|166:212,1,150,8|0,0:1|0:0,0:0:0:0:
209,296,37342,5,4,0:3:0:0:
209,296,37675,1,8,0:3:0:0:
350,266,38175,6,0,L|292:252,1,50,0|0,0:0|0:0,0:0:0:0:
344,300,38342,2,0,L|292:312,1,50,0|0,0:0|0:0,0:0:0:0:
352,335,38508,2,0,L|304:362,1,50,0|0,0:0|0:0,0:0:0:0:
38,360,38675,6,0,B|27:279|27:279|31:269|31:269|20:187,1,160,4|0,0:1|0:0,0:0:0:0:
1,56,39175,2,0,P|39:48|66:14,1,80,6|0,1:3|0:0,0:0:0:0:
69,1,39342,1,8,0:1:0:0:
78,132,39508,6,0,P|136:131|202:216,1,150,2|0,0:0|0:0,0:0:0:0:
207,283,39842,2,0,P|221:195|246:80,1,200,2|2,0:0|0:0,0:0:0:0:
495,198,40508,1,6,1:3:0:0:
426,351,40675,2,0,P|374:364|318:384,1,100,8|2,0:1|0:0,0:0:0:0:
420,7,41008,5,0,0:0:0:0:
407,12,41092,1,0,0:0:0:0:
391,16,41175,1,0,0:0:0:0:
374,22,41258,1,0,0:0:0:0:
354,28,41342,2,0,P|375:125|391:224,1,200,2|0,0:0|0:0,0:0:0:0:
391,224,41842,2,0,P|439:231|521:247,1,100,6|8,1:3|0:1,0:0:0:0:
269,357,42175,6,0,P|217:316|115:331,1,150,2|0,0:0|0:0,0:0:0:0:
42,367,42508,2,0,P|-7:294|73:260,1,200,2|2,0:0|0:0,0:0:0:0:
269,357,43175,6,0,L|274:306,1,50,6|0,1:3|0:0,0:0:0:0:
185,376,43342,2,0,L|207:206,1,166.000002406311,8|2,0:1|0:0,0:0:0:0:
206,211,43842,2,0,L|218:118,1,83.0000012031555,4|0,1:0|0:0,0:0:0:0:
55,38,44008,6,0,P|-16:128|123:152,1,300,0|4,0:0|1:3,0:0:0:0:
108,145,44592,1,0,0:0:0:0:
103,129,44675,1,8,0:1:0:0:
267,58,44842,1,2,0:0:0:0:
290,245,45008,6,0,P|263:281|210:294,1,80,2|0,0:0|0:0,0:0:0:0:
206,211,45175,2,0,B|233:159|233:159|334:167,1,150,2|0,0:0|0:0,0:0:0:0:
358,364,45508,6,0,P|295:324|295:233,1,160,0|0,0:0|0:0,0:0:0:0:
289,244,45758,2,0,P|352:284|352:375,1,160,0|0,0:0|0:0,0:0:0:0:
357,363,46008,1,8,0:1:0:0:
176,299,46175,5,0,0:0:0:0:
108,138,46342,2,0,L|32:147,1,50,2|0,0:0|0:0,0:0:0:0:
103,220,46508,2,0,L|27:229,1,50,2|0,0:0|0:0,0:0:0:0:
105,38,46675,6,0,P|181:58|201:148,1,160,4|0,0:1|0:0,0:0:0:0:
386,263,46925,6,0,P|336:247|275:244,1,100,0|0,0:0|0:0,0:0:0:0:
296,163,47175,6,0,P|295:203|288:243,1,80,4|0,1:3|0:0,0:0:0:0:
384,362,47342,6,0,P|460:342|480:252,1,160,8|2,0:1|0:0,0:0:0:0:
401,83,47675,2,0,P|394:118|394:179,1,80,2|0,0:0|0:0,0:0:0:0:
386,263,47842,6,0,P|295:267|190:282,1,160,4|0,0:1|0:0,0:0:0:0:
121,353,48092,1,0,0:0:0:0:
139,368,48175,2,0,P|135:277|120:172,1,160,0|0,0:0|0:0,0:0:0:0:
226,275,48425,2,0,P|230:184|245:79,1,160,0|0,0:0|0:0,0:0:0:0:
141,111,48675,6,0,L|132:5,1,98.999999697876,8|0,0:1|0:0,0:0:0:0:
0,334,49008,5,0,0:0:0:0:
19,337,49092,1,0,0:0:0:0:
37,341,49175,1,0,0:0:0:0:
53,344,49258,1,0,0:0:0:0:
74,347,49342,2,0,P|134:268|234:282,1,200,4|0,0:1|0:0,0:0:0:0:
420,286,49842,6,0,P|443:325|436:371,1,80,6|0,1:3|0:0,0:0:0:0:
436,373,50008,1,8,0:1:0:0:
321,370,50175,6,0,P|326:287|334:203,1,150,2|0,0:0|0:0,0:0:0:0:
389,101,50508,6,0,P|338:178|226:172,1,200,2|2,0:0|0:0,0:0:0:0:
124,10,51175,1,6,1:3:0:0:
143,167,51342,2,0,P|86:180|53:221,1,100,8|2,0:1|0:0,0:0:0:0:
241,0,51675,5,0,0:0:0:0:
241,0,51758,1,0,0:0:0:0:
241,0,51842,1,0,0:0:0:0:
241,0,51925,1,0,0:0:0:0:
241,0,52008,2,0,P|214:85|308:93,1,200,2|0,0:0|0:0,0:0:0:0:
300,100,52508,2,0,P|291:162|288:205,1,100,6|8,1:3|0:1,0:0:0:0:
352,328,52842,2,0,P|400:272|473:267,1,150,2|0,0:0|0:0,0:0:0:0:
260,376,53175,6,0,L|267:282,1,80,6|0,0:0|0:0,0:0:0:0:
345,4,53508,2,0,P|396:86|260:102,1,240,6|0,0:0|0:0,0:0:0:0:
205,98,53842,6,0,L|212:192,1,80,6|0,0:0|0:0,0:0:0:0:
48,202,54008,2,0,P|99:260|176:252,1,160,8|6,0:1|0:0,0:0:0:0:
327,75,54508,5,0,0:0:0:0:
327,75,54592,1,0,0:0:0:0:
327,75,54675,2,0,P|465:79|424:201,1,300,4|4,0:1|1:3,0:0:0:0:
397,122,55342,1,8,0:1:0:0:
376,280,55508,2,0,L|439:287,1,50,0|0,0:0|0:0,0:0:0:0:
442,288,55675,1,4,1:3:0:0:
206,272,55842,6,0,P|219:312|225:371,1,100,4|0,0:0|0:0,0:0:0:0:
152,195,56092,1,0,0:0:0:0:
161,188,56175,2,0,P|218:178|292:259,1,160,4|0,0:3|0:0,0:0:0:0:
288,241,56425,2,0,P|303:165|372:131,1,160,4|0,0:3|0:0,0:0:0:0:
381,138,56675,1,8,0:1:0:0:
436,238,56842,6,0,L|375:228,1,50,0|0,0:0|0:0,0:0:0:0:
375,227,57008,1,4,0:3:0:0:
158,2,57175,6,2,P|8:196|304:206,1,640,4|4,0:0|1:3,0:0:0:0:
287,240,58008,6,0,P|276:209|281:169,3,64.9999970245363,8|0|0|0,0:1|0:0|0:0|0:0,0:0:0:0:
169,113,58342,2,0,L|261:101,1,80,0|0,0:0|0:0,0:0:0:0:
347,89,58508,2,0,L|268:100,1,80,0|0,0:0|0:0,0:0:0:0:
424,24,58842,6,0,B|446:56|446:56|435:112,1,80,4|0,0:3|0:0,0:0:0:0:
440,375,59092,2,0,B|418:343|418:343|429:287,1,80,4|0,0:3|0:0,0:0:0:0:
359,195,59342,2,0,L|446:181,1,80,8|0,0:1|0:0,0:0:0:0:
487,172,59508,2,0,L|415:186,1,50,0|0,0:0|0:0,0:0:0:0:
338,281,59675,6,0,L|524:250,1,160,2|0,0:0|0:0,0:0:0:0:
495,254,60008,6,0,P|451:194|345:190,1,150,4|0,0:1|0:0,0:0:0:0:
195,115,60342,2,0,P|174:41|283:70,1,200,8|0,0:1|0:0,0:0:0:0:
238,196,60842,2,0,P|182:210|136:189,1,100,4|8,0:3|0:1,0:0:0:0:
294,121,61092,1,0,0:0:0:0:
294,121,61175,6,0,L|371:127,1,65.999999798584,0|4,0:0|0:3,0:0:0:0:
367,279,61508,2,0,L|333:209,1,65.999999798584,0|8,0:0|0:1,0:0:0:0:
469,138,61842,2,0,L|425:201,1,65.999999798584,0|0,0:0|0:0,0:0:0:0:
431,192,62092,1,0,0:0:0:0:
431,192,62175,1,4,0:3:0:0:
485,363,62342,6,0,B|415:361|415:361|404:369|404:369|323:366,1,150,8|0,0:1|0:0,0:0:0:0:
271,314,62675,6,0,P|187:297|116:387,2,200,4|8|0,0:3|0:1|0:0,0:0:0:0:
214,373,63425,1,0,0:0:0:0:
210,383,63508,1,4,0:3:0:0:
161,220,63675,1,8,0:1:0:0:
161,220,63758,1,0,0:0:0:0:
161,220,63842,2,0,P|144:162|117:109,1,100,0|0,0:0|0:0,0:0:0:0:
306,54,64175,2,0,P|264:97|231:147,1,100,0|8,0:0|0:1,0:0:0:0:
179,45,64508,1,0,0:0:0:0:
64,186,64675,6,0,L|63:128,1,50,0|0,0:0|0:0,0:0:0:0:
31,197,64842,2,0,L|10:138,1,50,4|0,0:3|0:0,0:0:0:0:
129,334,65008,6,0,L|128:392,1,50,8|0,0:1|0:0,0:0:0:0:
96,323,65175,2,0,L|75:382,1,50,0|0,0:0|0:0,0:0:0:0:
13,298,65342,6,0,P|63:244|136:243,1,150,4|0,0:1|0:0,0:0:0:0:
155,153,65675,2,0,L|150:108,2,25,10|0|0,0:2|0:0|0:0,0:0:0:0:
227,214,65842,1,0,0:0:0:0:
232,226,65925,1,0,0:0:0:0:
237,237,66008,1,2,0:0:0:0:
260,52,66175,1,4,0:3:0:0:
440,83,66342,1,8,0:1:0:0:
418,265,66508,1,0,0:0:0:0:
338,124,66675,6,0,L|330:173,1,50,6|0,0:3|0:0,0:0:0:0:
315,369,66842,2,0,L|323:320,1,50,0|0,0:0|0:0,0:0:0:0:
350,116,67008,6,0,L|339:164,1,50,10|0,0:2|0:0,0:0:0:0:
301,376,67175,2,0,L|313:328,1,50,0|0,0:0|0:0,0:0:0:0:
237,237,67342,5,2,0:0:0:0:
222,235,67425,1,0,0:0:0:0:
205,233,67508,2,0,L|123:220,1,50,4|0,0:3|0:0,0:0:0:0:
52,305,67675,6,0,P|42:272|43:227,1,64.9999970245363,10|0,0:2|0:0,0:0:0:0:
35,151,67842,2,0,P|34:118|28:87,1,64.9999970245363,0|0,0:0|0:0,0:0:0:0:
148,117,68008,5,4,0:3:0:0:
171,328,68175,1,0,0:0:0:0:
148,117,68342,1,8,0:1:0:0:
252,128,68508,5,0,0:0:0:0:
252,128,68592,1,0,0:0:0:0:
252,128,68675,1,0,0:0:0:0:
52,305,68842,1,4,0:3:0:0:
148,117,69008,5,8,0:1:0:0:
154,67,69092,1,0,0:0:0:0:
187,26,69175,1,0,0:0:0:0:
235,11,69258,1,0,0:0:0:0:
284,15,69342,1,4,0:3:0:0:
302,229,69508,1,0,0:0:0:0:
302,229,69592,1,0,0:0:0:0:
302,229,69675,2,0,P|242:238|194:250,1,100,8|0,0:1|0:0,0:0:0:0:
363,144,70008,5,2,0:3:0:0:
395,171,70092,1,0,0:0:0:0:
408,211,70175,1,4,0:3:0:0:
401,256,70258,1,0,0:0:0:0:
374,289,70342,1,8,0:1:0:0:
372,335,70425,1,0,0:0:0:0:
395,375,70508,1,0,0:0:0:0:
437,384,70592,1,0,0:0:0:0:
480,363,70675,2,0,P|487:300|501:198,1,150,4|0,0:1|0:0,0:0:0:0:
468,19,71008,6,0,P|399:29|359:145,1,200,8|0,0:1|0:0,0:0:0:0:
351,224,71508,2,0,P|399:218|436:185,1,100,4|8,0:3|0:1,0:0:0:0:
228,78,71758,5,0,0:0:0:0:
227,93,71842,2,0,L|210:165,1,65.999999798584,0|4,0:0|0:3,0:0:0:0:
178,255,72175,2,0,L|248:233,1,65.999999798584,0|8,0:0|0:1,0:0:0:0:
351,224,72508,2,0,L|297:173,1,65.999999798584,0|0,0:0|0:0,0:0:0:0:
303,178,72758,1,0,0:0:0:0:
303,178,72842,1,4,0:3:0:0:
269,350,73008,6,0,B|199:348|199:348|188:356|188:356|107:353,1,150,8|0,0:1|0:0,0:0:0:0:
35,374,73342,6,0,B|25:322|55:285|55:285|69:232|11:176,2,200,4|8|0,0:3|0:1|0:0,0:0:0:0:
121,353,74092,1,0,0:0:0:0:
129,361,74175,1,4,0:3:0:0:
144,195,74342,1,8,0:1:0:0:
144,195,74425,1,0,0:0:0:0:
144,195,74509,2,0,P|201:178|255:151,1,100,0|4,0:0|0:3,0:0:0:0:
310,339,74842,2,0,P|267:297|217:264,1,100,0|8,0:0|0:1,0:0:0:0:
318,212,75175,1,0,0:0:0:0:
459,299,75342,6,0,L|408:292,1,50,0|0,0:0|0:0,0:0:0:0:
455,260,75508,2,0,L|399:269,1,50,4|0,0:3|0:0,0:0:0:0:
384,140,75675,6,0,L|435:133,1,50,8|0,0:1|0:0,0:0:0:0:
388,101,75841,2,0,L|444:110,1,50,0|0,0:0|0:0,0:0:0:0:
396,11,76008,6,0,P|328:24|299:107,1,150,0|0,0:0|0:0,0:0:0:0:
301,183,76342,2,0,L|304:207,2,25,10|0|0,0:2|0:0|0:0,0:0:0:0:
217,142,76508,1,0,0:0:0:0:
205,138,76592,1,0,0:0:0:0:
194,134,76675,1,2,0:0:0:0:
173,296,76842,1,4,0:3:0:0:
8,267,77008,1,8,0:1:0:0:
37,115,77175,1,0,0:0:0:0:
110,143,77342,6,0,L|119:207,1,50,6|0,0:3|0:0,0:0:0:0:
90,378,77508,2,0,L|81:314,1,50,0|0,0:0|0:0,0:0:0:0:
120,131,77675,6,0,L|123:195,1,50,10|0,0:2|0:0,0:0:0:0:
76,383,77842,2,0,L|72:318,1,50,0|0,0:0|0:0,0:0:0:0:
205,283,78008,5,2,0:0:0:0:
217,280,78092,1,0,0:0:0:0:
231,277,78175,2,0,L|295:265,1,50,4|0,0:3|0:0,0:0:0:0:
267,159,78342,6,0,P|252:122|253:83,1,64.9999970245363,10|0,0:2|0:0,0:0:0:0:
321,26,78508,2,0,P|336:63|335:102,1,64.9999970245363,0|0,0:0|0:0,0:0:0:0:
381,328,78675,5,4,0:1:0:0:
502,177,78842,1,0,0:0:0:0:
267,159,79008,2,0,B|199:152|199:152|157:182|157:182|74:175,1,194.999991073609,8|0,0:1|0:0,0:0:0:0:
13,229,79342,2,0,B|-16:190|-16:190|6:104,1,129.999994049073,4|0,0:1|0:0,0:0:0:0:
182,66,79675,6,0,L|261:74,1,64.9999970245363,8|0,0:1|0:0,0:0:0:0:
341,80,79842,2,0,L|420:88,1,64.9999970245363,0|0,0:0|0:0,0:0:0:0:
502,207,80008,5,4,0:1:0:0:
465,209,80092,1,0,0:0:0:0:
433,221,80175,1,0,0:0:0:0:
412,244,80258,1,0,0:0:0:0:
403,274,80342,5,0,0:0:0:0:
403,305,80425,1,0,0:0:0:0:
394,342,80508,1,0,0:0:0:0:
371,363,80592,1,0,0:0:0:0:
340,370,80675,5,0,0:0:0:0:
288,366,80758,1,0,0:0:0:0:
253,325,80842,1,0,0:0:0:0:
251,277,80925,1,0,0:0:0:0:
258,225,81008,5,0,0:0:0:0:
272,160,81092,1,0,0:0:0:0:
268,99,81175,1,0,0:0:0:0:
213,70,81258,1,0,0:0:0:0:
151,80,81342,6,0,B|91:126|91:126|120:256,1,194.999991073609,4|0,0:1|0:0,0:0:0:0:
28,345,81675,2,0,B|83:351|83:351|118:327|118:327|144:357|144:357|215:368,1,194.999991073609,8|0,0:1|0:0,0:0:0:0:
201,366,82008,6,0,L|197:337,1,25,0|0,0:0|0:0,0:0:0:0:
301,149,82175,2,0,B|234:134|234:134|177:176,1,129.999994049073,4|8,0:3|0:1,0:0:0:0:
261,239,82425,1,0,0:0:0:0:
254,230,82508,6,0,B|311:230|333:273|333:273|382:305|445:261,1,200,0|0,0:0|0:0,0:0:0:0:
433,255,82897,5,0,0:0:0:0:
435,242,82953,5,0,0:0:0:0:
438,230,83008,5,8,0:1:0:0:
489,101,83175,6,0,P|449:96|397:135,1,100,0|4,0:0|0:3,0:0:0:0:
401,127,83675,6,0,P|377:93|324:76,1,80,8|0,0:1|0:0,0:0:0:0:
169,77,83842,2,0,P|133:94|111:127,1,80,0|0,0:0|0:0,0:0:0:0:
229,215,84008,6,0,B|197:152|197:152|292:171|292:171|329:256,1,240,2|0,1:2|0:0,0:0:0:0:
327,255,84342,1,8,1:0:0:0:
367,361,84508,2,0,B|300:347|300:347|291:333|291:333|213:319|213:319|204:330|204:330|116:313,1,240,0|0,0:0|0:0,0:0:0:0:
125,316,84842,1,0,1:0:0:0:
19,139,85008,6,0,B|72:151|72:151|123:118,1,100,0|2,0:0|1:2,0:0:0:0:
150,51,85258,1,0,0:0:0:0:
134,43,85342,2,0,L|152:211,1,150,0|0,1:0|0:0,0:0:0:0:
2,248,85675,6,0,P|40:231|91:236,1,80,8|2,1:0|1:2,0:0:0:0:
306,139,85842,2,0,P|271:157|217:151,1,80,0|0,0:0|1:0,0:0:0:0:
231,156,86175,2,0,L|247:255,1,80,0|2,1:0|1:2,0:0:0:0:
163,289,86342,6,0,P|202:379|305:340,1,194.999991073609,8|0,0:1|0:0,0:0:0:0:
442,187,86675,6,0,B|416:126|416:126|405:271,1,194.999991073609,4|0,0:3|0:0,0:0:0:0:
479,312,87008,2,0,B|450:295|435:277|435:277|404:297|404:297|370:269|370:269|345:286|301:301,1,194.999991073609,8|0,0:1|0:0,0:0:0:0:
318,294,87342,6,0,L|315:263,1,25,0|0,0:0|0:0,0:0:0:0:
280,170,87508,2,0,B|333:142|333:142|342:63,1,129.999994049073,4|8,0:3|0:1,0:0:0:0:
243,94,87758,1,0,0:0:0:0:
243,94,87842,2,0,B|194:85|163:37|163:37|147:93|105:117,1,200,0|0,0:0|0:0,0:0:0:0:
110,126,88231,5,0,0:0:0:0:
113,138,88286,5,0,0:0:0:0:
116,149,88342,5,8,0:1:0:0:
143,286,88508,6,0,P|98:310|43:298,1,100,0|4,0:0|0:3,0:0:0:0:
88,233,89008,6,0,P|129:258|142:323,1,80,8|0,0:1|0:0,0:0:0:0:
342,202,89175,2,0,P|301:177|288:112,1,80,0|0,0:1|0:0,0:0:0:0:
217,359,89342,6,0,B|228:219|228:219|263:272|305:280,1,240,2|0,1:2|0:0,0:0:0:0:
305,301,89675,1,8,1:0:0:0:
466,371,89842,2,0,B|450:286|450:286|466:245|466:245|436:210|436:210|423:147,1,240,0|0,0:0|0:0,0:0:0:0:
422,129,90175,1,0,1:0:0:0:
282,118,90342,6,0,B|229:130|229:130|178:97,1,100,8|2,0:1|1:2,0:0:0:0:
151,30,90592,1,0,0:0:0:0:
167,22,90676,2,0,L|149:190,1,150,2|0,1:2|0:0,0:0:0:0:
65,229,91008,6,0,L|50:139,1,80,8|2,1:0|1:2,0:0:0:0:
133,314,91175,2,0,L|43:329,1,80,0|0,0:0|1:0,0:0:0:0:
54,327,91508,2,0,L|132:340,1,80,0|2,1:0|1:2,0:0:0:0:
235,377,91675,6,0,P|284:348|265:221,1,194.999991073609,8|0,0:1|0:0,0:0:0:0:
193,229,92008,6,0,P|175:183|183:127,1,100,4|0,0:3|0:0,0:0:0:0:
143,14,92342,2,0,L|348:38,1,200,8|0,0:1|0:0,0:0:0:0:
302,153,92842,2,0,L|411:170,1,100,4|8,0:3|0:1,0:0:0:0:
507,149,93092,1,0,0:0:0:0:
510,136,93175,6,0,P|447:142|426:261,1,200,0|0,0:0|0:0,0:0:0:0:
432,283,93564,2,2,L|426:329,2,33.3333333333333,0|0|8,0:0|0:0|0:1,0:0:0:0:
236,365,93842,2,0,P|265:319|307:302,1,100,0|0,0:0|0:0,0:0:0:0:
306,303,94092,1,0,0:0:0:0:
306,303,94175,1,4,0:3:0:0:
252,127,94342,5,8,0:1:0:0:
317,384,94508,1,0,0:0:0:0:
158,110,94675,5,4,0:3:0:0:
316,61,94842,1,0,0:0:0:0:
268,215,95008,1,8,0:1:0:0:
154,32,95342,5,0,0:0:0:0:
386,103,95508,1,4,0:3:0:0:
216,271,95675,1,8,0:1:0:0:
317,247,95842,6,0,P|276:183|159:165,1,200,0|0,0:0|0:0,0:0:0:0:
153,186,96231,2,0,L|139:142,2,33.3333333333333,0|0|8,0:0|0:0|0:1,0:0:0:0:
255,131,96508,5,0,0:0:0:0:
259,110,96592,1,0,0:0:0:0:
265,89,96675,2,0,L|276:28,1,50,0|0,0:0|0:0,0:0:0:0:
130,68,96842,5,4,0:3:0:0:
393,135,97008,1,8,0:1:0:0:
59,270,97175,1,0,0:0:0:0:
387,365,97342,5,4,0:3:0:0:
384,327,97508,1,0,0:0:0:0:
293,314,97675,6,0,P|342:247|437:260,1,160,8|0,0:1|0:0,0:0:0:0:
512,66,98008,1,0,0:0:0:0:
512,66,98092,1,0,0:0:0:0:
512,66,98175,2,0,P|463:133|368:120,1,160,4|8,0:3|0:1,0:0:0:0:
292,28,98508,2,0,L|181:41,1,80,0|0,0:0|0:0,0:0:0:0:
12,108,98675,6,0,P|37:125|56:179,1,80,4|0,0:3|0:0,0:0:0:0:
157,145,98842,1,0,0:0:0:0:
157,145,98925,1,0,0:0:0:0:
157,145,99008,2,0,P|162:174|137:226,1,80,8|0,0:1|0:0,0:0:0:0:
0,363,99175,6,0,B|-17:220|-17:220|9:271|73:271,1,240,0|0,0:0|0:0,0:0:0:0:
143,219,99508,2,0,B|164:258|164:258|150:300,1,80,4|0,0:3|0:0,0:0:0:0:
263,372,99675,2,0,B|242:333|242:333|256:291,1,80,8|0,0:1|0:0,0:0:0:0:
327,212,99842,2,0,B|348:251|348:251|334:293,1,80,0|0,0:0|0:0,0:0:0:0:
460,363,100008,5,4,1:3:0:0:
464,332,100092,1,0,0:0:0:0:
468,302,100175,1,4,0:3:0:0:
471,269,100258,1,0,0:0:0:0:
475,235,100342,5,4,1:3:0:0:
446,199,100425,1,0,0:0:0:0:
432,155,100508,1,4,0:3:0:0:
442,108,100592,1,0,0:0:0:0:
480,81,100675,5,4,1:3:0:0:
467,43,100758,1,0,0:0:0:0:
452,9,100842,1,4,0:3:0:0:
214,121,101008,2,0,L|303:121,1,80,8|0,0:1|0:0,0:0:0:0:
252,40,101175,1,4,1:2:0:0:
17,21,101508,5,0,0:0:0:0:
17,21,101592,1,0,0:0:0:0:
17,21,101675,2,0,L|21:91,1,50,0|0,0:0|0:0,0:0:0:0:
68,134,101842,2,0,L|72:204,1,50,0|0,0:0|0:0,0:0:0:0:
35,269,102008,5,0,0:0:0:0:
35,269,102092,1,0,0:0:0:0:
35,269,102175,1,0,0:0:0:0:
35,269,102258,1,0,0:0:0:0:
35,269,102342,2,0,B|96:268|96:268|132:297|132:297|201:299,1,160,0|4,0:0|0:1,0:0:0:0:
256,192,102758,12,0,113008,0:0:0:0:
247,323,113342,6,0,P|290:239|394:229,1,200,10|8,0:0|0:0,0:0:0:0:
388,227,114342,1,8,0:0:0:0:
333,141,114675,2,0,B|284:51|386:-85|538:-9|492:110|400:98,1,359.999989013672,10|8,0:0|0:0,0:0:0:0:
396,313,116008,6,0,B|308:289|279:220|279:220|279:292|231:339|231:339|180:323|143:247|143:247|127:336|72:365,1,559.999982910157,10|10,0:0|0:0,0:0:0:0:
72,364,117675,6,0,L|52:288,1,69.9999978637696,8|0,0:0|0:0,0:0:0:0:
2,218,118008,2,0,B|39:163|39:163|117:176,1,139.999995727539,10|8,0:0|0:0,0:0:0:0:
237,59,118508,1,0,0:0:0:0:
157,86,118675,6,0,P|211:141|288:132,1,160,10|8,0:0|0:0,0:0:0:0:
372,12,119175,1,0,0:0:0:0:
350,286,119342,2,0,P|357:246|360:207,1,80,8|0,0:0|0:0,0:0:0:0:
494,200,119675,2,0,P|486:160|484:120,1,80,8|0,0:0|0:0,0:0:0:0:
435,320,119925,1,0,0:0:0:0:
435,320,120008,6,0,P|375:375|278:342,1,179.999994506836,10|8,0:0|0:0,0:0:0:0:
252,281,120425,2,0,P|199:292|159:305,1,89.9999972534181,0|0,0:0|0:0,0:0:0:0:
164,259,120675,2,0,P|207:272|252:281,1,89.9999972534181,8|0,0:0|0:0,0:0:0:0:
231,174,121008,1,8,0:0:0:0:
62,204,121175,1,0,0:0:0:0:
202,377,121342,5,10,0:0:0:0:
137,107,121508,1,8,0:0:0:0:
421,277,121675,5,8,0:0:0:0:
164,259,121842,1,8,0:0:0:0:
260,8,122008,5,8,0:0:0:0:
325,278,122174,1,0,0:0:0:0:
41,108,122341,5,8,0:0:0:0:
298,126,122508,1,8,0:0:0:0:
5,28,122675,5,8,0:0:0:0:
48,14,122758,1,8,0:0:0:0:
93,21,122842,1,8,0:0:0:0:
128,59,122925,1,8,0:0:0:0:
116,113,123008,5,8,0:0:0:0:
159,127,123091,1,8,0:0:0:0:
204,120,123175,1,8,0:0:0:0:
239,82,123258,1,8,0:0:0:0:
260,8,123342,6,0,L|328:16,1,50,8|0,0:0|0:0,0:0:0:0:
387,19,123675,2,0,L|455:27,1,50,2|2,0:0|0:0,0:0:0:0:
495,131,124008,6,0,P|411:130|368:229,1,200,4|8,1:0|0:1,0:0:0:0:
393,314,124508,1,0,0:0:0:0:
393,314,124675,2,0,B|340:314|340:314|296:295|296:295|251:317|251:317|184:317,1,200,0|8,1:0|0:1,0:0:0:0:
23,362,125175,2,0,B|6:313|6:313|23:254,1,100,0|0,0:0|1:0,0:0:0:0:
108,278,125508,5,0,0:0:0:0:
108,296,125592,1,0,0:0:0:0:
108,313,125675,1,8,0:1:0:0:
108,116,125842,1,0,0:0:0:0:
17,177,126008,5,0,1:0:0:0:
211,234,126175,1,0,0:0:0:0:
226,233,126258,1,0,0:0:0:0:
242,233,126342,2,0,L|307:233,1,50,8|0,0:1|0:0,0:0:0:0:
391,230,126508,2,0,L|457:230,1,50,0|0,0:0|0:0,0:0:0:0:
502,135,126675,6,0,B|455:121|455:121|406:138,1,100,0|0,1:0|0:0,0:0:0:0:
171,24,127008,2,0,B|257:82|257:82|344:21,1,200,8|0,0:1|1:0,0:0:0:0:
138,112,127508,6,0,P|169:69|168:15,1,100,0|8,0:0|0:1,0:0:0:0:
335,26,127842,2,0,P|337:75|367:114,1,100,0|0,0:0|0:0,0:0:0:0:
255,346,128175,5,0,0:0:0:0:
99,220,128342,1,8,0:1:0:0:
5,375,128508,1,0,0:0:0:0:
255,346,128675,5,0,1:0:0:0:
413,220,128842,1,0,0:0:0:0:
505,375,129008,1,8,0:1:0:0:
256,251,129175,1,0,0:0:0:0:
163,363,129342,6,0,B|216:364|216:364|258:341|258:341|303:363|303:363|370:363,1,200,0|8,1:0|0:1,0:0:0:0:
500,281,129842,1,0,0:0:0:0:
500,281,130008,2,0,P|413:227|343:278,1,200,0|8,1:0|0:1,0:0:0:0:
350,157,130508,2,0,B|367:111|367:111|349:47,1,100,0|0,0:0|1:0,0:0:0:0:
190,8,131008,5,8,0:1:0:0:
190,187,131175,1,0,0:0:0:0:
88,190,131342,5,0,1:0:0:0:
97,11,131509,1,0,0:0:0:0:
97,11,131592,1,0,0:0:0:0:
97,11,131675,1,8,0:1:0:0:
136,98,131842,1,0,0:0:0:0:
128,282,132008,6,0,B|114:331|114:331|131:377,1,100,0|0,1:0|0:0,0:0:0:0:
274,222,132342,2,0,B|199:222|199:222|170:191|170:191|87:190,1,200,8|0,0:1|1:0,0:0:0:0:
97,11,132842,2,0,L|205:11,1,100,0|8,0:0|0:1,0:0:0:0:
185,97,133175,6,0,L|129:98,1,50,0|0,0:0|0:0,0:0:0:0:
54,100,133342,1,8,0:0:0:0:
18,317,133508,6,0,P|82:323|133:266,1,129.999994049073,4|0,1:2|0:0,0:0:0:0:
256,243,133758,2,0,L|256:373,1,129.999994049073,12|0,1:1|0:0,0:0:0:0:
384,281,134008,2,0,P|431:323|494:317,1,129.999994049073,12|8,0:1|0:1,0:0:0:0:
457,252,134258,1,8,0:1:0:0:
457,252,134342,1,8,0:1:0:0:
286,160,134508,2,0,L|213:160,1,64.9999970245363,0|0,0:0|0:0,0:0:0:0:
326,81,134675,6,0,L|176:81,1,150,8|0,0:1|0:0,0:0:0:0:
7,83,135008,6,2,L|7:32,3,50,8|0|0|0,0:1|0:0|0:0|0:0,0:0:0:0:
6,165,135342,6,0,L|67:166,1,50,8|0,0:1|0:0,0:0:0:0:
171,225,135508,2,0,L|220:225,1,50,0|0,0:0|0:0,0:0:0:0:
6,177,135675,6,0,L|67:178,1,50,8|0,0:1|0:0,0:0:0:0:
171,237,135841,2,0,L|220:237,1,50,0|0,0:0|0:0,0:0:0:0:
85,307,136008,5,10,0:2:0:0:
85,307,136092,1,2,0:0:0:0:
85,307,136175,1,2,0:0:0:0:
85,307,136258,1,2,0:0:0:0:
85,307,136342,2,0,B|126:325|126:325|149:397,1,100,10|0,0:2|0:0,0:0:0:0:
253,150,136675,1,8,0:1:0:0:
369,377,136842,1,0,0:0:0:0:
369,377,136925,1,0,0:0:0:0:
369,377,137008,2,0,B|386:325|386:325|427:307,1,100,8|0,0:1|0:0,0:0:0:0:
427,306,137342,6,0,P|398:265|392:216,1,100,8|0,0:1|0:0,0:0:0:0:
119,216,137675,2,0,P|113:265|84:306,1,100,8|0,0:1|0:0,0:0:0:0:
170,90,138008,5,8,0:1:0:0:
256,301,138175,1,0,0:0:0:0:
342,90,138342,1,8,0:1:0:0:
170,90,138508,2,0,L|100:90,1,50,0|0,0:0|0:0,0:0:0:0:
255,211,138675,5,10,0:2:0:0:
255,211,138758,1,2,0:0:0:0:
255,211,138842,2,0,L|256:146,1,50,2|2,0:0|0:0,0:0:0:0:
69,216,139008,2,0,L|119:216,1,50,10|0,0:2|0:0,0:0:0:0:
441,216,139175,2,0,L|391:216,1,50,0|0,0:0|0:0,0:0:0:0:
254,18,139342,1,8,0:1:0:0:
256,266,139508,1,0,0:0:0:0:
256,266,139592,1,0,0:0:0:0:
256,266,139675,2,0,L|256:376,1,100,8|0,0:1|0:0,0:0:0:0:
20,235,140008,5,8,0:1:0:0:
255,174,140175,1,2,0:0:0:0:
51,68,140342,5,8,0:1:0:0:
138,374,140508,1,2,0:0:0:0:
138,374,140591,1,0,0:0:0:0:
138,374,140675,1,8,0:1:0:0:
79,159,140842,5,2,0:0:0:0:
79,159,140925,1,0,0:0:0:0:
79,159,141008,2,0,P|112:173|148:170,1,64.9999970245363,8|0,0:1|0:0,0:0:0:0:
371,172,141175,2,0,P|403:172|433:159,1,64.9999970245363,2|0,0:0|0:0,0:0:0:0:
461,68,141342,5,8,0:2:0:0:
374,374,141508,1,2,0:0:0:0:
255,174,141675,5,8,0:2:0:0:
487,235,141842,1,2,0:0:0:0:
254,86,142008,5,8,0:1:0:0:
383,270,142175,5,2,0:0:0:0:
373,270,142258,1,0,0:0:0:0:
362,271,142342,2,0,L|298:272,1,64.9999970245363,8|0,0:1|0:0,0:0:0:0:
214,270,142508,2,0,L|150:271,1,64.9999970245363,2|0,0:0|0:0,0:0:0:0:
106,359,142675,6,0,B|50:305|50:305|76:173,1,194.999991073609,8|0,0:1|0:0,0:0:0:0:
64,170,143008,2,0,L|-14:180,3,64.9999970245363,8|0|0|0,0:1|0:0|0:0|0:0,0:0:0:0:
194,201,143342,6,0,L|202:163,1,32.4999985122681,8|0,0:1|0:0,0:0:0:0:
184,178,143425,2,0,L|192:140,1,32.4999985122681,0|0,0:0|0:0,0:0:0:0:
172,154,143508,2,0,L|180:116,1,32.4999985122681,0|0,0:0|0:0,0:0:0:0:
162,131,143591,2,0,L|170:93,1,32.4999985122681,0|0,0:0|0:0,0:0:0:0:
152,119,143675,6,0,L|160:81,1,32.4999985122681,8|0,0:1|0:0,0:0:0:0:
142,96,143758,2,0,L|150:58,1,32.4999985122681,0|0,0:0|0:0,0:0:0:0:
130,72,143841,2,0,L|138:34,1,32.4999985122681,0|0,0:0|0:0,0:0:0:0:
120,49,143925,2,0,L|128:11,1,32.4999985122681,0|0,0:0|0:0,0:0:0:0:
107,30,144008,5,8,1:2:0:0:
261,68,144175,2,0,P|318:58|392:139,1,160,0|0,0:0|0:0,0:0:0:0:
388,121,144425,2,0,P|403:45|472:11,1,160,0|0,0:0|0:0,0:0:0:0:
481,18,144675,1,8,0:1:0:0:
468,194,144842,5,8,0:1:0:0:
465,208,144925,1,8,0:1:0:0:
462,223,145008,2,0,L|449:311,1,80,8|0,0:1|0:0,0:0:0:0:
370,249,145175,2,0,L|357:337,1,80,8|8,0:0|0:0,0:0:0:0:
90,247,145342,6,0,B|91:231|91:231|37:272|37:272|262:278,1,300.000011444092,4|8,0:0|0:1,0:0:0:0:
24,82,145842,6,0,B|20:123|51:146|98:148|98:148|267:149,1,259.999988098145,0|4,0:0|0:3,0:0:0:0:
450,33,146342,1,8,0:1:0:0:
393,219,146508,2,0,B|368:219|356:205|356:205|369:200|383:211,1,64.9999970245363,0|0,0:0|0:0,0:0:0:0:
448,283,146675,6,0,B|425:250|425:250|367:249|367:249|212:247|212:247|170:293,1,300.000011444092,4|8,0:3|0:1,0:0:0:0:
405,352,147175,6,0,B|254:347|254:347|211:344|177:321|180:273,1,259.999988098145,0|4,0:0|0:3,0:0:0:0:
193,46,147675,1,8,0:1:0:0:
31,193,147842,2,0,B|54:217|54:217|59:183,1,64.9999970245363,0|0,0:0|0:0,0:0:0:0:
159,167,148008,6,0,B|117:167|117:167|75:118|75:118|77:327,1,300.000011444092,4|8,0:3|0:1,0:0:0:0:
149,51,148508,6,0,B|199:106|199:106|185:302,1,259.999988098145,0|4,0:0|0:3,0:0:0:0:
237,29,149008,1,8,0:1:0:0:
432,314,149175,2,0,P|415:281|383:273,1,64.9999970245363,0|0,0:0|0:0,0:0:0:0:
340,333,149342,6,0,B|344:249|344:249|333:232|333:232|350:219|350:219|353:132|353:132|438:186,1,300.000011444092,4|8,0:3|0:1,0:0:0:0:
512,121,149842,6,0,L|490:283,1,129.999994049073,0|0,0:0|0:0,0:0:0:0:
241,178,150175,6,0,P|273:161|310:167,1,75.0000028610231,4|0,0:3|0:0,0:0:0:0:
310,167,150342,2,0,P|278:184|241:177,1,75.0000028610231,8|0,0:1|0:0,0:0:0:0:
241,178,150508,6,0,L|245:123,1,50,0|0,0:0|0:0,0:0:0:0:
123,89,150675,6,0,P|135:191|155:357,1,240,4|0,0:3|0:0,0:0:0:0:
396,49,151342,6,0,P|381:163|359:350,1,300,0|0,0:0|0:0,0:0:0:0:
90,3,152008,6,0,P|106:140|133:364,1,359.999989013672,4|0,0:3|0:0,0:0:0:0:
286,347,152675,6,0,P|297:312|315:281,3,59.9999981689454,0|0|4|0,0:0|0:0|0:3|0:0,0:0:0:0:
378,257,153008,1,8,0:1:0:0:
363,234,153091,1,0,0:0:0:0:
341,219,153174,1,0,0:0:0:0:
315,213,153258,1,0,0:0:0:0:
288,218,153341,5,4,0:3:0:0:
425,362,153508,1,0,0:0:0:0:
425,362,153592,1,0,0:0:0:0:
425,362,153675,1,8,0:1:0:0:
476,232,153925,1,0,0:0:0:0:
476,232,154008,1,0,0:0:0:0:
401,85,154175,2,0,B|460:83,1,59.9999981689454,4|0,0:3|0:0,0:0:0:0:
399,106,154342,5,8,0:1:0:0:
352,112,154425,1,0,0:0:0:0:
306,118,154508,1,0,0:0:0:0:
347,154,154592,1,0,0:0:0:0:
395,177,154675,6,0,L|381:38,1,119.999996337891,8|0,0:1|0:0,0:0:0:0:
241,26,154925,1,4,1:3:0:0:
241,26,155008,2,0,L|228:112,1,59.9999981689454,0|0,0:0|0:0,0:0:0:0:
399,0,155175,2,0,L|412:86,1,59.9999981689454,8|0,0:1|0:0,0:0:0:0:
373,254,155342,5,0,0:0:0:0:
412,257,155425,1,4,1:3:0:0:
447,240,155508,1,0,0:0:0:0:
469,208,155592,1,0,0:0:0:0:
473,169,155675,5,8,0:1:0:0:
467,168,155758,1,0,0:0:0:0:
450,158,155842,5,4,0:3:0:0:
444,157,155925,1,0,0:0:0:0:
426,148,156008,5,4,1:3:0:0:
239,318,156175,5,0,0:0:0:0:
157,338,156342,1,0,0:0:0:0:
157,338,156425,1,0,0:0:0:0:
364,217,156592,5,0,0:0:0:0:
166,158,156758,5,0,0:0:0:0:
49,183,156842,6,0,P|65:189|90:186,1,29.9999990844727,0|0,0:0|0:0,0:0:0:0:
81,174,156925,2,0,P|63:174|46:168,1,34.9999989318848,0|0,0:0|0:0,0:0:0:0:
48,150,157008,2,0,P|65:157|85:156,1,40,0|0,0:0|0:0,0:0:0:0:
91,139,157092,2,0,P|67:140|47:132,1,44.999998626709,0|0,0:0|0:0,0:0:0:0:
48,113,157175,2,0,P|70:121|95:120,1,50,0|0,0:0|0:0,0:0:0:0:
101,100,157258,2,0,P|72:101|47:91,1,55.0000016784668,0|0,0:0|0:0,0:0:0:0:
85,26,157342,6,0,P|56:229|45:312,1,240,4|0,0:1|0:0,0:0:0:0:
33,272,157675,6,0,P|71:266|116:384,1,160,8|0,0:1|0:0,0:0:0:0:
124,357,157925,1,0,0:0:0:0:
117,360,158008,2,0,P|92:329|141:237,1,150.000005722046,6|0,0:3|0:0,0:0:0:0:
140,241,158258,2,0,P|125:277|21:280,1,150.000005722046,6|0,0:3|0:0,0:0:0:0:
211,311,158508,6,0,P|311:320|404:355,1,179.999994506836,10|0,0:2|0:0,0:0:0:0:
452,384,158842,1,4,0:3:0:0:
455,229,159008,5,8,0:1:0:0:
442,223,159091,1,0,0:0:0:0:
430,216,159174,1,0,0:0:0:0:
420,207,159258,1,0,0:0:0:0:
412,194,159342,2,0,P|411:169|458:123,1,75.0000028610231,4|0,0:3|0:0,0:0:0:0:
485,74,159508,2,0,P|509:101|511:138,1,75.0000028610231,4|0,0:3|0:0,0:0:0:0:
453,310,159675,6,0,B|436:347|469:368|510:357|486:221|302:231,1,240,8|0,0:1|0:0,0:0:0:0:
282,302,160008,6,0,P|350:297|344:231,1,150.000005722046,4|0,0:3|0:0,0:0:0:0:
215,79,160342,2,0,P|255:139|269:251,1,160,8|0,0:1|0:0,0:0:0:0:
151,284,160675,6,0,P|110:291|69:298,1,69.9999978637696,6|0,0:3|0:0,0:0:0:0:
70,223,160925,2,0,P|110:215|150:207,1,69.9999978637696,6|0,0:3|0:0,0:0:0:0:
135,365,161175,6,0,P|102:216|99:134,1,225.000008583069,8|0,0:2|0:0,0:0:0:0:
143,77,161508,6,0,P|156:59|137:70,1,59.9999981689454,6|0,0:3|0:0,0:0:0:0:
228,140,161675,2,0,P|230:112|216:136,1,75.0000028610231,8|0,0:2|0:0,0:0:0:0:
344,130,161842,2,0,P|325:103|331:135,1,89.9999972534181,0|0,0:0|0:0,0:0:0:0:
412,223,162008,6,0,P|436:194|446:153,1,75.0000028610231,4|0,0:3|0:0,0:0:0:0:
228,140,162175,2,0,P|240:175|271:204,1,75.0000028610231,4|0,0:3|0:0,0:0:0:0:
383,333,162342,6,0,B|392:281|328:274|335:223|335:223|328:274|265:267|269:340,1,240,8|0,0:1|0:0,0:0:0:0:
270,314,162675,6,0,B|434:274|434:274|419:261|410:212,1,225.000008583069,4|0,0:3|0:0,0:0:0:0:
248,65,163008,6,0,B|206:50|206:50|186:23|186:23|188:56|188:56|158:94,1,160,8|0,0:1|0:0,0:0:0:0:
148,182,163258,1,0,0:0:0:0:
148,182,163342,2,0,P|99:180|97:74,1,150.000005722046,6|0,0:3|0:0,0:0:0:0:
317,25,163592,2,0,P|291:66|239:176,1,150.000005722046,6|0,0:3|0:0,0:0:0:0:
239,257,163842,6,0,B|232:285|251:311|251:311|285:313|311:326|311:326|317:301|341:270|341:270|335:242|306:223,1,240,10|0,0:2|0:0,0:0:0:0:
248,176,164176,1,6,0:3:0:0:
0,301,164342,5,8,0:1:0:0:
6,288,164425,1,0,0:0:0:0:
14,276,164508,1,0,0:0:0:0:
24,267,164592,1,0,0:0:0:0:
37,260,164676,2,0,P|62:260|104:310,1,75.0000028610231,4|0,0:3|0:0,0:0:0:0:
238,342,164842,2,0,P|208:364|171:364,1,75.0000028610231,4|0,0:3|0:0,0:0:0:0:
84,377,165008,6,0,P|122:281|121:134,1,240,8|0,0:1|0:0,0:0:0:0:
0,76,165342,6,0,P|23:104|59:107,1,75.0000028610231,4|0,0:0|0:0,0:0:0:0:
186,103,165508,2,0,P|214:79|217:43,1,75.0000028610231,8|0,0:1|0:0,0:0:0:0:
126,5,165675,6,0,P|115:37|122:66,1,50,0|0,0:0|0:0,0:0:0:0:
122,200,166008,1,12,0:1:0:0:
253,250,166175,1,0,0:0:0:0:
367,202,166342,1,0,0:0:0:0:
346,55,166508,6,0,P|295:69|245:85,1,104.999996795654,4|0,0:3|0:0,0:0:0:0:
245,85,166842,6,0,P|261:151|261:181,1,80,6|0,1:3|0:0,0:0:0:0:
273,352,167092,2,0,P|322:305|348:290,1,80,6|0,1:3|0:0,0:0:0:0:
476,191,167342,2,0,P|411:171|385:156,1,80,8|0,0:1|0:0,0:0:0:0:
340,213,167508,1,4,0:3:0:0:
476,328,167675,5,8,0:1:0:0:
467,313,167758,1,0,0:0:0:0:
468,297,167841,1,0,0:0:0:0:
477,284,167925,1,0,0:0:0:0:
490,277,168008,6,0,B|474:325|316:357|407:172|184:199,1,350,4|0,0:1|0:0,0:0:0:0:
190,198,168675,6,0,P|156:217|188:193,1,119.999996337891,6|0,0:3|0:0,0:0:0:0:
173,268,168925,2,0,P|134:260|175:263,1,119.999996337891,6|0,0:3|0:0,0:0:0:0:
208,363,169175,5,10,0:2:0:0:
213,365,169258,1,0,0:2:0:0:
219,366,169342,2,0,P|218:306|8:24,1,419.999987182618,0|0,0:0|0:0,0:0:0:0:
16,27,170008,6,0,P|27:84|101:66,1,119.999996337891,4|4,0:3|0:3,0:0:0:0:
199,59,170258,1,0,0:0:0:0:
199,59,170342,2,0,P|158:63|74:82,1,119.999996337891,8|0,0:2|0:0,0:0:0:0:
58,185,170675,6,0,B|50:250|9:248|9:248|22:219|160:188|218:211|218:211|245:277|175:332,1,419.999987182618,4|0,0:3|0:0,0:0:0:0:
196,313,171342,6,0,P|175:269|196:192,1,119.999996337891,6|0,0:3|0:0,0:0:0:0:
199,194,171592,2,0,P|230:197|217:225,2,59.9999981689454,6|0|0,0:3|0:0|0:0,0:0:0:0:
278,121,171842,6,0,B|327:157|391:131|391:131|331:163|315:220,1,239.999992675781,10|4,0:2|0:3,0:0:0:0:
391,34,172342,1,8,0:1:0:0:
391,34,172425,1,0,0:0:0:0:
391,34,172508,2,0,P|351:56|342:98,1,59.9999981689454,0|0,0:0|0:0,0:0:0:0:
399,217,172675,6,0,P|451:248|506:231,2,119.999996337891,4|4|8,0:3|0:3|0:1,0:0:0:0:
393,206,173092,1,0,0:0:0:0:
396,194,173175,1,0,0:0:0:0:
403,184,173258,1,0,0:0:0:0:
414,180,173342,6,0,P|400:265|260:275,1,239.999992675781,4|8,0:3|0:1,0:0:0:0:
23,332,173842,1,0,0:0:0:0:
23,332,173925,1,0,0:0:0:0:
23,332,174008,2,0,P|17:274|60:234,1,119.999996337891,6|0,0:3|0:0,0:0:0:0:
95,356,174258,2,0,P|137:316|131:258,1,119.999996337891,6|0,0:3|0:0,0:0:0:0:
89,147,174508,6,0,B|39:133|-5:156|-5:156|95:156|212:211,1,300.000011444092,10|4,0:2|0:3,0:0:0:0:
443,229,175008,2,0,B|459:291|459:291|408:322,1,119.999996337891,8|0,0:1|0:0,0:0:0:0:
405,322,175258,1,0,0:0:0:0:
399,323,175342,2,0,P|405:293|369:289,1,59.9999981689454,4|0,0:3|0:0,0:0:0:0:
272,217,175508,5,4,0:3:0:0:
266,273,175591,1,0,0:0:0:0:
259,331,175674,1,0,0:0:0:0:
337,169,175842,1,0,0:0:0:0:
337,169,175925,1,0,0:0:0:0:
337,169,176008,6,0,P|256:185|169:207,1,150,4|0,1:2|0:0,0:0:0:0:
189,194,176342,6,0,P|219:186|265:174,1,59.9999981689454,0|0,0:0|0:0,0:0:0:0:
8,353,176675,6,0,P|22:305|27:255,1,100,4|0,1:2|0:0,0:0:0:0:
104,268,176925,1,0,0:0:0:0:
102,264,177008,2,0,P|91:217|84:201,1,50,0|0,0:0|0:0,0:0:0:0:
83,142,177175,6,0,B|68:135|51:113|51:113|52:139|40:157,1,89.9999972534181,4|0,0:0|0:0,0:0:0:0:
196,85,177508,6,0,B|120:79|120:79|191:97,1,150.000005722046,6|0,1:3|0:0,0:0:0:0:
249,164,177758,2,0,B|322:183|322:183|247:178,1,150.000005722046,6|0,1:3|0:0,0:0:0:0:
472,96,178008,6,0,P|479:109|477:95,1,40,8|0,0:1|0:0,0:0:0:0:
375,79,178175,2,0,P|374:94|380:81,1,40,4|0,0:3|0:0,0:0:0:0:
436,16,178342,6,0,P|422:99|411:211,1,165.000005035401,8|0,0:1|0:0,0:0:0:0:
402,256,178675,5,4,1:1:0:0:
171,273,179008,1,0,0:0:0:0:
244,320,179175,2,0,B|263:273|263:273|241:229,1,100,2|2,0:0|0:0,0:0:0:0:
78,238,179675,5,0,0:0:0:0:
64,113,179842,2,0,L|75:224,1,100,2|2,0:0|0:0,0:0:0:0:
216,211,180342,5,2,0:0:0:0:
231,85,180509,2,0,L|219:196,1,100,2|0,0:0|0:0,0:0:0:0:
311,57,181008,5,2,0:0:0:0:
142,141,181175,1,2,0:0:0:0:
311,57,181342,2,0,L|339:40,2,25,2|0|0,0:0|0:0|0:0,0:0:0:0:
157,60,181675,5,0,0:0:0:0:
326,144,181842,1,2,0:0:0:0:
157,60,182008,2,0,L|129:43,2,25,0|0|0,0:0|0:0|0:0,0:0:0:0:
408,339,182508,6,0,P|415:295|429:233,1,100,2|2,0:0|0:0,0:0:0:0:
311,266,183008,1,2,0:0:0:0:
302,155,183175,2,0,P|312:204|321:254,1,100,2|0,0:0|0:0,0:0:0:0:
234,353,183675,1,2,0:0:0:0:
234,353,183758,1,0,0:0:0:0:
234,353,183842,1,2,0:0:0:0:
78,311,184008,6,0,B|30:305|30:305|9:284|9:284|39:279|39:279|79:308,1,139.999995727539,2|0,0:0|0:0,0:0:0:0:
136,372,184508,2,0,P|121:309|146:227,1,139.999995727539,2|0,0:0|0:0,0:0:0:0:
209,192,185008,1,0,0:0:0:0:
52,214,185175,6,0,L|35:76,1,139.999995727539,2|2,0:0|0:0,0:0:0:0:
266,102,185675,1,2,0:0:0:0:
210,170,185842,2,0,L|227:31,1,139.999995727539,2|0,0:0|0:0,0:0:0:0:
44,28,186342,5,2,0:0:0:0:
44,28,186508,1,2,0:0:0:0:
44,28,186675,2,0,P|52:68|92:71,1,69.9999978637696,2|0,0:0|0:0,0:0:0:0:
165,234,187008,5,0,0:0:0:0:
237,206,187175,2,0,P|195:163|108:186,1,139.999995727539,2|0,0:0|0:0,0:0:0:0:
20,167,187675,2,0,L|12:128,3,34.9999989318848,0|0|2|0,0:0|0:0|0:0|0:0,0:0:0:0:
103,194,188008,2,0,L|95:233,3,34.9999989318848,0|0|0|0,0:0|0:0|0:0|0:0,0:0:0:0:
38,282,188342,5,0,0:0:0:0:
38,292,188425,1,0,0:0:0:0:
39,304,188508,1,0,0:0:0:0:
40,314,188592,1,0,0:0:0:0:
42,326,188675,5,0,0:0:0:0:
65,293,188758,1,0,0:0:0:0:
104,279,188841,1,0,0:0:0:0:
143,289,188925,1,0,0:0:0:0:
171,318,189008,1,0,0:0:0:0:
198,348,189091,1,0,0:0:0:0:
237,357,189175,1,0,0:0:0:0:
275,343,189258,1,0,0:0:0:0:
299,310,189341,5,2,0:0:0:0:
233,271,189508,1,0,0:0:0:0:
358,368,189675,1,0,0:0:0:0:
454,244,189842,2,0,B|413:224|413:224|368:241,1,89.9999972534181,2|0,0:0|0:0,0:0:0:0:
205,353,190175,1,0,0:0:0:0:
205,353,190258,1,0,0:0:0:0:
205,353,190342,1,2,0:0:0:0:
160,207,190508,2,0,L|216:199,1,44.999998626709,0|0,0:0|0:0,0:0:0:0:
284,171,190675,6,0,L|269:294,1,89.9999972534181,2|0,0:0|0:0,0:0:0:0:
367,353,191008,1,0,0:0:0:0:
473,134,191175,2,0,L|486:64,2,44.999998626709,2|0|0,0:0|0:0|0:0,0:0:0:0:
395,102,191508,1,0,0:0:0:0:
492,254,191675,2,0,P|452:267|403:267,1,89.9999972534181,2|0,0:0|0:0,0:0:0:0:
290,175,191925,1,0,0:0:0:0:
290,175,192008,6,0,P|250:162|201:162,1,89.9999972534181,2|0,0:0|0:0,0:0:0:0:
198,164,192258,1,0,0:0:0:0:
195,167,192342,1,0,0:0:0:0:
64,343,192508,2,0,P|57:320|57:282,1,44.999998626709,2|0,0:0|0:0,0:0:0:0:
60,215,192675,1,0,0:0:0:0:
199,319,192842,1,0,0:0:0:0:
199,319,192925,1,0,0:0:0:0:
199,319,193008,2,0,L|261:308,1,44.999998626709,2|0,0:0|0:0,0:0:0:0:
309,261,193175,6,0,B|325:302|325:302|315:346,1,89.9999972534181,0|0,0:0|0:0,0:0:0:0:
219,244,193508,1,2,0:0:0:0:
396,344,193675,1,0,0:0:0:0:
430,165,193842,2,0,L|448:94,2,44.999998626709,0|0|2,0:0|0:0|0:0,0:0:0:0:
361,200,194175,1,0,0:0:0:0:
180,93,194342,2,0,P|222:80|265:92,1,89.9999972534181,2|0,0:0|0:0,0:0:0:0:
268,95,194592,1,0,0:0:0:0:
271,98,194675,6,0,L|250:224,1,89.9999972534181,2|0,0:0|0:0,0:0:0:0:
101,278,195008,1,0,0:0:0:0:
80,164,195175,2,0,L|101:290,1,89.9999972534181,2|0,0:0|0:0,0:0:0:0:
336,332,195508,1,0,0:0:0:0:
336,332,195592,1,0,0:0:0:0:
336,332,195675,2,0,P|315:343|278:338,1,44.999998626709,2|0,0:0|0:0,0:0:0:0:
192,250,195842,2,0,P|214:251|233:261,1,44.999998626709,0|0,0:0|0:0,0:0:0:0:
336,332,196008,6,0,P|395:324|425:289,1,89.9999972534181,2|0,0:0|0:0,0:0:0:0:
487,356,196342,1,0,0:0:0:0:
388,152,196508,2,0,P|447:160|477:195,1,89.9999972534181,2|0,0:0|0:0,0:0:0:0:
455,77,196842,1,0,0:0:0:0:
319,241,197008,2,0,L|303:130,1,89.9999972534181,2|0,0:0|0:0,0:0:0:0:
303,148,197258,1,0,0:0:0:0:
299,144,197342,6,0,B|241:173|241:173|177:161,1,100,2|0,0:0|0:0,0:0:0:0:
72,76,197675,1,0,0:0:0:0:
142,241,197842,2,0,L|145:304,2,50,2|0|0,0:0|0:0|0:0,0:0:0:0:
239,97,198175,1,0,0:0:0:0:
239,97,198258,1,0,0:0:0:0:
239,97,198342,1,2,0:0:0:0:
284,264,198508,2,0,P|316:263|357:273,1,50,0|0,0:0|0:0,0:0:0:0:
393,316,198675,6,0,P|406:255|389:213,1,100,2|0,0:0|0:0,0:0:0:0:
389,218,198925,1,0,0:0:0:0:
384,216,199008,1,0,0:0:0:0:
455,80,199175,2,0,L|468:20,2,50,2|0|0,0:0|0:0|0:0,0:0:0:0:
289,122,199508,1,0,0:0:0:0:
289,122,199592,1,0,0:0:0:0:
289,122,199675,2,0,P|309:110|342:106,1,50,2|0,0:0|0:0,0:0:0:0:
257,204,199842,2,0,P|232:200|210:187,1,50,0|0,0:0|0:0,0:0:0:0:
144,76,200008,6,0,P|166:81|193:96,1,40,0|0,1:0|0:0,0:0:0:0:
86,143,200342,2,0,P|94:160|107:176,1,40,0|0,1:0|0:0,0:0:0:0:
93,16,200675,2,0,P|113:5|143:0,1,40,0|0,1:0|0:0,0:0:0:0:
14,111,201008,2,0,P|9:130|8:150,1,40,0|0,1:0|0:0,0:0:0:0:
308,324,201342,5,0,1:0:0:0:
205,355,201675,1,0,1:0:0:0:
311,331,202008,1,0,1:0:0:0:
200,351,202341,1,0,1:0:0:0:
301,37,202675,6,0,B|295:69|295:69|309:117,1,59.9999981689454,0|0,1:0|0:0,0:0:0:0:
306,99,202925,1,0,0:0:0:0:
311,101,203008,2,0,L|396:98,1,59.9999981689454,0|0,1:0|0:0,0:0:0:0:
496,110,203342,6,0,B|502:142|502:142|488:190,1,59.9999981689454,0|0,1:0|0:0,0:0:0:0:
491,172,203592,1,0,0:0:0:0:
486,174,203675,2,0,L|401:171,1,59.9999981689454,0|0,1:0|0:0,0:0:0:0:
145,273,204008,6,0,P|136:195|152:64,3,200,0|0|0|0,1:0|1:0|1:0|1:0,0:0:0:0:
314,79,205342,5,0,1:0:0:0:
212,26,205508,1,0,1:0:0:0:
58,103,205675,5,0,1:0:0:0:
53,95,205842,1,0,1:0:0:0:
123,41,206008,5,0,1:0:0:0:
238,108,206175,1,0,1:0:0:0:
389,48,206342,5,0,1:0:0:0:
394,40,206509,1,0,1:0:0:0:
292,4,206675,5,0,1:0:0:0:
463,111,206842,1,0,1:0:0:0:
281,199,207008,5,0,1:0:0:0:
286,188,207175,1,0,1:0:0:0:
372,184,207342,5,0,1:0:0:0:
193,203,207508,1,0,1:0:0:0:
129,353,207675,6,0,L|133:362,1,10,0|0,1:0|1:0,0:0:0:0:
33,384,207842,2,0,L|30:374,1,10,0|0,1:0|1:0,0:0:0:0:
102,262,208008,6,0,L|98:271,1,10,0|0,1:0|1:0,0:0:0:0:
198,293,208175,2,0,L|201:283,1,10,0|0,1:0|1:0,0:0:0:0:
126,174,208342,6,0,L|130:183,1,10,0|0,1:0|1:0,0:0:0:0:
30,205,208509,2,0,L|27:195,1,10,0|0,1:0|1:0,0:0:0:0:
113,91,208675,6,0,L|109:100,1,10,0|0,1:0|1:0,0:0:0:0:
209,122,208842,2,0,L|212:112,1,10,0|0,1:0|1:0,0:0:0:0:
125,7,209008,6,0,L|129:16,1,10,0|0,1:0|1:0,0:0:0:0:
29,38,209175,2,0,L|26:28,1,10,0|0,1:0|1:0,0:0:0:0:
24,302,209342,6,0,B|31:322|31:322|90:309|90:309|123:235|123:235|129:231|129:231|224:18|224:18|198:75|216:129,1,500,0|0,3:0|0:0,0:0:0:0:
395,229,210342,5,0,0:0:0:0:
406,240,210425,1,0,0:0:0:0:
414,225,210508,1,0,0:0:0:0:
421,240,210592,1,0,0:0:0:0:
471,182,210675,6,0,B|489:225|489:225|303:191|303:191|322:232,1,280,4|0,1:0|0:0,0:0:0:0:
322,231,211008,6,0,L|338:146,1,75.0000028610231,0|0,1:0|2:0,0:0:0:0:
480,301,211175,2,0,L|381:283,1,75.0000028610231,0|0,1:0|2:0,0:0:0:0:
139,311,211342,6,0,B|-5:325|-5:325|44:311|66:289,1,225.000008583069,8|0,1:1|2:0,0:0:0:0:
249,339,211675,2,0,B|256:301|256:301|240:267,1,75.0000028610231,0|0,1:0|0:0,0:0:0:0:
158,235,211842,2,0,L|173:384,1,150.000005722046,0|0,1:0|0:0,0:0:0:0:
470,104,212175,5,0,1:0:0:0:
470,104,212258,1,0,1:0:0:0:
469,104,212342,2,0,P|474:141|461:178,1,75.0000028610231,0|0,1:0|0:0,0:0:0:0:
366,154,212508,2,0,B|374:136|393:131|393:131|391:148|369:159,1,75.0000028610231,0|0,0:0|0:0,0:0:0:0:
352,247,212675,6,0,P|344:153|250:29,1,225.000008583069,8|0,1:0|0:0,0:0:0:0:
273,46,213008,2,0,P|335:48|354:18,1,75.0000028610231,8|0,1:0|0:0,0:0:0:0:
123,47,213175,2,0,P|134:96|136:144,1,75.0000028610231,0|0,1:0|1:0,0:0:0:0:
159,356,213342,6,0,P|181:263|218:132,1,200,4|0,1:2|0:0,0:0:0:0:
209,163,213592,2,0,P|221:151|214:169,1,50,4|0,1:2|0:0,0:0:0:0:
82,267,213842,6,0,P|65:200|43:124,1,120,8|0,1:0|0:0,0:0:0:0:
52,152,214008,2,0,P|39:140|46:158,1,50,4|0,1:2|0:0,0:0:0:0:
177,248,214258,6,0,P|270:242|299:157,1,160,4|0,1:2|0:0,0:0:0:0:
216,5,214508,2,0,P|205:26|201:66,1,40,8|0,1:0|0:0,0:0:0:0:
338,95,214842,6,0,B|301:78|289:43|289:43|285:82|256:110,1,150.000005722046,0|0,1:0|0:0,0:0:0:0:
432,24,215092,1,0,1:0:0:0:
432,24,215175,2,0,P|393:10|348:37,1,75.0000028610231,0|0,0:0|0:0,0:0:0:0:
306,172,215342,2,0,P|330:242|343:316,1,150.000005722046,8|0,1:0|1:0,0:0:0:0:
416,164,215675,6,0,P|419:139|428:116,1,50,8|0,1:0|0:0,0:0:0:0:
248,42,216008,5,4,1:0:0:0:
249,56,216092,1,0,0:0:0:0:
238,44,216175,1,0,0:0:0:0:
238,59,216258,1,0,0:0:0:0:
217,38,216342,5,8,1:0:0:0:
218,68,216425,1,0,0:0:0:0:
178,54,216508,6,0,L|132:58,2,29.9999990844727,0|0|0,0:0|0:0|0:0,0:0:0:0:
52,124,216842,1,4,1:3:0:0:
49,138,216925,1,0,0:0:0:0:
73,120,217009,5,8,1:0:0:0:
68,150,217092,1,0,0:0:0:0:
89,137,217175,1,0,0:0:0:0:
212,199,217342,5,4,1:3:0:0:
213,213,217426,1,0,0:0:0:0:
202,201,217509,1,0,0:0:0:0:
202,216,217592,1,0,0:0:0:0:
181,195,217676,5,8,1:0:0:0:
182,225,217759,1,0,0:0:0:0:
142,211,217842,6,0,L|96:215,2,29.9999990844727,0|0|0,0:0|0:0|0:0,0:0:0:0:
70,308,218175,1,4,1:3:0:0:
67,322,218258,1,0,0:0:0:0:
85,320,218342,6,0,L|137:339,1,29.9999990844727,8|0,1:0|0:0,0:0:0:0:
209,317,218508,2,0,L|219:267,1,29.9999990844727,0|0,0:0|0:0,0:0:0:0:
264,189,218675,5,4,1:3:0:0:
266,194,218758,1,0,0:0:0:0:
260,190,218842,1,0,0:0:0:0:
261,195,218925,1,0,0:0:0:0:
258,188,219008,5,8,1:0:0:0:
255,197,219091,1,0,0:0:0:0:
268,189,219175,1,0,0:0:0:0:
265,199,219258,1,0,0:0:0:0:
256,181,219342,5,0,0:0:0:0:
251,199,219425,1,0,0:0:0:0:
273,184,219509,1,4,1:3:0:0:
268,202,219592,1,0,0:0:0:0:
303,201,219675,5,8,1:0:0:0:
332,196,219758,1,0,0:0:0:0:
355,178,219841,1,0,0:0:0:0:
365,150,219925,1,0,0:0:0:0:
323,129,220008,5,8,1:0:0:0:
321,189,220092,1,0,0:0:0:0:
314,248,220175,1,0,0:0:0:0:
310,308,220258,1,0,0:0:0:0:
345,287,220342,5,0,0:0:0:0:
352,285,220425,1,0,0:0:0:0:
344,284,220508,1,8,1:0:0:0:
351,281,220592,1,0,0:0:0:0:
343,280,220675,1,0,0:0:0:0:
350,277,220758,1,4,1:3:0:0:
342,277,220842,1,0,0:0:0:0:
348,273,220925,1,0,0:0:0:0:
340,271,221008,6,0,B|313:299|313:299|285:262,1,75.0000028610231,8|0,1:0|0:0,0:0:0:0:
258,199,221175,2,0,B|231:171|231:171|203:208,1,75.0000028610231,8|0,1:0|0:0,0:0:0:0:
92,283,221342,6,0,B|121:306|138:334|138:334|112:288|112:263|116:203|116:203|106:247|85:285,1,280,4|0,1:0|0:0,0:0:0:0:
81,283,221675,6,0,L|8:299,1,75.0000028610231,8|0,1:0|0:0,0:0:0:0:
269,165,221842,2,0,L|195:149,1,75.0000028610231,0|0,0:0|0:0,0:0:0:0:
45,6,222008,2,0,B|-8:64|-8:64|29:222,1,225.000008583069,8|0,1:0|0:0,0:0:0:0:
35,202,222342,6,0,L|17:129,1,75.0000028610231,8|0,1:0|0:0,0:0:0:0:
177,72,222508,2,0,L|162:221,1,150.000005722046,0|0,1:0|0:0,0:0:0:0:
357,355,222842,5,4,1:3:0:0:
357,355,222925,1,4,1:3:0:0:
357,355,223009,2,0,B|342:320|342:320|358:275,1,75.0000028610231,4|0,1:2|0:0,0:0:0:0:
400,200,223175,2,0,B|423:181|423:181|417:225,1,75.0000028610231,0|0,0:0|0:0,0:0:0:0:
445,300,223342,6,0,B|428:331|428:331|272:308|272:308|263:277,1,225.000008583069,8|0,1:0|0:0,0:0:0:0:
74,357,223675,6,0,L|62:252,1,80,8|0,1:0|0:0,0:0:0:0:
54,203,223842,2,0,L|40:92,1,80,4|4,1:3|1:3,0:0:0:0:
213,74,224008,6,0,L|209:110,1,30,8|0,1:0|0:0,0:0:0:0:
190,156,224342,6,0,B|175:128|175:128|220:35|220:35|231:140|231:140|203:162,1,269.999991760254,4|0,1:2|0:0,0:0:0:0:
237,229,224675,6,0,B|233:284|138:287|156:348|156:348|197:296|126:257|140:210,1,300.000011444092,4|0,1:2|0:0,0:0:0:0:
147,216,224925,6,0,B|135:255|195:287|160:331|160:331|146:281|225:277|229:228,1,250,4|0,1:2|0:0,0:0:0:0:
219,237,225175,6,0,B|217:270|153:272|165:314|165:314|193:278|144:252|154:220,1,200,4|0,1:2|0:0,0:0:0:0:
161,227,225425,6,0,B|153:250|189:269|169:296|169:296|160:265|207:264|210:233,1,150.000005722046,4|0,1:2|0:0,0:0:0:0:
199,242,225675,6,0,B|198:260|166:261|172:282|172:282|186:264|162:251|167:236,1,100,4|0,1:2|0:0,0:0:0:0:
172,243,225925,6,0,B|170:250|182:257|175:266|175:266|172:255|188:255|189:246,1,50,4|0,1:2|0:0,0:0:0:0:
166,236,226175,6,0,L|116:227,1,50,4|0,1:2|2:0,0:0:0:0:
74,351,226342,5,2,0:0:0:0:
169,340,226453,1,2,0:0:0:0:
264,329,226564,1,2,0:0:0:0:
366,343,226675,6,0,B|279:384|279:384|317:185,1,300,4|0,1:1|0:0,0:0:0:0:
309,192,227008,6,0,L|358:207,1,50,0|0,1:0|0:0,0:0:0:0:
434,237,227175,1,0,0:0:0:0:
376,104,227342,6,0,L|405:149,1,55.0000016784668,0|0,1:0|0:0,0:0:0:0:
445,224,227509,1,0,0:0:0:0:
484,66,227675,6,0,L|476:125,1,59.9999981689454,0|0,1:0|0:0,0:0:0:0:
457,215,227842,1,0,0:0:0:0:
209,372,228008,6,0,L|189:283,1,64.9999970245363,0|0,1:0|0:0,0:0:0:0:
174,229,228175,1,0,0:0:0:0:
302,343,228342,6,0,L|322:254,1,69.9999978637696,0|0,1:0|0:0,0:0:0:0:
337,200,228509,1,0,0:0:0:0:
188,226,228675,6,0,L|168:137,1,75.0000028610231,0|0,1:0|0:0,0:0:0:0:
152,76,228842,1,0,0:0:0:0:
325,194,229008,6,0,L|345:105,1,80,0|0,1:0|0:0,0:0:0:0:
361,43,229175,1,0,0:0:0:0:
8,100,229342,6,0,P|54:107|106:124,1,85.0000016212464,0|0,1:0|0:0,0:0:0:0:
171,152,229508,1,0,0:0:0:0:
1,271,229675,6,0,P|47:264|105:245,1,89.9999972534181,0|0,1:0|0:0,0:0:0:0:
173,233,229841,1,0,0:0:0:0:
97,0,230008,6,0,P|127:34|157:87,1,94.9999974632264,0|0,1:0|0:0,0:0:0:0:
248,271,230174,1,0,0:0:0:0:
92,384,230342,6,0,P|122:349|154:291,1,100,0|0,1:0|0:0,0:0:0:0:
251,115,230508,1,0,0:0:0:0:
44,195,230675,5,4,1:3:0:0:
50,196,230758,1,4,0:3:0:0:
51,203,230842,1,4,0:3:0:0:
45,208,230925,1,4,0:3:0:0:
38,204,231008,1,4,1:3:0:0:
39,196,231092,1,4,0:3:0:0:
72,192,231175,6,0,B|92:182|92:182|183:195,2,83.3333333333333,4|0|0,0:3|0:0|0:0,0:0:0:0:
74,169,231342,6,0,L|321:207,1,225.000008583069,4|4,1:3|0:3,0:0:0:0:
290,198,231675,1,4,1:3:0:0:
284,192,231758,1,4,0:3:0:0:
278,186,231842,1,4,0:3:0:0:
272,180,231925,1,4,0:3:0:0:
237,148,232008,5,4,1:3:0:0:
256,192,232092,12,0,240008,0:0:0:0:
