osu file format v14

[General]
AudioFilename: STORIA.mp3
AudioLeadIn: 0
PreviewTime: 210353
Countdown: 0
SampleSet: Soft
StackLeniency: 0.7
Mode: 3
LetterboxInBreaks: 0
SpecialStyle: 0
WidescreenStoryboard: 0

[Editor]
Bookmarks: 26810,38686,60143,81476,102810,124143,145476,157476,178810,189353
DistanceSpacing: 0.5
BeatDivisor: 4
GridSize: 4
TimelineZoom: 3.299999

[Metadata]
Title:STORIA
TitleUnicode:STORIA
Artist:xi vs sakuzyo
ArtistUnicode:xi vs sakuzyo
Creator:Kyousuke-
Version:Zan's 7K Hard
Source:Cytus
Tags:削除 chapter M Million rayark BMS historia Halcyon Niflheimr VitMaster Black Lair AXION Shinzo- Rido Kawawa Julie Zan_- Takane6
BeatmapID:823284
BeatmapSetID:330438

[Difficulty]
HPDrainRate:7.5
CircleSize:7
OverallDifficulty:7.5
ApproachRate:5
SliderMultiplier:1.4
SliderTickRate:1

[Events]
//Background and Video events
0,0,"STORIA_BG.png",0,0
//Break Periods
//Storyboard Layer 0 (Background)
//Storyboard Layer 1 (Fail)
//Storyboard Layer 2 (Pass)
//Storyboard Layer 3 (Foreground)
//Storyboard Sound Samples

[TimingPoints]
20,333.333333333333,4,2,0,10,1,0
38686,-100,4,2,0,10,0,1
49019,-100,4,2,0,10,0,0
49353,-100,4,2,0,10,0,1
60019,-100,4,2,0,10,0,0
124019,-100,4,2,0,10,0,1
134519,-100,4,2,0,10,0,0
134686,-100,4,2,0,10,0,1
145019,-100,4,2,0,10,0,0
168019,-100,4,2,0,10,0,1
178686,-100,4,2,0,10,0,0
210686,-100,4,2,0,10,0,1
221269,-100,4,2,0,10,0,0
221353,-100,4,2,0,10,0,1
232019,-100,4,2,0,10,0,0

[HitObjects]
36,192,5353,5,0,0:0:0:0:
475,192,5353,1,0,0:0:0:0:
256,192,5353,1,0,0:0:0:0:
182,192,5686,1,0,0:0:0:0:
329,192,5853,1,0,0:0:0:0:
109,192,6186,1,0,0:0:0:0:
402,192,6353,1,0,0:0:0:0:
475,192,6686,1,0,0:0:0:0:
256,192,7019,1,0,0:0:0:0:
36,192,7353,1,0,0:0:0:0:
329,192,7519,1,0,0:0:0:0:
182,192,7686,1,0,0:0:0:0:
475,192,7853,1,0,0:0:0:0:
36,192,8019,1,0,0:0:0:0:
182,192,8186,1,0,0:0:0:0:
329,192,8353,1,0,0:0:0:0:
109,192,8686,1,0,0:0:0:0:
256,192,9019,1,0,0:0:0:0:
402,192,9353,1,0,0:0:0:0:
36,192,9686,1,0,0:0:0:0:
182,192,10019,1,0,0:0:0:0:
475,192,10186,1,0,0:0:0:0:
109,192,10353,1,0,0:0:0:0:
402,192,10519,1,0,0:0:0:0:
182,192,10686,1,0,0:0:0:0:
329,192,10853,1,0,0:0:0:0:
475,192,11019,1,0,0:0:0:0:
36,192,11353,1,0,0:0:0:0:
109,192,11686,1,0,0:0:0:0:
182,192,12019,1,0,0:0:0:0:
329,192,12353,1,0,0:0:0:0:
109,192,12686,1,0,0:0:0:0:
475,192,12853,1,0,0:0:0:0:
36,192,13019,1,0,0:0:0:0:
329,192,13186,1,0,0:0:0:0:
109,192,13519,1,0,0:0:0:0:
256,192,13686,1,0,0:0:0:0:
402,192,13853,1,0,0:0:0:0:
36,192,14019,1,0,0:0:0:0:
256,192,14353,1,0,0:0:0:0:
475,192,14686,1,0,0:0:0:0:
182,192,15019,1,0,0:0:0:0:
36,192,15353,1,0,0:0:0:0:
475,192,15519,1,0,0:0:0:0:
402,192,15686,1,0,0:0:0:0:
329,192,15853,1,0,0:0:0:0:
475,192,16019,1,0,0:0:0:0:
36,192,16019,128,0,18686:0:0:0:0:
182,192,16019,128,0,18686:0:0:0:0:
475,192,19019,128,0,19186:0:0:0:0:
36,192,19186,128,0,19353:0:0:0:0:
402,192,19353,128,0,19519:0:0:0:0:
109,192,19519,128,0,19686:0:0:0:0:
329,192,19686,128,0,19853:0:0:0:0:
182,192,19853,128,0,20019:0:0:0:0:
36,192,20019,128,0,20353:0:0:0:0:
182,192,20353,128,0,20686:0:0:0:0:
329,192,20686,128,0,21019:0:0:0:0:
475,192,21019,128,0,21353:0:0:0:0:
182,192,21353,128,0,25353:0:0:0:0:
329,192,21853,128,0,25353:0:0:0:0:
36,192,22353,128,0,25353:0:0:0:0:
256,192,25686,128,0,26019:0:0:0:0:
475,192,26019,128,0,26186:0:0:0:0:
182,192,26186,128,0,26353:0:0:0:0:
329,192,26353,128,0,26519:0:0:0:0:
36,192,26519,128,0,26686:0:0:0:0:
182,192,26686,1,0,0:0:0:0:
329,192,26686,1,0,0:0:0:0:
475,192,26686,128,0,28019:0:0:0:0:
256,192,27019,1,0,0:0:0:0:
36,192,27519,1,0,0:0:0:0:
256,192,27686,1,0,0:0:0:0:
329,192,28019,1,0,0:0:0:0:
36,192,28019,128,0,29353:0:0:0:0:
256,192,28353,1,0,0:0:0:0:
475,192,28853,1,0,0:0:0:0:
256,192,29019,1,0,0:0:0:0:
182,192,29353,1,0,0:0:0:0:
329,192,29353,128,0,30686:0:0:0:0:
109,192,29686,1,0,0:0:0:0:
475,192,30019,128,0,30686:0:0:0:0:
36,192,30186,1,0,0:0:0:0:
109,192,30353,1,0,0:0:0:0:
182,192,30686,128,0,31519:0:0:0:0:
36,192,30686,1,0,0:0:0:0:
329,192,31019,1,0,0:0:0:0:
475,192,31519,128,0,31686:0:0:0:0:
182,192,31686,128,0,31853:0:0:0:0:
36,192,31853,128,0,32019:0:0:0:0:
475,192,32019,1,0,0:0:0:0:
329,192,32019,128,0,32686:0:0:0:0:
182,192,32353,1,0,0:0:0:0:
475,192,32853,128,0,33353:0:0:0:0:
36,192,32853,1,0,0:0:0:0:
182,192,33019,1,0,0:0:0:0:
36,192,33353,1,0,0:0:0:0:
256,192,33353,128,0,34353:0:0:0:0:
475,192,33686,1,0,0:0:0:0:
36,192,34186,1,0,0:0:0:0:
475,192,34353,1,0,0:0:0:0:
329,192,34519,1,0,0:0:0:0:
36,192,34686,1,0,0:0:0:0:
182,192,34686,128,0,36019:0:0:0:0:
475,192,35019,1,0,0:0:0:0:
475,192,35519,1,0,0:0:0:0:
329,192,35686,1,0,0:0:0:0:
36,192,36019,128,0,37353:0:0:0:0:
402,192,36019,1,0,0:0:0:0:
402,192,36186,1,0,0:0:0:0:
182,192,36353,1,0,0:0:0:0:
475,192,36519,1,0,0:0:0:0:
402,192,36603,1,0,0:0:0:0:
329,192,36686,1,0,0:0:0:0:
256,192,36769,1,0,0:0:0:0:
182,192,36853,1,0,0:0:0:0:
475,192,37019,1,0,0:0:0:0:
329,192,37186,1,0,0:0:0:0:
182,192,37353,1,0,0:0:0:0:
109,192,37686,1,0,0:0:0:0:
402,192,37686,1,0,0:0:0:0:
256,192,38019,1,0,0:0:0:0:
36,192,38186,1,0,0:0:0:0:
109,192,38269,1,0,0:0:0:0:
182,192,38353,1,0,0:0:0:0:
475,192,38436,1,0,0:0:0:0:
402,192,38519,1,0,0:0:0:0:
329,192,38603,1,0,0:0:0:0:
475,192,38686,1,0,0:0:0:0:
36,192,38686,128,0,39019:0:0:0:0:
256,192,38686,128,0,39019:0:0:0:0:
36,192,39186,128,0,39353:0:0:0:0:
329,192,39186,128,0,39353:0:0:0:0:
182,192,39353,1,0,0:0:0:0:
475,192,39353,1,0,0:0:0:0:
109,192,39519,128,0,39686:0:0:0:0:
402,192,39519,128,0,39686:0:0:0:0:
182,192,39853,128,0,40019:0:0:0:0:
475,192,39853,128,0,40019:0:0:0:0:
109,192,40186,128,0,40353:0:0:0:0:
402,192,40186,128,0,40353:0:0:0:0:
36,192,40519,128,0,40686:0:0:0:0:
329,192,40519,128,0,40686:0:0:0:0:
182,192,40686,1,0,0:0:0:0:
475,192,40686,1,0,0:0:0:0:
402,192,40853,128,0,41019:0:0:0:0:
109,192,40853,128,0,41019:0:0:0:0:
329,192,41019,1,0,0:0:0:0:
256,192,41103,1,0,0:0:0:0:
182,192,41186,1,0,0:0:0:0:
109,192,41269,1,0,0:0:0:0:
36,192,41353,128,0,41686:0:0:0:0:
475,192,41353,128,0,41686:0:0:0:0:
256,192,41686,128,0,41853:0:0:0:0:
109,192,41853,128,0,42019:0:0:0:0:
402,192,41853,128,0,42019:0:0:0:0:
182,192,42019,1,0,0:0:0:0:
329,192,42019,1,0,0:0:0:0:
36,192,42186,128,0,42353:0:0:0:0:
475,192,42186,128,0,42353:0:0:0:0:
329,192,42519,128,0,42686:0:0:0:0:
475,192,42519,128,0,42686:0:0:0:0:
182,192,42853,128,0,43019:0:0:0:0:
36,192,42853,128,0,43019:0:0:0:0:
475,192,43186,128,0,43353:0:0:0:0:
329,192,43186,128,0,43353:0:0:0:0:
402,192,43353,1,0,0:0:0:0:
109,192,43353,1,0,0:0:0:0:
182,192,43519,128,0,43686:0:0:0:0:
36,192,43519,128,0,43686:0:0:0:0:
109,192,43853,1,0,0:0:0:0:
402,192,43853,1,0,0:0:0:0:
256,192,44019,1,0,0:0:0:0:
475,192,44019,1,0,0:0:0:0:
36,192,44019,128,0,44686:0:0:0:0:
329,192,44519,1,0,0:0:0:0:
402,192,44603,1,0,0:0:0:0:
109,192,44686,1,0,0:0:0:0:
475,192,44686,128,0,44853:0:0:0:0:
329,192,44853,128,0,45019:0:0:0:0:
182,192,45019,128,0,45186:0:0:0:0:
475,192,45019,1,0,0:0:0:0:
36,192,45186,128,0,45853:0:0:0:0:
329,192,45186,1,0,0:0:0:0:
109,192,45519,128,0,45853:0:0:0:0:
402,192,45519,1,0,0:0:0:0:
475,192,45769,1,0,0:0:0:0:
329,192,45853,128,0,46186:0:0:0:0:
182,192,46019,1,0,0:0:0:0:
36,192,46186,128,0,46353:0:0:0:0:
182,192,46353,128,0,46519:0:0:0:0:
329,192,46519,128,0,46686:0:0:0:0:
475,192,46686,1,0,0:0:0:0:
182,192,46686,1,0,0:0:0:0:
36,192,46686,128,0,47519:0:0:0:0:
329,192,47186,1,0,0:0:0:0:
475,192,47353,1,0,0:0:0:0:
182,192,47353,1,0,0:0:0:0:
329,192,47519,128,0,47686:0:0:0:0:
182,192,47686,128,0,47853:0:0:0:0:
36,192,47686,1,0,0:0:0:0:
475,192,47853,128,0,48686:0:0:0:0:
329,192,47853,1,0,0:0:0:0:
36,192,48186,1,0,0:0:0:0:
182,192,48436,1,0,0:0:0:0:
402,192,48686,1,0,0:0:0:0:
36,192,48686,1,0,0:0:0:0:
109,192,48769,1,0,0:0:0:0:
182,192,48853,1,0,0:0:0:0:
256,192,48936,1,0,0:0:0:0:
329,192,49019,1,0,0:0:0:0:
475,192,49019,1,0,0:0:0:0:
256,192,49103,1,0,0:0:0:0:
182,192,49186,1,0,0:0:0:0:
109,192,49269,1,0,0:0:0:0:
36,192,49353,1,0,0:0:0:0:
329,192,49353,128,0,49686:0:0:0:0:
475,192,49353,128,0,49686:0:0:0:0:
182,192,49686,128,0,49853:0:0:0:0:
36,192,49853,128,0,50019:0:0:0:0:
329,192,49853,128,0,50019:0:0:0:0:
182,192,50019,1,0,0:0:0:0:
475,192,50019,1,0,0:0:0:0:
109,192,50186,128,0,50353:0:0:0:0:
329,192,50186,128,0,50353:0:0:0:0:
182,192,50519,128,0,50686:0:0:0:0:
475,192,50519,128,0,50686:0:0:0:0:
402,192,50853,128,0,51019:0:0:0:0:
109,192,50853,128,0,51019:0:0:0:0:
329,192,51186,128,0,51353:0:0:0:0:
36,192,51186,128,0,51353:0:0:0:0:
182,192,51353,1,0,0:0:0:0:
475,192,51353,1,0,0:0:0:0:
36,192,51519,128,0,51686:0:0:0:0:
402,192,51519,128,0,51686:0:0:0:0:
329,192,51686,1,0,0:0:0:0:
256,192,51769,1,0,0:0:0:0:
182,192,51853,1,0,0:0:0:0:
109,192,51936,1,0,0:0:0:0:
36,192,52019,128,0,52353:0:0:0:0:
475,192,52019,128,0,52353:0:0:0:0:
329,192,52353,128,0,52519:0:0:0:0:
475,192,52519,128,0,52686:0:0:0:0:
182,192,52519,128,0,52686:0:0:0:0:
329,192,52686,1,0,0:0:0:0:
36,192,52686,1,0,0:0:0:0:
109,192,52853,128,0,53019:0:0:0:0:
402,192,52853,128,0,53019:0:0:0:0:
329,192,53186,128,0,53353:0:0:0:0:
475,192,53186,128,0,53353:0:0:0:0:
402,192,53519,128,0,53686:0:0:0:0:
182,192,53519,128,0,53686:0:0:0:0:
329,192,53853,128,0,54019:0:0:0:0:
109,192,53853,128,0,54019:0:0:0:0:
402,192,54019,1,0,0:0:0:0:
475,192,54019,1,0,0:0:0:0:
182,192,54186,128,0,54353:0:0:0:0:
36,192,54186,128,0,54353:0:0:0:0:
402,192,54519,1,0,0:0:0:0:
329,192,54603,1,0,0:0:0:0:
256,192,54686,1,0,0:0:0:0:
475,192,54686,1,0,0:0:0:0:
36,192,54686,128,0,55519:0:0:0:0:
475,192,55186,1,0,0:0:0:0:
402,192,55353,1,0,0:0:0:0:
109,192,55353,1,0,0:0:0:0:
256,192,55519,128,0,55686:0:0:0:0:
36,192,55686,1,0,0:0:0:0:
329,192,55686,128,0,55853:0:0:0:0:
402,192,55853,128,0,56686:0:0:0:0:
109,192,55853,128,0,56686:0:0:0:0:
475,192,55853,1,0,0:0:0:0:
329,192,56186,1,0,0:0:0:0:
182,192,56436,1,0,0:0:0:0:
475,192,56686,1,0,0:0:0:0:
36,192,56686,1,0,0:0:0:0:
329,192,56853,128,0,57019:0:0:0:0:
182,192,57019,128,0,57186:0:0:0:0:
109,192,57019,1,0,0:0:0:0:
402,192,57186,1,0,0:0:0:0:
36,192,57186,128,0,58519:0:0:0:0:
475,192,57186,128,0,58519:0:0:0:0:
256,192,57519,1,0,0:0:0:0:
109,192,57853,1,0,0:0:0:0:
182,192,58019,1,0,0:0:0:0:
402,192,58019,1,0,0:0:0:0:
329,192,58353,1,0,0:0:0:0:
182,192,58519,1,0,0:0:0:0:
182,192,58853,1,0,0:0:0:0:
329,192,58853,1,0,0:0:0:0:
475,192,58853,1,0,0:0:0:0:
402,192,59103,1,0,0:0:0:0:
256,192,59103,1,0,0:0:0:0:
109,192,59103,1,0,0:0:0:0:
36,192,59353,1,0,0:0:0:0:
182,192,59353,1,0,0:0:0:0:
475,192,59353,1,0,0:0:0:0:
329,192,59519,1,0,0:0:0:0:
182,192,59686,1,0,0:0:0:0:
36,192,59686,1,0,0:0:0:0:
36,192,60019,1,0,0:0:0:0:
256,192,60019,1,0,0:0:0:0:
475,192,60019,1,0,0:0:0:0:
475,192,60353,1,0,0:0:0:0:
36,192,60353,1,0,0:0:0:0:
109,192,60436,1,0,0:0:0:0:
182,192,60519,1,0,0:0:0:0:
256,192,60603,1,0,0:0:0:0:
329,192,60686,1,0,0:0:0:0:
475,192,60853,1,0,0:0:0:0:
182,192,61019,1,0,0:0:0:0:
36,192,61019,1,0,0:0:0:0:
109,192,61186,1,0,0:0:0:0:
329,192,61186,1,0,0:0:0:0:
475,192,61353,1,0,0:0:0:0:
182,192,61519,1,0,0:0:0:0:
402,192,61519,1,0,0:0:0:0:
36,192,61686,1,0,0:0:0:0:
329,192,61686,1,0,0:0:0:0:
109,192,61853,1,0,0:0:0:0:
402,192,61853,1,0,0:0:0:0:
182,192,62019,1,0,0:0:0:0:
329,192,62186,1,0,0:0:0:0:
475,192,62353,1,0,0:0:0:0:
36,192,62353,1,0,0:0:0:0:
109,192,62519,1,0,0:0:0:0:
182,192,62686,1,0,0:0:0:0:
329,192,62853,1,0,0:0:0:0:
475,192,63019,1,0,0:0:0:0:
109,192,63019,1,0,0:0:0:0:
256,192,63186,1,0,0:0:0:0:
182,192,63353,1,0,0:0:0:0:
329,192,63353,1,0,0:0:0:0:
402,192,63519,1,0,0:0:0:0:
109,192,63519,1,0,0:0:0:0:
182,192,63686,1,0,0:0:0:0:
329,192,63686,1,0,0:0:0:0:
36,192,63853,1,0,0:0:0:0:
475,192,63853,1,0,0:0:0:0:
256,192,64019,1,0,0:0:0:0:
182,192,64186,1,0,0:0:0:0:
36,192,64186,1,0,0:0:0:0:
329,192,64353,1,0,0:0:0:0:
475,192,64353,1,0,0:0:0:0:
36,192,64519,1,0,0:0:0:0:
182,192,64519,1,0,0:0:0:0:
402,192,64686,1,0,0:0:0:0:
329,192,64769,1,0,0:0:0:0:
256,192,64853,1,0,0:0:0:0:
182,192,64936,1,0,0:0:0:0:
475,192,65019,1,0,0:0:0:0:
109,192,65019,1,0,0:0:0:0:
402,192,65103,1,0,0:0:0:0:
329,192,65186,1,0,0:0:0:0:
256,192,65269,1,0,0:0:0:0:
182,192,65353,1,0,0:0:0:0:
36,192,65353,1,0,0:0:0:0:
475,192,65519,1,0,0:0:0:0:
109,192,65686,1,0,0:0:0:0:
329,192,65686,128,0,66019:0:0:0:0:
36,192,66019,128,0,66186:0:0:0:0:
182,192,66186,128,0,66353:0:0:0:0:
402,192,66186,1,0,0:0:0:0:
475,192,66353,128,0,66519:0:0:0:0:
36,192,66353,1,0,0:0:0:0:
329,192,66519,128,0,66686:0:0:0:0:
36,192,66686,1,0,0:0:0:0:
475,192,66686,1,0,0:0:0:0:
109,192,66769,1,0,0:0:0:0:
182,192,66853,1,0,0:0:0:0:
256,192,66936,1,0,0:0:0:0:
109,192,67019,1,0,0:0:0:0:
475,192,67019,1,0,0:0:0:0:
182,192,67103,1,0,0:0:0:0:
256,192,67186,1,0,0:0:0:0:
329,192,67269,1,0,0:0:0:0:
182,192,67353,1,0,0:0:0:0:
256,192,67436,1,0,0:0:0:0:
329,192,67519,1,0,0:0:0:0:
402,192,67603,1,0,0:0:0:0:
256,192,67686,1,0,0:0:0:0:
36,192,67686,1,0,0:0:0:0:
329,192,67769,1,0,0:0:0:0:
402,192,67853,1,0,0:0:0:0:
475,192,67936,1,0,0:0:0:0:
182,192,68019,1,0,0:0:0:0:
36,192,68019,128,0,68186:0:0:0:0:
329,192,68186,128,0,68353:0:0:0:0:
182,192,68353,128,0,68519:0:0:0:0:
36,192,68353,1,0,0:0:0:0:
475,192,68519,128,0,68686:0:0:0:0:
182,192,68686,128,0,68853:0:0:0:0:
329,192,68853,128,0,69019:0:0:0:0:
36,192,68853,1,0,0:0:0:0:
475,192,69019,1,0,0:0:0:0:
109,192,69019,1,0,0:0:0:0:
182,192,69103,1,0,0:0:0:0:
256,192,69186,1,0,0:0:0:0:
402,192,69353,1,0,0:0:0:0:
36,192,69353,1,0,0:0:0:0:
182,192,69519,1,0,0:0:0:0:
256,192,69603,1,0,0:0:0:0:
329,192,69686,1,0,0:0:0:0:
36,192,69686,1,0,0:0:0:0:
182,192,69853,1,0,0:0:0:0:
329,192,70019,1,0,0:0:0:0:
256,192,70186,1,0,0:0:0:0:
329,192,70269,1,0,0:0:0:0:
402,192,70353,1,0,0:0:0:0:
36,192,70353,1,0,0:0:0:0:
109,192,70436,1,0,0:0:0:0:
182,192,70519,1,0,0:0:0:0:
256,192,70603,1,0,0:0:0:0:
329,192,70686,1,0,0:0:0:0:
475,192,70686,1,0,0:0:0:0:
36,192,70686,1,0,0:0:0:0:
256,192,71019,1,0,0:0:0:0:
36,192,71019,1,0,0:0:0:0:
475,192,71019,128,0,71353:0:0:0:0:
402,192,71353,1,0,0:0:0:0:
109,192,71519,1,0,0:0:0:0:
329,192,71686,1,0,0:0:0:0:
475,192,71686,1,0,0:0:0:0:
402,192,71853,1,0,0:0:0:0:
182,192,71853,1,0,0:0:0:0:
36,192,72019,1,0,0:0:0:0:
109,192,72186,1,0,0:0:0:0:
475,192,72186,1,0,0:0:0:0:
402,192,72353,1,0,0:0:0:0:
182,192,72353,1,0,0:0:0:0:
329,192,72519,1,0,0:0:0:0:
36,192,72519,1,0,0:0:0:0:
475,192,72686,1,0,0:0:0:0:
256,192,72853,1,0,0:0:0:0:
109,192,73019,1,0,0:0:0:0:
402,192,73019,1,0,0:0:0:0:
329,192,73186,1,0,0:0:0:0:
182,192,73353,1,0,0:0:0:0:
475,192,73353,1,0,0:0:0:0:
36,192,73519,1,0,0:0:0:0:
109,192,73686,1,0,0:0:0:0:
402,192,73686,128,0,74019:0:0:0:0:
182,192,74019,128,0,74186:0:0:0:0:
36,192,74019,1,0,0:0:0:0:
329,192,74186,128,0,74353:0:0:0:0:
475,192,74186,1,0,0:0:0:0:
36,192,74353,128,0,74519:0:0:0:0:
182,192,74353,1,0,0:0:0:0:
475,192,74519,128,0,75019:0:0:0:0:
256,192,74519,1,0,0:0:0:0:
329,192,74686,1,0,0:0:0:0:
182,192,74853,1,0,0:0:0:0:
36,192,74853,1,0,0:0:0:0:
109,192,75019,1,0,0:0:0:0:
402,192,75019,1,0,0:0:0:0:
182,192,75186,1,0,0:0:0:0:
329,192,75186,1,0,0:0:0:0:
256,192,75353,1,0,0:0:0:0:
182,192,75436,1,0,0:0:0:0:
109,192,75519,1,0,0:0:0:0:
36,192,75603,1,0,0:0:0:0:
329,192,75686,1,0,0:0:0:0:
475,192,75686,1,0,0:0:0:0:
256,192,75769,1,0,0:0:0:0:
182,192,75853,1,0,0:0:0:0:
109,192,75936,1,0,0:0:0:0:
36,192,76019,1,0,0:0:0:0:
329,192,76019,1,0,0:0:0:0:
475,192,76019,1,0,0:0:0:0:
182,192,76186,1,0,0:0:0:0:
36,192,76353,1,0,0:0:0:0:
402,192,76353,128,0,76686:0:0:0:0:
109,192,76686,128,0,76853:0:0:0:0:
256,192,76853,128,0,77019:0:0:0:0:
475,192,76853,1,0,0:0:0:0:
402,192,77019,128,0,77186:0:0:0:0:
109,192,77019,1,0,0:0:0:0:
182,192,77186,128,0,77353:0:0:0:0:
36,192,77353,1,0,0:0:0:0:
475,192,77353,1,0,0:0:0:0:
402,192,77436,1,0,0:0:0:0:
329,192,77519,1,0,0:0:0:0:
256,192,77603,1,0,0:0:0:0:
402,192,77686,1,0,0:0:0:0:
109,192,77686,1,0,0:0:0:0:
329,192,77769,1,0,0:0:0:0:
256,192,77853,1,0,0:0:0:0:
182,192,77936,1,0,0:0:0:0:
329,192,78019,1,0,0:0:0:0:
256,192,78103,1,0,0:0:0:0:
182,192,78186,1,0,0:0:0:0:
109,192,78269,1,0,0:0:0:0:
256,192,78353,1,0,0:0:0:0:
475,192,78353,1,0,0:0:0:0:
182,192,78436,1,0,0:0:0:0:
109,192,78519,1,0,0:0:0:0:
36,192,78603,1,0,0:0:0:0:
182,192,78686,1,0,0:0:0:0:
329,192,78686,1,0,0:0:0:0:
475,192,78686,1,0,0:0:0:0:
109,192,78853,1,0,0:0:0:0:
256,192,79019,1,0,0:0:0:0:
475,192,79019,128,0,79353:0:0:0:0:
109,192,79269,1,0,0:0:0:0:
329,192,79353,128,0,79519:0:0:0:0:
182,192,79519,128,0,79686:0:0:0:0:
475,192,79519,1,0,0:0:0:0:
36,192,79686,1,0,0:0:0:0:
402,192,79686,1,0,0:0:0:0:
109,192,79769,1,0,0:0:0:0:
182,192,79853,1,0,0:0:0:0:
256,192,79936,1,0,0:0:0:0:
329,192,80019,1,0,0:0:0:0:
475,192,80019,1,0,0:0:0:0:
256,192,80103,1,0,0:0:0:0:
182,192,80186,1,0,0:0:0:0:
109,192,80269,1,0,0:0:0:0:
36,192,80353,1,0,0:0:0:0:
475,192,80353,1,0,0:0:0:0:
402,192,80436,1,0,0:0:0:0:
329,192,80519,1,0,0:0:0:0:
256,192,80603,1,0,0:0:0:0:
182,192,80686,1,0,0:0:0:0:
36,192,80686,1,0,0:0:0:0:
256,192,80769,1,0,0:0:0:0:
329,192,80853,1,0,0:0:0:0:
402,192,80936,1,0,0:0:0:0:
475,192,81019,1,0,0:0:0:0:
36,192,81019,1,0,0:0:0:0:
109,192,81103,1,0,0:0:0:0:
182,192,81186,1,0,0:0:0:0:
256,192,81269,1,0,0:0:0:0:
329,192,81353,1,0,0:0:0:0:
402,192,81353,1,0,0:0:0:0:
475,192,81353,128,0,84019:0:0:0:0:
182,192,81686,1,0,0:0:0:0:
36,192,81686,1,0,0:0:0:0:
109,192,82019,1,0,0:0:0:0:
402,192,82186,1,0,0:0:0:0:
329,192,82353,1,0,0:0:0:0:
36,192,82353,1,0,0:0:0:0:
182,192,82686,1,0,0:0:0:0:
109,192,83019,1,0,0:0:0:0:
402,192,83019,1,0,0:0:0:0:
329,192,83353,1,0,0:0:0:0:
182,192,83519,1,0,0:0:0:0:
36,192,83686,1,0,0:0:0:0:
402,192,83686,1,0,0:0:0:0:
182,192,84019,1,0,0:0:0:0:
329,192,84353,1,0,0:0:0:0:
475,192,84353,1,0,0:0:0:0:
36,192,84686,1,0,0:0:0:0:
402,192,84853,1,0,0:0:0:0:
109,192,85019,1,0,0:0:0:0:
329,192,85019,1,0,0:0:0:0:
182,192,85353,1,0,0:0:0:0:
402,192,85686,1,0,0:0:0:0:
36,192,85686,1,0,0:0:0:0:
475,192,86019,1,0,0:0:0:0:
256,192,86186,1,0,0:0:0:0:
109,192,86353,1,0,0:0:0:0:
402,192,86353,1,0,0:0:0:0:
329,192,86686,1,0,0:0:0:0:
256,192,87019,1,0,0:0:0:0:
36,192,87019,1,0,0:0:0:0:
182,192,87353,1,0,0:0:0:0:
329,192,87519,1,0,0:0:0:0:
475,192,87686,1,0,0:0:0:0:
109,192,87686,1,0,0:0:0:0:
329,192,88019,1,0,0:0:0:0:
402,192,88353,1,0,0:0:0:0:
36,192,88353,1,0,0:0:0:0:
109,192,88686,1,0,0:0:0:0:
256,192,88853,1,0,0:0:0:0:
475,192,89019,1,0,0:0:0:0:
182,192,89019,1,0,0:0:0:0:
329,192,89353,1,0,0:0:0:0:
36,192,89686,1,0,0:0:0:0:
182,192,89686,1,0,0:0:0:0:
475,192,90019,1,0,0:0:0:0:
329,192,90186,1,0,0:0:0:0:
109,192,90353,1,0,0:0:0:0:
402,192,90353,1,0,0:0:0:0:
182,192,90686,1,0,0:0:0:0:
329,192,91019,1,0,0:0:0:0:
475,192,91019,1,0,0:0:0:0:
36,192,91353,1,0,0:0:0:0:
109,192,91519,1,0,0:0:0:0:
256,192,91686,1,0,0:0:0:0:
475,192,91686,1,0,0:0:0:0:
402,192,92019,1,0,0:0:0:0:
36,192,92019,128,0,93353:0:0:0:0:
182,192,92353,1,0,0:0:0:0:
475,192,92353,1,0,0:0:0:0:
402,192,92686,1,0,0:0:0:0:
329,192,92853,1,0,0:0:0:0:
182,192,93019,1,0,0:0:0:0:
475,192,93019,1,0,0:0:0:0:
402,192,93353,1,0,0:0:0:0:
329,192,93686,1,0,0:0:0:0:
36,192,93686,1,0,0:0:0:0:
182,192,94019,1,0,0:0:0:0:
329,192,94186,1,0,0:0:0:0:
475,192,94353,1,0,0:0:0:0:
109,192,94353,1,0,0:0:0:0:
182,192,94686,1,0,0:0:0:0:
329,192,95019,1,0,0:0:0:0:
36,192,95019,1,0,0:0:0:0:
475,192,95353,1,0,0:0:0:0:
182,192,95519,1,0,0:0:0:0:
36,192,95686,1,0,0:0:0:0:
402,192,95686,1,0,0:0:0:0:
329,192,96019,1,0,0:0:0:0:
109,192,96353,1,0,0:0:0:0:
475,192,96353,1,0,0:0:0:0:
182,192,96686,1,0,0:0:0:0:
402,192,96853,1,0,0:0:0:0:
329,192,97019,1,0,0:0:0:0:
36,192,97019,1,0,0:0:0:0:
109,192,97353,1,0,0:0:0:0:
109,192,97519,1,0,0:0:0:0:
329,192,97686,1,0,0:0:0:0:
475,192,97686,1,0,0:0:0:0:
402,192,98019,1,0,0:0:0:0:
329,192,98103,1,0,0:0:0:0:
256,192,98186,1,0,0:0:0:0:
329,192,98353,1,0,0:0:0:0:
36,192,98353,1,0,0:0:0:0:
402,192,98686,1,0,0:0:0:0:
402,192,98853,1,0,0:0:0:0:
475,192,99019,1,0,0:0:0:0:
109,192,99019,1,0,0:0:0:0:
36,192,99269,1,0,0:0:0:0:
109,192,99353,1,0,0:0:0:0:
329,192,99519,1,0,0:0:0:0:
475,192,99686,1,0,0:0:0:0:
182,192,99686,1,0,0:0:0:0:
329,192,99853,1,0,0:0:0:0:
109,192,100019,1,0,0:0:0:0:
402,192,100186,1,0,0:0:0:0:
182,192,100353,1,0,0:0:0:0:
475,192,100519,1,0,0:0:0:0:
36,192,100686,1,0,0:0:0:0:
109,192,100769,1,0,0:0:0:0:
182,192,100853,1,0,0:0:0:0:
329,192,101019,1,0,0:0:0:0:
475,192,101019,1,0,0:0:0:0:
402,192,101186,1,0,0:0:0:0:
256,192,101186,1,0,0:0:0:0:
109,192,101186,1,0,0:0:0:0:
182,192,101519,1,0,0:0:0:0:
329,192,101686,1,0,0:0:0:0:
256,192,101769,1,0,0:0:0:0:
182,192,101853,1,0,0:0:0:0:
109,192,101936,1,0,0:0:0:0:
402,192,102019,1,0,0:0:0:0:
329,192,102103,1,0,0:0:0:0:
256,192,102186,1,0,0:0:0:0:
182,192,102269,1,0,0:0:0:0:
109,192,102353,1,0,0:0:0:0:
475,192,102353,1,0,0:0:0:0:
402,192,102436,1,0,0:0:0:0:
329,192,102519,1,0,0:0:0:0:
256,192,102603,1,0,0:0:0:0:
182,192,102686,1,0,0:0:0:0:
475,192,102686,1,0,0:0:0:0:
36,192,102686,128,0,109353:0:0:0:0:
475,192,108686,1,0,0:0:0:0:
329,192,109019,1,0,0:0:0:0:
182,192,109353,1,0,0:0:0:0:
329,192,109686,1,0,0:0:0:0:
182,192,110019,1,0,0:0:0:0:
36,192,110353,1,0,0:0:0:0:
402,192,110686,1,0,0:0:0:0:
109,192,111019,1,0,0:0:0:0:
475,192,111353,1,0,0:0:0:0:
182,192,111686,1,0,0:0:0:0:
329,192,112019,1,0,0:0:0:0:
36,192,112353,1,0,0:0:0:0:
182,192,112686,1,0,0:0:0:0:
329,192,113019,1,0,0:0:0:0:
475,192,113353,1,0,0:0:0:0:
256,192,113353,1,0,0:0:0:0:
36,192,113353,1,0,0:0:0:0:
109,192,113686,1,0,0:0:0:0:
402,192,113853,1,0,0:0:0:0:
182,192,114019,1,0,0:0:0:0:
475,192,114186,1,0,0:0:0:0:
109,192,114353,1,0,0:0:0:0:
402,192,114519,1,0,0:0:0:0:
182,192,114686,1,0,0:0:0:0:
475,192,114853,1,0,0:0:0:0:
109,192,115019,1,0,0:0:0:0:
402,192,115186,1,0,0:0:0:0:
182,192,115353,1,0,0:0:0:0:
475,192,115519,1,0,0:0:0:0:
329,192,115686,1,0,0:0:0:0:
182,192,115853,1,0,0:0:0:0:
475,192,116019,1,0,0:0:0:0:
36,192,116019,1,0,0:0:0:0:
182,192,116186,1,0,0:0:0:0:
402,192,116353,1,0,0:0:0:0:
109,192,116519,1,0,0:0:0:0:
329,192,116686,1,0,0:0:0:0:
36,192,116853,1,0,0:0:0:0:
402,192,117019,1,0,0:0:0:0:
109,192,117186,1,0,0:0:0:0:
329,192,117353,1,0,0:0:0:0:
36,192,117519,1,0,0:0:0:0:
402,192,117686,1,0,0:0:0:0:
109,192,117853,1,0,0:0:0:0:
329,192,118019,1,0,0:0:0:0:
36,192,118186,1,0,0:0:0:0:
182,192,118353,1,0,0:0:0:0:
329,192,118519,1,0,0:0:0:0:
475,192,118686,1,0,0:0:0:0:
36,192,118686,1,0,0:0:0:0:
256,192,118853,1,0,0:0:0:0:
109,192,119019,1,0,0:0:0:0:
402,192,119186,1,0,0:0:0:0:
182,192,119353,1,0,0:0:0:0:
329,192,119519,1,0,0:0:0:0:
109,192,119686,1,0,0:0:0:0:
402,192,119853,1,0,0:0:0:0:
182,192,120019,1,0,0:0:0:0:
36,192,120019,1,0,0:0:0:0:
329,192,120186,1,0,0:0:0:0:
109,192,120353,1,0,0:0:0:0:
402,192,120519,1,0,0:0:0:0:
182,192,120686,1,0,0:0:0:0:
329,192,120853,1,0,0:0:0:0:
182,192,121019,1,0,0:0:0:0:
36,192,121186,1,0,0:0:0:0:
182,192,121353,1,0,0:0:0:0:
402,192,121353,1,0,0:0:0:0:
329,192,121519,1,0,0:0:0:0:
109,192,121686,1,0,0:0:0:0:
329,192,121853,1,0,0:0:0:0:
182,192,122019,1,0,0:0:0:0:
402,192,122186,1,0,0:0:0:0:
109,192,122353,1,0,0:0:0:0:
329,192,122519,1,0,0:0:0:0:
182,192,122686,1,0,0:0:0:0:
256,192,122769,1,0,0:0:0:0:
329,192,122853,1,0,0:0:0:0:
402,192,122936,1,0,0:0:0:0:
109,192,123019,1,0,0:0:0:0:
182,192,123103,1,0,0:0:0:0:
256,192,123186,1,0,0:0:0:0:
329,192,123269,1,0,0:0:0:0:
402,192,123353,1,0,0:0:0:0:
109,192,123519,1,0,0:0:0:0:
329,192,123686,1,0,0:0:0:0:
182,192,123853,1,0,0:0:0:0:
36,192,124019,1,0,0:0:0:0:
329,192,124019,1,0,0:0:0:0:
475,192,124019,1,0,0:0:0:0:
402,192,124353,1,0,0:0:0:0:
36,192,124353,1,0,0:0:0:0:
256,192,124519,1,0,0:0:0:0:
109,192,124686,1,0,0:0:0:0:
475,192,124686,1,0,0:0:0:0:
329,192,124853,1,0,0:0:0:0:
182,192,125019,1,0,0:0:0:0:
36,192,125019,1,0,0:0:0:0:
402,192,125186,1,0,0:0:0:0:
475,192,125353,1,0,0:0:0:0:
109,192,125353,1,0,0:0:0:0:
256,192,125519,1,0,0:0:0:0:
402,192,125686,1,0,0:0:0:0:
36,192,125686,1,0,0:0:0:0:
182,192,125853,1,0,0:0:0:0:
329,192,126019,1,0,0:0:0:0:
475,192,126019,1,0,0:0:0:0:
36,192,126186,1,0,0:0:0:0:
109,192,126269,1,0,0:0:0:0:
182,192,126353,1,0,0:0:0:0:
475,192,126353,128,0,126686:0:0:0:0:
329,192,126519,128,0,126686:0:0:0:0:
182,192,126686,1,0,0:0:0:0:
36,192,126686,1,0,0:0:0:0:
475,192,126853,1,0,0:0:0:0:
329,192,127019,1,0,0:0:0:0:
109,192,127019,1,0,0:0:0:0:
182,192,127186,1,0,0:0:0:0:
475,192,127353,1,0,0:0:0:0:
36,192,127353,1,0,0:0:0:0:
256,192,127519,1,0,0:0:0:0:
402,192,127686,1,0,0:0:0:0:
109,192,127686,1,0,0:0:0:0:
329,192,127853,1,0,0:0:0:0:
182,192,128019,1,0,0:0:0:0:
36,192,128019,1,0,0:0:0:0:
475,192,128186,1,0,0:0:0:0:
329,192,128353,1,0,0:0:0:0:
109,192,128353,1,0,0:0:0:0:
256,192,128519,1,0,0:0:0:0:
182,192,128686,1,0,0:0:0:0:
402,192,128686,1,0,0:0:0:0:
36,192,128853,1,0,0:0:0:0:
475,192,129019,1,0,0:0:0:0:
182,192,129019,1,0,0:0:0:0:
329,192,129186,1,0,0:0:0:0:
182,192,129353,1,0,0:0:0:0:
36,192,129353,1,0,0:0:0:0:
329,192,129519,1,0,0:0:0:0:
475,192,129686,1,0,0:0:0:0:
109,192,129686,1,0,0:0:0:0:
256,192,129853,1,0,0:0:0:0:
402,192,130019,1,0,0:0:0:0:
36,192,130019,1,0,0:0:0:0:
182,192,130186,1,0,0:0:0:0:
329,192,130353,1,0,0:0:0:0:
475,192,130353,1,0,0:0:0:0:
182,192,130519,1,0,0:0:0:0:
36,192,130686,1,0,0:0:0:0:
329,192,130686,1,0,0:0:0:0:
475,192,130853,1,0,0:0:0:0:
109,192,131019,1,0,0:0:0:0:
402,192,131019,1,0,0:0:0:0:
36,192,131186,1,0,0:0:0:0:
182,192,131353,1,0,0:0:0:0:
329,192,131353,1,0,0:0:0:0:
475,192,131519,1,0,0:0:0:0:
402,192,131603,1,0,0:0:0:0:
329,192,131686,1,0,0:0:0:0:
36,192,131686,128,0,132019:0:0:0:0:
182,192,131853,128,0,132019:0:0:0:0:
475,192,132019,1,0,0:0:0:0:
329,192,132019,1,0,0:0:0:0:
256,192,132186,1,0,0:0:0:0:
182,192,132353,1,0,0:0:0:0:
36,192,132353,1,0,0:0:0:0:
329,192,132519,1,0,0:0:0:0:
36,192,132686,1,0,0:0:0:0:
475,192,132686,1,0,0:0:0:0:
256,192,132853,1,0,0:0:0:0:
402,192,133019,1,0,0:0:0:0:
109,192,133019,1,0,0:0:0:0:
256,192,133186,1,0,0:0:0:0:
36,192,133353,1,0,0:0:0:0:
475,192,133353,1,0,0:0:0:0:
182,192,133519,1,0,0:0:0:0:
329,192,133519,1,0,0:0:0:0:
256,192,133686,1,0,0:0:0:0:
109,192,133769,1,0,0:0:0:0:
402,192,133769,1,0,0:0:0:0:
36,192,134019,1,0,0:0:0:0:
475,192,134019,1,0,0:0:0:0:
329,192,134186,1,0,0:0:0:0:
256,192,134269,1,0,0:0:0:0:
182,192,134353,1,0,0:0:0:0:
329,192,134519,1,0,0:0:0:0:
475,192,134686,1,0,0:0:0:0:
182,192,134686,1,0,0:0:0:0:
36,192,134686,1,0,0:0:0:0:
329,192,134853,1,0,0:0:0:0:
475,192,135019,1,0,0:0:0:0:
109,192,135019,1,0,0:0:0:0:
256,192,135186,1,0,0:0:0:0:
36,192,135353,1,0,0:0:0:0:
402,192,135353,1,0,0:0:0:0:
329,192,135436,1,0,0:0:0:0:
256,192,135519,1,0,0:0:0:0:
182,192,135603,1,0,0:0:0:0:
475,192,135686,1,0,0:0:0:0:
109,192,135686,1,0,0:0:0:0:
182,192,135769,1,0,0:0:0:0:
256,192,135853,1,0,0:0:0:0:
329,192,135936,1,0,0:0:0:0:
402,192,136019,1,0,0:0:0:0:
36,192,136019,1,0,0:0:0:0:
329,192,136103,1,0,0:0:0:0:
256,192,136186,1,0,0:0:0:0:
182,192,136269,1,0,0:0:0:0:
109,192,136353,1,0,0:0:0:0:
475,192,136353,1,0,0:0:0:0:
182,192,136436,1,0,0:0:0:0:
256,192,136519,1,0,0:0:0:0:
329,192,136603,1,0,0:0:0:0:
402,192,136686,1,0,0:0:0:0:
36,192,136686,1,0,0:0:0:0:
256,192,136853,1,0,0:0:0:0:
182,192,136936,1,0,0:0:0:0:
109,192,137019,1,0,0:0:0:0:
475,192,137019,1,0,0:0:0:0:
329,192,137186,1,0,0:0:0:0:
36,192,137353,1,0,0:0:0:0:
402,192,137353,1,0,0:0:0:0:
109,192,137519,1,0,0:0:0:0:
182,192,137686,1,0,0:0:0:0:
475,192,137686,1,0,0:0:0:0:
256,192,137853,1,0,0:0:0:0:
475,192,138019,1,0,0:0:0:0:
109,192,138019,1,0,0:0:0:0:
182,192,138103,1,0,0:0:0:0:
256,192,138186,1,0,0:0:0:0:
329,192,138269,1,0,0:0:0:0:
402,192,138353,1,0,0:0:0:0:
36,192,138353,1,0,0:0:0:0:
329,192,138436,1,0,0:0:0:0:
256,192,138519,1,0,0:0:0:0:
182,192,138603,1,0,0:0:0:0:
109,192,138686,1,0,0:0:0:0:
475,192,138686,1,0,0:0:0:0:
182,192,138769,1,0,0:0:0:0:
256,192,138853,1,0,0:0:0:0:
329,192,138936,1,0,0:0:0:0:
402,192,139019,1,0,0:0:0:0:
36,192,139019,1,0,0:0:0:0:
329,192,139103,1,0,0:0:0:0:
256,192,139186,1,0,0:0:0:0:
182,192,139269,1,0,0:0:0:0:
109,192,139353,1,0,0:0:0:0:
475,192,139353,1,0,0:0:0:0:
182,192,139436,1,0,0:0:0:0:
256,192,139519,1,0,0:0:0:0:
329,192,139603,1,0,0:0:0:0:
402,192,139686,1,0,0:0:0:0:
36,192,139686,1,0,0:0:0:0:
182,192,139853,1,0,0:0:0:0:
329,192,140019,1,0,0:0:0:0:
475,192,140019,1,0,0:0:0:0:
36,192,140186,1,0,0:0:0:0:
182,192,140353,1,0,0:0:0:0:
402,192,140353,1,0,0:0:0:0:
256,192,140519,1,0,0:0:0:0:
36,192,140686,1,0,0:0:0:0:
402,192,140686,1,0,0:0:0:0:
329,192,140769,1,0,0:0:0:0:
256,192,140853,1,0,0:0:0:0:
182,192,140936,1,0,0:0:0:0:
109,192,141019,1,0,0:0:0:0:
475,192,141019,1,0,0:0:0:0:
182,192,141103,1,0,0:0:0:0:
256,192,141186,1,0,0:0:0:0:
329,192,141269,1,0,0:0:0:0:
36,192,141353,1,0,0:0:0:0:
402,192,141353,1,0,0:0:0:0:
329,192,141436,1,0,0:0:0:0:
256,192,141519,1,0,0:0:0:0:
182,192,141603,1,0,0:0:0:0:
109,192,141686,1,0,0:0:0:0:
475,192,141686,1,0,0:0:0:0:
182,192,141769,1,0,0:0:0:0:
256,192,141853,1,0,0:0:0:0:
329,192,141936,1,0,0:0:0:0:
402,192,142019,1,0,0:0:0:0:
36,192,142019,1,0,0:0:0:0:
256,192,142186,1,0,0:0:0:0:
182,192,142269,1,0,0:0:0:0:
475,192,142353,1,0,0:0:0:0:
109,192,142353,1,0,0:0:0:0:
329,192,142519,1,0,0:0:0:0:
182,192,142686,1,0,0:0:0:0:
36,192,142686,1,0,0:0:0:0:
256,192,142769,1,0,0:0:0:0:
329,192,142853,1,0,0:0:0:0:
402,192,142936,1,0,0:0:0:0:
475,192,143019,1,0,0:0:0:0:
109,192,143019,1,0,0:0:0:0:
182,192,143103,1,0,0:0:0:0:
256,192,143186,1,0,0:0:0:0:
329,192,143269,1,0,0:0:0:0:
402,192,143353,1,0,0:0:0:0:
36,192,143353,1,0,0:0:0:0:
109,192,143436,1,0,0:0:0:0:
182,192,143519,1,0,0:0:0:0:
256,192,143603,1,0,0:0:0:0:
329,192,143686,1,0,0:0:0:0:
475,192,143686,1,0,0:0:0:0:
256,192,143769,1,0,0:0:0:0:
182,192,143853,1,0,0:0:0:0:
109,192,143936,1,0,0:0:0:0:
36,192,144019,1,0,0:0:0:0:
402,192,144019,1,0,0:0:0:0:
475,192,144019,1,0,0:0:0:0:
329,192,144186,1,0,0:0:0:0:
109,192,144186,128,0,144686:0:0:0:0:
402,192,144436,1,0,0:0:0:0:
182,192,144436,128,0,144686:0:0:0:0:
475,192,144686,1,0,0:0:0:0:
256,192,144686,1,0,0:0:0:0:
36,192,144686,128,0,145019:0:0:0:0:
402,192,144853,1,0,0:0:0:0:
329,192,144936,1,0,0:0:0:0:
256,192,145019,1,0,0:0:0:0:
109,192,145019,1,0,0:0:0:0:
182,192,145186,1,0,0:0:0:0:
256,192,145269,1,0,0:0:0:0:
36,192,145353,1,0,0:0:0:0:
329,192,145353,1,0,0:0:0:0:
475,192,145353,128,0,145686:0:0:0:0:
109,192,145686,1,0,0:0:0:0:
256,192,145686,1,0,0:0:0:0:
475,192,145853,128,0,146186:0:0:0:0:
182,192,146186,1,0,0:0:0:0:
36,192,146353,1,0,0:0:0:0:
329,192,146353,1,0,0:0:0:0:
475,192,146519,128,0,146853:0:0:0:0:
182,192,146686,1,0,0:0:0:0:
109,192,147019,1,0,0:0:0:0:
256,192,147019,1,0,0:0:0:0:
475,192,147186,128,0,147519:0:0:0:0:
182,192,147519,1,0,0:0:0:0:
36,192,147686,1,0,0:0:0:0:
329,192,147686,1,0,0:0:0:0:
182,192,147853,1,0,0:0:0:0:
36,192,148019,128,0,148353:0:0:0:0:
475,192,148019,1,0,0:0:0:0:
256,192,148353,1,0,0:0:0:0:
402,192,148353,1,0,0:0:0:0:
36,192,148519,128,0,148853:0:0:0:0:
329,192,148853,1,0,0:0:0:0:
182,192,149019,1,0,0:0:0:0:
475,192,149019,1,0,0:0:0:0:
36,192,149186,128,0,149519:0:0:0:0:
329,192,149353,1,0,0:0:0:0:
256,192,149686,1,0,0:0:0:0:
402,192,149686,1,0,0:0:0:0:
182,192,149853,128,0,150019:0:0:0:0:
36,192,150186,128,0,150686:0:0:0:0:
329,192,150186,1,0,0:0:0:0:
182,192,150353,1,0,0:0:0:0:
475,192,150353,1,0,0:0:0:0:
402,192,150686,1,0,0:0:0:0:
109,192,150686,128,0,151353:0:0:0:0:
182,192,151019,1,0,0:0:0:0:
475,192,151019,1,0,0:0:0:0:
256,192,151353,128,0,152019:0:0:0:0:
402,192,151519,1,0,0:0:0:0:
475,192,151686,1,0,0:0:0:0:
109,192,151686,1,0,0:0:0:0:
182,192,152019,128,0,152686:0:0:0:0:
36,192,152019,1,0,0:0:0:0:
329,192,152353,1,0,0:0:0:0:
475,192,152353,1,0,0:0:0:0:
329,192,152686,128,0,153353:0:0:0:0:
109,192,152853,1,0,0:0:0:0:
36,192,153019,1,0,0:0:0:0:
475,192,153019,1,0,0:0:0:0:
402,192,153353,128,0,154019:0:0:0:0:
182,192,153353,1,0,0:0:0:0:
329,192,153686,1,0,0:0:0:0:
36,192,153686,1,0,0:0:0:0:
475,192,154019,128,0,154686:0:0:0:0:
182,192,154186,1,0,0:0:0:0:
329,192,154353,1,0,0:0:0:0:
36,192,154353,1,0,0:0:0:0:
402,192,154686,1,0,0:0:0:0:
109,192,154686,1,0,0:0:0:0:
329,192,154936,1,0,0:0:0:0:
36,192,154936,1,0,0:0:0:0:
182,192,155186,1,0,0:0:0:0:
475,192,155186,1,0,0:0:0:0:
402,192,155436,1,0,0:0:0:0:
109,192,155436,1,0,0:0:0:0:
329,192,155686,1,0,0:0:0:0:
36,192,155686,1,0,0:0:0:0:
475,192,155853,1,0,0:0:0:0:
402,192,155936,1,0,0:0:0:0:
109,192,156019,1,0,0:0:0:0:
329,192,156019,1,0,0:0:0:0:
36,192,156019,1,0,0:0:0:0:
182,192,156186,1,0,0:0:0:0:
475,192,156353,1,0,0:0:0:0:
329,192,156436,1,0,0:0:0:0:
182,192,156603,1,0,0:0:0:0:
182,192,156769,1,0,0:0:0:0:
36,192,156936,1,0,0:0:0:0:
182,192,157103,1,0,0:0:0:0:
329,192,157186,1,0,0:0:0:0:
475,192,157353,1,0,0:0:0:0:
256,192,157353,1,0,0:0:0:0:
36,192,157353,128,0,157686:0:0:0:0:
329,192,157686,128,0,158019:0:0:0:0:
109,192,157686,1,0,0:0:0:0:
182,192,158019,128,0,158269:0:0:0:0:
36,192,158019,1,0,0:0:0:0:
475,192,158269,128,0,158519:0:0:0:0:
329,192,158269,1,0,0:0:0:0:
36,192,158519,128,0,159853:0:0:0:0:
256,192,158519,1,0,0:0:0:0:
329,192,158853,1,0,0:0:0:0:
475,192,159019,1,0,0:0:0:0:
182,192,159019,1,0,0:0:0:0:
402,192,159353,1,0,0:0:0:0:
329,192,159519,1,0,0:0:0:0:
182,192,159686,1,0,0:0:0:0:
475,192,159686,1,0,0:0:0:0:
402,192,159853,1,0,0:0:0:0:
329,192,159936,1,0,0:0:0:0:
256,192,160019,1,0,0:0:0:0:
36,192,160019,128,0,160353:0:0:0:0:
182,192,160353,1,0,0:0:0:0:
475,192,160353,128,0,160686:0:0:0:0:
109,192,160686,128,0,160936:0:0:0:0:
329,192,160686,1,0,0:0:0:0:
256,192,160936,128,0,161186:0:0:0:0:
475,192,160936,1,0,0:0:0:0:
402,192,161186,128,0,161519:0:0:0:0:
36,192,161186,1,0,0:0:0:0:
182,192,161519,128,0,161686:0:0:0:0:
36,192,161519,1,0,0:0:0:0:
475,192,161686,128,0,161853:0:0:0:0:
329,192,161686,1,0,0:0:0:0:
36,192,161853,128,0,162019:0:0:0:0:
329,192,162019,128,0,162353:0:0:0:0:
182,192,162019,1,0,0:0:0:0:
109,192,162186,1,0,0:0:0:0:
36,192,162353,1,0,0:0:0:0:
475,192,162353,1,0,0:0:0:0:
329,192,162519,1,0,0:0:0:0:
182,192,162686,128,0,163019:0:0:0:0:
36,192,162686,1,0,0:0:0:0:
402,192,163019,128,0,163353:0:0:0:0:
109,192,163019,1,0,0:0:0:0:
256,192,163353,128,0,163603:0:0:0:0:
36,192,163353,1,0,0:0:0:0:
475,192,163603,128,0,163853:0:0:0:0:
109,192,163603,1,0,0:0:0:0:
36,192,163853,128,0,164186:0:0:0:0:
329,192,163853,1,0,0:0:0:0:
402,192,164186,128,0,164353:0:0:0:0:
109,192,164186,1,0,0:0:0:0:
182,192,164353,128,0,164519:0:0:0:0:
475,192,164353,1,0,0:0:0:0:
329,192,164519,128,0,164686:0:0:0:0:
109,192,164686,128,0,165019:0:0:0:0:
402,192,164686,1,0,0:0:0:0:
329,192,164853,1,0,0:0:0:0:
256,192,165019,1,0,0:0:0:0:
475,192,165019,1,0,0:0:0:0:
36,192,165186,1,0,0:0:0:0:
109,192,165269,1,0,0:0:0:0:
182,192,165353,1,0,0:0:0:0:
475,192,165353,1,0,0:0:0:0:
329,192,165353,1,0,0:0:0:0:
402,192,165519,1,0,0:0:0:0:
109,192,165519,1,0,0:0:0:0:
256,192,165519,1,0,0:0:0:0:
36,192,165686,1,0,0:0:0:0:
475,192,165686,1,0,0:0:0:0:
256,192,165853,1,0,0:0:0:0:
109,192,166019,1,0,0:0:0:0:
329,192,166019,128,0,166186:0:0:0:0:
475,192,166019,1,0,0:0:0:0:
36,192,166186,128,0,166353:0:0:0:0:
182,192,166353,128,0,166519:0:0:0:0:
329,192,166519,128,0,166853:0:0:0:0:
475,192,166519,1,0,0:0:0:0:
109,192,166519,1,0,0:0:0:0:
36,192,166853,1,0,0:0:0:0:
256,192,166853,1,0,0:0:0:0:
475,192,166936,128,0,168019:0:0:0:0:
109,192,167103,1,0,0:0:0:0:
329,192,167103,1,0,0:0:0:0:
182,192,167353,1,0,0:0:0:0:
402,192,167353,1,0,0:0:0:0:
256,192,167519,1,0,0:0:0:0:
36,192,167686,1,0,0:0:0:0:
329,192,167686,1,0,0:0:0:0:
109,192,167769,1,0,0:0:0:0:
182,192,167853,1,0,0:0:0:0:
256,192,167936,1,0,0:0:0:0:
402,192,168019,1,0,0:0:0:0:
36,192,168019,1,0,0:0:0:0:
329,192,168019,128,0,169186:0:0:0:0:
109,192,168353,1,0,0:0:0:0:
475,192,168353,1,0,0:0:0:0:
402,192,168686,1,0,0:0:0:0:
256,192,168936,1,0,0:0:0:0:
182,192,169186,1,0,0:0:0:0:
475,192,169186,1,0,0:0:0:0:
109,192,169269,1,0,0:0:0:0:
36,192,169353,128,0,170353:0:0:0:0:
329,192,169519,1,0,0:0:0:0:
475,192,169686,1,0,0:0:0:0:
182,192,169686,1,0,0:0:0:0:
402,192,170019,1,0,0:0:0:0:
329,192,170186,1,0,0:0:0:0:
182,192,170353,1,0,0:0:0:0:
475,192,170353,1,0,0:0:0:0:
109,192,170519,1,0,0:0:0:0:
475,192,170686,128,0,171519:0:0:0:0:
36,192,170686,1,0,0:0:0:0:
109,192,171019,1,0,0:0:0:0:
329,192,171019,1,0,0:0:0:0:
182,192,171353,1,0,0:0:0:0:
36,192,171519,1,0,0:0:0:0:
109,192,171603,1,0,0:0:0:0:
182,192,171686,128,0,171853:0:0:0:0:
329,192,171853,128,0,172186:0:0:0:0:
182,192,172186,1,0,0:0:0:0:
36,192,172353,1,0,0:0:0:0:
329,192,172353,1,0,0:0:0:0:
402,192,172519,128,0,172686:0:0:0:0:
256,192,172686,128,0,172853:0:0:0:0:
36,192,172686,1,0,0:0:0:0:
109,192,172853,128,0,173019:0:0:0:0:
402,192,172853,1,0,0:0:0:0:
256,192,173019,1,0,0:0:0:0:
475,192,173019,1,0,0:0:0:0:
402,192,173103,1,0,0:0:0:0:
329,192,173186,1,0,0:0:0:0:
256,192,173269,1,0,0:0:0:0:
182,192,173353,1,0,0:0:0:0:
36,192,173353,128,0,173686:0:0:0:0:
329,192,173686,1,0,0:0:0:0:
475,192,173686,1,0,0:0:0:0:
182,192,174019,128,0,174269:0:0:0:0:
402,192,174019,1,0,0:0:0:0:
329,192,174269,1,0,0:0:0:0:
109,192,174269,1,0,0:0:0:0:
36,192,174519,1,0,0:0:0:0:
475,192,174519,128,0,174853:0:0:0:0:
182,192,174853,1,0,0:0:0:0:
109,192,175019,1,0,0:0:0:0:
402,192,175019,128,0,175186:0:0:0:0:
329,192,175186,128,0,175353:0:0:0:0:
256,192,175353,128,0,175519:0:0:0:0:
36,192,175353,1,0,0:0:0:0:
475,192,175519,1,0,0:0:0:0:
402,192,175603,1,0,0:0:0:0:
36,192,175686,1,0,0:0:0:0:
329,192,175686,1,0,0:0:0:0:
109,192,175769,1,0,0:0:0:0:
182,192,175853,1,0,0:0:0:0:
256,192,175936,1,0,0:0:0:0:
475,192,176019,1,0,0:0:0:0:
36,192,176019,128,0,176353:0:0:0:0:
329,192,176019,1,0,0:0:0:0:
329,192,176353,1,0,0:0:0:0:
402,192,176686,128,0,176853:0:0:0:0:
109,192,176686,1,0,0:0:0:0:
256,192,176686,1,0,0:0:0:0:
36,192,176853,128,0,177019:0:0:0:0:
182,192,177019,128,0,177186:0:0:0:0:
475,192,177186,128,0,177519:0:0:0:0:
329,192,177186,1,0,0:0:0:0:
36,192,177186,1,0,0:0:0:0:
109,192,177519,1,0,0:0:0:0:
329,192,177519,1,0,0:0:0:0:
256,192,177603,128,0,178686:0:0:0:0:
182,192,177769,1,0,0:0:0:0:
402,192,177769,1,0,0:0:0:0:
475,192,178019,1,0,0:0:0:0:
36,192,178019,1,0,0:0:0:0:
402,192,178186,1,0,0:0:0:0:
109,192,178353,1,0,0:0:0:0:
329,192,178353,1,0,0:0:0:0:
475,192,178686,1,0,0:0:0:0:
36,192,178686,1,0,0:0:0:0:
329,192,178853,1,0,0:0:0:0:
182,192,179019,1,0,0:0:0:0:
475,192,179186,1,0,0:0:0:0:
109,192,179519,1,0,0:0:0:0:
256,192,179686,1,0,0:0:0:0:
402,192,179853,1,0,0:0:0:0:
36,192,180019,1,0,0:0:0:0:
182,192,180186,1,0,0:0:0:0:
329,192,180353,1,0,0:0:0:0:
475,192,180519,1,0,0:0:0:0:
329,192,180853,1,0,0:0:0:0:
182,192,181019,1,0,0:0:0:0:
402,192,181186,1,0,0:0:0:0:
109,192,181353,1,0,0:0:0:0:
329,192,181519,1,0,0:0:0:0:
182,192,181686,1,0,0:0:0:0:
475,192,181853,1,0,0:0:0:0:
36,192,182186,1,0,0:0:0:0:
182,192,182353,1,0,0:0:0:0:
402,192,182519,1,0,0:0:0:0:
109,192,182686,1,0,0:0:0:0:
475,192,182853,1,0,0:0:0:0:
182,192,183019,1,0,0:0:0:0:
402,192,183186,1,0,0:0:0:0:
329,192,183519,1,0,0:0:0:0:
182,192,183686,1,0,0:0:0:0:
402,192,183853,1,0,0:0:0:0:
109,192,184019,1,0,0:0:0:0:
329,192,184186,1,0,0:0:0:0:
182,192,184353,1,0,0:0:0:0:
475,192,184519,1,0,0:0:0:0:
36,192,184853,1,0,0:0:0:0:
256,192,185019,1,0,0:0:0:0:
475,192,185186,1,0,0:0:0:0:
109,192,185353,1,0,0:0:0:0:
182,192,185519,1,0,0:0:0:0:
329,192,185686,1,0,0:0:0:0:
402,192,185853,1,0,0:0:0:0:
475,192,186186,1,0,0:0:0:0:
329,192,186353,1,0,0:0:0:0:
182,192,186519,1,0,0:0:0:0:
36,192,186686,1,0,0:0:0:0:
402,192,186853,1,0,0:0:0:0:
109,192,187019,1,0,0:0:0:0:
329,192,187186,1,0,0:0:0:0:
182,192,187519,1,0,0:0:0:0:
329,192,187686,1,0,0:0:0:0:
475,192,187853,1,0,0:0:0:0:
36,192,188019,1,0,0:0:0:0:
182,192,188186,1,0,0:0:0:0:
475,192,188353,1,0,0:0:0:0:
402,192,188436,1,0,0:0:0:0:
329,192,188519,1,0,0:0:0:0:
256,192,188603,1,0,0:0:0:0:
36,192,188686,1,0,0:0:0:0:
109,192,188769,1,0,0:0:0:0:
182,192,188853,1,0,0:0:0:0:
256,192,188936,1,0,0:0:0:0:
475,192,189019,1,0,0:0:0:0:
402,192,189103,1,0,0:0:0:0:
329,192,189186,1,0,0:0:0:0:
256,192,189269,1,0,0:0:0:0:
182,192,189353,1,0,0:0:0:0:
36,192,189353,1,0,0:0:0:0:
475,192,189353,1,0,0:0:0:0:
109,192,189686,1,0,0:0:0:0:
329,192,189853,1,0,0:0:0:0:
182,192,190186,1,0,0:0:0:0:
402,192,190353,1,0,0:0:0:0:
182,192,190519,1,0,0:0:0:0:
36,192,190686,1,0,0:0:0:0:
475,192,190686,1,0,0:0:0:0:
182,192,191019,1,0,0:0:0:0:
402,192,191186,1,0,0:0:0:0:
256,192,191519,1,0,0:0:0:0:
475,192,191686,1,0,0:0:0:0:
256,192,191853,1,0,0:0:0:0:
329,192,192019,1,0,0:0:0:0:
36,192,192019,1,0,0:0:0:0:
109,192,192353,1,0,0:0:0:0:
402,192,192519,1,0,0:0:0:0:
182,192,192853,1,0,0:0:0:0:
329,192,193019,1,0,0:0:0:0:
475,192,193186,1,0,0:0:0:0:
36,192,193353,1,0,0:0:0:0:
182,192,193519,1,0,0:0:0:0:
329,192,193686,1,0,0:0:0:0:
182,192,193853,1,0,0:0:0:0:
475,192,194019,1,0,0:0:0:0:
329,192,194186,1,0,0:0:0:0:
182,192,194353,1,0,0:0:0:0:
329,192,194519,1,0,0:0:0:0:
475,192,194686,1,0,0:0:0:0:
36,192,194686,1,0,0:0:0:0:
182,192,195019,1,0,0:0:0:0:
402,192,195186,1,0,0:0:0:0:
36,192,195519,1,0,0:0:0:0:
182,192,195686,1,0,0:0:0:0:
329,192,195853,1,0,0:0:0:0:
475,192,196019,1,0,0:0:0:0:
36,192,196019,1,0,0:0:0:0:
109,192,196353,1,0,0:0:0:0:
329,192,196519,1,0,0:0:0:0:
182,192,196853,1,0,0:0:0:0:
402,192,197019,1,0,0:0:0:0:
109,192,197186,1,0,0:0:0:0:
36,192,197353,1,0,0:0:0:0:
475,192,197353,1,0,0:0:0:0:
402,192,197686,1,0,0:0:0:0:
182,192,197686,1,0,0:0:0:0:
329,192,198019,1,0,0:0:0:0:
109,192,198019,1,0,0:0:0:0:
402,192,198353,1,0,0:0:0:0:
182,192,198353,1,0,0:0:0:0:
329,192,198686,1,0,0:0:0:0:
109,192,198686,1,0,0:0:0:0:
182,192,199019,1,0,0:0:0:0:
402,192,199019,1,0,0:0:0:0:
329,192,199353,1,0,0:0:0:0:
109,192,199353,1,0,0:0:0:0:
182,192,199686,1,0,0:0:0:0:
402,192,199686,1,0,0:0:0:0:
256,192,199853,1,0,0:0:0:0:
329,192,200019,1,0,0:0:0:0:
475,192,200019,1,0,0:0:0:0:
36,192,200019,1,0,0:0:0:0:
256,192,200186,1,0,0:0:0:0:
36,192,200353,1,0,0:0:0:0:
182,192,200353,1,0,0:0:0:0:
402,192,200519,1,0,0:0:0:0:
36,192,200686,1,0,0:0:0:0:
182,192,200686,1,0,0:0:0:0:
402,192,200853,1,0,0:0:0:0:
36,192,201019,1,0,0:0:0:0:
182,192,201019,1,0,0:0:0:0:
256,192,201186,1,0,0:0:0:0:
329,192,201353,1,0,0:0:0:0:
475,192,201353,1,0,0:0:0:0:
109,192,201519,1,0,0:0:0:0:
329,192,201686,1,0,0:0:0:0:
475,192,201686,1,0,0:0:0:0:
109,192,201853,1,0,0:0:0:0:
329,192,202019,1,0,0:0:0:0:
475,192,202019,1,0,0:0:0:0:
109,192,202186,1,0,0:0:0:0:
329,192,202353,1,0,0:0:0:0:
475,192,202353,1,0,0:0:0:0:
256,192,202519,1,0,0:0:0:0:
36,192,202686,1,0,0:0:0:0:
402,192,202686,1,0,0:0:0:0:
182,192,202853,1,0,0:0:0:0:
36,192,203019,1,0,0:0:0:0:
402,192,203019,1,0,0:0:0:0:
182,192,203186,1,0,0:0:0:0:
402,192,203353,1,0,0:0:0:0:
36,192,203353,1,0,0:0:0:0:
182,192,203519,1,0,0:0:0:0:
36,192,203686,1,0,0:0:0:0:
402,192,203686,1,0,0:0:0:0:
256,192,203853,1,0,0:0:0:0:
109,192,204019,1,0,0:0:0:0:
475,192,204019,1,0,0:0:0:0:
329,192,204186,1,0,0:0:0:0:
109,192,204353,1,0,0:0:0:0:
475,192,204353,1,0,0:0:0:0:
329,192,204519,1,0,0:0:0:0:
109,192,204686,1,0,0:0:0:0:
475,192,204686,1,0,0:0:0:0:
329,192,204853,1,0,0:0:0:0:
475,192,205019,1,0,0:0:0:0:
109,192,205019,1,0,0:0:0:0:
182,192,205186,1,0,0:0:0:0:
36,192,205353,1,0,0:0:0:0:
329,192,205353,1,0,0:0:0:0:
109,192,205519,1,0,0:0:0:0:
402,192,205519,1,0,0:0:0:0:
182,192,205686,1,0,0:0:0:0:
475,192,205686,1,0,0:0:0:0:
36,192,205853,1,0,0:0:0:0:
329,192,205853,1,0,0:0:0:0:
109,192,206019,1,0,0:0:0:0:
475,192,206019,1,0,0:0:0:0:
402,192,206186,1,0,0:0:0:0:
182,192,206186,1,0,0:0:0:0:
329,192,206353,1,0,0:0:0:0:
36,192,206353,1,0,0:0:0:0:
109,192,206519,1,0,0:0:0:0:
475,192,206519,1,0,0:0:0:0:
402,192,206603,1,0,0:0:0:0:
182,192,206686,1,0,0:0:0:0:
329,192,206686,1,0,0:0:0:0:
36,192,206853,1,0,0:0:0:0:
475,192,206853,1,0,0:0:0:0:
109,192,207019,1,0,0:0:0:0:
402,192,207019,1,0,0:0:0:0:
182,192,207186,1,0,0:0:0:0:
329,192,207186,1,0,0:0:0:0:
475,192,207353,1,0,0:0:0:0:
109,192,207353,1,0,0:0:0:0:
402,192,207519,1,0,0:0:0:0:
36,192,207519,1,0,0:0:0:0:
109,192,207686,1,0,0:0:0:0:
475,192,207686,1,0,0:0:0:0:
182,192,207769,1,0,0:0:0:0:
256,192,207853,1,0,0:0:0:0:
329,192,207936,1,0,0:0:0:0:
402,192,208019,1,0,0:0:0:0:
36,192,208019,1,0,0:0:0:0:
109,192,208103,1,0,0:0:0:0:
182,192,208186,1,0,0:0:0:0:
256,192,208269,1,0,0:0:0:0:
475,192,208353,1,0,0:0:0:0:
402,192,208436,1,0,0:0:0:0:
329,192,208519,1,0,0:0:0:0:
36,192,208519,1,0,0:0:0:0:
109,192,208603,1,0,0:0:0:0:
182,192,208686,1,0,0:0:0:0:
256,192,208769,1,0,0:0:0:0:
329,192,208853,1,0,0:0:0:0:
402,192,208936,1,0,0:0:0:0:
475,192,209019,1,0,0:0:0:0:
36,192,209019,1,0,0:0:0:0:
109,192,209103,1,0,0:0:0:0:
182,192,209186,1,0,0:0:0:0:
256,192,209269,1,0,0:0:0:0:
36,192,209353,128,0,210353:0:0:0:0:
329,192,209353,128,0,210353:0:0:0:0:
475,192,209353,128,0,210353:0:0:0:0:
109,192,210353,1,0,0:0:0:0:
182,192,210436,1,0,0:0:0:0:
256,192,210519,1,0,0:0:0:0:
329,192,210603,1,0,0:0:0:0:
402,192,210686,1,0,0:0:0:0:
475,192,210686,1,0,0:0:0:0:
36,192,210686,1,0,0:0:0:0:
36,192,211019,1,0,0:0:0:0:
402,192,211019,1,0,0:0:0:0:
475,192,211019,1,0,0:0:0:0:
329,192,211186,1,0,0:0:0:0:
109,192,211353,1,0,0:0:0:0:
256,192,211353,1,0,0:0:0:0:
109,192,211686,1,0,0:0:0:0:
256,192,211686,1,0,0:0:0:0:
36,192,211853,1,0,0:0:0:0:
329,192,211853,1,0,0:0:0:0:
475,192,211853,1,0,0:0:0:0:
182,192,212019,1,0,0:0:0:0:
329,192,212186,1,0,0:0:0:0:
256,192,212269,1,0,0:0:0:0:
182,192,212353,1,0,0:0:0:0:
36,192,212353,1,0,0:0:0:0:
475,192,212353,1,0,0:0:0:0:
329,192,212519,1,0,0:0:0:0:
109,192,212686,1,0,0:0:0:0:
402,192,212686,1,0,0:0:0:0:
256,192,212853,1,0,0:0:0:0:
402,192,213019,1,0,0:0:0:0:
109,192,213019,1,0,0:0:0:0:
182,192,213186,1,0,0:0:0:0:
256,192,213269,1,0,0:0:0:0:
329,192,213353,1,0,0:0:0:0:
475,192,213353,1,0,0:0:0:0:
36,192,213353,1,0,0:0:0:0:
329,192,213603,1,0,0:0:0:0:
475,192,213603,1,0,0:0:0:0:
36,192,213603,1,0,0:0:0:0:
109,192,213853,1,0,0:0:0:0:
256,192,213853,1,0,0:0:0:0:
402,192,213853,1,0,0:0:0:0:
329,192,214019,1,0,0:0:0:0:
182,192,214019,1,0,0:0:0:0:
36,192,214019,1,0,0:0:0:0:
109,192,214269,1,0,0:0:0:0:
329,192,214269,1,0,0:0:0:0:
475,192,214269,1,0,0:0:0:0:
402,192,214519,1,0,0:0:0:0:
256,192,214519,1,0,0:0:0:0:
36,192,214519,1,0,0:0:0:0:
329,192,214853,1,0,0:0:0:0:
109,192,214853,1,0,0:0:0:0:
109,192,215103,1,0,0:0:0:0:
329,192,215103,1,0,0:0:0:0:
36,192,215353,1,0,0:0:0:0:
182,192,215353,1,0,0:0:0:0:
475,192,215353,1,0,0:0:0:0:
256,192,215519,1,0,0:0:0:0:
402,192,215686,1,0,0:0:0:0:
109,192,215686,1,0,0:0:0:0:
36,192,216019,1,0,0:0:0:0:
329,192,216019,1,0,0:0:0:0:
475,192,216019,1,0,0:0:0:0:
109,192,216103,1,0,0:0:0:0:
182,192,216186,1,0,0:0:0:0:
256,192,216269,1,0,0:0:0:0:
329,192,216353,1,0,0:0:0:0:
475,192,216353,1,0,0:0:0:0:
182,192,216436,1,0,0:0:0:0:
402,192,216686,1,0,0:0:0:0:
329,192,216769,1,0,0:0:0:0:
256,192,216853,1,0,0:0:0:0:
182,192,216936,1,0,0:0:0:0:
109,192,217019,1,0,0:0:0:0:
36,192,217019,1,0,0:0:0:0:
329,192,217103,1,0,0:0:0:0:
182,192,217353,1,0,0:0:0:0:
256,192,217436,1,0,0:0:0:0:
329,192,217519,1,0,0:0:0:0:
402,192,217603,1,0,0:0:0:0:
475,192,217686,1,0,0:0:0:0:
36,192,217686,1,0,0:0:0:0:
182,192,217769,1,0,0:0:0:0:
256,192,218019,1,0,0:0:0:0:
329,192,218103,1,0,0:0:0:0:
402,192,218186,1,0,0:0:0:0:
475,192,218269,1,0,0:0:0:0:
36,192,218353,1,0,0:0:0:0:
182,192,218353,1,0,0:0:0:0:
256,192,218436,1,0,0:0:0:0:
329,192,218519,1,0,0:0:0:0:
402,192,218603,1,0,0:0:0:0:
475,192,218686,1,0,0:0:0:0:
109,192,218686,1,0,0:0:0:0:
182,192,218769,1,0,0:0:0:0:
256,192,218853,1,0,0:0:0:0:
329,192,218936,1,0,0:0:0:0:
402,192,219019,1,0,0:0:0:0:
36,192,219019,1,0,0:0:0:0:
109,192,219103,1,0,0:0:0:0:
182,192,219186,1,0,0:0:0:0:
256,192,219269,1,0,0:0:0:0:
329,192,219353,1,0,0:0:0:0:
475,192,219353,1,0,0:0:0:0:
256,192,219436,1,0,0:0:0:0:
182,192,219519,1,0,0:0:0:0:
109,192,219603,1,0,0:0:0:0:
36,192,219686,1,0,0:0:0:0:
402,192,219686,1,0,0:0:0:0:
329,192,219769,1,0,0:0:0:0:
256,192,219853,1,0,0:0:0:0:
182,192,219936,1,0,0:0:0:0:
109,192,220019,1,0,0:0:0:0:
475,192,220019,1,0,0:0:0:0:
402,192,220103,1,0,0:0:0:0:
329,192,220186,1,0,0:0:0:0:
256,192,220269,1,0,0:0:0:0:
36,192,220269,1,0,0:0:0:0:
109,192,220353,1,0,0:0:0:0:
182,192,220436,1,0,0:0:0:0:
256,192,220519,1,0,0:0:0:0:
475,192,220519,1,0,0:0:0:0:
402,192,220603,1,0,0:0:0:0:
329,192,220686,1,0,0:0:0:0:
256,192,220769,1,0,0:0:0:0:
36,192,220769,1,0,0:0:0:0:
109,192,220853,1,0,0:0:0:0:
182,192,220936,1,0,0:0:0:0:
256,192,221019,1,0,0:0:0:0:
475,192,221019,1,0,0:0:0:0:
402,192,221103,1,0,0:0:0:0:
329,192,221186,1,0,0:0:0:0:
36,192,221186,1,0,0:0:0:0:
256,192,221269,1,0,0:0:0:0:
182,192,221353,1,0,0:0:0:0:
475,192,221353,1,0,0:0:0:0:
109,192,221353,1,0,0:0:0:0:
36,192,221686,1,0,0:0:0:0:
256,192,221686,1,0,0:0:0:0:
329,192,221686,1,0,0:0:0:0:
109,192,222019,1,0,0:0:0:0:
402,192,222019,1,0,0:0:0:0:
109,192,222353,1,0,0:0:0:0:
402,192,222353,1,0,0:0:0:0:
256,192,222519,1,0,0:0:0:0:
36,192,222519,1,0,0:0:0:0:
475,192,222519,1,0,0:0:0:0:
109,192,222853,1,0,0:0:0:0:
182,192,222936,1,0,0:0:0:0:
256,192,223019,1,0,0:0:0:0:
475,192,223019,1,0,0:0:0:0:
36,192,223019,1,0,0:0:0:0:
109,192,223353,1,0,0:0:0:0:
402,192,223353,1,0,0:0:0:0:
182,192,223519,1,0,0:0:0:0:
329,192,223519,1,0,0:0:0:0:
36,192,223686,1,0,0:0:0:0:
475,192,223686,1,0,0:0:0:0:
402,192,223853,1,0,0:0:0:0:
329,192,223936,1,0,0:0:0:0:
256,192,224019,1,0,0:0:0:0:
36,192,224019,1,0,0:0:0:0:
475,192,224019,1,0,0:0:0:0:
36,192,224353,1,0,0:0:0:0:
182,192,224353,1,0,0:0:0:0:
402,192,224353,1,0,0:0:0:0:
109,192,224686,1,0,0:0:0:0:
256,192,224686,1,0,0:0:0:0:
402,192,224686,1,0,0:0:0:0:
182,192,224936,1,0,0:0:0:0:
329,192,224936,1,0,0:0:0:0:
475,192,224936,1,0,0:0:0:0:
402,192,225186,1,0,0:0:0:0:
256,192,225186,1,0,0:0:0:0:
109,192,225186,1,0,0:0:0:0:
329,192,225436,1,0,0:0:0:0:
182,192,225436,1,0,0:0:0:0:
36,192,225436,1,0,0:0:0:0:
109,192,225686,1,0,0:0:0:0:
256,192,225686,1,0,0:0:0:0:
475,192,225686,1,0,0:0:0:0:
402,192,225936,1,0,0:0:0:0:
182,192,225936,1,0,0:0:0:0:
36,192,225936,1,0,0:0:0:0:
256,192,226186,1,0,0:0:0:0:
475,192,226186,1,0,0:0:0:0:
109,192,226186,1,0,0:0:0:0:
36,192,226353,1,0,0:0:0:0:
402,192,226353,1,0,0:0:0:0:
182,192,226464,1,0,0:0:0:0:
329,192,226575,1,0,0:0:0:0:
36,192,226686,1,0,0:0:0:0:
182,192,226686,128,0,227019:0:0:0:0:
475,192,226686,128,0,227019:0:0:0:0:
36,192,227019,1,0,0:0:0:0:
402,192,227019,1,0,0:0:0:0:
36,192,227186,1,0,0:0:0:0:
402,192,227186,1,0,0:0:0:0:
109,192,227353,1,0,0:0:0:0:
329,192,227353,1,0,0:0:0:0:
109,192,227519,1,0,0:0:0:0:
329,192,227519,1,0,0:0:0:0:
182,192,227686,1,0,0:0:0:0:
475,192,227686,1,0,0:0:0:0:
182,192,227853,1,0,0:0:0:0:
475,192,227853,1,0,0:0:0:0:
329,192,228019,1,0,0:0:0:0:
36,192,228019,1,0,0:0:0:0:
36,192,228186,1,0,0:0:0:0:
329,192,228186,1,0,0:0:0:0:
109,192,228353,1,0,0:0:0:0:
402,192,228353,1,0,0:0:0:0:
109,192,228519,1,0,0:0:0:0:
402,192,228519,1,0,0:0:0:0:
329,192,228686,1,0,0:0:0:0:
475,192,228686,1,0,0:0:0:0:
329,192,228853,1,0,0:0:0:0:
475,192,228853,1,0,0:0:0:0:
182,192,229019,1,0,0:0:0:0:
36,192,229019,1,0,0:0:0:0:
36,192,229186,1,0,0:0:0:0:
182,192,229186,1,0,0:0:0:0:
109,192,229353,1,0,0:0:0:0:
329,192,229353,1,0,0:0:0:0:
109,192,229519,1,0,0:0:0:0:
329,192,229519,1,0,0:0:0:0:
182,192,229686,1,0,0:0:0:0:
475,192,229686,1,0,0:0:0:0:
182,192,229853,1,0,0:0:0:0:
475,192,229853,1,0,0:0:0:0:
329,192,230019,1,0,0:0:0:0:
36,192,230019,1,0,0:0:0:0:
36,192,230186,1,0,0:0:0:0:
329,192,230186,1,0,0:0:0:0:
109,192,230353,1,0,0:0:0:0:
475,192,230353,1,0,0:0:0:0:
109,192,230519,1,0,0:0:0:0:
475,192,230519,1,0,0:0:0:0:
402,192,230686,1,0,0:0:0:0:
36,192,230686,1,0,0:0:0:0:
329,192,230769,1,0,0:0:0:0:
256,192,230853,1,0,0:0:0:0:
182,192,230936,1,0,0:0:0:0:
109,192,231019,1,0,0:0:0:0:
475,192,231019,1,0,0:0:0:0:
402,192,231103,1,0,0:0:0:0:
329,192,231186,1,0,0:0:0:0:
256,192,231269,1,0,0:0:0:0:
182,192,231353,1,0,0:0:0:0:
36,192,231353,1,0,0:0:0:0:
256,192,231436,1,0,0:0:0:0:
329,192,231519,1,0,0:0:0:0:
402,192,231603,1,0,0:0:0:0:
475,192,231686,1,0,0:0:0:0:
109,192,231686,1,0,0:0:0:0:
182,192,231769,1,0,0:0:0:0:
256,192,231853,1,0,0:0:0:0:
329,192,231936,1,0,0:0:0:0:
402,192,232019,1,0,0:0:0:0:
475,192,232019,1,0,0:0:0:0:
36,192,232019,1,0,0:0:0:0:
109,192,232186,1,0,0:0:0:0:
256,192,232353,1,0,0:0:0:0:
475,192,232519,1,0,0:0:0:0:
36,192,232853,1,0,0:0:0:0:
256,192,233019,1,0,0:0:0:0:
475,192,233186,1,0,0:0:0:0:
109,192,233353,1,0,0:0:0:0:
329,192,233519,1,0,0:0:0:0:
182,192,233686,1,0,0:0:0:0:
402,192,233853,1,0,0:0:0:0:
329,192,234186,1,0,0:0:0:0:
182,192,234353,1,0,0:0:0:0:
36,192,234519,1,0,0:0:0:0:
329,192,234686,1,0,0:0:0:0:
475,192,234853,1,0,0:0:0:0:
182,192,235019,1,0,0:0:0:0:
36,192,235186,1,0,0:0:0:0:
182,192,235519,1,0,0:0:0:0:
329,192,235686,1,0,0:0:0:0:
475,192,235853,1,0,0:0:0:0:
36,192,236019,1,0,0:0:0:0:
329,192,236186,1,0,0:0:0:0:
109,192,236353,1,0,0:0:0:0:
402,192,236519,1,0,0:0:0:0:
475,192,236853,1,0,0:0:0:0:
329,192,237019,1,0,0:0:0:0:
182,192,237186,1,0,0:0:0:0:
36,192,237353,1,0,0:0:0:0:
402,192,237519,1,0,0:0:0:0:
109,192,237686,1,0,0:0:0:0:
475,192,237853,1,0,0:0:0:0:
36,192,238186,1,0,0:0:0:0:
182,192,238353,1,0,0:0:0:0:
402,192,238519,1,0,0:0:0:0:
109,192,238686,1,0,0:0:0:0:
329,192,238853,1,0,0:0:0:0:
182,192,239019,1,0,0:0:0:0:
475,192,239186,1,0,0:0:0:0:
329,192,239519,1,0,0:0:0:0:
182,192,239686,1,0,0:0:0:0:
36,192,239853,1,0,0:0:0:0:
329,192,240019,1,0,0:0:0:0:
475,192,240186,1,0,0:0:0:0:
36,192,240353,1,0,0:0:0:0:
182,192,240519,1,0,0:0:0:0:
109,192,240853,1,0,0:0:0:0:
256,192,241019,1,0,0:0:0:0:
402,192,241186,1,0,0:0:0:0:
182,192,241353,1,0,0:0:0:0:
329,192,241519,1,0,0:0:0:0:
109,192,241686,1,0,0:0:0:0:
402,192,241853,1,0,0:0:0:0:
36,192,242186,1,0,0:0:0:0:
182,192,242353,1,0,0:0:0:0:
475,192,242519,1,0,0:0:0:0:
329,192,242686,1,0,0:0:0:0:
