osu file format v14

[General]
AudioFilename: STORIA.mp3
AudioLeadIn: 0
PreviewTime: 210353
Countdown: 0
SampleSet: Soft
StackLeniency: 0.7
Mode: 3
LetterboxInBreaks: 0
SpecialStyle: 0
WidescreenStoryboard: 0

[Editor]
Bookmarks: 15476,26810,60143,72436,81476,102810,124143,145476,157476,178810
DistanceSpacing: 0.5
BeatDivisor: 4
GridSize: 4
TimelineZoom: 1.5

[Metadata]
Title:STORIA
TitleUnicode:STORIA
Artist:xi vs sakuzyo
ArtistUnicode:xi vs sakuzyo
Creator:Kyousuke-
Version:Shin's 4K Normal
Source:Cytus
Tags:削除 chapter M Million rayark BMS historia Halcyon Niflheimr VitMaster Black Lair AXION Shinzo- Rido Kawawa Julie Zan_- Takane6
BeatmapID:741898
BeatmapSetID:330438

[Difficulty]
HPDrainRate:7
CircleSize:4
OverallDifficulty:7
ApproachRate:5
SliderMultiplier:1.4
SliderTickRate:1

[Events]
//Background and Video events
0,0,"STORIA_BG.png",0,0
//Break Periods
//Storyboard Layer 0 (Background)
//Storyboard Layer 1 (Fail)
//Storyboard Layer 2 (Pass)
//Storyboard Layer 3 (Foreground)
//Storyboard Sound Samples

[TimingPoints]
20,333.333333333333,4,2,0,30,1,0
38686,-100,4,2,0,30,0,1
49019,-100,4,2,0,30,0,0
49353,-100,4,2,0,30,0,1
60019,-100,4,2,0,30,0,0
124019,-100,4,2,0,30,0,1
134519,-100,4,2,0,30,0,0
134686,-100,4,2,0,30,0,1
145019,-100,4,2,0,30,0,0
168019,-100,4,2,0,30,0,1
178686,-100,4,2,0,30,0,0
210686,-100,4,2,0,30,0,1
221269,-100,4,2,0,30,0,0
221353,-100,4,2,0,30,0,1
232019,-100,4,2,0,30,0,0

[HitObjects]
320,192,5353,5,0,0:0:0:0:
448,192,5353,1,0,0:0:0:0:
64,192,5686,1,0,0:0:0:0:
192,192,6019,1,0,0:0:0:0:
320,192,6353,1,0,0:0:0:0:
448,192,6686,1,0,0:0:0:0:
320,192,7019,1,0,0:0:0:0:
64,192,7353,1,0,0:0:0:0:
320,192,7519,1,0,0:0:0:0:
192,192,7686,1,0,0:0:0:0:
448,192,7853,1,0,0:0:0:0:
320,192,8019,1,0,0:0:0:0:
64,192,8353,1,0,0:0:0:0:
320,192,8686,1,0,0:0:0:0:
192,192,9019,1,0,0:0:0:0:
448,192,9353,1,0,0:0:0:0:
320,192,9686,1,0,0:0:0:0:
64,192,10019,1,0,0:0:0:0:
320,192,10186,1,0,0:0:0:0:
192,192,10353,1,0,0:0:0:0:
448,192,10519,1,0,0:0:0:0:
64,192,10686,1,0,0:0:0:0:
192,192,11019,1,0,0:0:0:0:
64,192,11353,1,0,0:0:0:0:
320,192,11686,1,0,0:0:0:0:
448,192,12019,1,0,0:0:0:0:
192,192,12353,1,0,0:0:0:0:
64,192,12686,1,0,0:0:0:0:
448,192,12853,1,0,0:0:0:0:
192,192,13019,1,0,0:0:0:0:
320,192,13186,1,0,0:0:0:0:
64,192,13353,1,0,0:0:0:0:
448,192,13686,1,0,0:0:0:0:
192,192,14019,1,0,0:0:0:0:
320,192,14353,1,0,0:0:0:0:
448,192,14686,1,0,0:0:0:0:
192,192,15019,1,0,0:0:0:0:
320,192,15353,1,0,0:0:0:0:
64,192,15519,1,0,0:0:0:0:
192,192,15686,1,0,0:0:0:0:
320,192,15853,1,0,0:0:0:0:
448,192,16019,1,0,0:0:0:0:
64,192,16019,1,0,0:0:0:0:
320,192,16353,1,0,0:0:0:0:
192,192,16686,1,0,0:0:0:0:
64,192,17019,1,0,0:0:0:0:
448,192,17353,1,0,0:0:0:0:
64,192,17686,1,0,0:0:0:0:
192,192,18019,1,0,0:0:0:0:
448,192,18186,1,0,0:0:0:0:
64,192,18353,1,0,0:0:0:0:
320,192,18519,1,0,0:0:0:0:
192,192,18686,1,0,0:0:0:0:
64,192,19019,1,0,0:0:0:0:
192,192,19353,1,0,0:0:0:0:
320,192,19686,1,0,0:0:0:0:
448,192,20019,1,0,0:0:0:0:
64,192,20353,1,0,0:0:0:0:
320,192,20686,1,0,0:0:0:0:
448,192,20853,1,0,0:0:0:0:
64,192,21019,1,0,0:0:0:0:
192,192,21186,1,0,0:0:0:0:
320,192,21353,1,0,0:0:0:0:
448,192,21686,1,0,0:0:0:0:
64,192,22019,1,0,0:0:0:0:
192,192,22353,1,0,0:0:0:0:
448,192,22686,1,0,0:0:0:0:
64,192,23019,1,0,0:0:0:0:
320,192,23353,1,0,0:0:0:0:
64,192,23519,1,0,0:0:0:0:
448,192,23686,1,0,0:0:0:0:
192,192,23853,1,0,0:0:0:0:
64,192,24019,1,0,0:0:0:0:
448,192,24353,1,0,0:0:0:0:
192,192,24686,1,0,0:0:0:0:
320,192,25019,1,0,0:0:0:0:
448,192,25353,1,0,0:0:0:0:
320,192,25686,1,0,0:0:0:0:
64,192,26019,1,0,0:0:0:0:
192,192,26186,1,0,0:0:0:0:
320,192,26353,1,0,0:0:0:0:
448,192,26519,1,0,0:0:0:0:
64,192,26686,1,0,0:0:0:0:
192,192,26686,1,0,0:0:0:0:
448,192,27019,1,0,0:0:0:0:
192,192,27186,1,0,0:0:0:0:
64,192,27519,1,0,0:0:0:0:
320,192,27686,1,0,0:0:0:0:
192,192,28019,1,0,0:0:0:0:
320,192,28353,1,0,0:0:0:0:
192,192,28519,1,0,0:0:0:0:
192,192,28853,1,0,0:0:0:0:
320,192,29019,1,0,0:0:0:0:
64,192,29353,1,0,0:0:0:0:
448,192,29686,1,0,0:0:0:0:
64,192,29853,1,0,0:0:0:0:
320,192,30186,1,0,0:0:0:0:
192,192,30353,1,0,0:0:0:0:
64,192,30686,1,0,0:0:0:0:
320,192,31019,1,0,0:0:0:0:
64,192,31186,1,0,0:0:0:0:
192,192,31519,1,0,0:0:0:0:
448,192,31686,1,0,0:0:0:0:
320,192,32019,1,0,0:0:0:0:
192,192,32353,1,0,0:0:0:0:
320,192,32519,1,0,0:0:0:0:
64,192,32853,1,0,0:0:0:0:
448,192,33019,1,0,0:0:0:0:
64,192,33353,1,0,0:0:0:0:
320,192,33686,1,0,0:0:0:0:
192,192,33853,1,0,0:0:0:0:
192,192,34186,1,0,0:0:0:0:
320,192,34353,1,0,0:0:0:0:
448,192,34686,1,0,0:0:0:0:
64,192,35019,1,0,0:0:0:0:
448,192,35186,1,0,0:0:0:0:
192,192,35519,1,0,0:0:0:0:
320,192,35686,1,0,0:0:0:0:
192,192,36019,1,0,0:0:0:0:
320,192,36186,1,0,0:0:0:0:
64,192,36353,1,0,0:0:0:0:
448,192,36519,1,0,0:0:0:0:
64,192,36853,1,0,0:0:0:0:
448,192,37019,1,0,0:0:0:0:
320,192,37186,1,0,0:0:0:0:
192,192,37353,1,0,0:0:0:0:
64,192,37353,1,0,0:0:0:0:
448,192,37686,1,0,0:0:0:0:
320,192,38019,128,0,38353:0:0:0:0:
192,192,38353,128,0,38686:0:0:0:0:
64,192,38686,1,0,0:0:0:0:
448,192,38686,1,0,0:0:0:0:
64,192,39186,1,0,0:0:0:0:
320,192,39353,1,0,0:0:0:0:
448,192,39353,1,0,0:0:0:0:
192,192,39853,1,0,0:0:0:0:
192,192,40186,1,0,0:0:0:0:
192,192,40519,1,0,0:0:0:0:
320,192,40686,1,0,0:0:0:0:
448,192,40686,1,0,0:0:0:0:
320,192,41186,1,0,0:0:0:0:
192,192,41353,1,0,0:0:0:0:
448,192,41853,1,0,0:0:0:0:
192,192,42019,1,0,0:0:0:0:
64,192,42019,1,0,0:0:0:0:
320,192,42519,1,0,0:0:0:0:
320,192,42853,1,0,0:0:0:0:
320,192,43186,1,0,0:0:0:0:
192,192,43353,1,0,0:0:0:0:
64,192,43353,1,0,0:0:0:0:
448,192,43519,1,0,0:0:0:0:
192,192,43853,1,0,0:0:0:0:
192,192,44019,1,0,0:0:0:0:
320,192,44019,1,0,0:0:0:0:
64,192,44519,1,0,0:0:0:0:
192,192,44686,1,0,0:0:0:0:
320,192,44686,1,0,0:0:0:0:
448,192,45019,1,0,0:0:0:0:
448,192,45186,1,0,0:0:0:0:
64,192,45519,1,0,0:0:0:0:
64,192,45769,1,0,0:0:0:0:
192,192,46019,1,0,0:0:0:0:
320,192,46019,1,0,0:0:0:0:
64,192,46686,1,0,0:0:0:0:
192,192,46686,1,0,0:0:0:0:
448,192,47186,1,0,0:0:0:0:
192,192,47353,1,0,0:0:0:0:
64,192,47353,1,0,0:0:0:0:
64,192,47686,1,0,0:0:0:0:
320,192,47853,1,0,0:0:0:0:
448,192,47853,1,0,0:0:0:0:
192,192,48186,1,0,0:0:0:0:
192,192,48436,1,0,0:0:0:0:
320,192,48686,1,0,0:0:0:0:
448,192,48686,1,0,0:0:0:0:
64,192,49019,1,0,0:0:0:0:
192,192,49353,1,0,0:0:0:0:
448,192,49353,1,0,0:0:0:0:
448,192,49853,1,0,0:0:0:0:
320,192,50019,1,0,0:0:0:0:
64,192,50019,1,0,0:0:0:0:
320,192,50519,1,0,0:0:0:0:
320,192,50853,1,0,0:0:0:0:
320,192,51186,1,0,0:0:0:0:
192,192,51353,1,0,0:0:0:0:
448,192,51353,1,0,0:0:0:0:
64,192,52019,1,0,0:0:0:0:
320,192,52019,1,0,0:0:0:0:
64,192,52519,1,0,0:0:0:0:
192,192,52686,1,0,0:0:0:0:
448,192,52686,1,0,0:0:0:0:
192,192,53186,1,0,0:0:0:0:
192,192,53519,1,0,0:0:0:0:
192,192,53853,1,0,0:0:0:0:
64,192,54019,1,0,0:0:0:0:
320,192,54019,1,0,0:0:0:0:
448,192,54186,1,0,0:0:0:0:
320,192,54519,1,0,0:0:0:0:
320,192,54686,1,0,0:0:0:0:
192,192,54686,1,0,0:0:0:0:
192,192,55186,1,0,0:0:0:0:
64,192,55353,1,0,0:0:0:0:
448,192,55353,1,0,0:0:0:0:
192,192,55686,1,0,0:0:0:0:
192,192,55853,1,0,0:0:0:0:
320,192,55853,1,0,0:0:0:0:
320,192,56186,1,0,0:0:0:0:
320,192,56436,1,0,0:0:0:0:
192,192,56686,1,0,0:0:0:0:
448,192,56686,1,0,0:0:0:0:
320,192,57019,1,0,0:0:0:0:
192,192,57186,1,0,0:0:0:0:
320,192,57186,1,0,0:0:0:0:
320,192,57853,1,0,0:0:0:0:
64,192,58019,1,0,0:0:0:0:
448,192,58019,1,0,0:0:0:0:
192,192,58519,1,0,0:0:0:0:
448,192,58853,1,0,0:0:0:0:
64,192,58853,1,0,0:0:0:0:
192,192,59103,1,0,0:0:0:0:
64,192,59353,1,0,0:0:0:0:
448,192,59353,1,0,0:0:0:0:
320,192,59519,1,0,0:0:0:0:
192,192,59686,1,0,0:0:0:0:
64,192,60019,1,0,0:0:0:0:
320,192,60019,1,0,0:0:0:0:
448,192,60353,1,0,0:0:0:0:
192,192,60353,1,0,0:0:0:0:
64,192,60853,1,0,0:0:0:0:
192,192,61019,1,0,0:0:0:0:
448,192,61019,1,0,0:0:0:0:
64,192,61186,1,0,0:0:0:0:
320,192,61353,1,0,0:0:0:0:
448,192,61519,1,0,0:0:0:0:
64,192,61686,1,0,0:0:0:0:
320,192,61686,1,0,0:0:0:0:
192,192,61853,1,0,0:0:0:0:
448,192,62186,1,0,0:0:0:0:
320,192,62353,1,0,0:0:0:0:
64,192,62353,1,0,0:0:0:0:
192,192,62686,1,0,0:0:0:0:
448,192,63019,1,0,0:0:0:0:
64,192,63019,1,0,0:0:0:0:
448,192,63353,1,0,0:0:0:0:
320,192,63519,1,0,0:0:0:0:
64,192,63686,1,0,0:0:0:0:
448,192,63686,1,0,0:0:0:0:
192,192,63853,1,0,0:0:0:0:
320,192,64019,1,0,0:0:0:0:
64,192,64353,1,0,0:0:0:0:
192,192,64353,1,0,0:0:0:0:
448,192,64686,128,0,65353:0:0:0:0:
320,192,64853,1,0,0:0:0:0:
192,192,65019,1,0,0:0:0:0:
64,192,65019,1,0,0:0:0:0:
192,192,65353,1,0,0:0:0:0:
320,192,65686,1,0,0:0:0:0:
448,192,65686,1,0,0:0:0:0:
192,192,65853,1,0,0:0:0:0:
64,192,66019,1,0,0:0:0:0:
192,192,66186,1,0,0:0:0:0:
320,192,66353,1,0,0:0:0:0:
64,192,66353,1,0,0:0:0:0:
448,192,66519,1,0,0:0:0:0:
192,192,66686,128,0,67019:0:0:0:0:
64,192,67019,128,0,67353:0:0:0:0:
448,192,67019,1,0,0:0:0:0:
320,192,67353,128,0,67686:0:0:0:0:
192,192,67519,1,0,0:0:0:0:
448,192,67686,128,0,68019:0:0:0:0:
64,192,67686,1,0,0:0:0:0:
192,192,68019,1,0,0:0:0:0:
320,192,68186,1,0,0:0:0:0:
192,192,68353,1,0,0:0:0:0:
448,192,68353,1,0,0:0:0:0:
64,192,68519,1,0,0:0:0:0:
320,192,68686,1,0,0:0:0:0:
192,192,68853,1,0,0:0:0:0:
64,192,69019,1,0,0:0:0:0:
448,192,69019,1,0,0:0:0:0:
320,192,69186,1,0,0:0:0:0:
192,192,69353,1,0,0:0:0:0:
320,192,69519,1,0,0:0:0:0:
192,192,69686,1,0,0:0:0:0:
448,192,69686,1,0,0:0:0:0:
64,192,69853,1,0,0:0:0:0:
192,192,70019,1,0,0:0:0:0:
320,192,70186,1,0,0:0:0:0:
192,192,70353,1,0,0:0:0:0:
448,192,70353,1,0,0:0:0:0:
64,192,70519,1,0,0:0:0:0:
320,192,70686,1,0,0:0:0:0:
448,192,70686,1,0,0:0:0:0:
64,192,71019,1,0,0:0:0:0:
192,192,71019,1,0,0:0:0:0:
320,192,71519,1,0,0:0:0:0:
192,192,71686,1,0,0:0:0:0:
64,192,71686,1,0,0:0:0:0:
448,192,71853,1,0,0:0:0:0:
320,192,72019,1,0,0:0:0:0:
64,192,72186,1,0,0:0:0:0:
192,192,72353,1,0,0:0:0:0:
320,192,72353,1,0,0:0:0:0:
448,192,72519,1,0,0:0:0:0:
64,192,72853,1,0,0:0:0:0:
320,192,73019,1,0,0:0:0:0:
448,192,73019,1,0,0:0:0:0:
448,192,73353,1,0,0:0:0:0:
64,192,73686,1,0,0:0:0:0:
192,192,73686,1,0,0:0:0:0:
320,192,74019,1,0,0:0:0:0:
192,192,74186,1,0,0:0:0:0:
320,192,74353,1,0,0:0:0:0:
448,192,74353,1,0,0:0:0:0:
64,192,74519,1,0,0:0:0:0:
192,192,74686,1,0,0:0:0:0:
320,192,75019,1,0,0:0:0:0:
448,192,75019,1,0,0:0:0:0:
64,192,75353,128,0,76019:0:0:0:0:
192,192,75519,1,0,0:0:0:0:
320,192,75686,1,0,0:0:0:0:
448,192,75686,1,0,0:0:0:0:
192,192,76019,1,0,0:0:0:0:
320,192,76019,1,0,0:0:0:0:
448,192,76353,1,0,0:0:0:0:
64,192,76353,1,0,0:0:0:0:
320,192,76519,1,0,0:0:0:0:
192,192,76686,1,0,0:0:0:0:
64,192,76853,1,0,0:0:0:0:
192,192,77019,1,0,0:0:0:0:
448,192,77019,1,0,0:0:0:0:
64,192,77186,1,0,0:0:0:0:
448,192,77353,128,0,77686:0:0:0:0:
320,192,77686,128,0,78019:0:0:0:0:
192,192,77686,1,0,0:0:0:0:
64,192,78019,128,0,78353:0:0:0:0:
448,192,78186,1,0,0:0:0:0:
192,192,78353,128,0,78686:0:0:0:0:
320,192,78353,1,0,0:0:0:0:
64,192,78686,1,0,0:0:0:0:
448,192,78686,1,0,0:0:0:0:
320,192,78853,1,0,0:0:0:0:
192,192,79019,1,0,0:0:0:0:
448,192,79019,1,0,0:0:0:0:
64,192,79353,1,0,0:0:0:0:
192,192,79519,1,0,0:0:0:0:
320,192,79686,1,0,0:0:0:0:
64,192,79686,1,0,0:0:0:0:
448,192,79853,1,0,0:0:0:0:
192,192,80019,128,0,80353:0:0:0:0:
64,192,80019,1,0,0:0:0:0:
320,192,80353,128,0,80686:0:0:0:0:
448,192,80353,1,0,0:0:0:0:
64,192,80686,128,0,81019:0:0:0:0:
192,192,80686,1,0,0:0:0:0:
448,192,81019,128,0,81353:0:0:0:0:
320,192,81019,1,0,0:0:0:0:
192,192,81353,1,0,0:0:0:0:
64,192,81353,1,0,0:0:0:0:
448,192,81686,1,0,0:0:0:0:
320,192,81686,1,0,0:0:0:0:
192,192,82019,1,0,0:0:0:0:
448,192,82186,1,0,0:0:0:0:
192,192,82353,1,0,0:0:0:0:
320,192,82353,1,0,0:0:0:0:
64,192,82519,1,0,0:0:0:0:
192,192,82686,1,0,0:0:0:0:
448,192,82853,1,0,0:0:0:0:
64,192,83019,1,0,0:0:0:0:
192,192,83019,1,0,0:0:0:0:
320,192,83186,1,0,0:0:0:0:
448,192,83519,1,0,0:0:0:0:
192,192,83686,1,0,0:0:0:0:
320,192,83686,1,0,0:0:0:0:
64,192,83853,1,0,0:0:0:0:
448,192,84019,1,0,0:0:0:0:
320,192,84353,1,0,0:0:0:0:
192,192,84353,1,0,0:0:0:0:
64,192,84853,1,0,0:0:0:0:
192,192,85019,1,0,0:0:0:0:
320,192,85019,1,0,0:0:0:0:
192,192,85353,1,0,0:0:0:0:
320,192,85686,1,0,0:0:0:0:
448,192,85686,1,0,0:0:0:0:
320,192,86186,1,0,0:0:0:0:
192,192,86353,1,0,0:0:0:0:
64,192,86353,1,0,0:0:0:0:
320,192,86686,1,0,0:0:0:0:
448,192,87019,1,0,0:0:0:0:
64,192,87019,1,0,0:0:0:0:
192,192,87353,1,0,0:0:0:0:
320,192,87519,1,0,0:0:0:0:
448,192,87686,1,0,0:0:0:0:
192,192,87686,1,0,0:0:0:0:
64,192,87853,1,0,0:0:0:0:
320,192,88019,1,0,0:0:0:0:
448,192,88186,1,0,0:0:0:0:
64,192,88353,1,0,0:0:0:0:
320,192,88353,1,0,0:0:0:0:
192,192,88519,1,0,0:0:0:0:
320,192,88853,1,0,0:0:0:0:
192,192,89019,1,0,0:0:0:0:
448,192,89019,1,0,0:0:0:0:
64,192,89186,1,0,0:0:0:0:
320,192,89353,1,0,0:0:0:0:
192,192,89686,1,0,0:0:0:0:
448,192,89686,1,0,0:0:0:0:
192,192,90186,1,0,0:0:0:0:
64,192,90353,1,0,0:0:0:0:
320,192,90353,1,0,0:0:0:0:
448,192,90686,1,0,0:0:0:0:
64,192,91019,1,0,0:0:0:0:
320,192,91019,1,0,0:0:0:0:
64,192,91519,1,0,0:0:0:0:
192,192,91686,1,0,0:0:0:0:
448,192,91686,1,0,0:0:0:0:
64,192,92019,1,0,0:0:0:0:
320,192,92353,1,0,0:0:0:0:
448,192,92353,1,0,0:0:0:0:
192,192,92686,1,0,0:0:0:0:
64,192,92853,1,0,0:0:0:0:
320,192,93019,1,0,0:0:0:0:
448,192,93019,1,0,0:0:0:0:
192,192,93186,1,0,0:0:0:0:
64,192,93353,1,0,0:0:0:0:
448,192,93519,1,0,0:0:0:0:
192,192,93686,1,0,0:0:0:0:
64,192,93686,1,0,0:0:0:0:
320,192,93853,1,0,0:0:0:0:
448,192,94186,1,0,0:0:0:0:
192,192,94353,1,0,0:0:0:0:
320,192,94353,1,0,0:0:0:0:
64,192,94519,1,0,0:0:0:0:
320,192,94686,1,0,0:0:0:0:
64,192,95019,1,0,0:0:0:0:
192,192,95019,1,0,0:0:0:0:
320,192,95353,1,0,0:0:0:0:
192,192,95519,1,0,0:0:0:0:
320,192,95686,1,0,0:0:0:0:
448,192,95686,1,0,0:0:0:0:
64,192,95853,1,0,0:0:0:0:
192,192,96019,1,0,0:0:0:0:
320,192,96186,1,0,0:0:0:0:
64,192,96353,1,0,0:0:0:0:
192,192,96353,1,0,0:0:0:0:
448,192,96519,1,0,0:0:0:0:
192,192,96853,1,0,0:0:0:0:
448,192,97019,1,0,0:0:0:0:
320,192,97019,1,0,0:0:0:0:
64,192,97186,1,0,0:0:0:0:
192,192,97353,1,0,0:0:0:0:
64,192,97519,1,0,0:0:0:0:
320,192,97686,1,0,0:0:0:0:
448,192,97686,1,0,0:0:0:0:
192,192,98019,1,0,0:0:0:0:
64,192,98186,1,0,0:0:0:0:
320,192,98353,1,0,0:0:0:0:
448,192,98353,1,0,0:0:0:0:
192,192,98519,1,0,0:0:0:0:
64,192,98686,1,0,0:0:0:0:
448,192,98853,1,0,0:0:0:0:
192,192,99019,1,0,0:0:0:0:
320,192,99019,1,0,0:0:0:0:
64,192,99186,1,0,0:0:0:0:
320,192,99519,1,0,0:0:0:0:
64,192,99686,1,0,0:0:0:0:
192,192,99686,1,0,0:0:0:0:
448,192,99853,1,0,0:0:0:0:
320,192,100019,1,0,0:0:0:0:
192,192,100186,1,0,0:0:0:0:
448,192,100353,1,0,0:0:0:0:
64,192,100519,1,0,0:0:0:0:
320,192,100686,1,0,0:0:0:0:
192,192,100853,1,0,0:0:0:0:
448,192,101019,1,0,0:0:0:0:
64,192,101186,128,0,102353:0:0:0:0:
192,192,101186,1,0,0:0:0:0:
448,192,102353,1,0,0:0:0:0:
192,192,102686,1,0,0:0:0:0:
320,192,102686,1,0,0:0:0:0:
64,192,103353,1,0,0:0:0:0:
192,192,104019,1,0,0:0:0:0:
320,192,104686,1,0,0:0:0:0:
448,192,105353,1,0,0:0:0:0:
448,192,106019,1,0,0:0:0:0:
64,192,106686,1,0,0:0:0:0:
192,192,107353,1,0,0:0:0:0:
320,192,108019,5,0,0:0:0:0:
192,192,108686,5,0,0:0:0:0:
192,192,109019,1,0,0:0:0:0:
320,192,109353,1,0,0:0:0:0:
320,192,109686,1,0,0:0:0:0:
192,192,110019,1,0,0:0:0:0:
192,192,110353,1,0,0:0:0:0:
320,192,110686,1,0,0:0:0:0:
320,192,111019,1,0,0:0:0:0:
64,192,111353,1,0,0:0:0:0:
64,192,111686,1,0,0:0:0:0:
448,192,112019,1,0,0:0:0:0:
448,192,112353,1,0,0:0:0:0:
192,192,112686,1,0,0:0:0:0:
192,192,113019,1,0,0:0:0:0:
64,192,113353,1,0,0:0:0:0:
448,192,113353,1,0,0:0:0:0:
320,192,113686,1,0,0:0:0:0:
320,192,114019,1,0,0:0:0:0:
64,192,114353,1,0,0:0:0:0:
64,192,114686,1,0,0:0:0:0:
448,192,115019,1,0,0:0:0:0:
448,192,115353,1,0,0:0:0:0:
64,192,115686,1,0,0:0:0:0:
64,192,116019,1,0,0:0:0:0:
448,192,116353,1,0,0:0:0:0:
448,192,116686,1,0,0:0:0:0:
192,192,117019,1,0,0:0:0:0:
192,192,117353,1,0,0:0:0:0:
320,192,117686,1,0,0:0:0:0:
320,192,118019,1,0,0:0:0:0:
192,192,118353,1,0,0:0:0:0:
192,192,118686,1,0,0:0:0:0:
320,192,119019,1,0,0:0:0:0:
320,192,119353,1,0,0:0:0:0:
64,192,119686,1,0,0:0:0:0:
64,192,120019,1,0,0:0:0:0:
448,192,120353,1,0,0:0:0:0:
448,192,120686,1,0,0:0:0:0:
320,192,121019,1,0,0:0:0:0:
320,192,121353,1,0,0:0:0:0:
64,192,121519,1,0,0:0:0:0:
448,192,121686,1,0,0:0:0:0:
192,192,121853,1,0,0:0:0:0:
320,192,122019,1,0,0:0:0:0:
64,192,122186,1,0,0:0:0:0:
448,192,122353,1,0,0:0:0:0:
192,192,122519,1,0,0:0:0:0:
320,192,122686,1,0,0:0:0:0:
64,192,122853,1,0,0:0:0:0:
448,192,123019,1,0,0:0:0:0:
192,192,123186,1,0,0:0:0:0:
320,192,123353,1,0,0:0:0:0:
64,192,123519,1,0,0:0:0:0:
192,192,123686,1,0,0:0:0:0:
320,192,123853,1,0,0:0:0:0:
448,192,124019,1,0,0:0:0:0:
64,192,124019,1,0,0:0:0:0:
192,192,124353,1,0,0:0:0:0:
320,192,124686,1,0,0:0:0:0:
64,192,124686,1,0,0:0:0:0:
192,192,125019,1,0,0:0:0:0:
448,192,125019,1,0,0:0:0:0:
64,192,125186,1,0,0:0:0:0:
320,192,125353,1,0,0:0:0:0:
320,192,125686,1,0,0:0:0:0:
64,192,125686,1,0,0:0:0:0:
192,192,125853,1,0,0:0:0:0:
64,192,126019,1,0,0:0:0:0:
448,192,126019,1,0,0:0:0:0:
320,192,126186,1,0,0:0:0:0:
448,192,126353,1,0,0:0:0:0:
192,192,126353,1,0,0:0:0:0:
64,192,126519,1,0,0:0:0:0:
192,192,126686,1,0,0:0:0:0:
448,192,126686,1,0,0:0:0:0:
448,192,127019,1,0,0:0:0:0:
64,192,127019,1,0,0:0:0:0:
320,192,127353,1,0,0:0:0:0:
64,192,127353,1,0,0:0:0:0:
192,192,127519,1,0,0:0:0:0:
320,192,127686,1,0,0:0:0:0:
64,192,127686,1,0,0:0:0:0:
448,192,127853,1,0,0:0:0:0:
192,192,128019,1,0,0:0:0:0:
448,192,128186,1,0,0:0:0:0:
64,192,128353,1,0,0:0:0:0:
320,192,128519,1,0,0:0:0:0:
192,192,128686,1,0,0:0:0:0:
448,192,128686,1,0,0:0:0:0:
64,192,128853,1,0,0:0:0:0:
192,192,129019,1,0,0:0:0:0:
448,192,129019,1,0,0:0:0:0:
320,192,129186,1,0,0:0:0:0:
64,192,129353,1,0,0:0:0:0:
192,192,129353,1,0,0:0:0:0:
448,192,129686,1,0,0:0:0:0:
192,192,130019,1,0,0:0:0:0:
64,192,130019,1,0,0:0:0:0:
320,192,130353,1,0,0:0:0:0:
192,192,130353,1,0,0:0:0:0:
448,192,130519,1,0,0:0:0:0:
64,192,130686,1,0,0:0:0:0:
192,192,131019,1,0,0:0:0:0:
320,192,131019,1,0,0:0:0:0:
64,192,131186,1,0,0:0:0:0:
320,192,131353,1,0,0:0:0:0:
448,192,131353,1,0,0:0:0:0:
64,192,131519,1,0,0:0:0:0:
192,192,131686,1,0,0:0:0:0:
320,192,131686,1,0,0:0:0:0:
64,192,131853,1,0,0:0:0:0:
448,192,132019,1,0,0:0:0:0:
320,192,132019,1,0,0:0:0:0:
64,192,132353,1,0,0:0:0:0:
192,192,132353,1,0,0:0:0:0:
320,192,132686,1,0,0:0:0:0:
448,192,132686,1,0,0:0:0:0:
64,192,132853,1,0,0:0:0:0:
192,192,133019,1,0,0:0:0:0:
320,192,133019,1,0,0:0:0:0:
448,192,133186,1,0,0:0:0:0:
64,192,133353,1,0,0:0:0:0:
320,192,133519,1,0,0:0:0:0:
448,192,133519,1,0,0:0:0:0:
192,192,133769,1,0,0:0:0:0:
64,192,133769,1,0,0:0:0:0:
320,192,134019,1,0,0:0:0:0:
448,192,134019,1,0,0:0:0:0:
64,192,134186,1,0,0:0:0:0:
192,192,134353,1,0,0:0:0:0:
320,192,134519,1,0,0:0:0:0:
448,192,134686,1,0,0:0:0:0:
64,192,134686,1,0,0:0:0:0:
448,192,135019,1,0,0:0:0:0:
448,192,135353,1,0,0:0:0:0:
448,192,135686,1,0,0:0:0:0:
64,192,135853,128,0,136686:0:0:0:0:
448,192,136019,1,0,0:0:0:0:
448,192,136353,1,0,0:0:0:0:
448,192,136686,1,0,0:0:0:0:
448,192,137019,1,0,0:0:0:0:
64,192,137353,1,0,0:0:0:0:
64,192,137686,1,0,0:0:0:0:
64,192,138019,1,0,0:0:0:0:
64,192,138353,1,0,0:0:0:0:
448,192,138519,128,0,139353:0:0:0:0:
64,192,138686,1,0,0:0:0:0:
64,192,139019,1,0,0:0:0:0:
64,192,139353,1,0,0:0:0:0:
64,192,139686,1,0,0:0:0:0:
320,192,140019,1,0,0:0:0:0:
320,192,140353,1,0,0:0:0:0:
320,192,140686,1,0,0:0:0:0:
320,192,141019,1,0,0:0:0:0:
64,192,141186,128,0,142019:0:0:0:0:
320,192,141353,1,0,0:0:0:0:
320,192,141686,1,0,0:0:0:0:
320,192,142019,1,0,0:0:0:0:
320,192,142353,1,0,0:0:0:0:
192,192,142686,1,0,0:0:0:0:
192,192,143019,1,0,0:0:0:0:
192,192,143353,1,0,0:0:0:0:
192,192,143686,1,0,0:0:0:0:
64,192,144019,1,0,0:0:0:0:
320,192,144186,1,0,0:0:0:0:
448,192,144186,1,0,0:0:0:0:
64,192,144436,1,0,0:0:0:0:
192,192,144436,1,0,0:0:0:0:
320,192,144686,1,0,0:0:0:0:
448,192,144686,1,0,0:0:0:0:
192,192,144853,1,0,0:0:0:0:
64,192,145019,1,0,0:0:0:0:
448,192,145186,1,0,0:0:0:0:
320,192,145353,1,0,0:0:0:0:
192,192,145353,1,0,0:0:0:0:
64,192,145686,1,0,0:0:0:0:
192,192,145686,1,0,0:0:0:0:
448,192,146186,1,0,0:0:0:0:
320,192,146353,1,0,0:0:0:0:
192,192,146353,1,0,0:0:0:0:
64,192,146686,1,0,0:0:0:0:
320,192,147019,1,0,0:0:0:0:
448,192,147019,1,0,0:0:0:0:
64,192,147519,1,0,0:0:0:0:
192,192,147686,1,0,0:0:0:0:
320,192,147686,1,0,0:0:0:0:
192,192,148019,1,0,0:0:0:0:
64,192,148353,1,0,0:0:0:0:
320,192,148353,1,0,0:0:0:0:
192,192,148853,1,0,0:0:0:0:
64,192,149019,1,0,0:0:0:0:
448,192,149019,1,0,0:0:0:0:
320,192,149353,1,0,0:0:0:0:
192,192,149686,1,0,0:0:0:0:
448,192,149686,1,0,0:0:0:0:
320,192,150186,1,0,0:0:0:0:
64,192,150353,1,0,0:0:0:0:
448,192,150353,1,0,0:0:0:0:
64,192,150686,128,0,151353:0:0:0:0:
448,192,151019,1,0,0:0:0:0:
192,192,151353,128,0,152019:0:0:0:0:
320,192,151519,1,0,0:0:0:0:
448,192,151686,1,0,0:0:0:0:
320,192,152019,128,0,152686:0:0:0:0:
64,192,152353,1,0,0:0:0:0:
448,192,152686,128,0,153353:0:0:0:0:
64,192,152853,1,0,0:0:0:0:
192,192,153019,1,0,0:0:0:0:
64,192,153353,128,0,154019:0:0:0:0:
320,192,153686,1,0,0:0:0:0:
192,192,154019,128,0,154686:0:0:0:0:
320,192,154186,1,0,0:0:0:0:
448,192,154353,1,0,0:0:0:0:
64,192,154686,1,0,0:0:0:0:
320,192,154686,1,0,0:0:0:0:
192,192,154936,1,0,0:0:0:0:
64,192,155186,1,0,0:0:0:0:
448,192,155186,1,0,0:0:0:0:
320,192,155436,1,0,0:0:0:0:
64,192,155686,1,0,0:0:0:0:
448,192,155686,1,0,0:0:0:0:
192,192,155853,1,0,0:0:0:0:
320,192,156019,1,0,0:0:0:0:
448,192,156019,1,0,0:0:0:0:
192,192,156853,128,0,157353:0:0:0:0:
320,192,157353,1,0,0:0:0:0:
448,192,157353,1,0,0:0:0:0:
64,192,157686,1,0,0:0:0:0:
192,192,157686,1,0,0:0:0:0:
448,192,158019,1,0,0:0:0:0:
448,192,158269,1,0,0:0:0:0:
64,192,158519,1,0,0:0:0:0:
192,192,158519,1,0,0:0:0:0:
448,192,158853,1,0,0:0:0:0:
192,192,159019,1,0,0:0:0:0:
64,192,159019,1,0,0:0:0:0:
448,192,159353,1,0,0:0:0:0:
448,192,159519,1,0,0:0:0:0:
192,192,159686,1,0,0:0:0:0:
64,192,159686,1,0,0:0:0:0:
64,192,160019,1,0,0:0:0:0:
320,192,160353,1,0,0:0:0:0:
448,192,160353,1,0,0:0:0:0:
64,192,160686,1,0,0:0:0:0:
64,192,160936,1,0,0:0:0:0:
320,192,161186,1,0,0:0:0:0:
448,192,161186,1,0,0:0:0:0:
64,192,161519,1,0,0:0:0:0:
320,192,161686,1,0,0:0:0:0:
448,192,161686,1,0,0:0:0:0:
64,192,162019,1,0,0:0:0:0:
64,192,162186,1,0,0:0:0:0:
320,192,162353,1,0,0:0:0:0:
448,192,162353,1,0,0:0:0:0:
192,192,162686,1,0,0:0:0:0:
320,192,163019,1,0,0:0:0:0:
64,192,163019,1,0,0:0:0:0:
192,192,163353,1,0,0:0:0:0:
192,192,163603,1,0,0:0:0:0:
64,192,163853,1,0,0:0:0:0:
320,192,163853,1,0,0:0:0:0:
320,192,164186,1,0,0:0:0:0:
192,192,164353,1,0,0:0:0:0:
448,192,164353,1,0,0:0:0:0:
320,192,164686,1,0,0:0:0:0:
320,192,164853,1,0,0:0:0:0:
192,192,165019,1,0,0:0:0:0:
448,192,165019,1,0,0:0:0:0:
64,192,165353,1,0,0:0:0:0:
192,192,165353,1,0,0:0:0:0:
320,192,165519,1,0,0:0:0:0:
448,192,165686,1,0,0:0:0:0:
64,192,165853,1,0,0:0:0:0:
448,192,166019,1,0,0:0:0:0:
320,192,166186,1,0,0:0:0:0:
192,192,166353,1,0,0:0:0:0:
320,192,166519,1,0,0:0:0:0:
448,192,166519,1,0,0:0:0:0:
64,192,166853,1,0,0:0:0:0:
64,192,167103,1,0,0:0:0:0:
192,192,167353,1,0,0:0:0:0:
448,192,167353,1,0,0:0:0:0:
64,192,167519,1,0,0:0:0:0:
192,192,167686,1,0,0:0:0:0:
320,192,167853,1,0,0:0:0:0:
448,192,168019,1,0,0:0:0:0:
64,192,168019,1,0,0:0:0:0:
192,192,168353,1,0,0:0:0:0:
448,192,168353,1,0,0:0:0:0:
64,192,168686,1,0,0:0:0:0:
64,192,168936,1,0,0:0:0:0:
448,192,169186,1,0,0:0:0:0:
192,192,169186,1,0,0:0:0:0:
320,192,169353,1,0,0:0:0:0:
64,192,169519,1,0,0:0:0:0:
192,192,169686,1,0,0:0:0:0:
448,192,169686,1,0,0:0:0:0:
64,192,170019,1,0,0:0:0:0:
320,192,170186,1,0,0:0:0:0:
192,192,170353,1,0,0:0:0:0:
448,192,170353,1,0,0:0:0:0:
448,192,170686,1,0,0:0:0:0:
64,192,171019,1,0,0:0:0:0:
320,192,171019,1,0,0:0:0:0:
192,192,171353,1,0,0:0:0:0:
320,192,171603,1,0,0:0:0:0:
192,192,171853,1,0,0:0:0:0:
448,192,171853,1,0,0:0:0:0:
192,192,172186,1,0,0:0:0:0:
64,192,172353,1,0,0:0:0:0:
320,192,172353,1,0,0:0:0:0:
448,192,172519,1,0,0:0:0:0:
320,192,172686,1,0,0:0:0:0:
192,192,172853,1,0,0:0:0:0:
320,192,173019,1,0,0:0:0:0:
64,192,173019,1,0,0:0:0:0:
448,192,173186,1,0,0:0:0:0:
192,192,173353,1,0,0:0:0:0:
448,192,173686,1,0,0:0:0:0:
64,192,173686,1,0,0:0:0:0:
64,192,174019,1,0,0:0:0:0:
192,192,174269,1,0,0:0:0:0:
320,192,174519,1,0,0:0:0:0:
64,192,174519,1,0,0:0:0:0:
192,192,174853,1,0,0:0:0:0:
448,192,175019,1,0,0:0:0:0:
64,192,175019,1,0,0:0:0:0:
320,192,175186,1,0,0:0:0:0:
192,192,175353,1,0,0:0:0:0:
64,192,175519,1,0,0:0:0:0:
448,192,175686,1,0,0:0:0:0:
192,192,175686,1,0,0:0:0:0:
320,192,175853,1,0,0:0:0:0:
64,192,176019,1,0,0:0:0:0:
192,192,176019,1,0,0:0:0:0:
448,192,176353,1,0,0:0:0:0:
192,192,176686,1,0,0:0:0:0:
64,192,176686,1,0,0:0:0:0:
320,192,176853,1,0,0:0:0:0:
192,192,177019,1,0,0:0:0:0:
448,192,177186,1,0,0:0:0:0:
320,192,177186,1,0,0:0:0:0:
64,192,177519,1,0,0:0:0:0:
192,192,177519,1,0,0:0:0:0:
320,192,177769,1,0,0:0:0:0:
448,192,177769,1,0,0:0:0:0:
192,192,178019,1,0,0:0:0:0:
64,192,178019,1,0,0:0:0:0:
448,192,178186,1,0,0:0:0:0:
192,192,178353,1,0,0:0:0:0:
320,192,178353,1,0,0:0:0:0:
64,192,178686,128,0,184019:0:0:0:0:
448,192,178686,1,0,0:0:0:0:
448,192,183853,1,0,0:0:0:0:
320,192,184019,128,0,189353:0:0:0:0:
192,192,188686,128,0,189353:0:0:0:0:
64,192,189353,1,0,0:0:0:0:
448,192,189353,1,0,0:0:0:0:
64,192,189853,1,0,0:0:0:0:
64,192,190353,1,0,0:0:0:0:
448,192,190686,1,0,0:0:0:0:
448,192,191186,1,0,0:0:0:0:
448,192,191686,1,0,0:0:0:0:
192,192,192019,1,0,0:0:0:0:
192,192,192519,1,0,0:0:0:0:
192,192,193019,1,0,0:0:0:0:
192,192,193519,1,0,0:0:0:0:
192,192,194019,1,0,0:0:0:0:
192,192,194353,1,0,0:0:0:0:
320,192,194686,1,0,0:0:0:0:
320,192,195186,1,0,0:0:0:0:
320,192,195686,1,0,0:0:0:0:
448,192,196019,1,0,0:0:0:0:
448,192,196519,1,0,0:0:0:0:
448,192,197019,1,0,0:0:0:0:
64,192,197353,1,0,0:0:0:0:
64,192,197853,1,0,0:0:0:0:
64,192,198353,1,0,0:0:0:0:
320,192,198686,1,0,0:0:0:0:
320,192,199186,1,0,0:0:0:0:
320,192,199686,1,0,0:0:0:0:
192,192,200019,1,0,0:0:0:0:
64,192,200019,1,0,0:0:0:0:
64,192,200353,1,0,0:0:0:0:
192,192,200519,1,0,0:0:0:0:
320,192,200686,1,0,0:0:0:0:
192,192,201019,1,0,0:0:0:0:
320,192,201353,1,0,0:0:0:0:
448,192,201686,1,0,0:0:0:0:
320,192,201853,1,0,0:0:0:0:
192,192,202019,1,0,0:0:0:0:
320,192,202353,1,0,0:0:0:0:
64,192,202686,1,0,0:0:0:0:
448,192,203019,1,0,0:0:0:0:
64,192,203186,1,0,0:0:0:0:
448,192,203353,1,0,0:0:0:0:
64,192,203686,1,0,0:0:0:0:
320,192,204019,1,0,0:0:0:0:
64,192,204186,1,0,0:0:0:0:
320,192,204353,1,0,0:0:0:0:
64,192,204686,1,0,0:0:0:0:
64,192,205019,1,0,0:0:0:0:
448,192,205353,1,0,0:0:0:0:
64,192,205686,1,0,0:0:0:0:
448,192,205853,1,0,0:0:0:0:
64,192,206019,1,0,0:0:0:0:
448,192,206353,1,0,0:0:0:0:
192,192,206686,1,0,0:0:0:0:
320,192,207019,1,0,0:0:0:0:
192,192,207186,1,0,0:0:0:0:
64,192,207353,1,0,0:0:0:0:
320,192,207686,1,0,0:0:0:0:
320,192,208019,1,0,0:0:0:0:
64,192,208353,1,0,0:0:0:0:
320,192,208519,1,0,0:0:0:0:
64,192,208686,1,0,0:0:0:0:
320,192,209019,1,0,0:0:0:0:
192,192,209353,1,0,0:0:0:0:
448,192,209353,128,0,210353:0:0:0:0:
64,192,210686,1,0,0:0:0:0:
192,192,210686,1,0,0:0:0:0:
192,192,211019,1,0,0:0:0:0:
64,192,211019,1,0,0:0:0:0:
320,192,211353,1,0,0:0:0:0:
64,192,211686,1,0,0:0:0:0:
448,192,211853,1,0,0:0:0:0:
320,192,211853,1,0,0:0:0:0:
64,192,212186,1,0,0:0:0:0:
192,192,212353,1,0,0:0:0:0:
320,192,212353,1,0,0:0:0:0:
448,192,212686,1,0,0:0:0:0:
64,192,212853,1,0,0:0:0:0:
448,192,213019,1,0,0:0:0:0:
64,192,213186,1,0,0:0:0:0:
320,192,213353,1,0,0:0:0:0:
448,192,213353,1,0,0:0:0:0:
64,192,213603,1,0,0:0:0:0:
320,192,213853,1,0,0:0:0:0:
448,192,213853,1,0,0:0:0:0:
64,192,214019,1,0,0:0:0:0:
192,192,214269,1,0,0:0:0:0:
320,192,214269,1,0,0:0:0:0:
448,192,214519,1,0,0:0:0:0:
192,192,214853,1,0,0:0:0:0:
320,192,214853,1,0,0:0:0:0:
64,192,215103,1,0,0:0:0:0:
320,192,215353,1,0,0:0:0:0:
448,192,215353,1,0,0:0:0:0:
64,192,215519,1,0,0:0:0:0:
192,192,215686,1,0,0:0:0:0:
448,192,216019,128,0,216353:0:0:0:0:
64,192,216353,1,0,0:0:0:0:
192,192,216353,1,0,0:0:0:0:
64,192,216686,128,0,217019:0:0:0:0:
320,192,217019,1,0,0:0:0:0:
448,192,217019,1,0,0:0:0:0:
192,192,217353,128,0,217686:0:0:0:0:
320,192,217686,1,0,0:0:0:0:
448,192,217686,1,0,0:0:0:0:
320,192,218019,128,0,218353:0:0:0:0:
192,192,218353,1,0,0:0:0:0:
64,192,218353,1,0,0:0:0:0:
448,192,218686,128,0,219019:0:0:0:0:
320,192,219019,128,0,219353:0:0:0:0:
64,192,219019,1,0,0:0:0:0:
192,192,219353,128,0,219686:0:0:0:0:
448,192,219519,1,0,0:0:0:0:
64,192,219686,128,0,220019:0:0:0:0:
320,192,219686,1,0,0:0:0:0:
448,192,220019,1,0,0:0:0:0:
192,192,220019,1,0,0:0:0:0:
320,192,220269,1,0,0:0:0:0:
448,192,220519,1,0,0:0:0:0:
64,192,220519,1,0,0:0:0:0:
192,192,220769,1,0,0:0:0:0:
64,192,221019,1,0,0:0:0:0:
448,192,221019,1,0,0:0:0:0:
320,192,221186,1,0,0:0:0:0:
64,192,221353,1,0,0:0:0:0:
192,192,221353,1,0,0:0:0:0:
192,192,221686,1,0,0:0:0:0:
320,192,221686,1,0,0:0:0:0:
448,192,222019,1,0,0:0:0:0:
64,192,222353,1,0,0:0:0:0:
320,192,222519,1,0,0:0:0:0:
192,192,222519,1,0,0:0:0:0:
448,192,222853,1,0,0:0:0:0:
192,192,223019,1,0,0:0:0:0:
64,192,223019,1,0,0:0:0:0:
320,192,223353,1,0,0:0:0:0:
192,192,223519,1,0,0:0:0:0:
320,192,223686,1,0,0:0:0:0:
192,192,223853,1,0,0:0:0:0:
64,192,224019,1,0,0:0:0:0:
448,192,224019,1,0,0:0:0:0:
448,192,224353,1,0,0:0:0:0:
192,192,224353,1,0,0:0:0:0:
64,192,224686,1,0,0:0:0:0:
192,192,224936,1,0,0:0:0:0:
320,192,225186,1,0,0:0:0:0:
448,192,225436,1,0,0:0:0:0:
64,192,225686,1,0,0:0:0:0:
448,192,225936,1,0,0:0:0:0:
64,192,226186,1,0,0:0:0:0:
320,192,226353,1,0,0:0:0:0:
192,192,226464,1,0,0:0:0:0:
320,192,226575,1,0,0:0:0:0:
64,192,226686,1,0,0:0:0:0:
448,192,226686,128,0,227353:0:0:0:0:
320,192,227019,1,0,0:0:0:0:
192,192,227186,1,0,0:0:0:0:
64,192,227353,1,0,0:0:0:0:
192,192,227519,1,0,0:0:0:0:
320,192,227686,1,0,0:0:0:0:
192,192,227853,1,0,0:0:0:0:
448,192,228019,1,0,0:0:0:0:
320,192,228186,1,0,0:0:0:0:
64,192,228353,1,0,0:0:0:0:
192,192,228519,1,0,0:0:0:0:
448,192,228686,1,0,0:0:0:0:
192,192,228853,1,0,0:0:0:0:
64,192,229019,1,0,0:0:0:0:
320,192,229186,1,0,0:0:0:0:
192,192,229353,1,0,0:0:0:0:
320,192,229519,1,0,0:0:0:0:
448,192,229686,1,0,0:0:0:0:
64,192,229853,1,0,0:0:0:0:
320,192,230019,1,0,0:0:0:0:
192,192,230186,1,0,0:0:0:0:
448,192,230353,1,0,0:0:0:0:
64,192,230519,1,0,0:0:0:0:
192,192,230686,1,0,0:0:0:0:
320,192,230853,1,0,0:0:0:0:
192,192,231019,1,0,0:0:0:0:
320,192,231186,1,0,0:0:0:0:
448,192,231353,128,0,232019:0:0:0:0:
64,192,231519,1,0,0:0:0:0:
192,192,231686,1,0,0:0:0:0:
320,192,231853,1,0,0:0:0:0:
192,192,232019,1,0,0:0:0:0:
64,192,232019,128,0,242686:0:0:0:0:
