osu file format v14

[General]
AudioFilename: audio.mp3
AudioLeadIn: 2000
PreviewTime: 46831
Countdown: 0
SampleSet: Normal
StackLeniency: 0.2
Mode: 0
LetterboxInBreaks: 0
WidescreenStoryboard: 0

[Editor]
Bookmarks: 10452,19547,30915,40010,49105,58199,67294,76389,85484,93442,100263,102536,104810,123000,141189,159378,177568,198031
DistanceSpacing: 1.7
BeatDivisor: 3
GridSize: 4
TimelineZoom: 2.300001

[Metadata]
Title:FREEDOM DiVE [METAL DIMENSIONS]
TitleUnicode:FREEDOM DiVE [METAL†DIMENSIONS]
Artist:xi remixed by cosMo@bousouP
ArtistUnicode:xi remixed by cosMo@暴走P
Creator:Cherry Blossom
Version:METAL DIMENSIONS
Source:BMS
Tags:quietus ray maxbeat sdvx 4 sound voltex instrumental rock
BeatmapID:1889232
BeatmapSetID:905158

[Difficulty]
HPDrainRate:6
CircleSize:4
OverallDifficulty:9
ApproachRate:9.7
SliderMultiplier:1.9
SliderTickRate:1

[Events]
//Background and Video events
0,0,"md2.jpg",0,0
//Break Periods
2,67494,71242
//Storyboard Layer 0 (Background)
//Storyboard Layer 1 (Fail)
//Storyboard Layer 2 (Pass)
//Storyboard Layer 3 (Foreground)
//Storyboard Sound Samples

[TimingPoints]
221,284.210675900356,4,2,1,60,1,0
221,-200,4,2,1,60,0,0
1642,-100,4,2,1,60,0,0
9315,-100,4,2,1,25,0,0
10452,-100,4,2,1,60,0,0
13863,-83.3333333333333,4,1,1,60,0,0
14999,-100,4,2,1,60,0,0
18410,-83.3333333333333,4,1,1,60,0,0
26368,-83.3333333333333,4,1,1,70,0,0
28642,-200,4,1,1,60,0,0
29352,-200,4,2,1,40,0,0
30347,-200,4,2,1,60,0,0
30915,-83.3333333333333,4,1,1,60,0,0
49105,-76.9230769230769,4,1,1,70,0,1
67294,-76.9230769230769,4,1,1,70,0,0
71842,-100,4,1,1,50,0,0
76389,-100,4,2,1,50,0,0
85484,-83.3333333333333,4,2,1,60,0,0
92305,-83.3333333333333,4,1,1,60,0,0
104810,-76.9230769230769,4,1,1,70,0,1
123000,-100,4,1,1,70,0,0
125273,-76.9230769230769,4,1,1,70,0,1
141189,-83.3333333333333,4,1,1,60,0,0
157105,-83.3333333333333,4,1,1,70,0,0
159378,-76.9230769230769,4,1,1,70,0,1
177568,-100,4,1,1,70,0,0
179842,-71.4285714285714,4,1,1,75,0,1
198031,-83.3333333333333,4,1,1,75,0,0
198102,-83.3333333333333,4,1,1,60,0,0
200305,-83.3333333333333,4,1,1,75,0,0

[Colours]
Combo1 : 245,35,108
Combo2 : 41,26,238

[HitObjects]
188,156,221,6,0,P|164:244|188:340,1,190,4|0,1:0|0:0,0:0:0:0:
325,338,931,2,0,P|347:246|323:155,1,190,4|0,1:0|0:0,0:0:0:0:
256,32,1642,6,0,L|184:28,3,47.5,4|0|0|0,1:0|0:0|0:0|0:0,0:0:0:0:
172,60,1926,2,0,L|100:56,3,47.5,2|0|0|0,0:0|0:0|0:0|0:0,0:0:0:0:
92,92,2210,2,0,L|20:88,3,47.5,2|0|0|0,0:0|0:0|0:0|0:0,0:0:0:0:
20,132,2494,5,2,0:0:0:0:
28,180,2565,1,0,0:0:0:0:
52,220,2636,1,0,0:0:0:0:
92,248,2707,1,0,0:0:0:0:
136,260,2778,1,2,0:0:0:0:
184,264,2849,1,0,0:0:0:0:
232,252,2921,1,0,0:0:0:0:
272,228,2992,1,0,0:0:0:0:
300,192,3063,1,2,0:0:0:0:
312,144,3134,1,0,0:0:0:0:
312,96,3205,1,0,0:0:0:0:
296,52,3276,1,0,0:0:0:0:
256,24,3347,5,2,0:0:0:0:
216,52,3418,1,0,0:0:0:0:
200,96,3489,1,0,0:0:0:0:
200,144,3560,1,0,0:0:0:0:
212,192,3631,1,2,0:0:0:0:
240,228,3702,1,0,0:0:0:0:
280,252,3773,1,0,0:0:0:0:
328,264,3844,1,0,0:0:0:0:
376,260,3915,1,2,0:0:0:0:
420,248,3986,1,0,0:0:0:0:
460,220,4057,1,0,0:0:0:0:
484,180,4128,1,0,0:0:0:0:
492,132,4199,2,0,P|403:120|328:324,1,332.5,2|0,0:0|0:0,0:0:0:0:
318,309,4768,6,0,P|435:294|479:222,1,190,2|0,0:0|0:0,0:0:0:0:
473,241,5123,1,0,1:0:0:0:
473,241,5194,1,0,1:0:0:0:
473,241,5265,1,0,1:0:0:0:
473,241,5336,1,4,1:0:0:0:
37,242,5905,5,4,1:0:0:0:
256,192,5976,12,0,9031,0:0:0:0:
256,44,9315,5,2,0:0:0:0:
256,52,9599,1,2,0:0:0:0:
256,60,9884,1,2,0:0:0:0:
256,68,10168,1,2,0:0:0:0:
256,76,10452,6,0,L|256:192,1,95,0|0,1:0|1:0,1:0:0:0:
280,284,10736,1,2,0:0:0:0:
300,316,10807,1,0,0:0:0:0:
336,328,10878,1,0,0:0:0:0:
372,332,10949,1,0,0:0:0:0:
408,316,11021,1,2,0:0:0:0:
432,284,11092,1,0,0:0:0:0:
432,248,11163,1,0,0:0:0:0:
420,212,11234,1,0,0:0:0:0:
388,188,11305,1,2,0:0:0:0:
356,164,11376,1,0,0:0:0:0:
344,132,11447,1,0,0:0:0:0:
344,96,11518,1,0,0:0:0:0:
368,64,11589,6,0,L|492:68,1,95,0|0,1:0|1:0,1:0:0:0:
508,172,11873,1,2,0:0:0:0:
500,208,11944,1,0,0:0:0:0:
484,244,12015,1,0,0:0:0:0:
452,268,12086,1,0,0:0:0:0:
416,276,12157,1,2,0:0:0:0:
380,280,12228,1,0,0:0:0:0:
344,268,12299,1,0,0:0:0:0:
316,244,12371,1,0,0:0:0:0:
296,212,12442,1,2,0:0:0:0:
268,188,12513,1,0,0:0:0:0:
232,172,12584,1,0,0:0:0:0:
196,164,12655,1,0,0:0:0:0:
160,172,12726,6,0,L|60:192,1,95,0|0,1:0|1:0,1:0:0:0:
8,288,13010,1,2,0:0:0:0:
16,324,13081,1,0,0:0:0:0:
44,352,13152,1,0,0:0:0:0:
80,368,13223,1,0,0:0:0:0:
116,372,13294,1,2,0:0:0:0:
152,368,13365,1,0,0:0:0:0:
184,348,13436,1,0,0:0:0:0:
208,316,13507,1,0,0:0:0:0:
220,280,13578,1,2,0:0:0:0:
224,244,13649,1,0,0:0:0:0:
216,208,13721,1,0,0:0:0:0:
192,176,13792,1,0,0:0:0:0:
156,160,13863,6,0,L|12:148,1,113.999996520996,6|0,1:0|1:0,1:0:0:0:
256,48,14147,1,0,0:0:0:0:
356,252,14289,2,0,L|500:240,1,113.999996520996,6|0,0:0|0:0,0:0:0:0:
256,144,14573,1,0,0:0:0:0:
256,144,14644,1,0,0:0:0:0:
256,144,14715,1,0,0:0:0:0:
156,352,14857,1,0,0:0:0:0:
156,352,14928,1,0,0:0:0:0:
156,352,14999,6,0,L|44:344,1,95,0|0,1:0|1:0,1:0:0:0:
8,244,15284,1,2,0:0:0:0:
4,208,15355,1,0,0:0:0:0:
12,172,15426,1,0,0:0:0:0:
28,136,15497,1,0,0:0:0:0:
52,108,15568,1,2,0:0:0:0:
84,84,15639,1,0,0:0:0:0:
120,72,15710,1,0,0:0:0:0:
156,68,15781,1,0,0:0:0:0:
192,68,15852,1,2,0:0:0:0:
228,76,15923,1,0,0:0:0:0:
264,92,15994,1,0,0:0:0:0:
292,116,16065,1,0,0:0:0:0:
308,152,16136,6,0,L|304:256,1,95,0|0,1:0|1:0,1:0:0:0:
348,352,16421,1,2,0:0:0:0:
384,364,16492,1,0,0:0:0:0:
420,360,16563,1,0,0:0:0:0:
452,340,16634,1,0,0:0:0:0:
468,304,16705,1,2,0:0:0:0:
472,268,16776,1,0,0:0:0:0:
452,236,16847,1,0,0:0:0:0:
420,216,16918,1,0,0:0:0:0:
384,200,16989,1,2,0:0:0:0:
360,172,17060,1,0,0:0:0:0:
356,136,17131,1,0,0:0:0:0:
368,100,17202,1,0,0:0:0:0:
400,80,17273,6,0,L|508:76,1,95,0|0,1:0|1:0,1:0:0:0:
508,188,17557,1,2,0:0:0:0:
500,224,17628,1,0,0:0:0:0:
488,260,17699,1,0,0:0:0:0:
468,292,17771,1,0,0:0:0:0:
440,316,17842,1,2,0:0:0:0:
404,332,17913,1,0,0:0:0:0:
368,344,17984,1,0,0:0:0:0:
332,348,18055,1,0,0:0:0:0:
296,344,18126,1,2,0:0:0:0:
260,336,18197,1,0,0:0:0:0:
224,320,18268,1,0,0:0:0:0:
196,296,18339,1,0,0:0:0:0:
180,264,18410,6,0,L|184:144,1,113.999996520996,6|0,0:0|0:0,0:0:0:0:
256,0,18694,1,0,0:0:0:0:
328,152,18836,2,0,L|332:268,1,113.999996520996,6|0,0:0|0:0,0:0:0:0:
168,368,19121,1,0,0:0:0:0:
168,368,19192,1,0,0:0:0:0:
168,368,19263,1,2,0:0:0:0:
44,224,19405,1,0,0:0:0:0:
44,224,19476,1,0,0:0:0:0:
44,224,19547,6,0,B|36:164|36:164|48:96,1,113.999996520996,4|0,0:0|0:0,0:0:0:0:
196,32,19831,2,0,B|205:84|205:84|197:144,1,113.999996520996
256,304,20115,1,0,0:0:0:0:
315,144,20257,1,0,0:0:0:0:
314,144,20328,1,0,0:0:0:0:
314,144,20399,2,0,B|306:84|306:84|316:32,1,113.999996520996
466,111,20684,6,0,B|476:164|476:164|468:224,1,113.999996520996,0|0,0:0|0:0,0:0:0:0:
444,304,20897,1,0,0:0:0:0:
444,304,20968,2,0,L|316:296,1,113.999996520996,0|0,0:0|0:0,0:0:0:0:
84,68,21252,2,0,L|197:75,1,113.999996520996,0|0,0:0|0:0,0:0:0:0:
256,140,21465,1,0,0:0:0:0:
256,140,21536,2,0,P|268:196|256:252,1,113.999996520996,0|0,0:0|0:0,0:0:0:0:
48,348,21821,6,0,P|36:292|48:237,1,113.999996520996,0|0,0:0|0:0,0:0:0:0:
120,84,22105,1,0,0:0:0:0:
252,288,22247,1,0,0:0:0:0:
252,288,22318,1,0,0:0:0:0:
252,288,22389,2,0,L|128:292,1,113.999996520996,0|0,0:0|0:0,0:0:0:0:
332,144,22673,2,0,L|445:140,1,113.999996520996,0|0,0:0|0:0,0:0:0:0:
504,300,22957,5,0,0:0:0:0:
344,364,23099,1,0,0:0:0:0:
344,364,23171,1,0,0:0:0:0:
344,364,23242,2,0,L|336:228,1,113.999996520996,0|0,0:0|0:0,0:0:0:0:
256,100,23526,1,0,0:0:0:0:
174,250,23668,1,0,0:0:0:0:
174,250,23739,1,0,0:0:0:0:
174,250,23810,2,0,L|168:320,3,56.9999982604981,4|0|0|0,0:0|0:0|0:0|0:0,0:0:0:0:
112,368,24094,6,0,P|52:372|0:360,1,113.999996520996,4|0,0:0|0:0,0:0:0:0:
24,168,24378,2,0,P|84:164|136:176,1,113.999996520996,0|0,0:0|0:0,0:0:0:0:
256,332,24663,1,0,0:0:0:0:
375,176,24805,1,0,0:0:0:0:
375,176,24876,1,0,0:0:0:0:
375,176,24947,2,0,P|431:163|488:168,1,113.999996520996,0|0,0:0|0:0,0:0:0:0:
512,359,25231,6,0,P|456:372|400:368,1,113.999996520996,0|0,0:0|0:0,0:0:0:0:
308,340,25444,1,0,0:0:0:0:
308,340,25515,2,0,L|312:208,1,113.999996520996,0|0,0:0|0:0,0:0:0:0:
324,32,25799,1,0,0:0:0:0:
324,32,25871,1,0,0:0:0:0:
324,32,25942,1,0,0:0:0:0:
188,172,26084,2,0,L|56:164,1,113.999996520996,4|0,0:0|0:0,0:0:0:0:
12,240,26297,1,0,0:0:0:0:
12,240,26368,6,0,L|16:320,3,56.9999982604981,4|0|0|0,0:0|0:0|0:0|0:0,0:0:0:0:
156,364,26652,2,0,L|160:292,3,56.9999982604981,4|0|0|0,0:0|0:0|0:0|0:0,0:0:0:0:
256,184,26936,2,0,L|256:260,3,56.9999982604981,4|0|0|0,0:0|0:0|0:0|0:0,0:0:0:0:
356,364,27221,2,0,L|360:304,3,56.9999982604981,4|0|0|0,0:0|0:0|0:0|0:0,0:0:0:0:
500,240,27505,5,4,0:0:0:0:
504,184,27576,1,0,0:0:0:0:
488,128,27647,1,0,0:0:0:0:
448,88,27718,1,0,0:0:0:0:
392,72,27789,1,4,0:0:0:0:
336,80,27860,1,0,0:0:0:0:
292,112,27931,1,0,0:0:0:0:
264,160,28002,1,0,0:0:0:0:
256,216,28073,1,4,0:0:0:0:
244,272,28144,5,0,0:0:0:0:
216,320,28215,1,0,0:0:0:0:
172,352,28286,1,0,0:0:0:0:
116,360,28357,1,4,0:0:0:0:
60,344,28428,1,0,0:0:0:0:
20,304,28499,1,0,0:0:0:0:
4,248,28571,1,0,0:0:0:0:
8,192,28642,6,2,P|88:108|204:116,1,237.5,4|0,0:0|0:0,0:0:0:0:
256,172,29423,1,0,0:0:0:0:
256,172,29494,2,0,L|256:212,3,23.75,2|0|0|0,0:0|0:0|0:0|0:0,0:0:0:0:
216,264,29778,6,0,L|208:296,3,23.75,2|0|0|0,0:0|0:0|0:0|0:0,0:0:0:0:
296,316,30063,2,0,L|304:348,3,23.75,2|0|0|0,0:0|0:0|0:0|0:0,0:0:0:0:
208,368,30347,1,2,0:0:0:0:
184,364,30418,1,0,0:0:0:0:
160,360,30489,1,0,0:0:0:0:
136,356,30560,1,0,0:0:0:0:
112,352,30631,1,2,0:0:0:0:
88,348,30702,1,0,0:0:0:0:
64,344,30773,1,0,0:0:0:0:
40,340,30844,1,0,0:0:0:0:
16,336,30915,6,0,L|12:216,1,113.999996520996,6|0,0:0|0:0,0:0:0:0:
172,116,31199,1,0,0:0:0:0:
164,160,31271,1,0,0:0:0:0:
156,204,31342,1,0,0:0:0:0:
48,40,31484,2,0,B|100:28|100:28|160:40,1,113.999996520996,2|0,0:0|0:0,0:0:0:0:
256,276,31768,2,0,L|256:344,2,56.9999982604981,2|0|0,0:0|0:0|0:0,0:0:0:0:
352,40,32052,6,0,B|412:28|412:28|464:40,1,113.999996520996,6|0,0:0|0:0,0:0:0:0:
484,232,32336,1,2,0:0:0:0:
440,228,32407,1,0,0:0:0:0:
396,224,32478,1,0,0:0:0:0:
200,132,32621,2,0,L|328:136,1,113.999996520996,6|0,0:0|0:0,0:0:0:0:
256,320,32905,1,2,0:0:0:0:
212,316,32976,1,0,0:0:0:0:
168,312,33047,1,0,0:0:0:0:
12,172,33189,5,6,0:0:0:0:
204,164,33331,1,0,0:0:0:0:
32,356,33473,1,2,0:0:0:0:
28,312,33544,1,0,0:0:0:0:
24,268,33615,1,0,0:0:0:0:
215,50,33757,2,0,L|203:170,1,113.999996520996,2|0,0:0|0:0,0:0:0:0:
260,352,34042,1,0,0:0:0:0:
304,344,34113,1,0,0:0:0:0:
348,336,34184,1,0,0:0:0:0:
468,168,34326,6,0,L|332:160,1,113.999996520996,6|0,0:0|0:0,0:0:0:0:
160,148,34610,1,2,0:0:0:0:
164,192,34681,1,0,0:0:0:0:
168,236,34752,1,0,0:0:0:0:
354,161,34894,2,0,L|350:33,1,113.999996520996,2|0,0:0|0:0,0:0:0:0:
40,140,35178,1,2,0:0:0:0:
44,196,35249,1,0,0:0:0:0:
48,252,35321,1,0,0:0:0:0:
52,308,35392,1,0,0:0:0:0:
60,364,35463,6,0,B|112:376|112:376|172:364,1,113.999996520996,6|0,0:0|0:0,0:0:0:0:
328,252,35747,1,2,0:0:0:0:
324,208,35818,1,0,0:0:0:0:
320,164,35889,1,0,0:0:0:0:
164,28,36031,2,0,L|156:160,1,113.999996520996,2|0,0:0|0:0,0:0:0:0:
136,336,36315,1,2,0:0:0:0:
92,328,36386,1,0,0:0:0:0:
48,320,36457,1,0,0:0:0:0:
256,116,36599,6,0,L|404:112,1,113.999996520996,6|0,0:0|0:0,0:0:0:0:
508,252,36884,1,2,0:0:0:0:
504,296,36955,1,0,0:0:0:0:
496,340,37026,1,0,0:0:0:0:
256,312,37168,2,0,L|252:196,1,113.999996520996,2|0,0:0|0:0,0:0:0:0:
352,32,37452,1,2,0:0:0:0:
396,36,37523,1,0,0:0:0:0:
440,40,37594,1,0,0:0:0:0:
368,212,37736,5,6,0:0:0:0:
256,56,37878,1,0,0:0:0:0:
76,132,38021,1,2,0:0:0:0:
80,176,38092,1,0,0:0:0:0:
84,220,38163,1,0,0:0:0:0:
136,28,38305,2,0,L|12:24,1,113.999996520996,6|0,0:0|0:0,0:0:0:0:
256,184,38589,1,2,0:0:0:0:
300,180,38660,1,0,0:0:0:0:
344,176,38731,1,0,0:0:0:0:
460,16,38873,5,6,0:0:0:0:
404,0,38944,1,0,0:0:0:0:
356,28,39015,1,0,0:0:0:0:
364,84,39086,1,0,0:0:0:0:
412,116,39157,1,6,0:0:0:0:
436,168,39228,1,0,0:0:0:0:
424,224,39299,1,0,0:0:0:0:
380,260,39371,1,0,0:0:0:0:
324,264,39442,1,6,0:0:0:0:
276,232,39513,1,0,0:0:0:0:
260,176,39584,1,0,0:0:0:0:
264,120,39655,1,0,0:0:0:0:
248,64,39726,1,6,0:0:0:0:
196,36,39797,1,0,0:0:0:0:
140,28,39868,1,0,0:0:0:0:
88,56,39939,1,0,0:0:0:0:
72,112,40010,6,0,L|80:236,1,113.999996520996,6|0,0:0|0:0,0:0:0:0:
256,364,40294,1,0,0:0:0:0:
264,320,40365,1,0,0:0:0:0:
272,276,40436,1,0,0:0:0:0:
52,316,40578,2,0,B|108:328|108:328|168:316,1,113.999996520996,2|0,0:0|0:0,0:0:0:0:
256,104,40863,2,0,L|256:36,2,56.9999982604981,2|0|0,0:0|0:0|0:0,0:0:0:0:
348,316,41147,6,0,B|404:328|404:328|460:316,1,113.999996520996,6|0,0:0|0:0,0:0:0:0:
248,252,41431,1,2,0:0:0:0:
252,296,41502,1,0,0:0:0:0:
256,340,41573,1,0,0:0:0:0:
504,192,41715,2,0,L|496:68,1,113.999996520996,6|0,0:0|0:0,0:0:0:0:
304,196,41999,1,2,0:0:0:0:
352,192,42071,1,0,0:0:0:0:
396,188,42142,1,0,0:0:0:0:
256,84,42284,5,6,0:0:0:0:
208,272,42426,1,0,0:0:0:0:
44,168,42568,1,2,0:0:0:0:
40,124,42639,1,0,0:0:0:0:
36,80,42710,1,0,0:0:0:0:
256,84,42852,2,0,L|248:208,1,113.999996520996,2|0,0:0|0:0,0:0:0:0:
136,356,43136,1,0,0:0:0:0:
92,348,43207,1,0,0:0:0:0:
48,340,43278,1,0,0:0:0:0:
300,308,43421,6,0,L|424:292,1,113.999996520996,6|0,0:0|0:0,0:0:0:0:
136,140,43705,1,2,0:0:0:0:
140,184,43776,1,0,0:0:0:0:
144,228,43847,1,0,0:0:0:0:
368,204,43989,2,0,L|360:68,1,113.999996520996,2|0,0:0|0:0,0:0:0:0:
32,104,44273,1,2,0:0:0:0:
36,160,44344,1,0,0:0:0:0:
40,216,44415,1,0,0:0:0:0:
44,272,44486,1,0,0:0:0:0:
48,328,44557,6,0,B|104:340|104:340|160:328,1,113.999996520996,6|0,0:0|0:0,0:0:0:0:
256,120,44842,1,2,0:0:0:0:
212,116,44913,1,0,0:0:0:0:
168,112,44984,1,0,0:0:0:0:
324,264,45126,2,0,L|456:252,1,113.999996520996,2|0,0:0|0:0,0:0:0:0:
151,216,45410,1,2,0:0:0:0:
156,260,45481,1,0,0:0:0:0:
160,304,45552,1,0,0:0:0:0:
437,253,45694,6,0,L|429:109,1,113.999996520996,6|0,0:0|0:0,0:0:0:0:
232,240,45978,1,2,0:0:0:0:
276,236,46049,1,0,0:0:0:0:
324,232,46121,1,0,0:0:0:0:
256,52,46263,1,2,0:0:0:0:
120,280,46405,1,0,0:0:0:0:
28,112,46547,1,2,0:0:0:0:
32,68,46618,1,0,0:0:0:0:
36,24,46689,1,0,0:0:0:0:
212,108,46831,5,6,0:0:0:0:
120,280,46973,1,0,0:0:0:0:
64,272,47044,1,0,0:0:0:0:
20,236,47115,1,2,0:0:0:0:
4,180,47186,1,0,0:0:0:0:
12,124,47257,1,0,0:0:0:0:
44,80,47328,1,0,0:0:0:0:
96,56,47399,1,2,0:0:0:0:
152,64,47471,1,0,0:0:0:0:
200,96,47542,1,0,0:0:0:0:
224,148,47613,1,0,0:0:0:0:
260,192,47684,1,2,0:0:0:0:
312,212,47755,1,0,0:0:0:0:
368,220,47826,1,0,0:0:0:0:
420,200,47897,1,0,0:0:0:0:
464,164,47968,5,2,0:0:0:0:
452,108,48039,1,0,0:0:0:0:
412,68,48110,1,0,0:0:0:0:
360,44,48181,1,0,0:0:0:0:
304,48,48252,1,2,0:0:0:0:
256,80,48323,1,0,0:0:0:0:
232,132,48394,1,0,0:0:0:0:
232,188,48465,1,0,0:0:0:0:
256,240,48536,1,2,0:0:0:0:
256,240,49105,6,0,P|316:252|380:240,1,123.499994346619,6|0,0:0|0:0,0:0:0:0:
480,220,49318,2,0,L|472:96,1,123.499994346619,2|0,0:0|0:0,0:0:0:0:
468,0,49531,1,2,0:0:0:0:
256,24,49673,1,2,0:0:0:0:
228,72,49744,1,0,0:0:0:0:
176,96,49815,1,0,0:0:0:0:
120,96,49886,1,2,0:0:0:0:
68,80,49957,2,0,L|72:208,1,123.499994346619,0|2,0:0|0:0,0:0:0:0:
80,308,50171,1,0,0:0:0:0:
80,308,50242,6,0,B|140:324|140:324|200:308,1,123.499994346619,6|0,0:0|0:0,0:0:0:0:
256,220,50455,2,0,B|316:204|316:204|376:220,1,123.499994346619,2|0,0:0|0:0,0:0:0:0:
424,312,50668,1,2,0:0:0:0:
488,76,50810,1,2,0:0:0:0:
436,92,50881,1,0,0:0:0:0:
420,144,50952,1,0,0:0:0:0:
452,188,51023,1,2,0:0:0:0:
464,244,51094,1,0,0:0:0:0:
440,292,51165,1,0,0:0:0:0:
388,316,51236,1,2,0:0:0:0:
332,312,51307,1,0,0:0:0:0:
296,268,51378,6,0,L|300:136,1,123.499994346619,6|0,0:0|0:0,0:0:0:0:
320,40,51592,2,0,P|256:52|192:40,1,123.499994346619,2|0,0:0|0:0,0:0:0:0:
96,24,51805,1,2,0:0:0:0:
16,220,51947,1,2,0:0:0:0:
8,276,52018,1,0,0:0:0:0:
36,324,52089,1,0,0:0:0:0:
92,336,52160,1,2,0:0:0:0:
144,312,52231,1,0,0:0:0:0:
160,260,52302,1,0,0:0:0:0:
140,208,52373,1,2,0:0:0:0:
148,152,52444,1,0,0:0:0:0:
196,128,52515,6,0,L|332:132,1,123.499994346619,6|0,0:0|0:0,0:0:0:0:
424,152,52728,2,0,P|436:212|424:276,1,123.499994346619,2|0,0:0|0:0,0:0:0:0:
364,360,52942,1,2,0:0:0:0:
156,360,53084,1,6,0:0:0:0:
100,368,53155,1,0,0:0:0:0:
52,340,53226,1,0,0:0:0:0:
32,288,53297,1,0,0:0:0:0:
48,236,53368,1,2,0:0:0:0:
96,208,53439,1,0,0:0:0:0:
128,160,53510,1,0,0:0:0:0:
120,104,53581,1,0,0:0:0:0:
76,68,53652,6,0,L|220:56,1,123.499994346619,6|0,0:0|0:0,0:0:0:0:
312,108,53865,1,0,0:0:0:0:
312,108,53936,2,0,L|456:96,1,123.499994346619
504,300,54221,1,2,0:0:0:0:
488,352,54292,1,0,0:0:0:0:
440,376,54363,1,0,0:0:0:0:
388,364,54434,1,0,0:0:0:0:
344,328,54505,1,2,0:0:0:0:
336,272,54576,1,0,0:0:0:0:
308,224,54647,1,0,0:0:0:0:
256,204,54718,1,0,0:0:0:0:
204,220,54789,5,6,0:0:0:0:
176,268,54860,1,0,0:0:0:0:
140,312,54931,1,0,0:0:0:0:
88,328,55002,1,0,0:0:0:0:
36,308,55073,1,2,0:0:0:0:
12,256,55144,1,0,0:0:0:0:
24,200,55215,1,0,0:0:0:0:
72,172,55286,1,0,0:0:0:0:
128,168,55357,1,6,0:0:0:0:
172,132,55428,1,0,0:0:0:0:
192,80,55499,1,0,0:0:0:0:
180,24,55571,1,0,0:0:0:0:
128,4,55642,2,0,L|48:8,3,61.7499971733095,2|0|0|0,0:0|0:0|0:0|0:0,0:0:0:0:
12,96,55926,6,0,L|20:240,1,123.499994346619,6|0,0:0|0:0,0:0:0:0:
208,312,56210,1,2,0:0:0:0:
256,304,56281,1,0,0:0:0:0:
304,296,56352,1,0,0:0:0:0:
244,96,56494,2,0,B|184:84|184:84|120:96,1,123.499994346619,2|0,0:0|0:0,0:0:0:0:
384,192,56778,1,2,0:0:0:0:
388,144,56849,1,0,0:0:0:0:
392,96,56921,1,0,0:0:0:0:
128,168,57063,5,4,0:0:0:0:
72,172,57134,1,0,0:0:0:0:
32,212,57205,1,0,0:0:0:0:
24,268,57276,1,0,0:0:0:0:
44,320,57347,1,0,0:0:0:0:
96,344,57418,1,0,0:0:0:0:
152,340,57489,1,0,0:0:0:0:
196,308,57560,1,0,0:0:0:0:
220,256,57631,1,0,0:0:0:0:
224,200,57702,1,0,0:0:0:0:
200,152,57773,1,0,0:0:0:0:
188,96,57844,1,0,0:0:0:0:
204,44,57915,1,0,0:0:0:0:
248,12,57986,1,0,0:0:0:0:
304,8,58057,1,0,0:0:0:0:
356,24,58128,1,0,0:0:0:0:
396,64,58199,6,0,L|400:196,1,123.499994346619,6|0,0:0|0:0,0:0:0:0:
404,292,58413,1,0,0:0:0:0:
404,292,58484,2,0,B|468:304|468:304|528:292,1,123.499994346619,2|0,0:0|0:0,0:0:0:0:
320,144,58768,2,0,B|256:132|256:132|196:144,1,123.499994346619,2|0,0:0|0:0,0:0:0:0:
104,188,58981,1,0,0:0:0:0:
104,188,59052,2,0,L|112:332,1,123.499994346619,2|0,0:0|0:0,0:0:0:0:
320,364,59336,5,6,0:0:0:0:
376,372,59407,1,0,0:0:0:0:
428,352,59478,1,0,0:0:0:0:
456,304,59549,1,0,0:0:0:0:
460,248,59621,1,2,0:0:0:0:
428,204,59692,1,0,0:0:0:0:
376,184,59763,1,0,0:0:0:0:
320,192,59834,1,0,0:0:0:0:
276,228,59905,1,6,0:0:0:0:
220,236,59976,1,0,0:0:0:0:
164,224,60047,1,0,0:0:0:0:
128,184,60118,1,0,0:0:0:0:
112,132,60189,1,2,0:0:0:0:
120,76,60260,1,0,0:0:0:0:
148,28,60331,1,0,0:0:0:0:
200,8,60402,1,0,0:0:0:0:
256,4,60473,6,0,L|380:12,1,123.499994346619,6|0,0:0|0:0,0:0:0:0:
472,60,60686,1,0,0:0:0:0:
472,60,60757,2,0,P|484:120|472:184,1,123.499994346619,2|0,0:0|0:0,0:0:0:0:
256,332,61042,2,0,P|245:271|257:211,1,123.499994346619,2|0,0:0|0:0,0:0:0:0:
280,108,61255,1,0,0:0:0:0:
280,108,61326,2,0,L|140:104,1,123.499994346619
16,260,61610,5,6,0:0:0:0:
20,316,61681,1,0,0:0:0:0:
56,356,61752,1,0,0:0:0:0:
112,368,61823,1,0,0:0:0:0:
168,356,61894,1,2,0:0:0:0:
204,316,61965,1,0,0:0:0:0:
216,264,62036,1,0,0:0:0:0:
228,212,62107,1,0,0:0:0:0:
264,168,62178,1,6,0:0:0:0:
316,152,62249,1,0,0:0:0:0:
372,152,62321,1,0,0:0:0:0:
424,176,62392,1,0,0:0:0:0:
452,224,62463,1,2,0:0:0:0:
460,280,62534,1,0,0:0:0:0:
440,332,62605,1,0,0:0:0:0:
396,368,62676,1,0,0:0:0:0:
340,368,62747,6,0,L|196:356,1,123.499994346619,6|0,0:0|0:0,0:0:0:0:
112,348,62960,1,0,0:0:0:0:
112,348,63031,2,0,P|104:284|112:224,1,123.499994346619
168,24,63315,1,0,0:0:0:0:
120,20,63386,1,0,0:0:0:0:
72,16,63457,1,0,0:0:0:0:
228,156,63599,1,0,0:0:0:0:
284,152,63671,1,0,0:0:0:0:
340,148,63742,1,0,0:0:0:0:
396,144,63813,1,0,0:0:0:0:
452,140,63884,6,0,P|460:212|452:276,1,123.499994346619,6|0,0:0|0:0,0:0:0:0:
408,356,64097,1,0,0:0:0:0:
408,356,64168,2,0,L|264:348,1,123.499994346619,0|2,0:0|0:0,0:0:0:0:
76,336,64452,1,0,0:0:0:0:
48,288,64523,1,0,0:0:0:0:
52,232,64594,1,0,0:0:0:0:
92,192,64665,1,0,0:0:0:0:
148,184,64736,1,2,0:0:0:0:
204,184,64807,1,0,0:0:0:0:
248,152,64878,1,0,0:0:0:0:
272,100,64949,1,0,0:0:0:0:
256,44,65021,5,6,0:0:0:0:
204,64,65092,1,0,0:0:0:0:
176,112,65163,1,0,0:0:0:0:
184,168,65234,1,0,0:0:0:0:
224,208,65305,1,0,0:0:0:0:
280,216,65376,1,0,0:0:0:0:
332,196,65447,1,0,0:0:0:0:
352,144,65518,1,0,0:0:0:0:
400,116,65589,1,0,0:0:0:0:
456,120,65660,1,0,0:0:0:0:
500,156,65731,1,0,0:0:0:0:
508,212,65802,1,0,0:0:0:0:
492,264,65873,1,0,0:0:0:0:
440,288,65944,1,0,0:0:0:0:
384,280,66015,1,0,0:0:0:0:
328,292,66086,1,0,0:0:0:0:
288,332,66157,6,0,L|196:324,1,61.7499971733095,6|0,0:0|0:0,0:0:0:0:
136,376,66299,2,0,L|44:368,1,61.7499971733095
52,268,66442,1,0,0:0:0:0:
52,268,66513,1,0,0:0:0:0:
52,268,66584,2,0,L|40:184,1,61.7499971733095
132,152,66726,2,0,L|120:68,1,61.7499971733095
224,56,66868,1,0,0:0:0:0:
224,56,66939,1,0,0:0:0:0:
224,56,67010,2,0,L|312:48,1,61.7499971733095,4|0,0:0|0:0,0:0:0:0:
364,120,67152,2,0,L|452:112,1,61.7499971733095
512,172,67294,5,4,0:0:0:0:
256,192,71842,12,0,74115,0:0:0:0:
256,192,74257,12,0,75252,0:0:0:0:
112,32,75821,6,0,L|196:24,1,63.3333333333333
224,108,76010,1,0,0:0:0:0:
224,108,76105,2,0,L|308:100,1,63.3333333333333
348,176,76294,1,0,0:0:0:0:
348,176,76389,6,0,L|344:288,1,95,4|0,1:0|0:0,0:0:0:0:
164,328,76673,2,0,L|168:216,1,95,0|0,1:0|0:0,0:0:0:0:
432,236,76957,2,0,L|428:348,1,95,0|0,1:0|0:0,0:0:0:0:
80,272,77242,2,0,L|83:177,1,95,0|0,1:0|0:0,0:0:0:0:
256,48,77526,5,0,1:0:0:0:
256,144,77668,1,0,0:0:0:0:
172,96,77810,2,0,L|72:88,1,95,0|0,1:0|0:0,0:0:0:0:
340,192,78094,2,0,L|440:184,1,95,0|0,1:0|0:0,0:0:0:0:
256,144,78378,1,0,1:0:0:0:
256,240,78521,1,0,0:0:0:0:
172,192,78663,6,0,L|72:184,1,95,0|0,1:0|0:0,0:0:0:0:
340,300,78947,2,0,L|440:292,1,95,0|0,1:0|0:0,0:0:0:0:
172,300,79231,2,0,L|72:292,1,95,0|0,1:0|0:0,0:0:0:0:
340,192,79515,2,0,L|440:184,1,95,0|0,1:0|0:0,0:0:0:0:
256,48,79799,5,0,1:0:0:0:
256,144,79942,1,0,1:0:0:0:
172,96,80084,1,0,1:0:0:0:
340,96,80226,1,0,1:0:0:0:
256,240,80368,1,0,1:0:0:0:
256,240,80439,1,0,1:0:0:0:
256,240,80510,1,0,1:0:0:0:
256,240,80581,1,0,1:0:0:0:
256,240,80652,2,0,L|140:236,1,95,0|0,1:0|1:0,0:0:0:0:
344,48,80936,6,0,P|352:96|344:148,1,95,4|0,1:0|0:0,0:0:0:0:
166,141,81221,2,0,P|160:94|168:48,1,95,0|0,1:0|0:0,0:0:0:0:
436,112,81505,2,0,P|432:156|408:212,1,95,0|0,1:0|0:0,0:0:0:0:
98,203,81789,2,0,P|80:159|76:112,1,95,0|0,1:0|0:0,0:0:0:0:
256,96,82073,5,0,1:0:0:0:
256,208,82215,1,0,0:0:0:0:
356,152,82357,2,0,L|468:144,1,95,0|0,1:0|0:0,0:0:0:0:
460,260,82642,2,0,L|365:266,1,95,0|0,1:0|0:0,0:0:0:0:
256,96,82926,1,0,1:0:0:0:
256,208,83068,1,0,0:0:0:0:
156,152,83210,6,0,L|44:144,1,95,0|0,1:0|0:0,0:0:0:0:
52,260,83494,2,0,L|146:266,1,95,0|0,1:0|0:0,0:0:0:0:
450,145,83778,2,0,L|356:152,1,95,0|0,1:0|0:0,0:0:0:0:
366,266,84063,2,0,L|460:260,1,95,0|0,1:0|0:0,0:0:0:0:
256,80,84347,5,0,1:0:0:0:
256,224,84489,1,0,1:0:0:0:
136,148,84631,1,0,1:0:0:0:
136,148,84702,1,0,1:0:0:0:
136,148,84773,1,0,1:0:0:0:
136,148,84844,1,0,1:0:0:0:
136,148,84915,2,0,L|48:136,3,47.5,0|0|0|0,1:0|0:0|1:0|1:0,0:0:0:0:
44,152,85199,1,0,1:0:0:0:
12,188,85271,1,0,1:0:0:0:
4,236,85342,1,0,1:0:0:0:
12,284,85413,1,0,1:0:0:0:
40,324,85484,6,0,L|172:320,1,113.999996520996,4|0,1:0|0:0,0:0:0:0:
308,204,85768,1,0,1:0:0:0:
120,152,85910,1,0,0:0:0:0:
256,12,86052,2,0,L|260:140,1,113.999996520996,4|0,1:0|0:0,0:0:0:0:
272,320,86336,1,0,1:0:0:0:
380,160,86478,1,0,0:0:0:0:
484,328,86621,6,0,L|348:316,1,113.999996520996,4|0,1:0|0:0,0:0:0:0:
176,300,86905,1,0,1:0:0:0:
259,125,87047,1,0,0:0:0:0:
68,164,87189,1,4,1:0:0:0:
72,208,87260,1,0,0:0:0:0:
76,252,87331,1,0,0:0:0:0:
388,224,87473,2,0,L|392:88,1,113.999996520996,4|0,1:0|0:0,0:0:0:0:
117,0,87757,6,0,L|120:113,1,113.999996520996,4|0,1:0|0:0,0:0:0:0:
128,308,88042,1,0,1:0:0:0:
256,160,88184,1,0,0:0:0:0:
384,308,88326,2,0,L|260:304,1,113.999996520996,4|0,1:0|0:0,0:0:0:0:
76,300,88610,1,0,1:0:0:0:
192,144,88752,1,0,0:0:0:0:
28,40,88894,6,0,L|36:176,1,113.999996520996,4|0,1:0|0:0,0:0:0:0:
52,348,89178,1,0,1:0:0:0:
164,188,89321,1,0,0:0:0:0:
332,280,89463,1,4,1:0:0:0:
324,324,89534,1,0,0:0:0:0:
316,368,89605,1,0,0:0:0:0:
132,312,89747,1,0,1:0:0:0:
192,128,89889,1,0,0:0:0:0:
380,176,90031,6,0,L|504:168,1,113.999996520996,4|0,1:0|0:0,0:0:0:0:
132,312,90315,2,0,L|8:304,1,113.999996520996,0|0,1:0|0:0,0:0:0:0:
384,248,90599,2,0,L|392:364,1,113.999996520996,4|0,1:0|0:0,0:0:0:0:
136,236,90884,2,0,L|143:122,1,113.999996520996,0|0,1:0|0:0,0:0:0:0:
456,96,91168,6,0,L|464:212,1,113.999996520996,4|0,1:0|0:0,0:0:0:0:
64,160,91452,2,0,L|71:46,1,113.999996520996,0|0,1:0|0:0,0:0:0:0:
300,20,91736,1,4,1:0:0:0:
344,28,91807,1,0,0:0:0:0:
388,36,91878,1,0,0:0:0:0:
308,216,92021,1,4,1:0:0:0:
148,108,92163,1,0,0:0:0:0:
416,172,92305,6,0,L|408:296,1,113.999996520996,4|0,1:0|0:0,0:0:0:0:
96,348,92589,2,0,L|104:224,1,113.999996520996,0|0,1:0|0:0,0:0:0:0:
40,52,92873,1,0,1:0:0:0:
72,100,92944,1,0,0:0:0:0:
124,120,93015,1,0,0:0:0:0:
180,120,93086,1,0,0:0:0:0:
232,100,93157,1,0,0:0:0:0:
276,60,93228,1,0,0:0:0:0:
328,40,93299,1,0,0:0:0:0:
384,40,93371,1,0,0:0:0:0:
440,56,93442,6,0,L|432:180,1,113.999996520996,4|0,0:0|0:0,0:0:0:0:
472,260,93655,1,0,0:0:0:0:
472,260,93726,2,0,L|464:384,1,113.999996520996
244,324,94010,2,0,L|236:210,1,113.999996520996
276,119,94223,1,0,0:0:0:0:
276,119,94294,2,0,L|268:5,1,113.999996520996
56,92,94578,6,0,P|44:152|56:208,1,113.999996520996,4|0,0:0|0:0,0:0:0:0:
100,288,94792,1,0,0:0:0:0:
100,288,94863,2,0,L|236:280,1,113.999996520996
296,68,95147,2,0,L|440:72,1,113.999996520996
500,108,95360,1,0,0:0:0:0:
500,108,95431,2,0,P|512:168|500:224,1,113.999996520996
380,368,95715,5,4,0:0:0:0:
344,340,95786,1,0,0:0:0:0:
300,328,95857,1,0,0:0:0:0:
256,328,95928,1,0,0:0:0:0:
212,344,95999,1,0,0:0:0:0:
172,364,96071,1,0,0:0:0:0:
128,364,96142,1,0,0:0:0:0:
84,352,96213,1,0,0:0:0:0:
48,324,96284,1,0,0:0:0:0:
28,284,96355,1,0,0:0:0:0:
24,240,96426,1,0,0:0:0:0:
32,196,96497,1,0,0:0:0:0:
60,160,96568,1,0,0:0:0:0:
100,140,96639,1,0,0:0:0:0:
144,136,96710,1,0,0:0:0:0:
188,144,96781,1,0,0:0:0:0:
228,168,96852,6,0,P|256:172|284:168,3,56.9999982604981,4|0|0|0,0:0|0:0|0:0|0:0,0:0:0:0:
360,108,97136,2,0,P|388:103|416:107,3,56.9999982604981
488,176,97421,2,0,L|484:256,3,56.9999982604981
480,328,97705,1,0,0:0:0:0:
480,328,97776,1,0,0:0:0:0:
480,328,97847,1,0,0:0:0:0:
256,368,97989,5,4,0:0:0:0:
212,376,98060,1,0,0:0:0:0:
168,368,98131,1,0,0:0:0:0:
132,340,98202,1,0,0:0:0:0:
112,300,98273,1,0,0:0:0:0:
108,256,98344,1,0,0:0:0:0:
128,216,98415,1,0,0:0:0:0:
164,184,98486,1,0,0:0:0:0:
208,172,98557,1,0,0:0:0:0:
252,180,98628,1,0,0:0:0:0:
292,204,98699,1,0,0:0:0:0:
320,240,98771,1,0,0:0:0:0:
352,272,98842,1,0,0:0:0:0:
396,284,98913,1,0,0:0:0:0:
440,276,98984,1,0,0:0:0:0:
476,248,99055,1,0,0:0:0:0:
496,208,99126,5,4,0:0:0:0:
500,164,99197,1,0,0:0:0:0:
492,120,99268,1,0,0:0:0:0:
464,84,99339,1,0,0:0:0:0:
424,60,99410,1,0,0:0:0:0:
380,48,99481,1,0,0:0:0:0:
336,44,99552,1,0,0:0:0:0:
292,48,99623,1,0,0:0:0:0:
248,60,99694,1,0,0:0:0:0:
212,88,99765,1,0,0:0:0:0:
184,124,99836,1,0,0:0:0:0:
172,168,99907,1,0,0:0:0:0:
172,212,99978,1,0,0:0:0:0:
180,256,100049,1,0,0:0:0:0:
192,300,100121,1,0,0:0:0:0:
216,336,100192,1,0,0:0:0:0:
256,360,100263,5,4,0:0:0:0:
296,336,100334,1,0,0:0:0:0:
320,300,100405,1,0,0:0:0:0:
332,256,100476,1,0,0:0:0:0:
340,212,100547,1,0,0:0:0:0:
340,168,100618,1,0,0:0:0:0:
328,124,100689,1,0,0:0:0:0:
300,88,100760,1,0,0:0:0:0:
264,60,100831,1,0,0:0:0:0:
220,48,100902,1,0,0:0:0:0:
176,44,100973,1,0,0:0:0:0:
132,48,101044,1,0,0:0:0:0:
88,60,101115,1,0,0:0:0:0:
48,84,101186,1,0,0:0:0:0:
20,120,101257,1,0,0:0:0:0:
12,164,101328,1,0,0:0:0:0:
16,208,101400,5,4,0:0:0:0:
36,248,101471,1,0,0:0:0:0:
72,276,101542,1,0,0:0:0:0:
116,284,101613,1,0,0:0:0:0:
160,272,101684,1,0,0:0:0:0:
192,240,101755,1,0,0:0:0:0:
220,204,101826,1,0,0:0:0:0:
260,180,101897,1,0,0:0:0:0:
304,172,101968,1,0,0:0:0:0:
348,184,102039,1,0,0:0:0:0:
384,216,102110,1,0,0:0:0:0:
404,256,102181,1,0,0:0:0:0:
400,300,102252,1,0,0:0:0:0:
380,340,102323,1,0,0:0:0:0:
344,368,102394,1,0,0:0:0:0:
300,376,102465,1,0,0:0:0:0:
256,368,102536,5,6,0:0:0:0:
256,368,104242,1,2,0:0:0:0:
256,340,104313,1,0,0:0:0:0:
256,312,104384,1,0,0:0:0:0:
256,284,104455,1,0,0:0:0:0:
256,256,104526,1,0,0:0:0:0:
256,228,104597,1,0,0:0:0:0:
256,200,104668,1,0,0:0:0:0:
256,172,104739,1,0,0:0:0:0:
256,144,104810,6,0,B|320:132|320:132|384:144,1,123.499994346619,6|0,0:0|0:0,0:0:0:0:
424,228,105023,1,2,0:0:0:0:
424,228,105094,2,0,L|420:312,2,61.7499971733095,0|0|2,0:0|0:0|0:0,0:0:0:0:
256,360,105378,2,0,B|192:372|192:372|128:360,1,123.499994346619,2|0,0:0|0:0,0:0:0:0:
52,296,105592,1,2,0:0:0:0:
52,296,105663,2,0,L|48:212,1,61.7499971733095
160,184,105805,2,0,L|162:245,1,61.7499971733095,2|0,0:0|0:0,0:0:0:0:
64,104,105947,6,0,P|132:104|188:84,1,123.499994346619,6|0,0:0|0:0,0:0:0:0:
256,12,106160,2,0,L|392:24,1,123.499994346619,2|0,0:0|0:0,0:0:0:0:
476,32,106373,1,2,0:0:0:0:
512,228,106515,1,2,0:0:0:0:
480,272,106586,1,0,0:0:0:0:
424,276,106657,1,0,0:0:0:0:
376,244,106728,1,2,0:0:0:0:
356,192,106800,1,0,0:0:0:0:
312,160,106871,1,0,0:0:0:0:
256,156,106942,1,2,0:0:0:0:
208,188,107013,1,0,0:0:0:0:
192,240,107084,6,0,L|204:368,1,123.499994346619,6|0,0:0|0:0,0:0:0:0:
308,364,107297,2,0,B|368:376|368:376|432:364,1,123.499994346619,2|0,0:0|0:0,0:0:0:0:
464,264,107510,1,2,0:0:0:0:
176,144,107652,2,0,B|116:132|116:132|52:144,1,123.499994346619,2|0,0:0|0:0,0:0:0:0:
4,236,107865,2,0,L|16:364,1,123.499994346619,2|0,0:0|0:0,0:0:0:0:
120,372,108078,1,2,0:0:0:0:
320,228,108221,6,0,L|308:105,1,123.499994346619,6|0,0:0|0:0,0:0:0:0:
344,8,108434,2,0,P|404:0|472:8,1,123.499994346619,2|0,0:0|0:0,0:0:0:0:
508,104,108647,1,2,0:0:0:0:
492,308,108789,1,6,0:0:0:0:
460,356,108860,1,0,0:0:0:0:
404,368,108931,1,0,0:0:0:0:
356,340,109002,1,0,0:0:0:0:
344,284,109073,1,2,0:0:0:0:
368,232,109144,1,0,0:0:0:0:
360,176,109215,1,0,0:0:0:0:
308,156,109286,1,0,0:0:0:0:
256,176,109357,6,0,L|116:180,1,123.499994346619,6|0,0:0|0:0,0:0:0:0:
8,352,109642,1,0,0:0:0:0:
56,356,109713,1,0,0:0:0:0:
104,360,109784,1,0,0:0:0:0:
44,120,109926,2,0,P|32:184|44:244,1,123.499994346619,2|0,0:0|0:0,0:0:0:0:
256,360,110210,1,2,0:0:0:0:
264,312,110281,1,0,0:0:0:0:
272,264,110352,1,0,0:0:0:0:
324,24,110494,5,6,0:0:0:0:
144,192,110636,1,0,0:0:0:0:
384,240,110778,1,2,0:0:0:0:
380,192,110850,1,0,0:0:0:0:
376,144,110921,1,0,0:0:0:0:
136,68,111063,2,0,L|144:196,1,123.499994346619,2|0,0:0|0:0,0:0:0:0:
496,288,111347,1,2,0:0:0:0:
492,232,111418,1,0,0:0:0:0:
488,176,111489,1,0,0:0:0:0:
484,120,111560,1,0,0:0:0:0:
480,64,111631,6,0,B|420:48|420:48|356:60,1,123.499994346619,6|0,0:0|0:0,0:0:0:0:
256,84,111844,1,0,0:0:0:0:
256,84,111915,2,0,L|164:80,2,61.7499971733095,2|0|0,0:0|0:0|0:0,0:0:0:0:
52,28,112200,2,0,L|60:176,1,123.499994346619,2|0,0:0|0:0,0:0:0:0:
96,360,112484,1,2,0:0:0:0:
48,352,112555,1,0,0:0:0:0:
0,344,112626,1,0,0:0:0:0:
180,236,112768,5,4,0:0:0:0:
232,224,112839,1,0,0:0:0:0:
284,244,112910,1,0,0:0:0:0:
312,292,112981,1,0,0:0:0:0:
324,348,113052,1,0,0:0:0:0:
364,384,113123,1,0,0:0:0:0:
420,384,113194,1,0,0:0:0:0:
472,368,113265,1,0,0:0:0:0:
500,320,113336,1,0,0:0:0:0:
504,264,113407,1,0,0:0:0:0:
476,216,113478,1,0,0:0:0:0:
424,196,113550,1,0,0:0:0:0:
368,196,113621,1,0,0:0:0:0:
324,164,113692,1,0,0:0:0:0:
296,116,113763,1,0,0:0:0:0:
308,60,113834,1,0,0:0:0:0:
348,20,113905,6,0,B|408:8|408:8|480:20,1,123.499994346619,6|0,0:0|0:0,0:0:0:0:
512,116,114118,1,0,0:0:0:0:
512,116,114189,2,0,L|504:252,1,123.499994346619,2|0,0:0|0:0,0:0:0:0:
324,348,114473,2,0,L|316:224,1,123.499994346619,2|0,0:0|0:0,0:0:0:0:
200,52,114757,1,2,0:0:0:0:
152,48,114828,1,0,0:0:0:0:
100,44,114900,1,0,0:0:0:0:
4,232,115042,5,6,0:0:0:0:
0,288,115113,1,0,0:0:0:0:
28,336,115184,1,0,0:0:0:0:
80,352,115255,1,0,0:0:0:0:
136,344,115326,1,2,0:0:0:0:
180,308,115397,1,0,0:0:0:0:
192,256,115468,1,0,0:0:0:0:
176,204,115539,1,0,0:0:0:0:
148,156,115610,1,6,0:0:0:0:
140,100,115681,1,0,0:0:0:0:
152,44,115752,1,0,0:0:0:0:
200,12,115823,1,0,0:0:0:0:
256,0,115894,1,2,0:0:0:0:
312,12,115965,1,0,0:0:0:0:
360,44,116036,1,0,0:0:0:0:
372,100,116107,1,0,0:0:0:0:
364,156,116178,6,0,P|352:208|364:280,1,123.499994346619,6|0,0:0|0:0,0:0:0:0:
424,364,116392,1,0,0:0:0:0:
424,364,116463,2,0,L|500:356,2,61.7499971733095,2|0|0,0:0|0:0|0:0,0:0:0:0:
256,240,116747,2,0,L|96:232,1,123.499994346619,2|0,0:0|0:0,0:0:0:0:
288,92,117031,1,0,0:0:0:0:
336,88,117102,1,0,0:0:0:0:
384,84,117173,1,0,0:0:0:0:
224,332,117315,6,0,L|64:324,1,123.499994346619,6|0,0:0|0:0,0:0:0:0:
368,176,117600,1,2,0:0:0:0:
364,224,117671,1,0,0:0:0:0:
360,272,117742,1,0,0:0:0:0:
152,192,117884,1,6,0:0:0:0:
312,40,118026,1,0,0:0:0:0:
472,196,118168,2,0,L|464:340,1,123.499994346619,2|0,0:0|0:0,0:0:0:0:
40,248,118452,6,0,L|48:104,1,123.499994346619,6|0,0:0|0:0,0:0:0:0:
236,212,118736,1,0,0:0:0:0:
188,208,118807,1,0,0:0:0:0:
140,204,118878,1,0,0:0:0:0:
272,40,119021,2,0,L|396:36,1,123.499994346619
488,88,119234,1,0,0:0:0:0:
488,88,119305,2,0,L|484:172,3,61.7499971733095
480,256,119589,5,6,0:0:0:0:
428,236,119660,1,0,0:0:0:0:
372,240,119731,1,0,0:0:0:0:
320,268,119802,1,0,0:0:0:0:
296,320,119873,1,0,0:0:0:0:
256,360,119944,1,0,0:0:0:0:
204,380,120015,1,2,0:0:0:0:
148,380,120086,1,0,0:0:0:0:
96,356,120157,1,4,0:0:0:0:
56,320,120228,1,0,0:0:0:0:
44,264,120300,1,0,0:0:0:0:
48,208,120371,1,0,0:0:0:0:
76,160,120442,2,0,L|164:152,1,61.7499971733095,2|0,0:0|0:0,0:0:0:0:
224,68,120584,2,0,L|285:73,1,61.7499971733095
376,156,120726,5,6,0:0:0:0:
432,144,120797,1,0,0:0:0:0:
480,168,120868,1,0,0:0:0:0:
504,216,120939,1,0,0:0:0:0:
496,272,121010,1,0,0:0:0:0:
452,308,121081,1,0,0:0:0:0:
396,312,121152,1,0,0:0:0:0:
348,280,121223,1,0,0:0:0:0:
316,236,121294,1,0,0:0:0:0:
272,200,121365,1,0,0:0:0:0:
220,180,121436,1,0,0:0:0:0:
164,172,121507,1,0,0:0:0:0:
112,188,121578,1,0,0:0:0:0:
72,228,121650,1,0,0:0:0:0:
52,280,121721,1,0,0:0:0:0:
60,336,121792,1,0,0:0:0:0:
96,376,121863,5,6,0:0:0:0:
140,340,121934,1,0,0:0:0:0:
160,288,122005,1,0,0:0:0:0:
148,232,122076,1,0,0:0:0:0:
112,188,122147,1,0,0:0:0:0:
68,156,122218,1,0,0:0:0:0:
44,108,122289,1,0,0:0:0:0:
52,52,122360,1,0,0:0:0:0:
96,16,122431,1,0,0:0:0:0:
152,8,122502,1,0,0:0:0:0:
200,32,122573,1,0,0:0:0:0:
216,84,122644,1,0,0:0:0:0:
212,140,122715,1,0,0:0:0:0:
228,192,122786,1,0,0:0:0:0:
272,224,122857,1,0,0:0:0:0:
328,224,122928,1,0,0:0:0:0:
372,192,123000,5,4,0:0:0:0:
372,192,124847,2,0,L|312:180,1,47.5
188,148,124989,1,4,0:0:0:0:
188,148,125273,6,0,L|64:156,1,123.499994346619,6|0,0:0|0:0,0:0:0:0:
0,244,125486,2,0,B|-12:304|-12:304|0:368,1,123.499994346619,2|0,0:0|0:0,0:0:0:0:
104,376,125700,1,2,0:0:0:0:
256,228,125842,1,2,0:0:0:0:
248,284,125913,1,0,0:0:0:0:
272,336,125984,1,0,0:0:0:0:
316,372,126055,1,2,0:0:0:0:
372,384,126126,1,0,0:0:0:0:
428,380,126197,1,0,0:0:0:0:
480,356,126268,1,2,0:0:0:0:
504,304,126339,1,0,0:0:0:0:
508,248,126410,6,0,L|504:112,1,123.499994346619,6|0,0:0|0:0,0:0:0:0:
432,48,126623,2,0,P|372:60|308:48,1,123.499994346619,2|0,0:0|0:0,0:0:0:0:
208,24,126836,1,2,0:0:0:0:
252,240,126978,1,6,0:0:0:0:
240,296,127050,1,0,0:0:0:0:
212,344,127121,1,0,0:0:0:0:
160,364,127192,1,0,0:0:0:0:
104,360,127263,1,2,0:0:0:0:
56,336,127334,1,0,0:0:0:0:
32,288,127405,1,0,0:0:0:0:
28,232,127476,1,0,0:0:0:0:
52,184,127547,6,0,L|188:176,1,123.499994346619,6|0,0:0|0:0,0:0:0:0:
384,164,127831,1,0,0:0:0:0:
380,116,127902,1,0,0:0:0:0:
376,68,127973,1,0,0:0:0:0:
496,264,128115,1,2,0:0:0:0:
484,320,128186,1,0,0:0:0:0:
440,352,128257,1,0,0:0:0:0:
384,356,128328,1,0,0:0:0:0:
340,324,128400,1,2,0:0:0:0:
320,272,128471,1,0,0:0:0:0:
324,216,128542,1,0,0:0:0:0:
360,172,128613,1,0,0:0:0:0:
396,128,128684,5,6,0:0:0:0:
404,72,128755,1,0,0:0:0:0:
376,24,128826,1,0,0:0:0:0:
324,8,128897,1,0,0:0:0:0:
268,16,128968,1,2,0:0:0:0:
228,52,129039,1,0,0:0:0:0:
220,108,129110,1,0,0:0:0:0:
236,160,129181,1,0,0:0:0:0:
244,216,129252,1,2,0:0:0:0:
228,268,129323,1,0,0:0:0:0:
192,308,129394,1,0,0:0:0:0:
140,324,129465,1,0,0:0:0:0:
84,316,129536,1,2,0:0:0:0:
40,280,129607,1,0,0:0:0:0:
24,228,129678,1,0,0:0:0:0:
28,172,129750,1,0,0:0:0:0:
56,124,129821,6,0,L|48:28,2,82.3333295644126,6|0|0,0:0|0:0|0:0,0:0:0:0:
140,268,130105,2,0,L|132:364,2,82.3333295644126,2|0|0,0:0|0:0|0:0,0:0:0:0:
256,152,130389,2,0,L|256:56,2,82.3333295644126,2|0|0,0:0|0:0|0:0,0:0:0:0:
372,268,130673,2,0,L|380:364,2,82.3333295644126,2|0|0,0:0|0:0|0:0,0:0:0:0:
456,124,130957,6,0,L|320:112,1,123.499994346619,4|0,0:0|0:0,0:0:0:0:
296,236,131171,2,0,L|160:224,1,123.499994346619,4|0,0:0|0:0,0:0:0:0:
144,344,131384,2,0,L|68:336,1,61.7499971733095,4|0,0:0|0:0,0:0:0:0:
0,132,131526,2,0,L|184:112,1,185.249991519928,6|0,0:0|0:0,0:0:0:0:
256,36,131810,1,0,0:0:0:0:
308,20,131881,1,0,0:0:0:0:
364,8,131952,1,0,0:0:0:0:
420,20,132023,1,0,0:0:0:0:
472,40,132094,6,0,L|468:200,1,123.499994346619,6|0,0:0|0:0,0:0:0:0:
460,268,132307,1,0,0:0:0:0:
460,268,132378,2,0,B|400:280|400:280|336:268,1,123.499994346619,2|0,0:0|0:0,0:0:0:0:
52,116,132663,2,0,B|112:104|112:104|176:116,1,123.499994346619,2|0,0:0|0:0,0:0:0:0:
256,180,132876,1,0,0:0:0:0:
256,180,132947,2,0,L|248:320,1,123.499994346619,2|0,0:0|0:0,0:0:0:0:
44,356,133231,5,6,0:0:0:0:
16,308,133302,1,0,0:0:0:0:
16,252,133373,1,0,0:0:0:0:
56,212,133444,1,0,0:0:0:0:
112,204,133515,1,2,0:0:0:0:
164,220,133586,1,0,0:0:0:0:
192,268,133657,1,0,0:0:0:0:
196,324,133728,1,0,0:0:0:0:
224,368,133800,1,6,0:0:0:0:
280,376,133871,1,0,0:0:0:0:
332,360,133942,1,0,0:0:0:0:
352,308,134013,1,0,0:0:0:0:
344,252,134084,1,2,0:0:0:0:
308,212,134155,1,0,0:0:0:0:
296,156,134226,1,0,0:0:0:0:
320,104,134297,1,0,0:0:0:0:
372,88,134368,6,0,L|496:92,1,123.499994346619,6|0,0:0|0:0,0:0:0:0:
512,196,134581,1,0,0:0:0:0:
512,196,134652,2,0,P|520:256|512:324,1,123.499994346619,2|0,0:0|0:0,0:0:0:0:
208,368,134936,2,0,P|200:305|208:245,1,123.499994346619,2|0,0:0|0:0,0:0:0:0:
256,152,135150,1,0,0:0:0:0:
256,152,135221,2,0,L|112:148,1,123.499994346619
24,328,135505,5,6,0:0:0:0:
64,364,135576,1,0,0:0:0:0:
120,364,135647,1,0,0:0:0:0:
168,336,135718,1,0,0:0:0:0:
200,292,135789,1,2,0:0:0:0:
256,280,135860,1,0,0:0:0:0:
312,292,135931,1,0,0:0:0:0:
344,336,136002,1,0,0:0:0:0:
392,364,136073,1,6,0:0:0:0:
448,364,136144,1,0,0:0:0:0:
488,328,136215,1,0,0:0:0:0:
504,276,136286,1,0,0:0:0:0:
492,220,136357,1,2,0:0:0:0:
444,192,136428,1,0,0:0:0:0:
388,188,136500,1,0,0:0:0:0:
340,212,136571,1,0,0:0:0:0:
288,196,136642,6,0,L|192:188,3,61.7499971733095,6|0|0|0,0:0|0:0|0:0|0:0,0:0:0:0:
168,280,136926,2,0,L|92:276,3,61.7499971733095
32,200,137210,1,0,0:0:0:0:
4,152,137281,1,0,0:0:0:0:
8,96,137352,1,0,0:0:0:0:
40,48,137423,1,0,0:0:0:0:
92,32,137494,2,0,L|172:24,3,61.7499971733095
244,76,137778,5,6,0:0:0:0:
288,112,137850,1,0,0:0:0:0:
344,108,137921,1,0,0:0:0:0:
376,64,137992,1,0,0:0:0:0:
424,40,138063,1,0,0:0:0:0:
480,48,138134,1,0,0:0:0:0:
512,96,138205,1,2,0:0:0:0:
512,152,138276,1,0,0:0:0:0:
472,188,138347,1,4,0:0:0:0:
416,188,138418,1,0,0:0:0:0:
360,184,138489,1,0,0:0:0:0:
312,212,138560,1,0,0:0:0:0:
296,264,138631,1,2,0:0:0:0:
312,316,138702,1,0,0:0:0:0:
352,356,138773,1,0,0:0:0:0:
408,360,138844,1,0,0:0:0:0:
460,336,138915,5,6,0:0:0:0:
436,280,138986,1,0,0:0:0:0:
380,252,139057,1,0,0:0:0:0:
320,252,139128,1,0,0:0:0:0:
268,284,139200,1,0,0:0:0:0:
232,332,139271,1,0,0:0:0:0:
176,360,139342,1,0,0:0:0:0:
116,368,139413,1,0,0:0:0:0:
60,340,139484,1,0,0:0:0:0:
20,292,139555,1,0,0:0:0:0:
4,232,139626,1,0,0:0:0:0:
12,172,139697,1,0,0:0:0:0:
48,124,139768,1,0,0:0:0:0:
104,100,139839,1,0,0:0:0:0:
164,96,139910,1,0,0:0:0:0:
224,116,139981,1,0,0:0:0:0:
256,168,140052,6,0,L|252:248,3,61.7499971733095,6|0|0|0,0:0|0:0|0:0|0:0,0:0:0:0:
296,324,140336,1,0,0:0:0:0:
344,364,140407,1,0,0:0:0:0:
404,364,140478,1,0,0:0:0:0:
452,320,140550,1,0,0:0:0:0:
464,260,140621,1,0,0:0:0:0:
436,204,140692,1,0,0:0:0:0:
380,180,140763,1,0,0:0:0:0:
324,156,140834,1,0,0:0:0:0:
292,104,140905,1,0,0:0:0:0:
296,44,140976,1,0,0:0:0:0:
344,4,141047,1,0,0:0:0:0:
404,0,141118,1,0,0:0:0:0:
460,20,141189,6,0,L|456:148,1,113.999996520996,6|0,0:0|0:0,0:0:0:0:
348,332,141473,2,0,L|344:218,1,113.999996520996
256,8,141757,1,0,0:0:0:0:
167,218,141900,1,0,0:0:0:0:
167,218,141971,1,0,0:0:0:0:
167,218,142042,2,0,L|32:208,1,113.999996520996
256,104,142326,5,0,0:0:0:0:
340,316,142468,1,0,0:0:0:0:
340,316,142539,1,0,0:0:0:0:
340,316,142610,2,0,L|480:308,1,113.999996520996
508,88,142894,1,0,0:0:0:0:
464,84,142965,1,0,0:0:0:0:
420,80,143036,1,0,0:0:0:0:
376,76,143107,1,0,0:0:0:0:
332,72,143178,2,0,L|328:196,1,113.999996520996
192,372,143463,6,0,L|184:248,1,113.999996520996,6|0,0:0|0:0,0:0:0:0:
52,72,143747,2,0,L|44:185,1,113.999996520996
24,380,144031,1,0,0:0:0:0:
184,258,144173,1,0,0:0:0:0:
180,214,144244,1,0,0:0:0:0:
176,170,144315,1,0,0:0:0:0:
36,304,144457,1,0,0:0:0:0:
256,368,144600,6,0,L|400:352,1,113.999996520996
512,224,144884,1,0,0:0:0:0:
324,176,145026,1,0,0:0:0:0:
464,44,145168,1,0,0:0:0:0:
464,44,145239,1,0,0:0:0:0:
464,44,145310,2,0,L|460:132,1,56.9999982604981
408,232,145452,1,0,0:0:0:0:
408,232,145523,1,0,0:0:0:0:
408,232,145594,1,0,0:0:0:0:
256,112,145736,6,0,L|104:108,1,113.999996520996,6|0,0:0|0:0,0:0:0:0:
200,332,146021,2,0,L|313:334,1,113.999996520996
488,188,146305,1,0,0:0:0:0:
316,36,146447,1,0,0:0:0:0:
316,36,146518,1,0,0:0:0:0:
316,36,146589,2,0,L|192:32,1,113.999996520996
24,172,146873,6,0,B|12:228|12:228|24:288,1,113.999996520996
236,368,147157,1,0,0:0:0:0:
344,168,147300,1,0,0:0:0:0:
300,164,147371,1,0,0:0:0:0:
256,160,147442,1,0,0:0:0:0:
212,156,147513,1,0,0:0:0:0:
168,152,147584,1,0,0:0:0:0:
324,316,147726,2,0,L|444:312,1,113.999996520996
504,240,147939,1,0,0:0:0:0:
504,240,148010,6,0,P|512:184|504:124,1,113.999996520996,6|0,0:0|0:0,0:0:0:0:
432,56,148223,1,0,0:0:0:0:
432,56,148294,2,0,B|312:48,1,113.999996520996
8,240,148578,2,0,P|0:184|8:124,1,113.999996520996,6|0,0:0|0:0,0:0:0:0:
80,56,148792,1,0,0:0:0:0:
80,56,148863,2,0,B|200:48,1,113.999996520996
256,316,149147,5,6,0:0:0:0:
108,192,149289,1,0,0:0:0:0:
152,188,149360,1,0,0:0:0:0:
196,184,149431,1,0,0:0:0:0:
388,168,149573,1,0,0:0:0:0:
188,368,149715,2,0,L|56:360,1,113.999996520996
12,288,149928,1,0,0:0:0:0:
12,288,150000,2,0,L|8:212,3,56.9999982604981
16,136,150284,6,0,L|144:128,1,113.999996520996,6|0,0:0|0:0,0:0:0:0:
200,196,150497,1,0,0:0:0:0:
200,196,150568,2,0,L|344:188,1,113.999996520996
432,36,150852,1,0,0:0:0:0:
504,216,150994,1,0,0:0:0:0:
504,216,151065,1,0,0:0:0:0:
504,216,151136,2,0,L|496:352,1,113.999996520996
404,364,151350,1,0,0:0:0:0:
404,364,151421,6,0,B|348:376|348:376|288:364,1,113.999996520996,6|0,0:0|0:0,0:0:0:0:
200,112,151705,2,0,B|256:100|256:100|316:112,1,113.999996520996
388,164,151918,1,0,0:0:0:0:
388,164,151989,2,0,L|384:240,3,56.9999982604981,6|0|0|0,0:0|0:0|0:0|0:0,0:0:0:0:
356,316,152273,2,0,L|224:312,1,113.999996520996
128,40,152557,6,0,L|241:43,1,113.999996520996,6|0,0:0|0:0,0:0:0:0:
324,100,152771,1,0,0:0:0:0:
324,100,152842,2,0,L|437:103,1,113.999996520996
500,288,153126,1,0,0:0:0:0:
312,340,153268,1,0,0:0:0:0:
312,340,153339,1,0,0:0:0:0:
312,340,153410,2,0,L|316:204,1,113.999996520996
320,144,153623,1,0,0:0:0:0:
320,144,153694,5,6,0:0:0:0:
188,284,153836,1,0,0:0:0:0:
412,244,153978,1,0,0:0:0:0:
100,152,154121,1,0,0:0:0:0:
100,152,154192,1,0,0:0:0:0:
100,152,154263,2,0,L|104:272,1,113.999996520996
412,244,154547,2,0,L|408:130,1,113.999996520996
204,32,154831,5,6,0:0:0:0:
160,36,154902,1,0,0:0:0:0:
116,40,154973,1,0,0:0:0:0:
72,44,155044,1,0,0:0:0:0:
28,48,155115,2,0,B|20:108|20:108|28:160,1,113.999996520996
320,352,155400,2,0,B|328:300|328:300|320:240,1,113.999996520996
256,168,155613,1,0,0:0:0:0:
256,168,155684,2,0,L|132:164,1,113.999996520996
320,352,155968,6,0,L|384:348,3,56.9999982604981
192,272,156252,2,0,L|128:268,3,56.9999982604981
320,192,156536,2,0,L|384:188,3,56.9999982604981
192,116,156821,2,0,L|128:112,3,56.9999982604981
320,28,157105,5,4,0:0:0:0:
320,28,157176,1,0,0:0:0:0:
320,28,157247,2,0,L|404:24,1,56.9999982604981
320,116,157389,1,4,0:0:0:0:
320,116,157460,1,0,0:0:0:0:
320,116,157531,2,0,L|404:112,1,56.9999982604981
192,192,157673,1,4,0:0:0:0:
192,192,157744,1,0,0:0:0:0:
192,192,157815,2,0,L|108:188,1,56.9999982604981
192,280,157957,1,4,0:0:0:0:
192,280,158028,1,0,0:0:0:0:
192,280,158100,2,0,L|108:276,1,56.9999982604981
320,352,158242,5,6,0:0:0:0:
320,352,158810,1,0,0:0:0:0:
344,348,158881,1,0,0:0:0:0:
368,344,158952,1,0,0:0:0:0:
392,340,159023,1,0,0:0:0:0:
416,336,159094,1,0,0:0:0:0:
440,332,159165,1,0,0:0:0:0:
464,328,159236,1,0,0:0:0:0:
488,324,159307,1,0,0:0:0:0:
512,320,159378,6,0,L|508:180,1,123.499994346619,6|0,0:0|0:0,0:0:0:0:
456,104,159592,1,0,0:0:0:0:
456,104,159663,2,0,L|456:20,2,61.7499971733095
336,276,159947,1,6,0:0:0:0:
312,328,160018,1,0,0:0:0:0:
256,340,160089,1,0,0:0:0:0:
204,316,160160,1,0,0:0:0:0:
184,264,160231,1,0,0:0:0:0:
204,212,160302,1,0,0:0:0:0:
252,180,160373,1,0,0:0:0:0:
288,140,160444,1,0,0:0:0:0:
292,84,160515,5,4,0:0:0:0:
268,36,160586,1,0,0:0:0:0:
220,8,160657,1,0,0:0:0:0:
164,4,160728,1,0,0:0:0:0:
112,24,160800,1,0,0:0:0:0:
80,68,160871,1,0,0:0:0:0:
72,124,160942,1,0,0:0:0:0:
88,176,161013,1,0,0:0:0:0:
124,220,161084,2,0,L|264:212,1,123.499994346619,2|0,0:0|0:0,0:0:0:0:
316,292,161297,1,0,0:0:0:0:
316,292,161368,2,0,L|392:288,3,61.7499971733095,2|0|0|0,0:0|0:0|0:0|0:0,0:0:0:0:
464,232,161652,5,6,0:0:0:0:
484,180,161723,1,0,0:0:0:0:
456,132,161794,1,0,0:0:0:0:
400,116,161865,1,0,0:0:0:0:
352,144,161936,1,0,0:0:0:0:
332,196,162007,1,0,0:0:0:0:
280,212,162078,1,0,0:0:0:0:
224,196,162150,1,0,0:0:0:0:
200,148,162221,1,2,0:0:0:0:
208,92,162292,1,0,0:0:0:0:
180,44,162363,1,0,0:0:0:0:
128,24,162434,1,0,0:0:0:0:
72,24,162505,1,0,0:0:0:0:
28,56,162576,1,0,0:0:0:0:
8,108,162647,1,0,0:0:0:0:
20,164,162718,1,0,0:0:0:0:
60,204,162789,5,4,0:0:0:0:
112,184,162860,1,0,0:0:0:0:
164,196,162931,1,0,0:0:0:0:
200,240,163002,1,0,0:0:0:0:
212,296,163073,1,2,0:0:0:0:
256,332,163144,1,0,0:0:0:0:
312,332,163215,1,0,0:0:0:0:
360,304,163286,1,0,0:0:0:0:
384,256,163357,1,4,0:0:0:0:
376,200,163428,1,0,0:0:0:0:
336,160,163500,1,0,0:0:0:0:
284,148,163571,1,0,0:0:0:0:
236,120,163642,1,2,0:0:0:0:
220,68,163713,1,0,0:0:0:0:
248,20,163784,1,0,0:0:0:0:
304,8,163855,1,0,0:0:0:0:
352,36,163926,6,2,L|480:28,1,123.499994346619,2|0,0:0|0:0,0:0:0:0:
160,188,164210,2,0,L|32:180,1,123.499994346619
8,132,164423,1,0,0:0:0:0:
8,76,164494,1,2,0:0:0:0:
44,32,164565,1,0,0:0:0:0:
100,20,164636,1,0,0:0:0:0:
152,40,164707,1,0,0:0:0:0:
180,88,164778,1,2,0:0:0:0:
220,128,164850,1,0,0:0:0:0:
272,148,164921,1,0,0:0:0:0:
328,148,164992,1,0,0:0:0:0:
376,124,165063,6,0,L|372:0,1,123.499994346619,6|0,0:0|0:0,0:0:0:0:
136,188,165347,2,0,L|140:312,1,123.499994346619,2|0,0:0|0:0,0:0:0:0:
236,352,165560,1,0,0:0:0:0:
236,352,165631,2,0,B|296:368|296:368|356:352,1,123.499994346619,2|0,0:0|0:0,0:0:0:0:
156,96,165915,2,0,L|68:100,3,61.7499971733095,2|0|0|0,0:0|0:0|0:0|0:0,0:0:0:0:
20,176,166200,5,4,0:0:0:0:
4,228,166271,1,0,0:0:0:0:
24,280,166342,1,0,0:0:0:0:
72,304,166413,1,0,0:0:0:0:
128,296,166484,1,2,0:0:0:0:
160,252,166555,1,0,0:0:0:0:
172,200,166626,1,0,0:0:0:0:
212,160,166697,1,0,0:0:0:0:
268,148,166768,1,4,0:0:0:0:
324,160,166839,1,0,0:0:0:0:
368,196,166910,1,0,0:0:0:0:
380,252,166981,1,0,0:0:0:0:
368,304,167052,2,2,L|240:300,1,123.499994346619,2|0,0:0|0:0,0:0:0:0:
72,40,167336,6,0,L|195:36,1,123.499994346619,4|0,0:0|0:0,0:0:0:0:
224,156,167550,2,0,L|347:152,1,123.499994346619,4|0,0:0|0:0,0:0:0:0:
396,264,167763,2,0,L|476:260,1,61.7499971733095,4|0,0:0|0:0,0:0:0:0:
504,48,167905,2,0,L|312:40,1,185.249991519928,6|0,0:0|0:0,0:0:0:0:
195,35,168189,2,0,L|119:31,3,61.7499971733095
28,96,168473,5,4,0:0:0:0:
12,148,168544,1,0,0:0:0:0:
28,200,168615,1,0,0:0:0:0:
76,228,168686,1,0,0:0:0:0:
132,232,168757,1,2,0:0:0:0:
176,200,168828,1,0,0:0:0:0:
208,152,168900,1,0,0:0:0:0:
260,128,168971,1,0,0:0:0:0:
316,132,169042,1,0,0:0:0:0:
364,160,169113,1,0,0:0:0:0:
388,208,169184,1,0,0:0:0:0:
392,264,169255,1,0,0:0:0:0:
368,312,169326,1,2,0:0:0:0:
324,344,169397,1,0,0:0:0:0:
268,348,169468,1,0,0:0:0:0:
216,328,169539,1,0,0:0:0:0:
180,284,169610,5,6,0:0:0:0:
180,284,169681,1,0,0:0:0:0:
180,284,169752,2,0,L|104:288,1,61.7499971733095
156,184,169894,1,6,0:0:0:0:
156,184,169965,1,0,0:0:0:0:
156,184,170036,2,0,L|80:188,1,61.7499971733095
332,284,170178,1,6,0:0:0:0:
332,284,170250,1,0,0:0:0:0:
332,284,170321,2,0,L|408:288,1,61.7499971733095
356,184,170463,1,6,0:0:0:0:
356,184,170534,1,0,0:0:0:0:
356,184,170605,2,0,L|432:188,1,61.7499971733095
508,136,170747,5,4,0:0:0:0:
512,80,170818,1,0,0:0:0:0:
476,40,170889,1,0,0:0:0:0:
420,32,170960,1,0,0:0:0:0:
372,64,171031,1,2,0:0:0:0:
348,112,171102,1,0,0:0:0:0:
300,136,171173,1,0,0:0:0:0:
244,124,171244,1,0,0:0:0:0:
216,76,171315,1,4,0:0:0:0:
160,48,171386,1,0,0:0:0:0:
100,52,171457,1,0,0:0:0:0:
48,88,171528,1,0,0:0:0:0:
24,148,171600,1,2,0:0:0:0:
32,208,171671,1,0,0:0:0:0:
72,256,171742,1,0,0:0:0:0:
132,272,171813,1,0,0:0:0:0:
192,272,171884,6,2,L|336:260,1,123.499994346619,6|0,0:0|0:0,0:0:0:0:
496,148,172168,1,0,0:0:0:0:
492,100,172239,1,0,0:0:0:0:
488,52,172310,1,2,0:0:0:0:
256,16,172452,2,0,L|264:160,1,123.499994346619
332,336,172736,1,0,0:0:0:0:
380,328,172807,1,0,0:0:0:0:
428,320,172878,1,0,0:0:0:0:
180,232,173021,6,0,B|80:224,2,82.3333295644126,4|0|0,0:0|0:0|0:0,0:0:0:0:
16,216,173305,2,0,B|24:116,2,82.3333295644126,2|0|0,0:0|0:0|0:0,0:0:0:0:
36,52,173589,2,0,B|118:58,2,82.3333295644126,2|0|0,0:0|0:0|0:0,0:0:0:0:
200,72,173873,2,0,B|193:154,2,82.3333295644126,2|0|0,0:0|0:0|0:0,0:0:0:0:
180,232,174157,5,6,0:0:0:0:
164,284,174228,1,0,0:0:0:0:
192,332,174300,1,0,0:0:0:0:
244,352,174371,1,0,0:0:0:0:
300,340,174442,1,2,0:0:0:0:
328,292,174513,1,0,0:0:0:0:
368,252,174584,1,0,0:0:0:0:
424,240,174655,1,0,0:0:0:0:
476,260,174726,1,4,0:0:0:0:
476,204,174797,1,0,0:0:0:0:
492,152,174868,1,0,0:0:0:0:
508,100,174939,1,0,0:0:0:0:
496,44,175010,1,2,0:0:0:0:
448,12,175081,1,0,0:0:0:0:
392,16,175152,1,0,0:0:0:0:
352,56,175223,1,0,0:0:0:0:
360,112,175294,5,6,0:0:0:0:
300,116,175365,1,0,0:0:0:0:
264,168,175436,1,0,0:0:0:0:
280,228,175507,1,0,0:0:0:0:
336,256,175578,1,2,0:0:0:0:
356,316,175650,1,0,0:0:0:0:
328,372,175721,1,0,0:0:0:0:
268,384,175792,1,0,0:0:0:0:
212,360,175863,1,4,0:0:0:0:
196,300,175934,1,0,0:0:0:0:
204,240,176005,1,0,0:0:0:0:
184,180,176076,1,0,0:0:0:0:
132,148,176147,1,2,0:0:0:0:
72,148,176218,1,0,0:0:0:0:
20,184,176289,1,0,0:0:0:0:
8,244,176360,1,0,0:0:0:0:
20,304,176431,6,0,P|28:332|56:364,3,61.7499971733095,2|0|0|0,0:0|0:0|0:0|0:0,0:0:0:0:
156,372,176715,1,2,0:0:0:0:
216,356,176786,1,0,0:0:0:0:
256,308,176857,1,0,0:0:0:0:
252,248,176928,1,0,0:0:0:0:
216,196,177000,1,2,0:0:0:0:
156,188,177071,1,0,0:0:0:0:
100,164,177142,1,0,0:0:0:0:
72,108,177213,1,0,0:0:0:0:
76,48,177284,1,2,0:0:0:0:
120,4,177355,1,0,0:0:0:0:
180,0,177426,1,0,0:0:0:0:
240,20,177497,1,0,0:0:0:0:
256,80,177568,5,4,0:0:0:0:
256,80,179415,2,0,L|256:136,1,47.5
256,276,179557,1,4,0:0:0:0:
256,276,179842,6,0,B|188:288|188:288|120:276,1,132.999995941162,6|0,0:0|0:0,0:0:0:0:
12,256,180055,2,0,L|8:120,1,132.999995941162,2|0,0:0|0:0,0:0:0:0:
4,12,180268,1,2,0:0:0:0:
228,16,180410,1,2,0:0:0:0:
288,20,180481,1,0,0:0:0:0:
336,56,180552,1,0,0:0:0:0:
344,116,180623,1,2,0:0:0:0:
324,172,180694,1,0,0:0:0:0:
276,204,180765,1,0,0:0:0:0:
248,260,180836,1,2,0:0:0:0:
256,320,180907,1,0,0:0:0:0:
300,364,180978,6,0,P|360:376|428:360,1,132.999995941162,6|0,0:0|0:0,0:0:0:0:
508,276,181192,2,0,L|508:128,1,132.999995941162,2|0,0:0|0:0,0:0:0:0:
512,32,181405,1,2,0:0:0:0:
284,16,181547,1,2,0:0:0:0:
224,20,181618,1,0,0:0:0:0:
176,56,181689,1,0,0:0:0:0:
168,116,181760,1,2,0:0:0:0:
188,172,181831,1,0,0:0:0:0:
236,204,181902,1,0,0:0:0:0:
264,260,181973,1,2,0:0:0:0:
256,320,182044,1,0,0:0:0:0:
208,352,182115,6,0,L|76:336,1,132.999995941162,6|0,0:0|0:0,0:0:0:0:
0,260,182328,2,0,P|-8:192|8:128,1,132.999995941162,2|0,0:0|0:0,0:0:0:0:
32,20,182542,1,2,0:0:0:0:
256,16,182684,1,2,0:0:0:0:
288,68,182755,1,0,0:0:0:0:
344,84,182826,1,0,0:0:0:0:
404,76,182897,1,2,0:0:0:0:
460,92,182968,1,0,0:0:0:0:
500,136,183039,1,0,0:0:0:0:
512,196,183110,1,2,0:0:0:0:
496,252,183181,1,0,0:0:0:0:
452,292,183252,6,0,L|304:284,1,132.999995941162,6|0,0:0|0:0,0:0:0:0:
256,376,183465,2,0,L|108:368,1,132.999995941162,2|0,0:0|0:0,0:0:0:0:
12,360,183678,1,2,0:0:0:0:
8,116,183821,1,6,0:0:0:0:
60,148,183892,1,0,0:0:0:0:
120,152,183963,1,0,0:0:0:0:
176,132,184034,1,0,0:0:0:0:
216,84,184105,1,2,0:0:0:0:
272,60,184176,1,0,0:0:0:0:
332,60,184247,1,0,0:0:0:0:
384,92,184318,1,0,0:0:0:0:
408,144,184389,6,0,L|408:284,1,132.999995941162,6|0,0:0|0:0,0:0:0:0:
324,352,184602,1,0,0:0:0:0:
324,352,184673,2,0,B|256:368|256:368|188:352,1,132.999995941162
36,192,184957,1,6,0:0:0:0:
16,136,185028,1,0,0:0:0:0:
48,84,185100,1,0,0:0:0:0:
108,68,185171,1,0,0:0:0:0:
164,92,185242,1,2,0:0:0:0:
180,148,185313,1,0,0:0:0:0:
160,204,185384,1,0,0:0:0:0:
116,244,185455,1,0,0:0:0:0:
100,300,185526,5,6,0:0:0:0:
116,356,185597,1,0,0:0:0:0:
168,384,185668,1,0,0:0:0:0:
228,380,185739,1,0,0:0:0:0:
272,340,185810,1,2,0:0:0:0:
280,280,185881,1,0,0:0:0:0:
264,224,185952,1,0,0:0:0:0:
268,164,186023,1,0,0:0:0:0:
284,108,186094,1,2,0:0:0:0:
328,68,186165,1,0,0:0:0:0:
388,56,186236,1,0,0:0:0:0:
448,64,186307,1,0,0:0:0:0:
488,108,186378,1,2,0:0:0:0:
512,160,186450,1,0,0:0:0:0:
512,220,186521,1,0,0:0:0:0:
484,272,186592,1,0,0:0:0:0:
436,304,186663,5,6,0:0:0:0:
376,316,186734,1,0,0:0:0:0:
320,300,186805,1,0,0:0:0:0:
280,256,186876,1,0,0:0:0:0:
264,200,186947,1,2,0:0:0:0:
272,140,187018,1,0,0:0:0:0:
264,80,187089,1,0,0:0:0:0:
224,36,187160,1,0,0:0:0:0:
168,16,187231,1,2,0:0:0:0:
108,20,187302,1,0,0:0:0:0:
56,48,187373,1,0,0:0:0:0:
24,100,187444,1,0,0:0:0:0:
28,160,187515,1,2,0:0:0:0:
52,216,187586,1,0,0:0:0:0:
100,248,187657,1,0,0:0:0:0:
160,256,187728,1,0,0:0:0:0:
220,240,187800,6,0,L|296:236,3,66.4999979705811,4|0|0|0,0:0|0:0|0:0|0:0,0:0:0:0:
400,224,188084,1,0,0:0:0:0:
456,200,188155,1,0,0:0:0:0:
476,144,188226,1,0,0:0:0:0:
456,88,188297,1,0,0:0:0:0:
404,56,188368,1,0,0:0:0:0:
344,64,188439,1,0,0:0:0:0:
300,104,188510,1,0,0:0:0:0:
296,164,188581,1,0,0:0:0:0:
320,220,188652,1,0,0:0:0:0:
336,276,188723,1,0,0:0:0:0:
316,332,188794,1,0,0:0:0:0:
264,364,188865,1,0,0:0:0:0:
204,360,188936,6,0,L|60:352,1,132.999995941162,6|0,0:0|0:0,0:0:0:0:
8,256,189150,1,0,0:0:0:0:
8,256,189221,2,0,B|-4:188|-4:188|12:116,1,132.999995941162,2|0,0:0|0:0,0:0:0:0:
288,24,189505,2,0,B|301:86|301:86|289:154,1,132.999995941162,2|0,0:0|0:0,0:0:0:0:
256,264,189718,1,0,0:0:0:0:
256,264,189789,2,0,L|120:260,1,132.999995941162,2|0,0:0|0:0,0:0:0:0:
32,52,190073,5,6,0:0:0:0:
84,20,190144,1,0,0:0:0:0:
144,24,190215,1,0,0:0:0:0:
176,72,190286,1,0,0:0:0:0:
168,132,190357,1,2,0:0:0:0:
196,184,190428,1,0,0:0:0:0:
256,200,190500,1,0,0:0:0:0:
316,184,190571,1,0,0:0:0:0:
344,132,190642,1,6,0:0:0:0:
336,72,190713,1,0,0:0:0:0:
368,24,190784,1,0,0:0:0:0:
428,8,190855,1,0,0:0:0:0:
480,36,190926,1,2,0:0:0:0:
508,88,190997,1,0,0:0:0:0:
500,148,191068,1,0,0:0:0:0:
460,192,191139,1,0,0:0:0:0:
400,204,191210,6,0,L|396:348,1,132.999995941162,6|0,0:0|0:0,0:0:0:0:
284,368,191423,1,0,0:0:0:0:
284,368,191494,2,0,B|216:384|216:384|152:368,1,132.999995941162,2|0,0:0|0:0,0:0:0:0:
72,84,191778,2,0,B|140:68|140:68|204:84,1,132.999995941162,2|0,0:0|0:0,0:0:0:0:
308,120,191992,1,0,0:0:0:0:
308,120,192063,2,0,L|304:260,1,132.999995941162,2|0,0:0|0:0,0:0:0:0:
108,364,192347,5,6,0:0:0:0:
48,356,192418,1,0,0:0:0:0:
12,308,192489,1,0,0:0:0:0:
20,248,192560,1,0,0:0:0:0:
60,204,192631,1,2,0:0:0:0:
120,200,192702,1,0,0:0:0:0:
172,232,192773,1,0,0:0:0:0:
192,288,192844,1,0,0:0:0:0:
232,332,192915,1,6,0:0:0:0:
288,352,192986,1,0,0:0:0:0:
348,348,193057,1,0,0:0:0:0:
400,316,193128,1,0,0:0:0:0:
420,260,193200,1,6,0:0:0:0:
408,200,193271,1,0,0:0:0:0:
368,156,193342,1,0,0:0:0:0:
308,152,193413,1,0,0:0:0:0:
256,184,193484,6,0,L|256:260,3,66.4999979705811,6|0|0|0,0:0|0:0|0:0|0:0,0:0:0:0:
200,348,193768,1,0,0:0:0:0:
136,372,193839,1,0,0:0:0:0:
72,352,193910,1,0,0:0:0:0:
36,296,193981,1,0,0:0:0:0:
44,232,194052,1,0,0:0:0:0:
96,192,194123,1,0,0:0:0:0:
160,176,194194,1,0,0:0:0:0:
204,124,194265,1,0,0:0:0:0:
192,60,194336,1,0,0:0:0:0:
136,24,194407,1,0,0:0:0:0:
72,32,194478,1,0,0:0:0:0:
24,80,194550,1,0,0:0:0:0:
24,148,194621,5,6,0:0:0:0:
88,132,194692,1,0,0:0:0:0:
156,140,194763,1,0,0:0:0:0:
204,184,194834,1,0,0:0:0:0:
208,252,194905,1,0,0:0:0:0:
188,316,194976,1,0,0:0:0:0:
124,336,195047,1,2,0:0:0:0:
60,316,195118,1,0,0:0:0:0:
40,252,195189,1,0,0:0:0:0:
64,188,195260,1,0,0:0:0:0:
124,164,195331,1,0,0:0:0:0:
192,168,195402,1,0,0:0:0:0:
236,216,195473,1,2,0:0:0:0:
264,276,195544,1,0,0:0:0:0:
308,328,195615,1,0,0:0:0:0:
372,344,195686,1,0,0:0:0:0:
436,332,195757,5,6,0:0:0:0:
436,264,195828,1,0,0:0:0:0:
404,204,195900,1,0,0:0:0:0:
344,180,195971,1,0,0:0:0:0:
276,180,196042,1,0,0:0:0:0:
224,224,196113,1,0,0:0:0:0:
200,288,196184,1,0,0:0:0:0:
156,336,196255,1,0,0:0:0:0:
88,340,196326,1,0,0:0:0:0:
28,316,196397,1,0,0:0:0:0:
0,256,196468,1,0,0:0:0:0:
8,188,196539,1,0,0:0:0:0:
48,136,196610,1,0,0:0:0:0:
112,128,196681,1,0,0:0:0:0:
176,116,196752,1,0,0:0:0:0:
224,68,196823,1,0,0:0:0:0:
256,8,196894,5,6,0:0:0:0:
288,68,196965,1,0,0:0:0:0:
336,116,197036,1,0,0:0:0:0:
400,128,197107,1,0,0:0:0:0:
464,136,197178,1,0,0:0:0:0:
504,188,197250,1,0,0:0:0:0:
512,256,197321,1,0,0:0:0:0:
484,316,197392,1,0,0:0:0:0:
424,340,197463,1,0,0:0:0:0:
356,336,197534,1,0,0:0:0:0:
312,288,197605,1,0,0:0:0:0:
288,224,197676,1,0,0:0:0:0:
236,180,197747,1,0,0:0:0:0:
168,180,197818,1,0,0:0:0:0:
108,204,197889,1,0,0:0:0:0:
76,264,197960,1,0,0:0:0:0:
76,332,198031,5,6,0:0:0:0:
256,192,198102,12,4,200305,0:0:0:0:
