osu file format v14

[General]
AudioFilename: audio.mp3
AudioLeadIn: 2000
PreviewTime: 46831
Countdown: 0
SampleSet: Normal
StackLeniency: 0.2
Mode: 0
LetterboxInBreaks: 0
WidescreenStoryboard: 0

[Editor]
Bookmarks: 10452,19547,30915,40010,49105,58199,67294,76389,85484,93442,100263,102536,104810,123000,141189,159378,177568,198031
DistanceSpacing: 0.5
BeatDivisor: 4
GridSize: 4
TimelineZoom: 2.9

[Metadata]
Title:FREEDOM DiVE [METAL DIMENSIONS]
TitleUnicode:FREEDOM DiVE [METAL†DIMENSIONS]
Artist:xi remixed by cosMo@bousouP
ArtistUnicode:xi remixed by cosMo@暴走P
Creator:Cherry Blossom
Version:Hyper
Source:BMS
Tags:quietus ray maxbeat sdvx 4 sound voltex instrumental rock
BeatmapID:1921936
BeatmapSetID:905158

[Difficulty]
HPDrainRate:5
CircleSize:4
OverallDifficulty:7
ApproachRate:8
SliderMultiplier:1.5
SliderTickRate:1

[Events]
//Background and Video events
0,0,"md2.jpg",0,0
//Break Periods
2,67494,71092
2,102736,103492
2,123200,124523
2,177768,179092
//Storyboard Layer 0 (Background)
//Storyboard Layer 1 (Fail)
//Storyboard Layer 2 (Pass)
//Storyboard Layer 3 (Foreground)
//Storyboard Sound Samples

[TimingPoints]
221,284.210675900356,4,2,1,60,1,0
221,-133.333333333333,4,2,1,60,0,0
1642,-100,4,2,1,60,0,0
9315,-100,4,2,1,25,0,0
10452,-100,4,2,1,60,0,0
13863,-90.9090909090909,4,1,1,60,0,0
14999,-100,4,2,1,60,0,0
18410,-90.9090909090909,4,1,1,60,0,0
26368,-90.9090909090909,4,1,1,70,0,0
28642,-133.333333333333,4,1,1,60,0,0
29352,-133.333333333333,4,2,1,40,0,0
30347,-133.333333333333,4,2,1,60,0,0
30915,-90.9090909090909,4,1,1,60,0,0
49105,-86.9565217391304,4,1,1,70,0,1
67294,-86.9565217391304,4,1,1,70,0,0
71842,-100,4,1,1,50,0,0
76389,-100,4,2,1,50,0,0
85484,-90.9090909090909,4,2,1,60,0,0
92305,-90.9090909090909,4,1,1,60,0,0
104810,-86.9565217391304,4,1,1,70,0,1
123000,-100,4,1,1,70,0,0
125273,-86.9565217391304,4,1,1,70,0,1
141189,-90.9090909090909,4,1,1,60,0,0
157105,-90.9090909090909,4,1,1,70,0,0
159378,-86.9565217391304,4,1,1,70,0,1
177568,-100,4,1,1,70,0,0
179842,-83.3333333333333,4,1,1,75,0,1
198031,-90.9090909090909,4,1,1,75,0,0
198102,-90.9090909090909,4,1,1,60,0,0
200305,-90.9090909090909,4,1,1,75,0,0

[Colours]
Combo1 : 245,35,108
Combo2 : 41,26,238

[HitObjects]
120,96,221,6,0,P|256:64|392:96,2,281.250010728836,4|4|4,1:0|1:0|1:0,0:0:0:0:
256,192,1713,12,4,5905,1:0:0:0:
256,192,6047,12,0,9031,0:0:0:0:
256,44,9315,5,2,0:0:0:0:
256,52,9599,1,2,0:0:0:0:
256,60,9884,1,2,0:0:0:0:
256,68,10168,1,2,0:0:0:0:
256,76,10452,6,0,L|256:168,1,75,0|0,1:0|1:0,0:0:0:0:
296,232,10736,2,0,L|380:228,1,75,2|0,0:0|0:0,0:0:0:0:
460,228,11021,2,0,L|460:172,7,37.5,2|0|0|0|2|0|0|0,0:0|0:0|0:0|0:0|0:0|0:0|0:0|0:0,0:0:0:0:
480,160,11589,6,0,P|484:120|476:80,1,75,0|0,1:0|1:0,0:0:0:0:
408,32,11873,2,0,L|312:28,1,75,2|0,0:0|0:0,0:0:0:0:
256,76,12157,2,0,L|192:72,7,37.5,2|0|0|0|2|0|0|0,0:0|0:0|0:0|0:0|0:0|0:0|0:0|0:0,0:0:0:0:
184,92,12726,6,0,L|92:88,1,75,0|0,1:0|1:0,0:0:0:0:
36,140,13010,2,0,P|32:176|36:216,1,75,2|0,0:0|0:0,0:0:0:0:
104,276,13294,2,0,L|172:272,7,37.5,2|0|0|0|2|0|0|0,0:0|0:0|0:0|0:0|0:0|0:0|0:0|0:0,0:0:0:0:
184,268,13863,6,0,L|192:168,1,82.5000025177003,6|0,1:0|1:0,0:0:0:0:
256,112,14147,1,0,0:0:0:0:
321,185,14289,2,0,L|328:268,1,82.5000025177003,6|0,0:0|0:0,0:0:0:0:
344,364,14573,1,0,0:0:0:0:
344,364,14644,1,0,0:0:0:0:
344,364,14715,2,0,P|384:372|428:364,1,82.5000025177003,0|0,0:0|0:0,0:0:0:0:
492,304,14999,6,0,L|488:212,1,75,0|0,1:0|1:0,0:0:0:0:
460,144,15284,2,0,P|424:140|376:148,1,75,2|0,0:0|0:0,0:0:0:0:
324,212,15568,2,0,L|264:208,7,37.5,2|0|0|0|2|0|0|0,0:0|0:0|0:0|0:0|0:0|0:0|0:0|0:0,0:0:0:0:
256,232,16136,6,0,L|156:224,1,75,0|0,1:0|1:0,0:0:0:0:
92,220,16421,2,0,P|88:184|92:144,1,75,2|0,0:0|0:0,0:0:0:0:
112,56,16705,2,0,L|164:52,7,37.5,2|0|0|0|2|0|0|0,0:0|0:0|0:0|0:0|0:0|0:0|0:0|0:0,0:0:0:0:
184,84,17273,6,0,L|276:76,1,75,0|0,1:0|1:0,0:0:0:0:
336,124,17557,2,0,L|444:116,1,75,2|0,0:0|0:0,0:0:0:0:
492,160,17842,2,0,L|488:216,7,37.5,2|0|0|0|2|0|0|0,0:0|0:0|0:0|0:0|0:0|0:0|0:0|0:0,0:0:0:0:
464,232,18410,6,0,P|424:240|384:232,1,82.5000025177003,6|0,0:0|0:0,0:0:0:0:
296,184,18694,1,0,0:0:0:0:
212,236,18836,2,0,L|104:228,1,82.5000025177003,6|0,0:0|0:0,0:0:0:0:
32,220,19121,1,0,0:0:0:0:
32,220,19192,1,0,0:0:0:0:
32,220,19263,1,2,0:0:0:0:
216,352,19547,6,0,P|256:360|304:352,1,82.5000025177003,4|0,0:0|0:0,0:0:0:0:
364,284,19831,1,0,0:0:0:0:
452,328,19973,1,0,0:0:0:0:
452,328,20044,1,0,0:0:0:0:
452,328,20115,2,0,P|456:284|452:244,1,82.5000025177003,0|0,0:0|0:0,0:0:0:0:
412,156,20399,1,0,0:0:0:0:
320,196,20542,1,0,0:0:0:0:
320,196,20613,1,0,0:0:0:0:
320,196,20684,6,0,L|216:188,1,82.5000025177003,0|0,0:0|0:0,0:0:0:0:
148,228,20968,1,0,0:0:0:0:
192,316,21110,1,0,0:0:0:0:
192,316,21181,1,0,0:0:0:0:
192,316,21252,2,0,L|292:312,1,82.5000025177003,0|0,0:0|0:0,0:0:0:0:
372,308,21536,1,0,0:0:0:0:
256,108,21821,6,0,L|152:100,1,82.5000025177003,0|0,0:0|0:0,0:0:0:0:
76,96,22105,1,0,0:0:0:0:
32,184,22247,1,0,0:0:0:0:
32,184,22318,1,0,0:0:0:0:
32,184,22389,2,0,L|40:288,1,82.5000025177003,0|0,0:0|0:0,0:0:0:0:
52,364,22673,1,0,0:0:0:0:
132,304,22815,1,0,0:0:0:0:
132,304,22886,1,0,0:0:0:0:
132,304,22957,2,0,B|176:300|176:300|216:304,1,82.5000025177003,0|0,0:0|0:0,0:0:0:0:
300,352,23242,6,0,B|342:355|342:355|382:351,1,82.5000025177003,0|0,0:0|0:0,0:0:0:0:
472,308,23526,1,0,0:0:0:0:
432,216,23668,1,0,0:0:0:0:
432,216,23739,1,0,0:0:0:0:
432,216,23810,2,0,L|432:148,3,41.2500012588501,4|0|0|0,0:0|0:0|0:0|0:0,0:0:0:0:
420,136,24094,6,0,P|380:132|332:136,1,82.5000025177003,4|0,0:0|0:0,0:0:0:0:
256,192,24378,1,0,0:0:0:0:
174,134,24521,1,0,0:0:0:0:
174,134,24592,1,0,0:0:0:0:
174,134,24663,2,0,P|133:131|92:136,1,82.5000025177003,0|0,0:0|0:0,0:0:0:0:
20,204,24947,1,0,0:0:0:0:
92,272,25089,1,0,0:0:0:0:
92,272,25160,1,0,0:0:0:0:
92,272,25231,6,0,P|133:274|174:270,1,82.5000025177003,0|0,0:0|0:0,0:0:0:0:
256,216,25515,1,0,0:0:0:0:
340,268,25657,1,0,0:0:0:0:
340,268,25728,1,0,0:0:0:0:
340,268,25799,2,0,P|381:272|422:269,1,82.5000025177003,0|0,0:0|0:0,0:0:0:0:
476,184,26084,1,4,0:0:0:0:
256,52,26368,6,0,L|152:48,1,82.5000025177003,4|0,0:0|0:0,0:0:0:0:
256,132,26652,2,0,L|360:128,1,82.5000025177003,4|0,0:0|0:0,0:0:0:0:
256,212,26936,2,0,L|152:208,1,82.5000025177003,4|0,0:0|0:0,0:0:0:0:
256,292,27221,2,0,L|360:288,1,82.5000025177003,4|0,0:0|0:0,0:0:0:0:
440,288,27505,6,0,L|444:236,7,41.2500012588501,4|0|0|0|4|0|0|0,0:0|0:0|0:0|0:0|0:0|0:0|0:0|0:0,0:0:0:0:
448,204,28073,2,0,L|452:152,7,41.2500012588501,4|0|0|0|4|0|0|0,0:0|0:0|0:0|0:0|0:0|0:0|0:0|0:0,0:0:0:0:
456,120,28642,6,2,P|412:44|256:96,1,281.250010728836,4|0,0:0|0:0,0:0:0:0:
256,176,29494,2,0,L|256:228,11,28.1250010728836,2|0|0|0|2|0|0|0|2|0|0|0,0:0|0:0|0:0|0:0|0:0|0:0|0:0|0:0|0:0|0:0|0:0|0:0,0:0:0:0:
256,232,30347,6,0,L|256:276,7,28.1250010728836,2|0|0|0|2|0|0|0,0:0|0:0|0:0|0:0|0:0|0:0|0:0|0:0,0:0:0:0:
236,296,30915,6,0,L|132:292,1,82.5000025177003,6|0,0:0|0:0,0:0:0:0:
56,288,31199,1,0,0:0:0:0:
56,288,31271,1,0,0:0:0:0:
56,288,31342,1,0,0:0:0:0:
20,196,31484,2,0,L|16:92,1,82.5000025177003,2|0,0:0|0:0,0:0:0:0:
8,16,31768,1,2,0:0:0:0:
8,16,31839,1,0,0:0:0:0:
8,16,31910,1,0,0:0:0:0:
96,60,32052,6,0,L|192:52,1,82.5000025177003,6|0,0:0|0:0,0:0:0:0:
176,152,32336,2,0,L|272:144,1,82.5000025177003,2|0,0:0|0:0,0:0:0:0:
268,44,32621,2,0,L|364:36,1,82.5000025177003,6|0,0:0|0:0,0:0:0:0:
348,136,32905,2,0,L|444:128,1,82.5000025177003,2|0,0:0|0:0,0:0:0:0:
484,212,33189,6,0,L|480:304,1,82.5000025177003,6|0,0:0|0:0,0:0:0:0:
408,360,33473,1,2,0:0:0:0:
408,360,33544,1,0,0:0:0:0:
408,360,33615,1,0,0:0:0:0:
336,292,33757,2,0,P|256:276|176:292,1,165.000005035401,2|0,0:0|0:0,0:0:0:0:
104,360,34184,1,0,0:0:0:0:
28,296,34326,6,0,L|20:196,1,82.5000025177003,6|0,0:0|0:0,0:0:0:0:
76,132,34610,2,0,B|120:124|120:124|164:132,1,82.5000025177003,2|0,0:0|0:0,0:0:0:0:
208,216,34894,2,0,L|204:320,1,82.5000025177003,2|0,0:0|0:0,0:0:0:0:
304,300,35178,2,0,L|300:217,1,82.5000025177003,2|0,0:0|0:0,0:0:0:0:
354,130,35463,6,0,B|392:124|392:124|436:132,1,82.5000025177003,6|0,0:0|0:0,0:0:0:0:
492,216,35747,1,2,0:0:0:0:
492,216,35818,1,0,0:0:0:0:
492,216,35889,1,0,0:0:0:0:
456,308,36031,2,0,L|344:304,1,82.5000025177003,2|0,0:0|0:0,0:0:0:0:
296,244,36315,1,2,0:0:0:0:
296,244,36386,1,0,0:0:0:0:
296,244,36457,1,0,0:0:0:0:
212,300,36599,6,0,L|120:292,1,82.5000025177003,6|0,0:0|0:0,0:0:0:0:
180,208,36884,2,0,L|76:200,1,82.5000025177003,2|0,0:0|0:0,0:0:0:0:
156,120,37168,2,0,L|48:112,1,82.5000025177003,2|0,0:0|0:0,0:0:0:0:
124,28,37452,2,0,L|224:24,1,82.5000025177003,2|0,0:0|0:0,0:0:0:0:
304,48,37736,6,0,P|312:92|304:136,1,82.5000025177003,6|0,0:0|0:0,0:0:0:0:
256,216,38021,1,2,0:0:0:0:
256,216,38092,1,0,0:0:0:0:
256,216,38163,1,0,0:0:0:0:
205,128,38305,2,0,L|108:124,1,82.5000025177003,6|0,0:0|0:0,0:0:0:0:
32,168,38589,1,2,0:0:0:0:
32,168,38660,1,0,0:0:0:0:
32,168,38731,1,0,0:0:0:0:
60,264,38873,6,0,L|160:256,1,82.5000025177003,6|0,0:0|0:0,0:0:0:0:
112,352,39157,2,0,L|212:344,1,82.5000025177003,6|0,0:0|0:0,0:0:0:0:
232,252,39442,2,0,L|332:244,1,82.5000025177003,6|0,0:0|0:0,0:0:0:0:
284,340,39726,2,0,L|384:332,1,82.5000025177003,6|0,0:0|0:0,0:0:0:0:
464,308,40010,6,0,L|468:216,1,82.5000025177003,6|0,0:0|0:0,0:0:0:0:
472,128,40294,1,0,0:0:0:0:
472,128,40365,1,0,0:0:0:0:
472,128,40436,1,0,0:0:0:0:
384,176,40578,2,0,P|344:180|300:176,1,82.5000025177003,2|0,0:0|0:0,0:0:0:0:
256,88,40863,1,2,0:0:0:0:
256,88,40934,1,0,0:0:0:0:
256,88,41005,1,0,0:0:0:0:
208,176,41147,6,0,L|108:168,1,82.5000025177003,6|0,0:0|0:0,0:0:0:0:
28,164,41431,2,0,L|20:264,1,82.5000025177003,2|0,0:0|0:0,0:0:0:0:
16,344,41715,2,0,L|98:350,1,82.5000025177003,6|0,0:0|0:0,0:0:0:0:
196,356,41999,2,0,L|202:273,1,82.5000025177003,2|0,0:0|0:0,0:0:0:0:
256,188,42284,6,0,B|296:180|296:180|344:192,1,82.5000025177003,6|0,0:0|0:0,0:0:0:0:
404,264,42568,1,2,0:0:0:0:
404,264,42639,1,0,0:0:0:0:
404,264,42710,1,0,0:0:0:0:
340,340,42852,2,0,B|256:356|256:356|176:340,1,165.000005035401,2|0,0:0|0:0,0:0:0:0:
84,312,43278,1,0,0:0:0:0:
88,212,43421,6,0,L|92:112,1,82.5000025177003,6|0,0:0|0:0,0:0:0:0:
128,36,43705,2,0,P|168:28|216:36,1,82.5000025177003,2|0,0:0|0:0,0:0:0:0:
304,64,43989,2,0,L|300:160,1,82.5000025177003,2|0,0:0|0:0,0:0:0:0:
348,232,44273,2,0,P|388:240|432:232,1,82.5000025177003,2|0,0:0|0:0,0:0:0:0:
476,144,44557,6,0,L|468:44,1,82.5000025177003,6|0,0:0|0:0,0:0:0:0:
384,8,44842,1,2,0:0:0:0:
384,8,44913,1,0,0:0:0:0:
384,8,44984,1,0,0:0:0:0:
304,64,45126,2,0,L|300:160,1,82.5000025177003,2|0,0:0|0:0,0:0:0:0:
212,192,45410,1,2,0:0:0:0:
212,192,45481,1,0,0:0:0:0:
212,192,45552,1,0,0:0:0:0:
144,120,45694,6,0,L|48:128,1,82.5000025177003,6|0,0:0|0:0,0:0:0:0:
120,204,45978,2,0,L|24:212,1,82.5000025177003,2|0,0:0|0:0,0:0:0:0:
100,288,46263,2,0,L|4:296,1,82.5000025177003,2|0,0:0|0:0,0:0:0:0:
76,372,46547,2,0,L|180:360,1,82.5000025177003,2|0,0:0|0:0,0:0:0:0:
256,344,46831,6,0,L|256:260,1,82.5000025177003,6|0,0:0|0:0,0:0:0:0:
216,172,47115,2,0,P|256:164|300:172,1,82.5000025177003,2|0,0:0|0:0,0:0:0:0:
392,200,47399,2,0,L|456:192,7,41.2500012588501,2|0|0|0|2|0|0|0,0:0|0:0|0:0|0:0|0:0|0:0|0:0|0:0,0:0:0:0:
460,162,47968,6,0,L|464:106,7,41.2500012588501,2|0|0|0|2|0|0|0,0:0|0:0|0:0|0:0|0:0|0:0|0:0|0:0,0:0:0:0:
468,70,48536,1,2,0:0:0:0:
468,70,49105,6,0,B|424:64|424:64|380:72,1,86.2500016450882,6|0,0:0|0:0,0:0:0:0:
340,84,49318,2,0,L|204:78,1,129.375002467632,2|2,0:0|0:0,0:0:0:0:
120,128,49673,2,0,B|112:172|112:172|120:216,1,86.2500016450882,2|0,0:0|0:0,0:0:0:0:
128,256,49886,2,0,L|268:252,1,129.375002467632,2|2,0:0|0:0,0:0:0:0:
326,174,50242,5,6,0:0:0:0:
412,232,50384,1,0,0:0:0:0:
412,232,50455,1,2,0:0:0:0:
412,232,50526,2,0,L|408:332,1,86.2500016450882,0|2,0:0|0:0,0:0:0:0:
316,364,50810,2,0,L|260:360,7,43.1250008225441,2|0|0|2|0|0|2|0,0:0|0:0|0:0|0:0|0:0|0:0|0:0|0:0,0:0:0:0:
236,340,51378,6,0,L|136:344,1,86.2500016450882,6|0,0:0|0:0,0:0:0:0:
108,328,51592,2,0,B|96:264|96:264|108:200,1,129.375002467632,2|2,0:0|0:0,0:0:0:0:
136,100,51947,2,0,L|240:92,1,86.2500016450882,2|0,0:0|0:0,0:0:0:0:
256,120,52160,2,0,L|396:108,1,129.375002467632,2|2,0:0|0:0,0:0:0:0:
480,152,52515,5,6,0:0:0:0:
444,248,52657,1,0,0:0:0:0:
444,248,52728,1,2,0:0:0:0:
444,248,52799,2,0,L|336:240,1,86.2500016450882,0|2,0:0|0:0,0:0:0:0:
256,228,53084,2,0,L|192:224,7,43.1250008225441,6|0|0|0|2|0|0|0,0:0|0:0|0:0|0:0|0:0|0:0|0:0|0:0,0:0:0:0:
168,224,53652,6,0,L|160:120,1,86.2500016450882,6|0,0:0|0:0,0:0:0:0:
200,44,53936,1,0,0:0:0:0:
200,44,54007,1,0,0:0:0:0:
200,44,54078,1,0,0:0:0:0:
292,96,54221,2,0,L|384:92,1,86.2500016450882,2|0,0:0|0:0,0:0:0:0:
476,128,54505,2,0,P|484:172|480:220,1,86.2500016450882,2|0,0:0|0:0,0:0:0:0:
480,316,54789,6,0,L|368:312,1,86.2500016450882,6|0,0:0|0:0,0:0:0:0:
313,248,55073,2,0,L|305:140,1,86.2500016450882,2|0,0:0|0:0,0:0:0:0:
205,160,55357,2,0,L|198:246,1,86.2500016450882,6|0,0:0|0:0,0:0:0:0:
118,312,55642,1,2,0:0:0:0:
118,312,55713,1,0,0:0:0:0:
118,312,55784,1,0,0:0:0:0:
36,248,55926,6,0,B|28:204|28:204|36:160,1,86.2500016450882,6|0,0:0|0:0,0:0:0:0:
80,72,56210,2,0,L|188:68,1,86.2500016450882,2|0,0:0|0:0,0:0:0:0:
212,160,56494,2,0,L|328:156,1,86.2500016450882,2|0,0:0|0:0,0:0:0:0:
340,64,56778,2,0,L|448:60,1,86.2500016450882,2|0,0:0|0:0,0:0:0:0:
496,136,57063,6,0,L|492:204,7,43.1250008225441,4|0|0|0|0|0|0|0,0:0|0:0|0:0|0:0|0:0|0:0|0:0|0:0,0:0:0:0:
512,212,57631,2,0,L|508:256,7,43.1250008225441,0|0|0|0|0|0|0|0,0:0|0:0|0:0|0:0|0:0|0:0|0:0|0:0,0:0:0:0:
504,308,58199,6,0,P|464:316|416:308,1,86.2500016450882,6|0,0:0|0:0,0:0:0:0:
336,248,58484,2,0,P|256:224|172:248,1,172.500003290176,2|2,0:0|0:0,0:0:0:0:
93,309,58910,1,0,0:0:0:0:
28,228,59052,2,0,L|24:128,1,86.2500016450882,2|0,0:0|0:0,0:0:0:0:
16,40,59336,6,0,L|80:32,7,43.1250008225441,6|0|0|0|2|0|0|0,0:0|0:0|0:0|0:0|0:0|0:0|0:0|0:0,0:0:0:0:
92,64,59905,2,0,L|188:56,1,86.2500016450882,6|0,0:0|0:0,0:0:0:0:
256,124,60189,2,0,L|364:116,1,86.2500016450882,2|0,0:0|0:0,0:0:0:0:
420,184,60473,6,0,P|424:232|420:276,1,86.2500016450882,6|0,0:0|0:0,0:0:0:0:
336,328,60757,2,0,P|256:360|180:328,1,172.500003290176,2|2,0:0|0:0,0:0:0:0:
256,256,61184,1,0,0:0:0:0:
160,220,61326,2,0,L|152:108,1,86.2500016450882,0|0,0:0|0:0,0:0:0:0:
144,32,61610,6,0,L|208:28,7,43.1250008225441,6|0|0|0|2|0|0|0,0:0|0:0|0:0|0:0|0:0|0:0|0:0|0:0,0:0:0:0:
216,60,62178,2,0,L|320:52,1,86.2500016450882,6|0,0:0|0:0,0:0:0:0:
392,104,62463,2,0,P|396:148|392:196,1,86.2500016450882,2|0,0:0|0:0,0:0:0:0:
388,296,62747,6,0,B|344:304|344:304|300:296,1,86.2500016450882,6|0,0:0|0:0,0:0:0:0:
256,204,63031,1,0,0:0:0:0:
256,204,63102,1,0,0:0:0:0:
256,204,63173,1,0,0:0:0:0:
208,296,63315,2,0,B|168:304|168:304|124:296,1,86.2500016450882,0|0,0:0|0:0,0:0:0:0:
44,232,63599,1,0,0:0:0:0:
40,212,63671,1,0,0:0:0:0:
36,192,63742,1,0,0:0:0:0:
32,172,63813,1,0,0:0:0:0:
28,152,63884,6,0,B|112:132|112:132|196:148,1,172.500003290176,6|0,0:0|0:0,0:0:0:0:
256,232,64310,2,0,L|256:328,2,86.2500016450882,2|0|0,0:0|0:0|0:0,0:0:0:0:
316,148,64736,1,2,0:0:0:0:
316,148,65021,6,0,L|376:144,7,43.1250008225441,6|0|0|0|0|0|0|0,0:0|0:0|0:0|0:0|0:0|0:0|0:0|0:0,0:0:0:0:
396,168,65589,2,0,L|452:164,7,43.1250008225441,0|0|0|0|0|0|0|0,0:0|0:0|0:0|0:0|0:0|0:0|0:0|0:0,0:0:0:0:
476,188,66157,6,0,L|472:296,1,86.2500016450882,6|0,0:0|0:0,0:0:0:0:
376,348,66442,2,0,L|368:240,1,86.2500016450882,0|0,0:0|0:0,0:0:0:0:
256,220,66726,2,0,L|252:328,1,86.2500016450882,0|0,0:0|0:0,0:0:0:0:
136,348,67010,2,0,L|128:240,1,86.2500016450882,4|0,0:0|0:0,0:0:0:0:
36,188,67294,5,4,0:0:0:0:
256,192,71842,12,0,74115,0:0:0:0:
256,192,74257,12,0,75252,0:0:0:0:
256,144,75821,6,0,L|256:64,5,50,0|0|0|0|0|0,0:0|0:0|0:0|0:0|0:0|0:0,0:0:0:0:
256,44,76389,6,0,L|408:36,1,150,4|0,1:0|1:0,0:0:0:0:
256,144,76957,2,0,L|104:136,1,150,0|0,1:0|1:0,0:0:0:0:
256,236,77526,6,0,L|408:228,1,150,0|0,1:0|1:0,0:0:0:0:
256,328,78094,2,0,L|104:320,1,150,0|0,1:0|1:0,0:0:0:0:
56,148,78663,6,0,B|128:128|128:128|212:148,1,150,0|0,1:0|1:0,0:0:0:0:
328,272,79231,2,0,B|256:292|256:292|172:272,1,150,0|0,1:0|1:0,0:0:0:0:
311,145,79799,6,0,L|400:148,1,75,0|0,1:0|1:0,0:0:0:0:
472,176,80084,2,0,P|480:216|472:256,1,75,0|0,1:0|1:0,0:0:0:0:
436,332,80368,1,0,1:0:0:0:
436,332,80439,1,0,1:0:0:0:
436,332,80510,1,0,1:0:0:0:
368,276,80652,2,0,L|284:272,1,75,0|0,1:0|1:0,0:0:0:0:
216,320,80936,6,0,L|44:312,1,150,4|0,1:0|1:0,0:0:0:0:
4,144,81505,2,0,L|153:150,1,150,0|0,1:0|1:0,0:0:0:0:
293,272,82073,6,0,L|465:264,1,150,0|0,1:0|1:0,0:0:0:0:
505,96,82642,2,0,L|355:102,1,150,0|0,1:0|1:0,0:0:0:0:
176,108,83210,6,0,L|180:268,1,150,0|0,1:0|1:0,0:0:0:0:
332,352,83778,2,0,L|328:202,1,150,0|0,1:0|1:0,0:0:0:0:
256,36,84347,6,0,L|164:32,1,75,0|0,1:0|1:0,0:0:0:0:
128,108,84631,2,0,L|32:104,1,75,0|0,1:0|1:0,0:0:0:0:
0,176,84915,2,0,L|4:224,7,37.5,0|0|0|0|0|0|0|0,1:0|0:0|1:0|1:0|1:0|1:0|1:0|1:0,0:0:0:0:
8,256,85484,6,0,L|120:248,1,82.5000025177003,4|0,1:0|0:0,0:0:0:0:
136,340,85768,2,0,L|248:332,1,82.5000025177003,0|0,1:0|0:0,0:0:0:0:
256,244,86052,2,0,L|368:236,1,82.5000025177003,4|0,1:0|0:0,0:0:0:0:
384,328,86336,2,0,L|496:320,1,82.5000025177003,0|0,1:0|0:0,0:0:0:0:
508,232,86621,6,0,P|508:144|468:80,1,165.000005035401,4|0,1:0|1:0,0:0:0:0:
376,48,87047,1,0,0:0:0:0:
296,108,87189,2,0,L|184:96,1,82.5000025177003,4|0,1:0|0:0,0:0:0:0:
148,24,87473,2,0,L|36:36,1,82.5000025177003,4|0,1:0|0:0,0:0:0:0:
4,112,87757,6,0,L|12:304,1,165.000005035401,4|0,1:0|1:0,0:0:0:0:
80,348,88184,1,0,0:0:0:0:
172,312,88326,2,0,L|180:144,1,165.000005035401,4|0,1:0|1:0,0:0:0:0:
256,84,88752,1,0,0:0:0:0:
336,144,88894,6,0,L|444:136,1,82.5000025177003,4|0,1:0|0:0,0:0:0:0:
492,200,89178,2,0,P|500:244|492:284,1,82.5000025177003,0|0,1:0|0:0,0:0:0:0:
424,352,89463,1,4,1:0:0:0:
424,352,89534,1,0,0:0:0:0:
424,352,89605,1,0,0:0:0:0:
340,300,89747,2,0,L|240:304,1,82.5000025177003,0|0,1:0|0:0,0:0:0:0:
168,264,90031,5,4,1:0:0:0:
196,68,90315,1,0,1:0:0:0:
64,216,90599,1,4,1:0:0:0:
256,164,90884,1,0,1:0:0:0:
448,216,91168,5,4,1:0:0:0:
316,68,91452,1,0,1:0:0:0:
344,264,91736,1,4,1:0:0:0:
440,92,92021,1,4,1:0:0:0:
256,164,92305,6,0,L|148:160,1,82.5000025177003,4|0,1:0|0:0,0:0:0:0:
100,224,92589,2,0,P|92:264|100:308,1,82.5000025177003,0|0,1:0|0:0,0:0:0:0:
176,368,92873,2,0,L|240:364,7,41.2500012588501,0|0|0|0|0|0|0|0,1:0|0:0|0:0|0:0|0:0|0:0|0:0|0:0,0:0:0:0:
256,348,93442,6,0,L|256:156,1,165.000005035401,4|0,0:0|0:0,0:0:0:0:
96,64,94010,2,0,P|176:44|256:60,1,165.000005035401,0|0,0:0|0:0,0:0:0:0:
415,178,94578,6,0,P|335:198|255:182,1,165.000005035401,4|0,0:0|0:0,0:0:0:0:
96,64,95147,2,0,L|100:232,1,165.000005035401,0|0,0:0|0:0,0:0:0:0:
256,348,95715,6,0,L|256:164,1,165.000005035401,4|0,0:0|0:0,0:0:0:0:
416,64,96284,2,0,L|412:232,1,165.000005035401,0|0,0:0|0:0,0:0:0:0:
256,348,96852,6,0,L|84:340,1,165.000005035401,4|0,0:0|0:0,0:0:0:0:
216,168,97421,2,0,L|308:164,1,82.5000025177003,0|0,0:0|0:0,0:0:0:0:
396,164,97705,1,0,0:0:0:0:
396,164,97776,1,0,0:0:0:0:
396,164,97847,1,0,0:0:0:0:
472,228,97989,6,0,P|476:272|472:320,1,82.5000025177003,4|0,0:0|0:0,0:0:0:0:
384,356,98273,2,0,L|280:352,1,82.5000025177003,0|0,0:0|0:0,0:0:0:0:
256,264,98557,2,0,L|256:160,1,82.5000025177003,0|0,0:0|0:0,0:0:0:0:
212,92,98842,2,0,L|129:95,1,82.5000025177003,0|0,0:0|0:0,0:0:0:0:
40,136,99126,6,0,P|36:180|40:228,1,82.5000025177003,4|0,0:0|0:0,0:0:0:0:
56,316,99410,2,0,L|160:312,1,82.5000025177003,0|0,0:0|0:0,0:0:0:0:
202,237,99694,2,0,L|206:133,1,82.5000025177003,0|0,0:0|0:0,0:0:0:0:
306,157,99978,2,0,L|309:239,1,82.5000025177003,0|0,0:0|0:0,0:0:0:0:
373,312,100263,6,0,L|456:316,1,82.5000025177003,4|0,0:0|0:0,0:0:0:0:
508,232,100547,2,0,L|511:149,1,82.5000025177003,0|0,0:0|0:0,0:0:0:0:
456,68,100831,2,0,L|373:64,1,82.5000025177003,0|0,0:0|0:0,0:0:0:0:
308,136,101115,2,0,L|304:218,1,82.5000025177003,0|0,0:0|0:0,0:0:0:0:
207,218,101400,6,0,L|204:136,1,82.5000025177003,4|0,0:0|0:0,0:0:0:0:
138,64,101684,2,0,L|56:68,1,82.5000025177003,0|0,0:0|0:0,0:0:0:0:
0,149,101968,2,0,L|4:232,1,82.5000025177003,0|0,0:0|0:0,0:0:0:0:
56,316,102252,2,0,L|138:312,1,82.5000025177003,0|0,0:0|0:0,0:0:0:0:
256,312,102536,5,6,0:0:0:0:
256,312,104242,6,0,L|256:232,7,41.2500012588501,2|0|0|0|0|0|0|0,0:0|0:0|0:0|0:0|0:0|0:0|0:0|0:0,0:0:0:0:
288,240,104810,6,0,B|328:232|328:232|376:240,1,86.2500016450882,6|0,0:0|0:0,0:0:0:0:
412,252,105023,2,0,L|416:108,1,129.375002467632,2|2,0:0|0:0,0:0:0:0:
380,28,105378,2,0,B|336:36|336:36|292:28,1,86.2500016450882,2|0,0:0|0:0,0:0:0:0:
256,8,105592,2,0,L|120:16,1,129.375002467632,2|2,0:0|0:0,0:0:0:0:
40,72,105947,5,6,0:0:0:0:
104,152,106089,1,0,0:0:0:0:
104,152,106160,1,2,0:0:0:0:
104,152,106231,2,0,L|100:252,1,86.2500016450882,0|2,0:0|0:0,0:0:0:0:
104,340,106515,2,0,L|168:332,7,43.1250008225441,2|0|0|2|0|0|2|0,0:0|0:0|0:0|0:0|0:0|0:0|0:0|0:0,0:0:0:0:
172,368,107084,6,0,L|268:360,1,86.2500016450882,6|0,0:0|0:0,0:0:0:0:
296,344,107297,2,0,P|312:280|300:216,1,129.375002467632,2|2,0:0|0:0,0:0:0:0:
212,168,107652,2,0,P|208:124|216:80,1,86.2500016450882,2|0,0:0|0:0,0:0:0:0:
256,64,107865,2,0,L|400:56,1,129.375002467632,2|2,0:0|0:0,0:0:0:0:
480,96,108221,5,6,0:0:0:0:
444,192,108363,1,0,0:0:0:0:
444,192,108434,1,2,0:0:0:0:
444,192,108505,2,0,L|340:188,1,86.2500016450882,0|2,0:0|0:0,0:0:0:0:
256,212,108789,2,0,L|196:208,7,43.1250008225441,6|0|0|0|2|0|0|0,0:0|0:0|0:0|0:0|0:0|0:0|0:0|0:0,0:0:0:0:
164,224,109357,6,0,L|172:328,1,86.2500016450882,6|0,0:0|0:0,0:0:0:0:
256,372,109642,1,0,0:0:0:0:
256,372,109713,1,0,0:0:0:0:
256,372,109784,1,0,0:0:0:0:
341,309,109926,2,0,L|348:224,1,86.2500016450882,2|0,0:0|0:0,0:0:0:0:
297,132,110210,2,0,P|255:124|213:132,1,86.2500016450882,2|0,0:0|0:0,0:0:0:0:
116,172,110494,6,0,L|120:260,1,86.2500016450882,6|0,0:0|0:0,0:0:0:0:
128,360,110778,2,0,B|172:368|172:368|216:360,1,86.2500016450882,2|0,0:0|0:0,0:0:0:0:
296,300,111063,2,0,B|340:292|340:292|384:300,1,86.2500016450882,2|0,0:0|0:0,0:0:0:0:
484,320,111347,1,2,0:0:0:0:
484,320,111418,1,0,0:0:0:0:
484,320,111489,1,0,0:0:0:0:
508,220,111631,6,0,L|500:116,1,86.2500016450882,6|0,0:0|0:0,0:0:0:0:
412,84,111915,2,0,L|316:76,1,86.2500016450882,2|0,0:0|0:0,0:0:0:0:
300,176,112200,2,0,L|204:168,1,86.2500016450882,2|0,0:0|0:0,0:0:0:0:
152,252,112484,2,0,L|56:244,1,86.2500016450882,2|0,0:0|0:0,0:0:0:0:
32,148,112768,6,0,L|36:100,7,43.1250008225441,4|0|0|0|0|0|0|0,0:0|0:0|0:0|0:0|0:0|0:0|0:0|0:0,0:0:0:0:
40,64,113336,2,0,L|88:56,7,43.1250008225441,0|0|0|0|0|0|0|0,0:0|0:0|0:0|0:0|0:0|0:0|0:0|0:0,0:0:0:0:
120,36,113905,6,0,L|232:28,1,86.2500016450882,6|0,0:0|0:0,0:0:0:0:
304,68,114189,2,0,P|340:140|328:228,1,172.500003290176,2|2,0:0|0:0,0:0:0:0:
256,304,114615,1,0,0:0:0:0:
184,228,114757,2,0,L|88:232,1,86.2500016450882,2|0,0:0|0:0,0:0:0:0:
20,300,115042,6,0,L|24:352,7,43.1250008225441,6|0|0|0|2|0|0|0,0:0|0:0|0:0|0:0|0:0|0:0|0:0|0:0,0:0:0:0:
60,368,115610,2,0,L|164:360,1,86.2500016450882,6|0,0:0|0:0,0:0:0:0:
208,280,115894,2,0,L|312:272,1,86.2500016450882,2|0,0:0|0:0,0:0:0:0:
364,348,116178,6,0,L|468:340,1,86.2500016450882,6|0,0:0|0:0,0:0:0:0:
508,256,116463,2,0,B|524:172|524:172|508:84,1,172.500003290176,2|2,0:0|0:0,0:0:0:0:
424,24,116889,1,0,0:0:0:0:
340,84,117031,2,0,L|336:196,1,86.2500016450882,0|0,0:0|0:0,0:0:0:0:
300,267,117315,6,0,B|256:275|256:275|216:267,1,86.2500016450882,6|0,0:0|0:0,0:0:0:0:
176,172,117600,1,2,0:0:0:0:
176,172,117671,1,0,0:0:0:0:
176,172,117742,1,0,0:0:0:0:
76,204,117884,2,0,L|76:312,1,86.2500016450882,6|0,0:0|0:0,0:0:0:0:
160,352,118168,1,2,0:0:0:0:
160,352,118239,1,0,0:0:0:0:
160,352,118310,1,0,0:0:0:0:
256,316,118452,6,0,L|256:208,1,86.2500016450882,6|0,0:0|0:0,0:0:0:0:
256,128,118736,1,0,0:0:0:0:
256,128,118807,1,0,0:0:0:0:
256,128,118878,1,0,0:0:0:0:
168,184,119021,2,0,B|124:192|124:192|84:184,1,86.2500016450882,0|0,0:0|0:0,0:0:0:0:
4,116,119305,1,0,0:0:0:0:
12,96,119376,1,0,0:0:0:0:
20,76,119447,1,0,0:0:0:0:
28,56,119518,1,0,0:0:0:0:
36,36,119589,6,0,B|124:20|124:20|208:36,1,172.500003290176,6|0,0:0|0:0,0:0:0:0:
256,128,120015,2,0,L|256:236,2,86.2500016450882,2|4|0,0:0|0:0|0:0,0:0:0:0:
304,36,120442,1,2,0:0:0:0:
304,36,120726,6,0,L|400:32,1,86.2500016450882,6|0,0:0|0:0,0:0:0:0:
480,80,121010,2,0,P|488:124|480:164,1,86.2500016450882,0|0,0:0|0:0,0:0:0:0:
412,240,121294,2,0,L|296:232,1,86.2500016450882,0|0,0:0|0:0,0:0:0:0:
256,156,121578,1,0,0:0:0:0:
256,156,121650,1,0,0:0:0:0:
256,156,121721,1,0,0:0:0:0:
188,236,121863,6,0,L|192:288,7,43.1250008225441,6|0|0|0|0|0|0|0,0:0|0:0|0:0|0:0|0:0|0:0|0:0|0:0,0:0:0:0:
232,292,122431,2,0,L|236:344,7,43.1250008225441,0|0|0|0|0|0|0|0,0:0|0:0|0:0|0:0|0:0|0:0|0:0|0:0,0:0:0:0:
256,372,123000,5,4,0:0:0:0:
256,372,125273,6,0,L|256:268,1,86.2500016450882,6|0,0:0|0:0,0:0:0:0:
224,256,125486,2,0,B|160:244|160:244|96:256,1,129.375002467632,2|2,0:0|0:0,0:0:0:0:
8,200,125842,2,0,L|4:88,1,86.2500016450882,2|0,0:0|0:0,0:0:0:0:
4,72,126055,2,0,B|68:84|68:84|132:72,1,129.375002467632,2|2,0:0|0:0,0:0:0:0:
216,12,126410,5,6,0:0:0:0:
300,72,126552,1,0,0:0:0:0:
300,72,126623,1,2,0:0:0:0:
300,72,126694,2,0,L|292:176,1,86.2500016450882,0|2,0:0|0:0,0:0:0:0:
256,252,126978,2,0,L|184:248,7,43.1250008225441,6|0|0|0|2|0|0|0,0:0|0:0|0:0|0:0|0:0|0:0|0:0|0:0,0:0:0:0:
180,280,127547,6,0,L|76:272,1,86.2500016450882,6|0,0:0|0:0,0:0:0:0:
32,192,127831,1,0,0:0:0:0:
32,192,127902,1,0,0:0:0:0:
32,192,127973,1,0,0:0:0:0:
92,108,128115,2,0,L|196:104,1,86.2500016450882,2|0,0:0|0:0,0:0:0:0:
256,176,128400,2,0,L|256:276,1,86.2500016450882,2|0,0:0|0:0,0:0:0:0:
324,340,128684,6,0,B|368:348|368:348|416:340,1,86.2500016450882,6|0,0:0|0:0,0:0:0:0:
488,276,128968,1,2,0:0:0:0:
488,276,129039,1,0,0:0:0:0:
488,276,129110,1,0,0:0:0:0:
428,192,129252,2,0,B|387:185|387:185|343:193,1,86.2500016450882,2|0,0:0|0:0,0:0:0:0:
256,248,129536,1,2,0:0:0:0:
256,248,129607,1,0,0:0:0:0:
256,248,129678,1,0,0:0:0:0:
164,196,129821,6,0,L|160:116,5,57.5000010967255,6|0|0|2|0|0,0:0|0:0|0:0|0:0|0:0|0:0,0:0:0:0:
104,120,130389,2,0,L|100:52,5,57.5000010967255,2|0|0|2|0|0,0:0|0:0|0:0|0:0|0:0|0:0,0:0:0:0:
128,12,130957,6,0,L|288:4,2,129.375002467632,4|4|4,0:0|0:0|0:0,0:0:0:0:
28,36,131526,2,0,L|24:136,1,86.2500016450882,6|0,0:0|0:0,0:0:0:0:
20,224,131810,1,0,0:0:0:0:
20,224,131881,1,0,0:0:0:0:
20,224,131952,1,0,0:0:0:0:
104,284,132094,6,0,L|196:280,1,86.2500016450882,6|0,0:0|0:0,0:0:0:0:
256,200,132378,2,0,L|460:208,1,172.500003290176,2|2,0:0|0:0,0:0:0:0:
500,284,132805,1,0,0:0:0:0:
432,360,132947,2,0,L|336:352,1,86.2500016450882,2|0,0:0|0:0,0:0:0:0:
256,300,133231,6,0,L|200:304,7,43.1250008225441,6|0|0|0|2|0|0|0,0:0|0:0|0:0|0:0|0:0|0:0|0:0|0:0,0:0:0:0:
180,332,133800,2,0,L|72:324,1,86.2500016450882,6|0,0:0|0:0,0:0:0:0:
16,256,134084,2,0,L|12:144,1,86.2500016450882,2|0,0:0|0:0,0:0:0:0:
68,84,134368,2,0,P|112:80|156:84,1,86.2500016450882,6|0,0:0|0:0,0:0:0:0:
256,100,134652,6,0,L|256:288,1,172.500003290176,2|2,0:0|0:0,0:0:0:0:
204,364,135078,1,0,0:0:0:0:
308,364,135221,2,0,B|352:372|352:372|396:364,1,86.2500016450882,0|0,0:0|0:0,0:0:0:0:
476,304,135505,6,0,L|472:240,7,43.1250008225441,6|0|0|0|2|0|0|0,0:0|0:0|0:0|0:0|0:0|0:0|0:0|0:0,0:0:0:0:
488,220,136073,2,0,L|480:120,1,86.2500016450882,6|0,0:0|0:0,0:0:0:0:
472,32,136357,2,0,P|428:24|384:32,1,86.2500016450882,2|0,0:0|0:0,0:0:0:0:
300,88,136642,6,0,L|304:200,1,86.2500016450882,6|0,0:0|0:0,0:0:0:0:
208,216,136926,1,0,0:0:0:0:
208,216,136997,1,0,0:0:0:0:
208,216,137068,1,0,0:0:0:0:
148,132,137210,2,0,P|106:126|64:134,1,86.2500016450882,0|0,0:0|0:0,0:0:0:0:
8,220,137494,1,0,0:0:0:0:
12,240,137565,1,0,0:0:0:0:
16,260,137636,1,0,0:0:0:0:
20,280,137707,1,0,0:0:0:0:
24,300,137778,6,0,P|104:324|188:304,1,172.500003290176,6|0,0:0|0:0,0:0:0:0:
256,224,138205,2,0,L|256:132,2,86.2500016450882,2|4|0,0:0|0:0|0:0,0:0:0:0:
324,304,138631,1,2,0:0:0:0:
324,304,138915,6,0,L|396:296,7,43.1250008225441,6|0|0|0|0|0|0|0,0:0|0:0|0:0|0:0|0:0|0:0|0:0|0:0,0:0:0:0:
404,324,139484,2,0,L|476:316,7,43.1250008225441,0|0|0|0|0|0|0|0,0:0|0:0|0:0|0:0|0:0|0:0|0:0|0:0,0:0:0:0:
480,292,140052,6,0,P|484:248|480:204,1,86.2500016450882,6|0,0:0|0:0,0:0:0:0:
460,104,140336,1,0,0:0:0:0:
440,100,140407,1,0,0:0:0:0:
420,96,140478,1,0,0:0:0:0:
400,92,140550,1,0,0:0:0:0:
380,88,140621,2,0,L|280:96,1,86.2500016450882,0|0,0:0|0:0,0:0:0:0:
216,164,140905,1,0,0:0:0:0:
196,160,140976,1,0,0:0:0:0:
176,156,141047,1,0,0:0:0:0:
156,152,141118,1,0,0:0:0:0:
136,148,141189,6,0,L|36:155,1,82.5000025177003,6|0,0:0|0:0,0:0:0:0:
0,236,141473,2,0,P|-4:280|0:328,1,82.5000025177003,0|0,0:0|0:0,0:0:0:0:
80,372,141757,1,0,0:0:0:0:
136,288,141900,1,0,0:0:0:0:
136,288,141971,1,0,0:0:0:0:
136,288,142042,2,0,L|228:292,1,82.5000025177003,0|0,0:0|0:0,0:0:0:0:
292,356,142326,6,0,L|392:348,1,82.5000025177003,0|0,0:0|0:0,0:0:0:0:
464,312,142610,2,0,P|468:268|464:228,1,82.5000025177003,0|0,0:0|0:0,0:0:0:0:
444,132,142894,1,0,0:0:0:0:
444,132,142965,1,0,0:0:0:0:
444,132,143036,1,0,0:0:0:0:
372,200,143178,2,0,L|268:196,1,82.5000025177003,0|0,0:0|0:0,0:0:0:0:
220,124,143463,6,0,L|124:128,1,82.5000025177003,6|0,0:0|0:0,0:0:0:0:
52,176,143747,2,0,L|60:280,1,82.5000025177003,0|0,0:0|0:0,0:0:0:0:
76,356,144031,1,0,0:0:0:0:
172,340,144173,1,0,0:0:0:0:
172,340,144244,1,0,0:0:0:0:
172,340,144315,2,0,L|176:240,1,82.5000025177003,0|0,0:0|0:0,0:0:0:0:
216,164,144600,6,0,P|256:160|304:164,1,82.5000025177003,0|0,0:0|0:0,0:0:0:0:
392,188,144884,2,0,L|392:296,1,82.5000025177003,0|0,0:0|0:0,0:0:0:0:
392,368,145168,1,0,0:0:0:0:
392,368,145239,1,0,0:0:0:0:
392,368,145310,1,0,0:0:0:0:
300,328,145452,2,0,L|200:332,1,82.5000025177003,0|0,0:0|0:0,0:0:0:0:
124,304,145736,6,0,B|116:264|116:264|124:220,1,82.5000025177003,6|0,0:0|0:0,0:0:0:0:
140,124,146021,2,0,L|240:120,1,82.5000025177003,0|0,0:0|0:0,0:0:0:0:
292,192,146305,1,0,0:0:0:0:
376,140,146447,1,0,0:0:0:0:
376,140,146518,1,0,0:0:0:0:
376,140,146589,2,0,L|472:136,1,82.5000025177003,0|0,0:0|0:0,0:0:0:0:
504,224,146873,6,0,L|500:324,1,82.5000025177003,0|0,0:0|0:0,0:0:0:0:
416,356,147157,2,0,L|408:264,1,82.5000025177003,0|0,0:0|0:0,0:0:0:0:
328,216,147442,1,0,0:0:0:0:
328,216,147513,1,0,0:0:0:0:
328,216,147584,1,0,0:0:0:0:
256,284,147726,2,0,L|152:276,1,82.5000025177003,0|0,0:0|0:0,0:0:0:0:
116,196,148010,6,0,L|112:96,1,82.5000025177003,6|0,0:0|0:0,0:0:0:0:
208,136,148294,2,0,L|204:36,1,82.5000025177003,0|0,0:0|0:0,0:0:0:0:
304,52,148578,2,0,L|300:134,1,82.5000025177003,6|0,0:0|0:0,0:0:0:0:
399,113,148863,2,0,L|396:196,1,82.5000025177003,0|0,0:0|0:0,0:0:0:0:
392,296,149147,5,6,0:0:0:0:
296,276,149289,1,0,0:0:0:0:
296,276,149360,1,0,0:0:0:0:
296,276,149431,2,0,B|256:268|256:268|216:276,1,82.5000025177003,0|0,0:0|0:0,0:0:0:0:
120,296,149715,2,0,L|72:292,7,41.2500012588501,0|0|0|0|0|0|0|0,0:0|0:0|0:0|0:0|0:0|0:0|0:0|0:0,0:0:0:0:
36,288,150284,6,0,L|32:168,1,82.5000025177003,6|0,0:0|0:0,0:0:0:0:
56,108,150568,1,0,0:0:0:0:
128,176,150710,1,0,0:0:0:0:
128,176,150781,1,0,0:0:0:0:
128,176,150852,2,0,B|168:184|168:184|212:176,1,82.5000025177003,0|0,0:0|0:0,0:0:0:0:
300,132,151136,2,0,B|340:124|340:124|384:132,1,82.5000025177003,0|0,0:0|0:0,0:0:0:0:
456,196,151421,6,0,L|452:312,1,82.5000025177003,6|0,0:0|0:0,0:0:0:0:
376,340,151705,2,0,L|373:257,1,82.5000025177003,0|0,0:0|0:0,0:0:0:0:
296,196,151989,2,0,L|292:312,1,82.5000025177003,6|0,0:0|0:0,0:0:0:0:
216,340,152273,2,0,L|213:257,1,82.5000025177003,0|0,0:0|0:0,0:0:0:0:
136,196,152557,6,0,L|44:192,1,82.5000025177003,6|0,0:0|0:0,0:0:0:0:
20,100,152842,2,0,L|120:100,1,82.5000025177003,0|0,0:0|0:0,0:0:0:0:
184,40,153126,1,0,0:0:0:0:
256,108,153268,1,0,0:0:0:0:
256,108,153339,1,0,0:0:0:0:
256,108,153410,2,0,L|256:208,1,82.5000025177003,0|0,0:0|0:0,0:0:0:0:
304,276,153694,6,0,P|344:280|392:272,1,82.5000025177003,6|0,0:0|0:0,0:0:0:0:
476,232,153978,2,0,L|472:132,1,82.5000025177003,0|0,0:0|0:0,0:0:0:0:
468,52,154263,1,0,0:0:0:0:
468,52,154334,1,0,0:0:0:0:
468,52,154405,1,0,0:0:0:0:
384,104,154547,2,0,L|288:96,1,82.5000025177003,0|0,0:0|0:0,0:0:0:0:
212,56,154831,6,0,L|100:60,1,82.5000025177003,6|0,0:0|0:0,0:0:0:0:
32,68,155115,2,0,L|28:240,1,165.000005035401,0|0,0:0|0:0,0:0:0:0:
36,332,155542,1,0,0:0:0:0:
128,296,155684,2,0,B|168:288|168:288|212:296,1,82.5000025177003,0|0,0:0|0:0,0:0:0:0:
300,328,155968,6,0,B|341:335|341:335|381:327,1,82.5000025177003,0|0,0:0|0:0,0:0:0:0:
480,308,156252,2,0,L|476:208,1,82.5000025177003,0|0,0:0|0:0,0:0:0:0:
468,128,156536,1,0,0:0:0:0:
388,184,156678,1,0,0:0:0:0:
388,184,156750,1,0,0:0:0:0:
388,184,156821,1,0,0:0:0:0:
256,28,157105,6,0,L|352:24,1,82.5000025177003,4|0,0:0|0:0,0:0:0:0:
256,108,157389,2,0,L|160:104,1,82.5000025177003,4|0,0:0|0:0,0:0:0:0:
256,188,157673,2,0,L|352:184,1,82.5000025177003,4|0,0:0|0:0,0:0:0:0:
256,268,157957,2,0,L|160:264,1,82.5000025177003,4|0,0:0|0:0,0:0:0:0:
256,344,158242,5,6,0:0:0:0:
256,344,158810,2,0,L|324:336,7,41.2500012588501,0|0|0|0|0|0|0|0,0:0|0:0|0:0|0:0|0:0|0:0|0:0|0:0,0:0:0:0:
340,332,159378,6,0,P|380:208|340:88,1,258.750004935265,6|0,0:0|0:0,0:0:0:0:
256,32,159947,2,0,L|184:36,7,43.1250008225441,6|0|0|0|0|0|0|0,0:0|0:0|0:0|0:0|0:0|0:0|0:0|0:0,0:0:0:0:
176,56,160515,6,0,L|180:168,1,86.2500016450882,4|0,0:0|0:0,0:0:0:0:
256,216,160800,1,0,0:0:0:0:
256,216,160871,1,0,0:0:0:0:
256,216,160942,1,0,0:0:0:0:
196,300,161084,2,0,L|92:292,1,86.2500016450882,2|0,0:0|0:0,0:0:0:0:
8,276,161368,1,2,0:0:0:0:
20,172,161510,1,0,0:0:0:0:
20,172,161581,1,0,0:0:0:0:
20,172,161652,6,0,L|16:116,7,43.1250008225441,6|0|0|0|0|0|0|0,0:0|0:0|0:0|0:0|0:0|0:0|0:0|0:0,0:0:0:0:
48,96,162221,2,0,L|44:40,7,43.1250008225441,2|0|0|0|0|0|0|0,0:0|0:0|0:0|0:0|0:0|0:0|0:0|0:0,0:0:0:0:
76,24,162789,6,0,L|192:20,1,86.2500016450882,4|0,0:0|0:0,0:0:0:0:
256,68,163073,1,2,0:0:0:0:
256,68,163144,1,0,0:0:0:0:
256,68,163215,1,0,0:0:0:0:
212,160,163357,2,0,L|104:164,1,86.2500016450882,4|0,0:0|0:0,0:0:0:0:
32,212,163642,1,2,0:0:0:0:
36,232,163713,1,0,0:0:0:0:
40,252,163784,1,0,0:0:0:0:
44,272,163855,1,0,0:0:0:0:
48,292,163926,6,0,P|160:344|256:266,1,258.750004935265,2|0,0:0|0:0,0:0:0:0:
256,164,164494,2,0,L|256:108,7,43.1250008225441,2|0|0|0|2|0|0|0,0:0|0:0|0:0|0:0|0:0|0:0|0:0|0:0,0:0:0:0:
276,84,165063,6,0,L|364:80,1,86.2500016450882,6|0,0:0|0:0,0:0:0:0:
448,76,165347,1,2,0:0:0:0:
448,76,165418,1,0,0:0:0:0:
448,76,165489,1,0,0:0:0:0:
500,144,165631,2,0,L|492:244,1,86.2500016450882,2|0,0:0|0:0,0:0:0:0:
484,316,165915,1,2,0:0:0:0:
464,324,165986,1,0,0:0:0:0:
444,332,166057,1,0,0:0:0:0:
424,340,166128,1,0,0:0:0:0:
404,344,166200,6,0,L|336:340,7,43.1250008225441,4|0|0|0|2|0|0|0,0:0|0:0|0:0|0:0|0:0|0:0|0:0|0:0,0:0:0:0:
320,360,166768,2,0,L|220:356,1,86.2500016450882,4|0,0:0|0:0,0:0:0:0:
180,268,167052,2,0,L|176:148,1,86.2500016450882,2|0,0:0|0:0,0:0:0:0:
192,80,167336,6,0,P|256:68|320:80,2,129.375002467632,4|4|4,0:0|0:0|0:0,0:0:0:0:
96,120,167905,2,0,B|52:112|52:112|8:120,1,86.2500016450882,6|0,0:0|0:0,0:0:0:0:
0,160,168118,2,0,L|4:296,1,129.375002467632,0|0,0:0|0:0,0:0:0:0:
76,360,168473,6,0,L|132:356,7,43.1250008225441,4|0|0|0|2|0|0|0,0:0|0:0|0:0|0:0|0:0|0:0|0:0|0:0,0:0:0:0:
140,320,169042,2,0,L|196:316,7,43.1250008225441,0|0|0|0|2|0|0|0,0:0|0:0|0:0|0:0|0:0|0:0|0:0|0:0,0:0:0:0:
212,348,169610,6,0,L|316:340,1,86.2500016450882,6|0,0:0|0:0,0:0:0:0:
380,280,169894,1,6,0:0:0:0:
380,280,169965,1,0,0:0:0:0:
380,280,170036,1,0,0:0:0:0:
300,216,170178,2,0,L|214:209,1,86.2500016450882,6|0,0:0|0:0,0:0:0:0:
132,144,170463,1,6,0:0:0:0:
132,144,170534,1,0,0:0:0:0:
132,144,170605,1,0,0:0:0:0:
212,76,170747,6,0,L|264:72,7,43.1250008225441,4|0|0|0|2|0|0|0,0:0|0:0|0:0|0:0|0:0|0:0|0:0|0:0,0:0:0:0:
292,92,171315,2,0,L|344:88,7,43.1250008225441,4|0|0|0|2|0|0|0,0:0|0:0|0:0|0:0|0:0|0:0|0:0|0:0,0:0:0:0:
376,100,171884,6,0,P|400:172|392:268,1,172.500003290176,6|0,0:0|0:0,0:0:0:0:
348,360,172310,1,2,0:0:0:0:
256,312,172452,2,0,L|152:304,1,86.2500016450882,0|0,0:0|0:0,0:0:0:0:
68,296,172736,2,0,P|60:252|68:200,1,86.2500016450882,0|0,0:0|0:0,0:0:0:0:
88,108,173021,6,0,L|168:100,5,57.5000010967255,4|0|0|2|0|0,0:0|0:0|0:0|0:0|0:0|0:0,0:0:0:0:
200,124,173589,2,0,L|280:116,5,57.5000010967255,2|0|0|2|0|0,0:0|0:0|0:0|0:0|0:0|0:0,0:0:0:0:
312,140,174157,6,0,L|368:136,7,43.1250008225441,6|0|0|0|2|0|0|0,0:0|0:0|0:0|0:0|0:0|0:0|0:0|0:0,0:0:0:0:
388,164,174726,2,0,L|384:276,1,86.2500016450882,4|0,0:0|0:0,0:0:0:0:
336,340,175010,1,2,0:0:0:0:
316,336,175081,1,0,0:0:0:0:
296,332,175152,1,0,0:0:0:0:
276,328,175223,1,0,0:0:0:0:
256,324,175294,6,0,L|196:324,7,43.1250008225441,6|0|0|0|2|0|0|0,0:0|0:0|0:0|0:0|0:0|0:0|0:0|0:0,0:0:0:0:
176,304,175863,2,0,L|168:204,1,86.2500016450882,4|0,0:0|0:0,0:0:0:0:
156,116,176147,1,2,0:0:0:0:
160,96,176218,1,0,0:0:0:0:
164,76,176289,1,0,0:0:0:0:
168,56,176360,1,0,0:0:0:0:
172,36,176431,6,0,L|224:32,7,43.1250008225441,2|0|0|0|2|0|0|0,0:0|0:0|0:0|0:0|0:0|0:0|0:0|0:0,0:0:0:0:
256,52,177000,2,0,L|308:48,7,43.1250008225441,2|0|0|0|2|0|0|0,0:0|0:0|0:0|0:0|0:0|0:0|0:0|0:0,0:0:0:0:
340,64,177568,5,4,0:0:0:0:
340,64,179842,6,0,L|336:156,1,89.9999972534181,6|0,0:0|0:0,0:0:0:0:
324,196,180055,2,0,B|256:208|256:208|180:196,1,134.999995880127,2|2,0:0|0:0,0:0:0:0:
88,164,180410,2,0,L|96:284,1,89.9999972534181,2|0,0:0|0:0,0:0:0:0:
100,300,180623,2,0,B|165:289|165:289|233:301,1,134.999995880127,2|2,0:0|0:0,0:0:0:0:
336,336,180978,5,6,0:0:0:0:
388,240,181121,1,0,0:0:0:0:
388,240,181192,1,2,0:0:0:0:
388,240,181263,2,0,L|384:128,1,89.9999972534181,0|2,0:0|0:0,0:0:0:0:
380,44,181547,2,0,L|336:40,7,44.999998626709,2|0|0|2|0|0|2|0,0:0|0:0|0:0|0:0|0:0|0:0|0:0|0:0,0:0:0:0:
300,64,182115,6,0,L|184:56,1,89.9999972534181,6|0,0:0|0:0,0:0:0:0:
176,88,182328,2,0,L|40:76,1,134.999995880127,2|2,0:0|0:0,0:0:0:0:
0,176,182684,2,0,L|8:268,1,89.9999972534181,2|0,0:0|0:0,0:0:0:0:
12,312,182897,2,0,B|72:328|72:328|148:312,1,134.999995880127,2|2,0:0|0:0,0:0:0:0:
212,232,183252,5,6,0:0:0:0:
296,300,183394,1,0,0:0:0:0:
296,300,183465,1,2,0:0:0:0:
296,300,183536,2,0,L|408:296,1,89.9999972534181,0|2,0:0|0:0,0:0:0:0:
476,240,183821,2,0,L|480:192,7,44.999998626709,6|0|0|0|2|0|0|0,0:0|0:0|0:0|0:0|0:0|0:0|0:0|0:0,0:0:0:0:
484,152,184389,6,0,L|372:144,1,89.9999972534181,6|0,0:0|0:0,0:0:0:0:
312,76,184673,1,0,0:0:0:0:
312,76,184744,1,0,0:0:0:0:
312,76,184815,1,0,0:0:0:0:
256,168,184957,2,0,L|256:264,1,89.9999972534181,6|0,0:0|0:0,0:0:0:0:
188,340,185242,2,0,P|143:346|99:338,1,89.9999972534181,2|0,0:0|0:0,0:0:0:0:
32,256,185526,6,0,L|32:148,1,89.9999972534181,6|0,0:0|0:0,0:0:0:0:
100,84,185810,2,0,B|144:76|144:76|192:84,1,89.9999972534181,2|0,0:0|0:0,0:0:0:0:
256,168,186094,2,0,L|256:264,1,89.9999972534181,2|0,0:0|0:0,0:0:0:0:
320,344,186378,1,2,0:0:0:0:
320,344,186450,1,0,0:0:0:0:
320,344,186521,1,0,0:0:0:0:
420,304,186663,6,0,L|424:204,1,89.9999972534181,6|0,0:0|0:0,0:0:0:0:
428,108,186947,2,0,L|324:104,1,89.9999972534181,2|0,0:0|0:0,0:0:0:0:
300,204,187231,2,0,L|196:200,1,89.9999972534181,2|0,0:0|0:0,0:0:0:0:
176,100,187515,2,0,L|72:96,1,89.9999972534181,2|0,0:0|0:0,0:0:0:0:
28,188,187800,6,0,L|32:240,7,44.999998626709,4|0|0|0|0|0|0|0,0:0|0:0|0:0|0:0|0:0|0:0|0:0|0:0,0:0:0:0:
68,256,188368,2,0,L|72:308,7,44.999998626709,0|0|0|0|0|0|0|0,0:0|0:0|0:0|0:0|0:0|0:0|0:0|0:0,0:0:0:0:
100,336,188936,6,0,P|144:344|196:336,1,89.9999972534181,6|0,0:0|0:0,0:0:0:0:
256,252,189221,2,0,P|336:224|424:252,1,179.999994506836,2|2,0:0|0:0,0:0:0:0:
500,332,189647,1,0,0:0:0:0:
392,352,189789,2,0,P|348:360|304:352,1,89.9999972534181,2|0,0:0|0:0,0:0:0:0:
256,252,190073,6,0,L|256:200,7,44.999998626709,6|0|0|0|2|0|0|0,0:0|0:0|0:0|0:0|0:0|0:0|0:0|0:0,0:0:0:0:
256,160,190642,2,0,L|144:152,1,89.9999972534181,6|0,0:0|0:0,0:0:0:0:
60,156,190926,2,0,L|60:246,1,89.9999972534181,2|0,0:0|0:0,0:0:0:0:
60,352,191210,6,0,L|156:344,1,89.9999972534181,6|0,0:0|0:0,0:0:0:0:
255,331,191494,2,0,P|279:247|255:159,1,179.999994506836,2|2,0:0|0:0,0:0:0:0:
204,64,191921,1,0,0:0:0:0:
304,20,192063,2,0,L|404:16,1,89.9999972534181,2|0,0:0|0:0,0:0:0:0:
492,64,192347,6,0,P|500:112|492:156,1,89.9999972534181,6|0,0:0|0:0,0:0:0:0:
420,232,192631,1,2,0:0:0:0:
420,232,192702,1,0,0:0:0:0:
420,232,192773,1,0,0:0:0:0:
320,192,192915,2,0,L|308:92,1,89.9999972534181,6|0,0:0|0:0,0:0:0:0:
256,8,193200,1,6,0:0:0:0:
256,8,193271,1,0,0:0:0:0:
256,8,193342,1,0,0:0:0:0:
200,100,193484,6,0,L|140:96,7,44.999998626709,6|0|0|0|0|0|0|0,0:0|0:0|0:0|0:0|0:0|0:0|0:0|0:0,0:0:0:0:
116,120,194052,2,0,L|56:116,7,44.999998626709,0|0|0|0|0|0|0|0,0:0|0:0|0:0|0:0|0:0|0:0|0:0|0:0,0:0:0:0:
32,136,194621,6,0,L|40:244,1,89.9999972534181,6|0,0:0|0:0,0:0:0:0:
64,332,194905,1,0,0:0:0:0:
84,340,194976,1,0,0:0:0:0:
104,348,195047,1,2,0:0:0:0:
124,356,195118,1,0,0:0:0:0:
144,364,195189,2,0,L|204:360,7,44.999998626709,0|0|0|0|2|0|0|0,0:0|0:0|0:0|0:0|0:0|0:0|0:0|0:0,0:0:0:0:
232,356,195757,6,0,L|240:236,1,89.9999972534181,6|0,0:0|0:0,0:0:0:0:
256,160,196042,1,0,0:0:0:0:
276,156,196113,1,0,0:0:0:0:
300,152,196184,1,0,0:0:0:0:
324,148,196255,1,0,0:0:0:0:
348,144,196326,2,0,L|404:148,7,44.999998626709,0|0|0|0|0|0|0|0,0:0|0:0|0:0|0:0|0:0|0:0|0:0|0:0,0:0:0:0:
436,148,196894,6,0,L|444:264,1,89.9999972534181,6|0,0:0|0:0,0:0:0:0:
416,344,197178,2,0,B|372:352|372:352|328:344,1,89.9999972534181,0|0,0:0|0:0,0:0:0:0:
256,260,197463,1,0,0:0:0:0:
256,236,197534,1,0,0:0:0:0:
256,212,197605,1,0,0:0:0:0:
256,188,197676,1,0,0:0:0:0:
256,164,197747,1,0,0:0:0:0:
256,140,197818,1,0,0:0:0:0:
256,116,197889,1,0,0:0:0:0:
256,92,197960,1,0,0:0:0:0:
256,68,198031,5,6,0:0:0:0:
256,192,198102,12,4,200305,0:0:0:0:
