osu file format v14

[General]
AudioFilename: audio.mp3
AudioLeadIn: 2000
PreviewTime: 46831
Countdown: 0
SampleSet: Normal
StackLeniency: 0.2
Mode: 0
LetterboxInBreaks: 0
WidescreenStoryboard: 0

[Editor]
Bookmarks: 10452,19547,30915,40010,49105,58199,67294,76389,85484,93442,100263,102536,104810,123000,141189,159378,177568,198031
DistanceSpacing: 1.4
BeatDivisor: 4
GridSize: 4
TimelineZoom: 2.200001

[Metadata]
Title:FREEDOM DiVE [METAL DIMENSIONS]
TitleUnicode:FREEDOM DiVE [METAL†DIMENSIONS]
Artist:xi remixed by cosMo@bousouP
ArtistUnicode:xi remixed by cosMo@暴走P
Creator:Cherry Blossom
Version:Extra
Source:BMS
Tags:quietus ray maxbeat sdvx 4 sound voltex instrumental rock
BeatmapID:1907933
BeatmapSetID:905158

[Difficulty]
HPDrainRate:6
CircleSize:4
OverallDifficulty:8.5
ApproachRate:9.4
SliderMultiplier:1.9
SliderTickRate:1

[Events]
//Background and Video events
0,0,"md2.jpg",0,0
//Break Periods
2,67494,71278
//Storyboard Layer 0 (Background)
//Storyboard Layer 1 (Fail)
//Storyboard Layer 2 (Pass)
//Storyboard Layer 3 (Foreground)
//Storyboard Sound Samples

[TimingPoints]
221,284.210675900356,4,2,1,60,1,0
221,-200,4,2,1,60,0,0
1642,-100,4,2,1,60,0,0
9315,-100,4,2,1,25,0,0
10452,-100,4,2,1,60,0,0
13863,-83.3333333333333,4,1,1,60,0,0
14999,-100,4,2,1,60,0,0
18410,-83.3333333333333,4,1,1,60,0,0
26368,-83.3333333333333,4,1,1,70,0,0
28642,-200,4,1,1,60,0,0
29352,-200,4,2,1,40,0,0
30347,-200,4,2,1,60,0,0
30915,-83.3333333333333,4,1,1,60,0,0
49105,-76.9230769230769,4,1,1,70,0,1
67294,-76.9230769230769,4,1,1,70,0,0
71842,-100,4,1,1,50,0,0
76389,-100,4,2,1,50,0,0
85484,-83.3333333333333,4,2,1,60,0,0
92305,-83.3333333333333,4,1,1,60,0,0
104810,-76.9230769230769,4,1,1,70,0,1
123000,-100,4,1,1,70,0,0
125273,-76.9230769230769,4,1,1,70,0,1
141189,-83.3333333333333,4,1,1,60,0,0
157105,-83.3333333333333,4,1,1,70,0,0
159378,-76.9230769230769,4,1,1,70,0,1
177568,-100,4,1,1,70,0,0
179842,-71.4285714285714,4,1,1,75,0,1
198031,-83.3333333333333,4,1,1,75,0,0
198102,-83.3333333333333,4,1,1,60,0,0
200305,-83.3333333333333,4,1,1,75,0,0

[Colours]
Combo1 : 245,35,108
Combo2 : 41,26,238

[HitObjects]
211,120,221,6,0,P|187:192|211:304,1,190,4|0,1:0|0:0,0:0:0:0:
303,300,931,2,0,P|326:209|301:118,1,190,4|0,1:0|0:0,0:0:0:0:
256,41,1642,6,0,L|188:33,3,47.5,4|0|0|0,1:0|0:0|0:0|0:0,0:0:0:0:
164,53,1926,2,0,L|96:45,3,47.5,2|0|0|0,0:0|0:0|0:0|0:0,0:0:0:0:
80,77,2210,2,0,L|12:69,3,47.5,2|0|0|0,0:0|0:0|0:0|0:0,0:0:0:0:
4,109,2494,5,2,0:0:0:0:
0,145,2565,1,0,0:0:0:0:
16,177,2636,1,0,0:0:0:0:
48,197,2707,1,0,0:0:0:0:
84,201,2778,1,2,0:0:0:0:
120,189,2849,1,0,0:0:0:0:
148,161,2921,1,0,0:0:0:0:
184,145,2992,1,0,0:0:0:0:
220,145,3063,1,2,0:0:0:0:
256,153,3134,1,0,0:0:0:0:
288,173,3205,1,0,0:0:0:0:
316,200,3276,1,0,0:0:0:0:
324,236,3347,1,2,0:0:0:0:
324,272,3418,1,0,0:0:0:0:
316,308,3489,1,0,0:0:0:0:
292,340,3560,1,0,0:0:0:0:
256,352,3631,6,0,L|196:348,3,47.5,2|0|0|0,0:0|0:0|0:0|0:0,0:0:0:0:
180,312,3915,2,0,L|120:304,3,47.5,2|0|0|0,0:0|0:0|0:0|0:0,0:0:0:0:
112,264,4199,2,0,P|104:128|256:32,1,332.5,2|0,0:0|0:0,0:0:0:0:
255,31,4768,6,0,P|256:136|208:204,1,190,2|0,0:0|0:0,0:0:0:0:
208,203,5123,1,0,1:0:0:0:
209,203,5194,1,0,1:0:0:0:
209,203,5265,1,0,1:0:0:0:
208,203,5336,1,4,1:0:0:0:
255,31,5905,5,4,1:0:0:0:
256,192,5976,12,0,9031,0:0:0:0:
256,44,9315,5,2,0:0:0:0:
256,52,9599,1,2,0:0:0:0:
256,60,9884,1,2,0:0:0:0:
256,68,10168,1,2,0:0:0:0:
256,76,10452,6,0,L|256:192,1,95,0|0,1:0|1:0,0:0:0:0:
256,284,10736,1,2,0:0:0:0:
244,312,10807,1,0,0:0:0:0:
224,332,10878,1,0,0:0:0:0:
196,340,10949,1,0,0:0:0:0:
168,340,11021,1,2,0:0:0:0:
140,332,11092,1,0,0:0:0:0:
120,312,11163,1,0,0:0:0:0:
108,284,11234,1,0,0:0:0:0:
112,256,11305,2,0,L|124:200,3,47.5,2|0|0|0,0:0|0:0|0:0|0:0,0:0:0:0:
124,180,11589,6,0,L|12:172,1,95,0|0,1:0|1:0,0:0:0:0:
4,60,11873,1,2,0:0:0:0:
20,36,11944,1,0,0:0:0:0:
44,20,12015,1,0,0:0:0:0:
72,12,12086,1,0,0:0:0:0:
100,12,12157,1,2,0:0:0:0:
128,24,12228,1,0,0:0:0:0:
148,44,12299,1,0,0:0:0:0:
160,68,12371,1,0,0:0:0:0:
160,96,12442,2,0,L|152:160,3,47.5,2|0|0|0,0:0|0:0|0:0|0:0,0:0:0:0:
152,172,12726,6,0,L|164:284,1,95,0|0,1:0|1:0,0:0:0:0:
256,332,13010,1,2,0:0:0:0:
280,344,13081,1,0,0:0:0:0:
308,348,13152,1,0,0:0:0:0:
336,344,13223,1,0,0:0:0:0:
360,332,13294,1,2,0:0:0:0:
380,312,13365,1,0,0:0:0:0:
392,288,13436,1,0,0:0:0:0:
396,260,13507,1,0,0:0:0:0:
388,232,13578,2,0,L|376:176,3,47.5,2|0|0|0,0:0|0:0|0:0|0:0,0:0:0:0:
372,152,13863,6,0,L|496:148,1,113.999996520996,6|0,1:0|1:0,0:0:0:0:
340,20,14147,1,0,0:0:0:0:
196,152,14289,2,0,L|204:292,1,113.999996520996,6|0,0:0|0:0,0:0:0:0:
376,348,14573,1,0,0:0:0:0:
376,348,14644,1,0,0:0:0:0:
376,348,14715,1,0,0:0:0:0:
372,152,14857,1,0,0:0:0:0:
372,152,14928,1,0,0:0:0:0:
372,152,14999,6,0,L|368:40,1,95,0|0,1:0|1:0,0:0:0:0:
256,28,15284,1,2,0:0:0:0:
232,12,15355,1,0,0:0:0:0:
204,8,15426,1,0,0:0:0:0:
176,12,15497,1,0,0:0:0:0:
152,28,15568,1,2,0:0:0:0:
140,52,15639,1,0,0:0:0:0:
136,80,15710,1,0,0:0:0:0:
144,108,15781,1,0,0:0:0:0:
164,128,15852,2,0,L|160:188,3,47.5,2|0|0|0,0:0|0:0|0:0|0:0,0:0:0:0:
160,204,16136,6,0,L|52:200,1,95,0|0,1:0|1:0,0:0:0:0:
4,296,16421,1,2,0:0:0:0:
12,324,16492,1,0,0:0:0:0:
32,344,16563,1,0,0:0:0:0:
56,360,16634,1,0,0:0:0:0:
84,364,16705,1,2,0:0:0:0:
112,364,16776,1,0,0:0:0:0:
136,352,16847,1,0,0:0:0:0:
156,332,16918,1,0,0:0:0:0:
168,308,16989,2,0,L|164:232,3,47.5,2|0|0|0,0:0|0:0|0:0|0:0,0:0:0:0:
168,232,17273,6,0,L|180:108,1,95,0|0,1:0|1:0,0:0:0:0:
256,56,17557,1,2,0:0:0:0:
272,32,17628,1,0,0:0:0:0:
296,16,17699,1,0,0:0:0:0:
324,8,17771,1,0,0:0:0:0:
352,8,17842,1,2,0:0:0:0:
380,12,17913,1,0,0:0:0:0:
404,24,17984,1,0,0:0:0:0:
424,44,18055,1,0,0:0:0:0:
436,72,18126,2,0,L|432:140,3,47.5,2|0|0|0,0:0|0:0|0:0|0:0,0:0:0:0:
432,152,18410,6,0,B|380:164|380:164|320:152,1,113.999996520996,6|0,0:0|0:0,0:0:0:0:
196,48,18694,1,0,0:0:0:0:
80,224,18836,2,0,L|224:212,1,113.999996520996,6|0,0:0|0:0,0:0:0:0:
309,55,19121,1,0,0:0:0:0:
309,55,19192,1,0,0:0:0:0:
309,55,19263,2,0,L|168:46,1,113.999996520996,2|0,0:0|0:0,0:0:0:0:
256,288,19547,6,0,L|397:279,1,113.999996520996,4|0,0:0|0:0,0:0:0:0:
488,216,19831,1,0,0:0:0:0:
396,76,19973,1,0,0:0:0:0:
396,76,20044,1,0,0:0:0:0:
396,76,20115,2,0,P|384:128|396:192,1,113.999996520996,0|0,0:0|0:0,0:0:0:0:
464,304,20399,1,0,0:0:0:0:
336,360,20542,1,0,0:0:0:0:
336,360,20613,1,0,0:0:0:0:
336,360,20684,6,0,L|204:352,1,113.999996520996,0|0,0:0|0:0,0:0:0:0:
176,224,20968,2,0,L|308:216,1,113.999996520996,0|0,0:0|0:0,0:0:0:0:
88,324,21252,2,0,B|72:268|72:268|84:200,1,113.999996520996,0|0,0:0|0:0,0:0:0:0:
100,148,21465,1,0,0:0:0:0:
100,148,21536,2,0,L|-16:152,1,113.999996520996,0|0,0:0|0:0,0:0:0:0:
176,300,21821,6,0,L|289:296,1,113.999996520996,0|0,0:0|0:0,0:0:0:0:
428,292,22105,1,0,0:0:0:0:
340,144,22247,1,0,0:0:0:0:
340,144,22318,1,0,0:0:0:0:
340,144,22389,2,0,L|220:148,1,113.999996520996,0|0,0:0|0:0,0:0:0:0:
176,300,22673,2,0,L|289:296,1,113.999996520996,0|0,0:0|0:0,0:0:0:0:
68,248,22957,6,0,P|60:296|72:360,1,113.999996520996,0|0,0:0|0:0,0:0:0:0:
289,295,23242,2,0,P|300:239|292:183,1,113.999996520996,0|0,0:0|0:0,0:0:0:0:
256,128,23455,1,0,0:0:0:0:
256,128,23526,2,0,L|132:124,1,113.999996520996,0|0,0:0|0:0,0:0:0:0:
80,156,23739,1,0,0:0:0:0:
80,156,23810,2,0,L|16:152,3,56.9999982604981,4|0|0|0,0:0|0:0|0:0|0:0,0:0:0:0:
0,216,24094,6,0,P|-8:272|0:332,1,113.999996520996,4|0,0:0|0:0,0:0:0:0:
128,372,24378,1,0,0:0:0:0:
204,256,24521,1,0,0:0:0:0:
204,256,24592,1,0,0:0:0:0:
204,256,24663,2,0,L|200:128,1,113.999996520996,0|0,0:0|0:0,0:0:0:0:
192,4,24947,1,0,0:0:0:0:
312,142,25089,1,0,0:0:0:0:
312,142,25160,1,0,0:0:0:0:
312,142,25231,6,0,L|308:255,1,113.999996520996,0|0,0:0|0:0,0:0:0:0:
120,256,25515,2,0,L|116:143,1,113.999996520996,0|0,0:0|0:0,0:0:0:0:
256,44,25799,1,0,0:0:0:0:
256,44,25871,1,0,0:0:0:0:
256,44,25942,1,0,0:0:0:0:
396,143,26084,2,0,L|392:256,1,113.999996520996,4|0,0:0|0:0,0:0:0:0:
388,352,26297,1,0,0:0:0:0:
388,352,26368,6,0,L|512:344,1,113.999996520996,4|0,0:0|0:0,0:0:0:0:
124,260,26652,2,0,L|0:252,1,113.999996520996,4|0,0:0|0:0,0:0:0:0:
388,176,26936,2,0,L|512:168,1,113.999996520996,4|0,0:0|0:0,0:0:0:0:
124,84,27221,2,0,L|0:76,1,113.999996520996,4|0,0:0|0:0,0:0:0:0:
10,252,27505,5,4,0:0:0:0:
28,296,27576,1,0,0:0:0:0:
64,324,27647,1,0,0:0:0:0:
104,344,27718,1,0,0:0:0:0:
148,352,27789,1,4,0:0:0:0:
192,356,27860,1,0,0:0:0:0:
236,348,27931,1,0,0:0:0:0:
280,332,28002,1,0,0:0:0:0:
316,304,28073,1,4,0:0:0:0:
344,268,28144,1,0,0:0:0:0:
360,224,28215,1,0,0:0:0:0:
372,180,28286,1,0,0:0:0:0:
372,136,28357,1,4,0:0:0:0:
360,92,28428,1,0,0:0:0:0:
336,52,28499,1,0,0:0:0:0:
300,24,28571,1,0,0:0:0:0:
256,8,28642,6,2,P|156:88|144:192,1,237.5,4|0,0:0|0:0,0:0:0:0:
176,256,29423,1,0,0:0:0:0:
176,256,29494,2,0,L|140:272,3,23.75,2|0|0|0,0:0|0:0|0:0|0:0,0:0:0:0:
220,316,29778,6,0,L|212:348,3,23.75,2|0|0|0,0:0|0:0|0:0|0:0,0:0:0:0:
292,316,30063,2,0,L|300:348,3,23.75,2|0|0|0,0:0|0:0|0:0|0:0,0:0:0:0:
336,256,30347,1,2,0:0:0:0:
352,264,30418,1,0,0:0:0:0:
368,272,30489,1,0,0:0:0:0:
384,280,30560,1,0,0:0:0:0:
400,288,30631,1,2,0:0:0:0:
416,296,30702,1,0,0:0:0:0:
432,304,30773,1,0,0:0:0:0:
448,312,30844,1,0,0:0:0:0:
464,320,30915,6,0,L|460:180,1,113.999996520996,6|0,0:0|0:0,0:0:0:0:
316,140,31199,1,0,0:0:0:0:
320,164,31271,1,0,0:0:0:0:
324,188,31342,1,0,0:0:0:0:
412,56,31484,2,0,L|296:52,1,113.999996520996,2|0,0:0|0:0,0:0:0:0:
184,164,31768,1,2,0:0:0:0:
208,160,31839,1,0,0:0:0:0:
232,156,31910,1,0,0:0:0:0:
88,88,32052,6,0,L|80:208,1,113.999996520996,6|0,0:0|0:0,0:0:0:0:
184,324,32336,2,0,L|256:316,2,56.9999982604981,2|0|0,0:0|0:0|0:0,0:0:0:0:
332,264,32621,2,0,P|344:324|336:376,1,113.999996520996,6|0,0:0|0:0,0:0:0:0:
180,212,32905,2,0,P|172:155|184:100,1,113.999996520996,2|0,0:0|0:0,0:0:0:0:
324,20,33189,6,0,L|452:24,1,113.999996520996,6|0,0:0|0:0,0:0:0:0:
392,176,33473,1,2,0:0:0:0:
368,172,33544,1,0,0:0:0:0:
344,168,33615,1,0,0:0:0:0:
476,128,33757,2,0,B|488:184|488:184|476:240,1,113.999996520996,2|0,0:0|0:0,0:0:0:0:
328,300,34042,1,0,0:0:0:0:
324,276,34113,1,0,0:0:0:0:
320,252,34184,1,0,0:0:0:0:
452,376,34326,6,0,L|308:372,1,113.999996520996,6|0,0:0|0:0,0:0:0:0:
172,268,34610,2,0,L|168:154,1,113.999996520996,2|0,0:0|0:0,0:0:0:0:
343,154,34894,2,0,L|340:268,1,113.999996520996,2|0,0:0|0:0,0:0:0:0:
173,372,35178,1,2,0:0:0:0:
140,368,35249,1,0,0:0:0:0:
104,364,35321,1,0,0:0:0:0:
72,360,35392,1,0,0:0:0:0:
40,356,35463,6,0,P|32:300|40:244,1,113.999996520996,6|0,0:0|0:0,0:0:0:0:
184,180,35747,1,2,0:0:0:0:
180,204,35818,1,0,0:0:0:0:
176,228,35889,1,0,0:0:0:0:
80,96,36031,2,0,L|204:88,1,113.999996520996,2|0,0:0|0:0,0:0:0:0:
352,84,36315,1,2,0:0:0:0:
348,108,36386,1,0,0:0:0:0:
344,132,36457,1,0,0:0:0:0:
187,317,36599,6,0,L|179:193,1,113.999996520996,6|0,0:0|0:0,0:0:0:0:
332,203,36884,2,0,L|325:317,1,113.999996520996,2|0,0:0|0:0,0:0:0:0:
96,264,37168,2,0,L|88:140,1,113.999996520996,2|0,0:0|0:0,0:0:0:0:
423,150,37452,2,0,L|416:264,1,113.999996520996,2|0,0:0|0:0,0:0:0:0:
256,368,37736,5,6,0:0:0:0:
256,208,37878,1,0,0:0:0:0:
120,292,38021,1,2,0:0:0:0:
144,288,38092,1,0,0:0:0:0:
168,284,38163,1,0,0:0:0:0:
188,128,38305,2,0,L|64:120,1,113.999996520996,6|0,0:0|0:0,0:0:0:0:
264,256,38589,1,2,0:0:0:0:
260,232,38660,1,0,0:0:0:0:
256,208,38731,1,0,0:0:0:0:
74,120,38873,5,6,0:0:0:0:
44,140,38944,1,0,0:0:0:0:
28,172,39015,1,0,0:0:0:0:
28,208,39086,1,0,0:0:0:0:
44,236,39157,1,6,0:0:0:0:
72,256,39228,1,0,0:0:0:0:
104,260,39299,1,0,0:0:0:0:
140,252,39371,1,0,0:0:0:0:
164,228,39442,1,6,0:0:0:0:
176,196,39513,1,0,0:0:0:0:
176,160,39584,1,0,0:0:0:0:
184,128,39655,1,0,0:0:0:0:
204,100,39726,1,6,0:0:0:0:
236,84,39797,1,0,0:0:0:0:
272,84,39868,1,0,0:0:0:0:
304,100,39939,1,0,0:0:0:0:
328,124,40010,6,0,L|324:256,1,113.999996520996,6|0,0:0|0:0,0:0:0:0:
256,380,40294,1,0,0:0:0:0:
232,376,40365,1,0,0:0:0:0:
208,372,40436,1,0,0:0:0:0:
120,240,40578,2,0,L|248:232,1,113.999996520996,2|0,0:0|0:0,0:0:0:0:
40,352,40863,1,2,0:0:0:0:
36,328,40934,1,0,0:0:0:0:
32,304,41005,1,0,0:0:0:0:
123,126,41147,6,0,L|119:246,1,113.999996520996,6|0,0:0|0:0,0:0:0:0:
256,324,41431,2,0,L|332:316,2,56.9999982604981,2|0|0,0:0|0:0|0:0,0:0:0:0:
404,264,41715,2,0,P|416:324|404:376,1,113.999996520996,6|0,0:0|0:0,0:0:0:0:
256,208,41999,2,0,P|244:152|256:96,1,113.999996520996,2|0,0:0|0:0,0:0:0:0:
476,168,42284,6,0,L|348:160,1,113.999996520996,6|0,0:0|0:0,0:0:0:0:
164,140,42568,1,2,0:0:0:0:
168,116,42639,1,0,0:0:0:0:
172,92,42710,1,0,0:0:0:0:
256,264,42852,2,0,B|200:272|200:272|136:260,1,113.999996520996,2|0,0:0|0:0,0:0:0:0:
362,160,43136,1,0,0:0:0:0:
366,184,43207,1,0,0:0:0:0:
370,208,43278,1,0,0:0:0:0:
308,68,43421,6,0,L|448:56,1,113.999996520996,6|0,0:0|0:0,0:0:0:0:
204,148,43705,2,0,L|64:136,1,113.999996520996,2|0,0:0|0:0,0:0:0:0:
308,220,43989,2,0,L|448:208,1,113.999996520996,2|0,0:0|0:0,0:0:0:0:
204,300,44273,1,2,0:0:0:0:
168,296,44344,1,0,0:0:0:0:
136,292,44415,1,0,0:0:0:0:
104,288,44486,1,0,0:0:0:0:
72,284,44557,6,0,B|60:228|60:228|72:172,1,113.999996520996,6|0,0:0|0:0,0:0:0:0:
220,108,44842,1,2,0:0:0:0:
216,132,44913,1,0,0:0:0:0:
212,156,44984,1,0,0:0:0:0:
120,24,45126,2,0,L|260:16,1,113.999996520996,2|0,0:0|0:0,0:0:0:0:
356,120,45410,1,2,0:0:0:0:
332,116,45481,1,0,0:0:0:0:
308,112,45552,1,0,0:0:0:0:
464,64,45694,6,0,P|476:124|464:176,1,113.999996520996,6|0,0:0|0:0,0:0:0:0:
384,312,45978,1,2,0:0:0:0:
360,308,46049,1,0,0:0:0:0:
336,304,46121,1,0,0:0:0:0:
256,168,46263,1,2,0:0:0:0:
216,324,46405,1,0,0:0:0:0:
96,220,46547,1,2,0:0:0:0:
120,216,46618,1,0,0:0:0:0:
144,212,46689,1,0,0:0:0:0:
24,316,46831,5,6,0:0:0:0:
8,124,46973,1,0,0:0:0:0:
8,124,47044,1,0,0:0:0:0:
8,124,47115,2,0,L|0:56,3,56.9999982604981,2|0|0|0,0:0|0:0|0:0|0:0,0:0:0:0:
64,16,47399,1,2,0:0:0:0:
108,8,47471,1,0,0:0:0:0:
152,16,47542,1,0,0:0:0:0:
188,44,47613,1,0,0:0:0:0:
204,88,47684,1,2,0:0:0:0:
200,132,47755,1,0,0:0:0:0:
176,172,47826,1,0,0:0:0:0:
132,188,47897,1,0,0:0:0:0:
92,208,47968,5,2,0:0:0:0:
68,248,48039,1,0,0:0:0:0:
60,292,48110,1,0,0:0:0:0:
72,336,48181,1,0,0:0:0:0:
108,368,48252,1,2,0:0:0:0:
152,384,48323,1,0,0:0:0:0:
196,384,48394,1,0,0:0:0:0:
236,364,48465,1,0,0:0:0:0:
256,324,48536,1,2,0:0:0:0:
256,324,49105,6,0,L|256:192,1,123.499994346619,6|0,0:0|0:0,0:0:0:0:
280,116,49318,2,0,B|340:104|340:104|404:116,1,123.499994346619,2|0,0:0|0:0,0:0:0:0:
448,188,49531,1,2,0:0:0:0:
256,324,49673,2,0,B|192:336|192:336|128:324,1,123.499994346619,2|0,0:0|0:0,0:0:0:0:
48,316,49886,2,0,L|40:192,1,123.499994346619,2|0,0:0|0:0,0:0:0:0:
32,108,50099,1,2,0:0:0:0:
172,4,50242,5,6,0:0:0:0:
180,180,50384,1,0,0:0:0:0:
156,176,50455,1,2,0:0:0:0:
132,172,50526,1,0,0:0:0:0:
256,52,50668,1,2,0:0:0:0:
316,212,50810,1,2,0:0:0:0:
348,244,50881,1,0,0:0:0:0:
388,256,50952,1,0,0:0:0:0:
432,252,51023,1,2,0:0:0:0:
472,232,51094,1,0,0:0:0:0:
500,200,51165,1,0,0:0:0:0:
512,160,51236,1,2,0:0:0:0:
504,116,51307,1,0,0:0:0:0:
476,84,51378,6,0,L|352:76,1,123.499994346619,6|0,0:0|0:0,0:0:0:0:
292,12,51592,2,0,L|148:20,1,123.499994346619,2|0,0:0|0:0,0:0:0:0:
84,24,51805,1,2,0:0:0:0:
4,176,51947,2,0,L|12:304,1,123.499994346619,2|0,0:0|0:0,0:0:0:0:
72,360,52160,2,0,B|128:376|128:376|196:360,1,123.499994346619,2|0,0:0|0:0,0:0:0:0:
256,304,52373,1,2,0:0:0:0:
132,184,52515,5,6,0:0:0:0:
328,364,52657,1,0,0:0:0:0:
328,364,52728,1,2,0:0:0:0:
328,364,52799,2,0,B|391:378|391:378|447:362,1,123.499994346619,0|2,0:0|0:0,0:0:0:0:
504,196,53084,1,6,0:0:0:0:
504,152,53155,1,0,0:0:0:0:
488,112,53226,1,0,0:0:0:0:
460,84,53297,1,0,0:0:0:0:
424,60,53368,1,2,0:0:0:0:
384,48,53439,1,0,0:0:0:0:
340,40,53510,1,0,0:0:0:0:
296,44,53581,1,0,0:0:0:0:
256,64,53652,6,0,L|256:200,1,123.499994346619,6|0,0:0|0:0,0:0:0:0:
308,260,53865,1,0,0:0:0:0:
308,260,53936,2,0,L|436:252,1,123.499994346619,0|0,0:0|0:0,0:0:0:0:
204,340,54221,2,0,L|76:332,1,123.499994346619,2|0,0:0|0:0,0:0:0:0:
32,260,54434,1,0,0:0:0:0:
32,260,54505,2,0,L|28:188,3,61.7499971733095,2|0|0|0,0:0|0:0|0:0|0:0,0:0:0:0:
24,112,54789,5,6,0:0:0:0:
36,72,54860,1,0,0:0:0:0:
72,52,54931,1,0,0:0:0:0:
116,48,55002,1,0,0:0:0:0:
156,64,55073,1,2,0:0:0:0:
184,100,55144,1,0,0:0:0:0:
184,144,55215,1,0,0:0:0:0:
164,184,55286,1,0,0:0:0:0:
144,224,55357,1,6,0:0:0:0:
148,268,55428,1,0,0:0:0:0:
172,304,55499,1,0,0:0:0:0:
212,320,55571,1,0,0:0:0:0:
256,316,55642,2,0,L|392:304,1,123.499994346619,2|0,0:0|0:0,0:0:0:0:
468,248,55855,1,0,0:0:0:0:
468,248,55926,6,0,L|472:120,1,123.499994346619,6|0,0:0|0:0,0:0:0:0:
320,32,56210,2,0,L|328:184,1,123.499994346619,2|0,0:0|0:0,0:0:0:0:
192,264,56494,2,0,L|184:112,1,123.499994346619,2|0,0:0|0:0,0:0:0:0:
44,44,56778,2,0,L|40:172,1,123.499994346619,2|0,0:0|0:0,0:0:0:0:
60,344,57063,5,4,0:0:0:0:
96,368,57134,1,0,0:0:0:0:
140,372,57205,1,0,0:0:0:0:
184,364,57276,1,0,0:0:0:0:
220,340,57347,1,0,0:0:0:0:
244,304,57418,1,0,0:0:0:0:
252,260,57489,1,0,0:0:0:0:
248,216,57560,1,0,0:0:0:0:
228,176,57631,1,0,0:0:0:0:
196,144,57702,1,0,0:0:0:0:
180,104,57773,1,0,0:0:0:0:
184,60,57844,1,0,0:0:0:0:
212,28,57915,1,0,0:0:0:0:
256,20,57986,1,0,0:0:0:0:
300,28,58057,1,0,0:0:0:0:
328,64,58128,1,0,0:0:0:0:
340,108,58199,6,0,L|336:252,1,123.499994346619,6|0,0:0|0:0,0:0:0:0:
376,312,58413,1,0,0:0:0:0:
376,312,58484,2,0,B|436:324|436:324|500:312,1,123.499994346619,2|0,0:0|0:0,0:0:0:0:
256,172,58768,2,0,B|196:160|196:160|132:172,1,123.499994346619,2|0,0:0|0:0,0:0:0:0:
56,208,58981,1,0,0:0:0:0:
56,208,59052,2,0,L|64:344,1,123.499994346619,2|0,0:0|0:0,0:0:0:0:
232,368,59336,6,0,L|300:364,3,61.7499971733095,6|0|0|0,0:0|0:0|0:0|0:0,0:0:0:0:
336,288,59621,2,0,L|404:284,3,61.7499971733095,2|0|0|0,0:0|0:0|0:0|0:0,0:0:0:0:
484,276,59905,2,0,P|496:212|484:152,1,123.499994346619,6|0,0:0|0:0,0:0:0:0:
344,56,60189,1,2,0:0:0:0:
300,48,60260,1,0,0:0:0:0:
256,52,60331,1,0,0:0:0:0:
216,68,60402,1,0,0:0:0:0:
188,100,60473,6,0,L|192:244,1,123.499994346619,6|0,0:0|0:0,0:0:0:0:
196,308,60686,1,0,0:0:0:0:
196,308,60757,2,0,B|256:320|256:320|320:308,1,123.499994346619,2|0,0:0|0:0,0:0:0:0:
480,248,61042,2,0,L|472:104,1,123.499994346619,2|0,0:0|0:0,0:0:0:0:
464,40,61255,1,0,0:0:0:0:
464,40,61326,2,0,B|404:28|404:28|340:40,1,123.499994346619,0|0,0:0|0:0,0:0:0:0:
188,120,61610,6,0,L|108:112,3,61.7499971733095,6|0|0|0,0:0|0:0|0:0|0:0,0:0:0:0:
132,200,61894,2,0,L|52:192,3,61.7499971733095,2|0|0|0,0:0|0:0|0:0|0:0,0:0:0:0:
12,256,62178,1,6,0:0:0:0:
20,300,62249,1,0,0:0:0:0:
40,340,62321,1,0,0:0:0:0:
72,368,62392,1,0,0:0:0:0:
112,380,62463,1,2,0:0:0:0:
156,380,62534,1,0,0:0:0:0:
196,368,62605,1,0,0:0:0:0:
232,344,62676,1,0,0:0:0:0:
256,308,62747,6,0,L|256:152,1,123.499994346619,6|0,0:0|0:0,0:0:0:0:
256,100,62960,1,0,0:0:0:0:
256,100,63031,2,0,P|196:92|124:104,1,123.499994346619,0|0,0:0|0:0,0:0:0:0:
28,240,63315,1,0,0:0:0:0:
32,264,63386,1,0,0:0:0:0:
36,288,63457,1,0,0:0:0:0:
180,380,63599,1,0,0:0:0:0:
184,356,63671,1,0,0:0:0:0:
188,332,63742,1,0,0:0:0:0:
192,308,63813,1,0,0:0:0:0:
196,284,63884,6,0,B|256:272|256:272|320:284,1,123.499994346619,6|0,0:0|0:0,0:0:0:0:
392,328,64097,1,0,0:0:0:0:
392,328,64168,2,0,L|396:192,1,123.499994346619,0|2,0:0|0:0,0:0:0:0:
480,56,64452,1,0,0:0:0:0:
448,88,64523,1,0,0:0:0:0:
408,100,64594,1,0,0:0:0:0:
364,96,64665,1,0,0:0:0:0:
328,72,64736,1,2,0:0:0:0:
296,44,64807,1,0,0:0:0:0:
256,32,64878,1,0,0:0:0:0:
212,28,64949,1,0,0:0:0:0:
172,44,65021,6,0,P|144:56|112:92,3,61.7499971733095,6|0|0|0,0:0|0:0|0:0|0:0,0:0:0:0:
72,148,65305,1,0,0:0:0:0:
56,196,65376,1,0,0:0:0:0:
48,244,65447,1,0,0:0:0:0:
60,292,65518,1,0,0:0:0:0:
84,336,65589,1,0,0:0:0:0:
128,360,65660,1,0,0:0:0:0:
176,372,65731,1,0,0:0:0:0:
224,368,65802,1,0,0:0:0:0:
268,348,65873,1,0,0:0:0:0:
304,316,65944,1,0,0:0:0:0:
324,272,66015,1,0,0:0:0:0:
336,224,66086,1,0,0:0:0:0:
336,176,66157,6,0,L|332:108,3,61.7499971733095,6|0|0|0,0:0|0:0|0:0|0:0,0:0:0:0:
256,68,66442,1,0,0:0:0:0:
256,68,66513,1,0,0:0:0:0:
256,68,66584,2,0,L|180:64,1,61.7499971733095,0|0,0:0|0:0,0:0:0:0:
172,148,66726,2,0,L|100:144,1,61.7499971733095,0|0,0:0|0:0,0:0:0:0:
72,224,66868,1,0,0:0:0:0:
72,224,66939,1,0,0:0:0:0:
72,224,67010,2,0,L|80:308,1,61.7499971733095,4|0,0:0|0:0,0:0:0:0:
164,296,67152,2,0,L|172:368,1,61.7499971733095,0|0,0:0|0:0,0:0:0:0:
256,376,67294,5,4,0:0:0:0:
256,192,71842,12,0,74115,0:0:0:0:
256,192,74257,12,0,75252,0:0:0:0:
212,112,75821,6,0,L|204:32,2,63.3333333333333,0|0|0,0:0|0:0|0:0,0:0:0:0:
300,112,76105,2,0,L|308:32,2,63.3333333333333,0|0|0,0:0|0:0|0:0,0:0:0:0:
256,192,76389,6,0,L|256:304,1,95,4|0,1:0|0:0,0:0:0:0:
320,356,76673,2,0,B|368:364|368:364|416:356,1,95,0|0,1:0|0:0,0:0:0:0:
480,288,76957,2,0,L|480:193,1,95,0|0,1:0|0:0,0:0:0:0:
416,124,77242,2,0,B|370:116|370:116|322:124,1,95,0|0,1:0|0:0,0:0:0:0:
256,192,77526,5,0,1:0:0:0:
256,192,77668,1,0,0:0:0:0:
189,124,77810,2,0,B|141:116|141:116|96:124,1,95,0|0,1:0|0:0,0:0:0:0:
32,196,78094,2,0,L|40:320,1,95,0|0,1:0|0:0,0:0:0:0:
96,368,78378,1,0,1:0:0:0:
96,368,78521,1,0,0:0:0:0:
236,280,78663,6,0,P|188:272|140:280,1,95,0|0,1:0|0:0,0:0:0:0:
276,368,78947,2,0,P|324:376|372:368,1,95,0|0,1:0|0:0,0:0:0:0:
440,308,79231,2,0,L|432:200,1,95,0|0,1:0|0:0,0:0:0:0:
328,92,79515,2,0,L|320:186,1,95,0|0,1:0|0:0,0:0:0:0:
256,336,79799,5,0,1:0:0:0:
256,240,79942,1,0,1:0:0:0:
336,288,80084,1,0,1:0:0:0:
176,288,80226,1,0,1:0:0:0:
256,148,80368,1,0,1:0:0:0:
256,148,80439,1,0,1:0:0:0:
256,148,80510,1,0,1:0:0:0:
256,148,80581,1,0,1:0:0:0:
256,148,80652,2,0,L|356:144,1,95,0|0,1:0|1:0,0:0:0:0:
176,288,80936,6,0,L|76:284,1,95,4|0,1:0|0:0,0:0:0:0:
4,232,81221,2,0,L|7:137,1,95,0|0,1:0|0:0,0:0:0:0:
12,44,81505,2,0,L|106:47,1,95,0|0,1:0|0:0,0:0:0:0:
188,100,81789,2,0,L|184:194,1,95,0|0,1:0|0:0,0:0:0:0:
256,260,82073,5,0,1:0:0:0:
256,260,82215,1,0,0:0:0:0:
327,194,82357,2,0,L|324:100,1,95,0|0,1:0|0:0,0:0:0:0:
368,16,82642,2,0,P|416:8|472:20,1,95,0|0,1:0|0:0,0:0:0:0:
508,100,82926,1,0,1:0:0:0:
508,100,83068,1,0,0:0:0:0:
422,198,83210,6,0,L|310:194,1,95,0|0,1:0|0:0,0:0:0:0:
208,88,83494,2,0,L|308:84,1,95,0|0,1:0|0:0,0:0:0:0:
304,288,83778,2,0,L|192:284,1,95,0|0,1:0|0:0,0:0:0:0:
90,178,84063,2,0,L|190:174,1,95,0|0,1:0|0:0,0:0:0:0:
328,176,84347,5,0,1:0:0:0:
256,52,84489,1,0,1:0:0:0:
184,176,84631,1,0,1:0:0:0:
300,256,84773,1,0,1:0:0:0:
300,256,84844,1,0,1:0:0:0:
300,256,84915,2,0,L|364:252,3,47.5,0|0|0|0,1:0|0:0|1:0|1:0,0:0:0:0:
408,288,85199,2,0,L|456:284,3,47.5,0|0|0|0,1:0|1:0|1:0|1:0,0:0:0:0:
508,236,85484,6,0,L|504:112,1,113.999996520996,4|0,1:0|0:0,0:0:0:0:
336,24,85768,2,0,L|332:137,1,113.999996520996,0|0,1:0|0:0,0:0:0:0:
184,264,86052,2,0,L|180:150,1,113.999996520996,4|0,1:0|0:0,0:0:0:0:
32,24,86336,2,0,L|28:137,1,113.999996520996,0|0,1:0|0:0,0:0:0:0:
28,332,86621,6,0,B|84:344|84:344|144:332,1,113.999996520996,4|0,1:0|0:0,0:0:0:0:
256,220,86905,1,0,1:0:0:0:
100,188,87047,1,0,0:0:0:0:
176,48,87189,2,0,L|180:164,1,113.999996520996,4|0,1:0|0:0,0:0:0:0:
336,336,87473,2,0,L|332:220,1,113.999996520996,4|0,1:0|0:0,0:0:0:0:
328,64,87757,6,0,B|384:56|384:56|452:68,1,113.999996520996,4|0,1:0|0:0,0:0:0:0:
184,64,88042,2,0,B|128:56|128:56|60:68,1,113.999996520996,0|0,1:0|0:0,0:0:0:0:
340,272,88326,2,0,L|336:156,1,113.999996520996,4|0,1:0|0:0,0:0:0:0:
172,272,88610,2,0,L|176:156,1,113.999996520996,0|0,1:0|0:0,0:0:0:0:
256,20,88894,5,4,1:0:0:0:
336,158,89036,1,0,0:0:0:0:
175,158,89178,2,0,L|52:152,1,113.999996520996,0|0,1:0|0:0,0:0:0:0:
256,20,89463,1,4,1:0:0:0:
252,44,89534,1,0,0:0:0:0:
248,68,89605,1,0,0:0:0:0:
160,244,89747,2,0,L|26:237,1,113.999996520996,0|0,1:0|0:0,0:0:0:0:
337,158,90031,6,0,L|460:152,1,113.999996520996,4|0,1:0|0:0,0:0:0:0:
175,158,90315,2,0,L|52:152,1,113.999996520996,0|0,1:0|0:0,0:0:0:0:
344,271,90599,2,0,L|336:143,1,113.999996520996,4|0,1:0|0:0,0:0:0:0:
182,44,90884,2,0,L|174:157,1,113.999996520996,0|0,1:0|0:0,0:0:0:0:
344,271,91168,6,0,L|467:265,1,113.999996520996,4|0,1:0|0:0,0:0:0:0:
168,271,91452,2,0,L|45:265,1,113.999996520996,0|0,1:0|0:0,0:0:0:0:
352,157,91736,2,0,L|344:270,1,113.999996520996,4|0,1:0|0:0,0:0:0:0:
175,384,92021,2,0,L|167:270,1,113.999996520996,4|0,1:0|0:0,0:0:0:0:
440,200,92305,6,0,L|432:313,1,113.999996520996,4|0,1:0|0:0,0:0:0:0:
79,313,92589,2,0,L|71:200,1,113.999996520996,0|0,1:0|0:0,0:0:0:0:
56,40,92873,1,0,1:0:0:0:
84,68,92944,1,0,0:0:0:0:
124,80,93015,1,0,0:0:0:0:
164,80,93086,1,0,0:0:0:0:
200,64,93157,1,0,0:0:0:0:
228,36,93228,1,0,0:0:0:0:
264,20,93299,1,0,0:0:0:0:
304,20,93371,1,0,0:0:0:0:
340,36,93442,6,0,L|336:168,1,113.999996520996,4|0,0:0|0:0,0:0:0:0:
344,228,93655,1,0,0:0:0:0:
344,228,93726,2,0,P|404:240|460:228,1,113.999996520996,0|0,0:0|0:0,0:0:0:0:
172,36,94010,2,0,L|176:168,1,113.999996520996,0|0,0:0|0:0,0:0:0:0:
168,228,94223,1,0,0:0:0:0:
168,228,94294,2,0,P|108:240|52:228,1,113.999996520996,0|0,0:0|0:0,0:0:0:0:
256,96,94578,6,0,P|312:88|368:96,1,113.999996520996,4|0,0:0|0:0,0:0:0:0:
436,140,94792,1,0,0:0:0:0:
436,140,94863,2,0,L|432:256,1,113.999996520996,0|0,0:0|0:0,0:0:0:0:
256,336,95147,2,0,P|200:344|144:336,1,113.999996520996,0|0,0:0|0:0,0:0:0:0:
76,292,95360,1,0,0:0:0:0:
76,292,95431,2,0,L|80:176,1,113.999996520996,0|0,0:0|0:0,0:0:0:0:
296,64,95715,6,0,L|352:68,3,56.9999982604981,4|0|0|0,0:0|0:0|0:0|0:0,0:0:0:0:
216,132,95999,2,0,L|160:136,3,56.9999982604981,0|0|0|0,0:0|0:0|0:0|0:0,0:0:0:0:
296,212,96284,2,0,L|352:216,3,56.9999982604981,0|0|0|0,0:0|0:0|0:0|0:0,0:0:0:0:
216,280,96568,2,0,L|160:284,3,56.9999982604981,0|0|0|0,0:0|0:0|0:0|0:0,0:0:0:0:
296,352,96852,6,0,L|420:344,1,113.999996520996,4|0,0:0|0:0,0:0:0:0:
476,300,97065,1,0,0:0:0:0:
476,300,97136,2,0,L|480:228,3,56.9999982604981,0|0|0|0,0:0|0:0|0:0|0:0,0:0:0:0:
412,200,97421,2,0,L|416:128,3,56.9999982604981,0|0|0|0,0:0|0:0|0:0|0:0,0:0:0:0:
424,64,97705,1,0,0:0:0:0:
424,64,97776,1,0,0:0:0:0:
424,64,97847,1,0,0:0:0:0:
256,116,97989,5,4,0:0:0:0:
228,100,98060,1,0,0:0:0:0:
196,92,98131,1,0,0:0:0:0:
164,96,98202,1,0,0:0:0:0:
136,112,98273,1,0,0:0:0:0:
116,140,98344,1,0,0:0:0:0:
112,172,98415,1,0,0:0:0:0:
120,204,98486,1,0,0:0:0:0:
140,232,98557,1,0,0:0:0:0:
172,244,98628,1,0,0:0:0:0:
208,248,98699,1,0,0:0:0:0:
240,264,98771,1,0,0:0:0:0:
256,292,98842,1,0,0:0:0:0:
256,328,98913,1,0,0:0:0:0:
240,360,98984,1,0,0:0:0:0:
208,376,99055,1,0,0:0:0:0:
172,380,99126,5,4,0:0:0:0:
140,364,99197,1,0,0:0:0:0:
124,336,99268,1,0,0:0:0:0:
120,304,99339,1,0,0:0:0:0:
132,272,99410,1,0,0:0:0:0:
160,252,99481,1,0,0:0:0:0:
192,244,99552,1,0,0:0:0:0:
228,240,99623,1,0,0:0:0:0:
260,228,99694,1,0,0:0:0:0:
288,212,99765,1,0,0:0:0:0:
304,184,99836,1,0,0:0:0:0:
316,152,99907,1,0,0:0:0:0:
320,120,99978,1,0,0:0:0:0:
316,84,100049,1,0,0:0:0:0:
308,52,100121,1,0,0:0:0:0:
288,24,100192,1,0,0:0:0:0:
256,8,100263,5,4,0:0:0:0:
224,24,100334,1,0,0:0:0:0:
204,52,100405,1,0,0:0:0:0:
196,84,100476,1,0,0:0:0:0:
192,120,100547,1,0,0:0:0:0:
196,152,100618,1,0,0:0:0:0:
208,184,100689,1,0,0:0:0:0:
224,212,100760,1,0,0:0:0:0:
252,228,100831,1,0,0:0:0:0:
284,240,100902,1,0,0:0:0:0:
320,244,100973,1,0,0:0:0:0:
352,252,101044,1,0,0:0:0:0:
380,272,101115,1,0,0:0:0:0:
392,304,101186,1,0,0:0:0:0:
388,336,101257,1,0,0:0:0:0:
372,364,101328,1,0,0:0:0:0:
340,380,101400,5,4,0:0:0:0:
304,376,101471,1,0,0:0:0:0:
272,360,101542,1,0,0:0:0:0:
256,328,101613,1,0,0:0:0:0:
256,292,101684,1,0,0:0:0:0:
272,264,101755,1,0,0:0:0:0:
304,248,101826,1,0,0:0:0:0:
340,244,101897,1,0,0:0:0:0:
372,232,101968,1,0,0:0:0:0:
392,204,102039,1,0,0:0:0:0:
400,172,102110,1,0,0:0:0:0:
396,140,102181,1,0,0:0:0:0:
376,112,102252,1,0,0:0:0:0:
348,96,102323,1,0,0:0:0:0:
316,92,102394,1,0,0:0:0:0:
284,100,102465,1,0,0:0:0:0:
256,116,102536,5,6,0:0:0:0:
256,116,104242,1,2,0:0:0:0:
256,140,104313,1,0,0:0:0:0:
256,164,104384,1,0,0:0:0:0:
256,188,104455,1,0,0:0:0:0:
256,212,104526,1,0,0:0:0:0:
256,236,104597,1,0,0:0:0:0:
256,260,104668,1,0,0:0:0:0:
256,284,104739,1,0,0:0:0:0:
256,308,104810,6,0,B|316:324|316:324|376:308,1,123.499994346619,6|0,0:0|0:0,0:0:0:0:
452,268,105023,1,2,0:0:0:0:
452,268,105094,2,0,L|456:200,2,61.7499971733095,0|0|2,0:0|0:0|0:0,0:0:0:0:
444,92,105378,2,0,B|384:76|384:76|324:92,1,123.499994346619,2|0,0:0|0:0,0:0:0:0:
256,144,105592,1,2,0:0:0:0:
256,144,105663,2,0,L|260:216,2,61.7499971733095,0|0|2,0:0|0:0|0:0,0:0:0:0:
272,320,105947,5,6,0:0:0:0:
416,224,106089,1,0,0:0:0:0:
392,220,106160,1,2,0:0:0:0:
368,216,106231,1,0,0:0:0:0:
472,352,106373,1,2,0:0:0:0:
492,180,106515,1,2,0:0:0:0:
492,136,106586,1,0,0:0:0:0:
476,96,106657,1,0,0:0:0:0:
444,68,106728,1,2,0:0:0:0:
404,48,106800,1,0,0:0:0:0:
360,40,106871,1,0,0:0:0:0:
316,48,106942,1,2,0:0:0:0:
280,72,107013,1,0,0:0:0:0:
256,108,107084,6,0,L|256:236,1,123.499994346619,6|0,0:0|0:0,0:0:0:0:
220,308,107297,2,0,B|160:320|160:320|96:308,1,123.499994346619,2|0,0:0|0:0,0:0:0:0:
56,232,107510,1,2,0:0:0:0:
328,164,107652,2,0,B|388:152|388:152|452:164,1,123.499994346619,2|0,0:0|0:0,0:0:0:0:
512,224,107865,2,0,L|504:356,1,123.499994346619,2|0,0:0|0:0,0:0:0:0:
428,384,108078,1,2,0:0:0:0:
256,348,108221,5,6,0:0:0:0:
280,176,108363,1,0,0:0:0:0:
280,176,108434,1,2,0:0:0:0:
280,176,108505,2,0,L|424:168,1,123.499994346619,0|2,0:0|0:0,0:0:0:0:
176,252,108789,1,6,0:0:0:0:
136,232,108860,1,0,0:0:0:0:
116,192,108931,1,0,0:0:0:0:
112,148,109002,1,0,0:0:0:0:
124,108,109073,1,2,0:0:0:0:
148,72,109144,1,0,0:0:0:0:
184,52,109215,1,0,0:0:0:0:
228,48,109286,1,0,0:0:0:0:
272,52,109357,6,0,L|420:56,1,123.499994346619,6|0,0:0|0:0,0:0:0:0:
496,252,109642,2,0,L|492:320,2,61.7499971733095
316,356,109926,2,0,L|180:344,1,123.499994346619,2|0,0:0|0:0,0:0:0:0:
196,136,110210,2,0,L|319:146,1,123.499994346619,2|0,0:0|0:0,0:0:0:0:
108,280,110494,6,0,L|104:136,1,123.499994346619,6|0,0:0|0:0,0:0:0:0:
408,92,110778,2,0,L|411:215,1,123.499994346619,2|0,0:0|0:0,0:0:0:0:
256,356,111063,1,2,0:0:0:0:
256,148,111205,1,0,0:0:0:0:
392,308,111347,1,2,0:0:0:0:
416,304,111418,1,0,0:0:0:0:
440,300,111489,1,0,0:0:0:0:
464,296,111560,1,0,0:0:0:0:
488,292,111631,6,0,L|492:160,1,123.499994346619,6|0,0:0|0:0,0:0:0:0:
380,36,111915,1,2,0:0:0:0:
356,32,111986,1,0,0:0:0:0:
332,28,112057,1,0,0:0:0:0:
256,184,112200,2,0,L|396:180,1,123.499994346619,2|0,0:0|0:0,0:0:0:0:
160,64,112484,1,2,0:0:0:0:
164,88,112555,1,0,0:0:0:0:
168,112,112626,1,0,0:0:0:0:
108,272,112768,5,4,0:0:0:0:
68,288,112839,1,0,0:0:0:0:
28,276,112910,1,0,0:0:0:0:
4,240,112981,1,0,0:0:0:0:
4,196,113052,1,0,0:0:0:0:
32,164,113123,1,0,0:0:0:0:
76,156,113194,1,0,0:0:0:0:
116,176,113265,1,0,0:0:0:0:
152,200,113336,1,0,0:0:0:0:
192,212,113407,1,0,0:0:0:0:
236,204,113478,1,0,0:0:0:0:
276,184,113550,1,0,0:0:0:0:
304,152,113621,1,0,0:0:0:0:
312,108,113692,1,0,0:0:0:0:
304,64,113763,1,0,0:0:0:0:
284,28,113834,1,0,0:0:0:0:
244,12,113905,6,0,L|120:16,1,123.499994346619,6|0,0:0|0:0,0:0:0:0:
48,60,114118,1,0,0:0:0:0:
48,60,114189,2,0,P|36:120|48:184,1,123.499994346619,2|0,0:0|0:0,0:0:0:0:
216,360,114473,2,0,P|226:299|214:239,1,123.499994346619,2|0,0:0|0:0,0:0:0:0:
196,156,114686,1,0,0:0:0:0:
196,156,114757,2,0,L|336:152,1,123.499994346619,2|0,0:0|0:0,0:0:0:0:
488,208,115042,6,0,L|484:284,3,61.7499971733095,6|0|0|0,0:0|0:0|0:0|0:0,0:0:0:0:
400,264,115326,2,0,L|396:340,3,61.7499971733095,2|0|0|0,0:0|0:0|0:0|0:0,0:0:0:0:
316,352,115610,2,0,B|256:364|256:364|192:352,1,123.499994346619,6|0,0:0|0:0,0:0:0:0:
36,284,115894,1,2,0:0:0:0:
40,240,115965,1,0,0:0:0:0:
44,196,116036,1,0,0:0:0:0:
48,152,116107,1,0,0:0:0:0:
52,108,116178,6,0,B|112:96|112:96|176:108,1,123.499994346619,6|0,0:0|0:0,0:0:0:0:
256,136,116392,1,0,0:0:0:0:
256,136,116463,2,0,B|317:147|317:147|377:135,1,123.499994346619,2|0,0:0|0:0,0:0:0:0:
500,16,116747,2,0,L|496:148,1,123.499994346619,2|0,0:0|0:0,0:0:0:0:
432,200,116960,1,0,0:0:0:0:
432,200,117031,2,0,L|428:336,1,123.499994346619,0|0,0:0|0:0,0:0:0:0:
196,240,117315,6,0,B|256:228|256:228|320:240,1,123.499994346619,6|0,0:0|0:0,0:0:0:0:
128,332,117600,1,2,0:0:0:0:
126,307,117671,1,0,0:0:0:0:
124,282,117742,1,0,0:0:0:0:
320,116,117884,2,0,L|316:248,1,123.499994346619,6|0,0:0|0:0,0:0:0:0:
32,344,118168,2,0,L|28:220,1,123.499994346619,2|0,0:0|0:0,0:0:0:0:
16,48,118452,6,0,B|76:36|76:36|140:44,1,123.499994346619,6|0,0:0|0:0,0:0:0:0:
212,200,118736,1,0,0:0:0:0:
188,196,118807,1,0,0:0:0:0:
164,192,118878,1,0,0:0:0:0:
296,32,119021,2,0,L|432:28,1,123.499994346619,0|0,0:0|0:0,0:0:0:0:
496,68,119234,1,0,0:0:0:0:
496,68,119305,2,0,L|492:144,3,61.7499971733095,0|0|0|0,0:0|0:0|0:0|0:0,0:0:0:0:
484,216,119589,5,6,0:0:0:0:
470,256,119660,1,0,0:0:0:0:
436,283,119731,1,0,0:0:0:0:
392,287,119802,1,0,0:0:0:0:
354,268,119873,1,0,0:0:0:0:
334,228,119944,1,0,0:0:0:0:
338,184,120015,1,2,0:0:0:0:
354,144,120086,1,0,0:0:0:0:
346,100,120157,1,4,0:0:0:0:
318,68,120228,1,0,0:0:0:0:
278,48,120300,1,0,0:0:0:0:
234,48,120371,1,0,0:0:0:0:
194,60,120442,1,2,0:0:0:0:
166,92,120513,1,0,0:0:0:0:
158,136,120584,1,0,0:0:0:0:
170,176,120655,1,0,0:0:0:0:
186,216,120726,6,0,L|192:292,3,61.7499971733095,6|0|0|0,0:0|0:0|0:0|0:0,0:0:0:0:
184,364,121010,2,0,L|48:352,1,123.499994346619,0|0,0:0|0:0,0:0:0:0:
328,272,121294,2,0,L|464:260,1,123.499994346619,0|0,0:0|0:0,0:0:0:0:
508,196,121507,1,0,0:0:0:0:
508,196,121578,2,0,L|504:128,3,61.7499971733095,0|0|0|0,0:0|0:0|0:0|0:0,0:0:0:0:
500,48,121863,5,6,0:0:0:0:
464,20,121934,1,0,0:0:0:0:
420,20,122005,1,0,0:0:0:0:
384,44,122076,1,0,0:0:0:0:
376,88,122147,1,0,0:0:0:0:
388,128,122218,1,0,0:0:0:0:
384,172,122289,1,0,0:0:0:0:
360,208,122360,1,0,0:0:0:0:
324,232,122431,1,0,0:0:0:0:
280,240,122502,1,0,0:0:0:0:
236,228,122573,1,0,0:0:0:0:
200,200,122644,1,0,0:0:0:0:
180,160,122715,1,0,0:0:0:0:
176,116,122786,1,0,0:0:0:0:
188,76,122857,1,0,0:0:0:0:
216,40,122928,1,0,0:0:0:0:
256,24,123000,5,4,0:0:0:0:
256,24,124847,2,0,L|256:88,1,47.5,0|0,0:0|0:0,0:0:0:0:
256,168,124989,1,4,0:0:0:0:
256,168,125273,6,0,B|196:156|196:156|132:168,1,123.499994346619,6|0,0:0|0:0,0:0:0:0:
52,192,125486,2,0,L|56:324,1,123.499994346619,2|0,0:0|0:0,0:0:0:0:
116,380,125700,1,2,0:0:0:0:
288,376,125842,2,0,L|424:368,1,123.499994346619,2|0,0:0|0:0,0:0:0:0:
496,356,126055,2,0,B|508:296|508:296|496:232,1,123.499994346619,2|0,0:0|0:0,0:0:0:0:
480,148,126268,1,2,0:0:0:0:
340,44,126410,5,6,0:0:0:0:
232,180,126552,1,0,0:0:0:0:
256,176,126623,1,2,0:0:0:0:
280,172,126694,1,0,0:0:0:0:
124,100,126836,1,2,0:0:0:0:
56,260,126978,1,6,0:0:0:0:
56,304,127050,1,0,0:0:0:0:
72,344,127121,1,0,0:0:0:0:
108,368,127192,1,0,0:0:0:0:
152,376,127263,1,2,0:0:0:0:
196,372,127334,1,0,0:0:0:0:
232,348,127405,1,0,0:0:0:0:
252,312,127476,1,0,0:0:0:0:
256,268,127547,6,0,L|256:132,1,123.499994346619,6|0,0:0|0:0,0:0:0:0:
88,108,127831,1,0,0:0:0:0:
92,132,127902,1,0,0:0:0:0:
96,156,127973,1,0,0:0:0:0:
196,12,128115,2,0,L|40:8,1,123.499994346619,2|0,0:0|0:0,0:0:0:0:
316,88,128400,2,0,L|472:84,1,123.499994346619,2|0,0:0|0:0,0:0:0:0:
500,148,128613,1,0,0:0:0:0:
500,148,128684,6,0,L|496:216,3,61.7499971733095,6|0|0|0,0:0|0:0|0:0|0:0,0:0:0:0:
492,296,128968,1,2,0:0:0:0:
476,336,129039,1,0,0:0:0:0:
436,356,129110,1,0,0:0:0:0:
392,348,129181,1,0,0:0:0:0:
360,320,129252,1,2,0:0:0:0:
356,276,129323,1,0,0:0:0:0:
372,236,129394,1,0,0:0:0:0:
380,192,129465,1,0,0:0:0:0:
360,152,129536,1,2,0:0:0:0:
328,124,129607,1,0,0:0:0:0:
284,116,129678,1,0,0:0:0:0:
240,128,129750,1,0,0:0:0:0:
212,160,129821,6,0,L|116:156,2,82.3333295644126,6|0|0,0:0|0:0|0:0,0:0:0:0:
316,236,130105,2,0,P|324:280|316:320,2,82.3333295644126,2|0|0,0:0|0:0|0:0,0:0:0:0:
196,236,130389,2,0,P|188:280|196:320,2,82.3333295644126,2|0|0,0:0|0:0|0:0,0:0:0:0:
300,160,130673,2,0,L|396:156,2,82.3333295644126,2|0|0,0:0|0:0|0:0,0:0:0:0:
256,48,130957,6,0,L|116:44,1,123.499994346619,4|0,0:0|0:0,0:0:0:0:
44,40,131171,2,0,L|40:188,1,123.499994346619,4|0,0:0|0:0,0:0:0:0:
40,248,131384,2,0,L|144:252,1,61.7499971733095,4|0,0:0|0:0,0:0:0:0:
256,172,131526,2,0,L|116:168,1,123.499994346619,6|0,0:0|0:0,0:0:0:0:
256,344,131810,1,0,0:0:0:0:
300,340,131881,1,0,0:0:0:0:
344,336,131952,1,0,0:0:0:0:
388,332,132023,1,0,0:0:0:0:
432,328,132094,6,0,B|444:268|444:268|432:204,1,123.499994346619,6|0,0:0|0:0,0:0:0:0:
396,128,132307,1,0,0:0:0:0:
396,128,132378,2,0,L|520:124,1,123.499994346619,2|0,0:0|0:0,0:0:0:0:
336,268,132663,2,0,L|196:260,1,123.499994346619,2|0,0:0|0:0,0:0:0:0:
128,256,132876,1,0,0:0:0:0:
128,256,132947,2,0,B|116:192|116:192|124:128,1,123.499994346619,2|0,0:0|0:0,0:0:0:0:
256,24,133231,6,0,L|328:20,3,61.7499971733095,6|0|0|0,0:0|0:0|0:0|0:0,0:0:0:0:
356,96,133515,2,0,L|428:92,3,61.7499971733095,2|0|0|0,0:0|0:0|0:0|0:0,0:0:0:0:
504,92,133800,2,0,L|500:228,1,123.499994346619,6|0,0:0|0:0,0:0:0:0:
416,364,134084,1,2,0:0:0:0:
372,372,134155,1,0,0:0:0:0:
328,372,134226,1,0,0:0:0:0:
288,356,134297,1,0,0:0:0:0:
256,328,134368,6,0,L|256:180,1,123.499994346619,6|0,0:0|0:0,0:0:0:0:
280,120,134581,1,0,0:0:0:0:
280,120,134652,2,0,P|340:108|400:120,1,123.499994346619,2|0,0:0|0:0,0:0:0:0:
256,328,134936,2,0,P|196:340|136:328,1,123.499994346619,2|0,0:0|0:0,0:0:0:0:
60,288,135150,1,0,0:0:0:0:
60,288,135221,2,0,L|64:152,1,123.499994346619,0|0,0:0|0:0,0:0:0:0:
164,24,135505,6,0,L|232:20,3,61.7499971733095,6|0|0|0,0:0|0:0|0:0|0:0,0:0:0:0:
256,100,135789,2,0,L|324:96,3,61.7499971733095,2|0|0|0,0:0|0:0|0:0|0:0,0:0:0:0:
404,96,136073,1,6,0:0:0:0:
444,108,136144,1,0,0:0:0:0:
476,136,136215,1,0,0:0:0:0:
496,176,136286,1,0,0:0:0:0:
500,220,136357,1,2,0:0:0:0:
492,264,136428,1,0,0:0:0:0:
472,304,136500,1,0,0:0:0:0:
436,328,136571,1,0,0:0:0:0:
392,336,136642,6,0,L|252:328,1,123.499994346619,6|0,0:0|0:0,0:0:0:0:
188,296,136855,1,0,0:0:0:0:
188,296,136926,2,0,L|184:160,1,123.499994346619,0|0,0:0|0:0,0:0:0:0:
320,64,137210,1,0,0:0:0:0:
316,88,137281,1,0,0:0:0:0:
312,112,137352,1,0,0:0:0:0:
76,188,137494,1,0,0:0:0:0:
72,164,137565,1,0,0:0:0:0:
68,140,137636,1,0,0:0:0:0:
64,116,137707,1,0,0:0:0:0:
60,92,137778,6,0,L|188:84,1,123.499994346619,6|0,0:0|0:0,0:0:0:0:
256,136,137992,1,0,0:0:0:0:
256,136,138063,2,0,L|256:264,1,123.499994346619,0|2,0:0|0:0,0:0:0:0:
112,356,138347,1,4,0:0:0:0:
72,368,138418,1,0,0:0:0:0:
32,352,138489,1,0,0:0:0:0:
8,316,138560,1,0,0:0:0:0:
12,272,138631,1,2,0:0:0:0:
44,240,138702,1,0,0:0:0:0:
92,236,138773,1,0,0:0:0:0:
128,256,138844,1,0,0:0:0:0:
148,296,138915,5,6,0:0:0:0:
172,332,138986,1,0,0:0:0:0:
208,352,139057,1,0,0:0:0:0:
252,360,139128,1,0,0:0:0:0:
296,356,139200,1,0,0:0:0:0:
336,340,139271,1,0,0:0:0:0:
368,312,139342,1,0,0:0:0:0:
380,272,139413,1,0,0:0:0:0:
388,228,139484,1,0,0:0:0:0:
380,184,139555,1,0,0:0:0:0:
360,148,139626,1,0,0:0:0:0:
324,124,139697,1,0,0:0:0:0:
284,108,139768,1,0,0:0:0:0:
240,104,139839,1,0,0:0:0:0:
200,116,139910,1,0,0:0:0:0:
164,136,139981,1,0,0:0:0:0:
144,172,140052,6,0,L|148:252,3,61.7499971733095,6|0|0|0,0:0|0:0|0:0|0:0,0:0:0:0:
156,320,140336,1,0,0:0:0:0:
188,356,140407,1,0,0:0:0:0:
236,368,140478,1,0,0:0:0:0:
284,364,140550,1,0,0:0:0:0:
324,336,140621,1,0,0:0:0:0:
348,292,140692,1,0,0:0:0:0:
344,244,140763,1,0,0:0:0:0:
316,204,140834,1,0,0:0:0:0:
272,184,140905,1,0,0:0:0:0:
232,156,140976,1,0,0:0:0:0:
216,108,141047,1,0,0:0:0:0:
220,60,141118,1,0,0:0:0:0:
256,28,141189,6,0,L|376:24,1,113.999996520996,6|0,0:0|0:0,0:0:0:0:
476,144,141473,2,0,L|352:136,1,113.999996520996,0|0,0:0|0:0,0:0:0:0:
204,128,141757,1,0,0:0:0:0:
320,284,141900,1,0,0:0:0:0:
320,284,141971,1,0,0:0:0:0:
320,284,142042,2,0,L|464:276,1,113.999996520996,0|0,0:0|0:0,0:0:0:0:
308,128,142326,5,0,0:0:0:0:
192,284,142468,1,0,0:0:0:0:
192,284,142539,1,0,0:0:0:0:
192,284,142610,2,0,L|48:276,1,113.999996520996,0|0,0:0|0:0,0:0:0:0:
12,96,142894,1,0,0:0:0:0:
44,92,142965,1,0,0:0:0:0:
76,88,143036,1,0,0:0:0:0:
108,84,143107,1,0,0:0:0:0:
144,80,143178,2,0,L|136:204,1,113.999996520996,0|0,0:0|0:0,0:0:0:0:
276,332,143463,6,0,L|268:218,1,113.999996520996,6|0,0:0|0:0,0:0:0:0:
80,276,143747,2,0,P|136:288|192:276,1,113.999996520996,0|0,0:0|0:0,0:0:0:0:
256,132,144031,1,0,0:0:0:0:
396,208,144173,1,0,0:0:0:0:
392,232,144244,1,0,0:0:0:0:
388,256,144315,1,0,0:0:0:0:
348,100,144457,1,0,0:0:0:0:
500,144,144600,6,0,P|512:200|500:260,1,113.999996520996,0|0,0:0|0:0,0:0:0:0:
376,352,144884,1,0,0:0:0:0:
256,244,145026,1,0,0:0:0:0:
328,104,145168,1,0,0:0:0:0:
348,100,145239,1,0,0:0:0:0:
372,96,145310,1,0,0:0:0:0:
396,92,145381,1,0,0:0:0:0:
420,88,145452,2,0,L|484:92,2,56.9999982604981,0|0|0,0:0|0:0|0:0,0:0:0:0:
184,104,145736,6,0,L|56:96,1,113.999996520996,6|0,0:0|0:0,0:0:0:0:
0,248,146021,2,0,L|113:255,1,113.999996520996,0|0,0:0|0:0,0:0:0:0:
256,180,146305,1,0,0:0:0:0:
312,328,146447,1,0,0:0:0:0:
312,328,146518,1,0,0:0:0:0:
312,328,146589,2,0,P|256:340|200:328,1,113.999996520996,0|0,0:0|0:0,0:0:0:0:
364,128,146873,6,0,L|360:260,1,113.999996520996,0|0,0:0|0:0,0:0:0:0:
151,241,147157,2,0,L|148:128,1,113.999996520996,0|0,0:0|0:0,0:0:0:0:
188,56,147371,1,0,0:0:0:0:
188,56,147442,2,0,L|272:44,3,56.9999982604981,0|0|0|0,0:0|0:0|0:0|0:0,0:0:0:0:
324,56,147726,1,0,0:0:0:0:
216,260,147868,1,0,0:0:0:0:
216,260,147939,1,0,0:0:0:0:
216,260,148010,6,0,L|100:252,1,113.999996520996,6|0,0:0|0:0,0:0:0:0:
296,168,148294,2,0,L|412:160,1,113.999996520996,0|0,0:0|0:0,0:0:0:0:
102,252,148578,2,0,B|94:192|94:192|102:128,1,113.999996520996,6|0,0:0|0:0,0:0:0:0:
411,47,148863,2,0,B|417:100|417:100|409:160,1,113.999996520996,0|0,0:0|0:0,0:0:0:0:
256,328,149147,5,6,0:0:0:0:
256,168,149289,1,0,0:0:0:0:
256,144,149360,1,0,0:0:0:0:
256,120,149431,1,0,0:0:0:0:
352,288,149573,1,0,0:0:0:0:
172,364,149715,2,0,L|48:360,1,113.999996520996,0|0,0:0|0:0,0:0:0:0:
4,300,149928,1,0,0:0:0:0:
4,300,150000,2,0,L|0:224,3,56.9999982604981,0|0|0|0,0:0|0:0|0:0|0:0,0:0:0:0:
0,164,150284,6,0,L|124:156,1,113.999996520996,6|0,0:0|0:0,0:0:0:0:
144,232,150497,1,0,0:0:0:0:
144,232,150568,2,0,L|268:224,1,113.999996520996,0|0,0:0|0:0,0:0:0:0:
340,88,150852,1,0,0:0:0:0:
472,176,150994,1,0,0:0:0:0:
472,176,151065,1,0,0:0:0:0:
472,176,151136,2,0,L|468:304,1,113.999996520996,0|0,0:0|0:0,0:0:0:0:
412,348,151350,1,0,0:0:0:0:
412,348,151421,6,0,P|356:360|296:348,1,113.999996520996,6|0,0:0|0:0,0:0:0:0:
200,184,151705,2,0,P|256:172|316:184,1,113.999996520996,0|0,0:0|0:0,0:0:0:0:
211,350,151989,2,0,P|155:359|100:348,1,113.999996520996,6|0,0:0|0:0,0:0:0:0:
0,224,152273,1,0,0:0:0:0:
140,148,152415,1,0,0:0:0:0:
140,148,152486,1,0,0:0:0:0:
140,148,152557,6,0,L|132:280,1,113.999996520996,6|0,0:0|0:0,0:0:0:0:
88,60,152842,2,0,P|144:48|200:60,1,113.999996520996,0|0,0:0|0:0,0:0:0:0:
312,172,153126,1,0,0:0:0:0:
196,284,153268,1,0,0:0:0:0:
196,284,153339,1,0,0:0:0:0:
196,284,153410,2,0,L|60:276,1,113.999996520996,0|0,0:0|0:0,0:0:0:0:
312,172,153694,6,0,P|324:224|312:288,1,113.999996520996,6|0,0:0|0:0,0:0:0:0:
108,180,153978,2,0,P|97:124|110:68,1,113.999996520996,0|0,0:0|0:0,0:0:0:0:
256,4,154263,1,0,0:0:0:0:
401,68,154405,1,0,0:0:0:0:
401,68,154476,1,0,0:0:0:0:
401,68,154547,2,0,P|414:124|404:180,1,113.999996520996,0|0,0:0|0:0,0:0:0:0:
324,316,154831,5,6,0:0:0:0:
288,312,154902,1,0,0:0:0:0:
256,308,154973,1,0,0:0:0:0:
224,304,155044,1,0,0:0:0:0:
192,300,155115,2,0,L|188:176,1,113.999996520996,0|0,0:0|0:0,0:0:0:0:
324,36,155400,2,0,L|320:149,1,113.999996520996,0|0,0:0|0:0,0:0:0:0:
316,228,155613,1,0,0:0:0:0:
316,228,155684,2,0,B|372:236|372:236|432:224,1,113.999996520996,0|0,0:0|0:0,0:0:0:0:
212,72,155968,6,0,L|148:68,3,56.9999982604981,0|0|0|0,0:0|0:0|0:0|0:0,0:0:0:0:
140,148,156252,2,0,L|76:144,3,56.9999982604981,0|0|0|0,0:0|0:0|0:0|0:0,0:0:0:0:
28,204,156536,2,0,L|32:276,3,56.9999982604981,0|0|0|0,0:0|0:0|0:0|0:0,0:0:0:0:
108,284,156821,2,0,L|112:356,3,56.9999982604981,0|0|0|0,0:0|0:0|0:0|0:0,0:0:0:0:
188,360,157105,6,0,L|320:352,1,113.999996520996,4|0,0:0|0:0,0:0:0:0:
324,24,157389,2,0,L|192:32,1,113.999996520996,4|0,0:0|0:0,0:0:0:0:
396,288,157673,2,0,L|528:280,1,113.999996520996,4|0,0:0|0:0,0:0:0:0:
116,96,157957,2,0,L|-16:104,1,113.999996520996,4|0,0:0|0:0,0:0:0:0:
256,372,158242,5,6,0:0:0:0:
256,372,158810,1,0,0:0:0:0:
256,348,158881,1,0,0:0:0:0:
256,324,158952,1,0,0:0:0:0:
256,300,159023,1,0,0:0:0:0:
256,276,159094,1,0,0:0:0:0:
256,252,159165,1,0,0:0:0:0:
256,228,159236,1,0,0:0:0:0:
256,204,159307,1,0,0:0:0:0:
256,180,159378,6,0,B|316:168|316:168|380:180,1,123.499994346619,6|0,0:0|0:0,0:0:0:0:
460,208,159592,1,0,0:0:0:0:
460,208,159663,2,0,L|456:280,2,61.7499971733095,0|0|0,0:0|0:0|0:0,0:0:0:0:
472,36,159947,1,6,0:0:0:0:
444,68,160018,1,0,0:0:0:0:
404,80,160089,1,0,0:0:0:0:
360,72,160160,1,0,0:0:0:0:
332,40,160231,1,0,0:0:0:0:
296,16,160302,1,0,0:0:0:0:
256,4,160373,1,0,0:0:0:0:
212,12,160444,1,0,0:0:0:0:
176,36,160515,5,4,0:0:0:0:
156,76,160586,1,0,0:0:0:0:
152,120,160657,1,0,0:0:0:0:
168,160,160728,1,0,0:0:0:0:
200,188,160800,1,0,0:0:0:0:
224,224,160871,1,0,0:0:0:0:
220,268,160942,1,0,0:0:0:0:
204,308,161013,1,0,0:0:0:0:
168,332,161084,2,0,L|40:324,1,123.499994346619,2|0,0:0|0:0,0:0:0:0:
8,248,161297,1,0,0:0:0:0:
8,248,161368,2,0,L|4:184,3,61.7499971733095,2|0|0|0,0:0|0:0|0:0|0:0,0:0:0:0:
0,100,161652,5,6,0:0:0:0:
4,56,161723,1,0,0:0:0:0:
32,24,161794,1,0,0:0:0:0:
72,12,161865,1,0,0:0:0:0:
116,20,161936,1,0,0:0:0:0:
144,52,162007,1,0,0:0:0:0:
148,96,162078,1,0,0:0:0:0:
128,136,162150,1,0,0:0:0:0:
96,168,162221,1,2,0:0:0:0:
76,208,162292,1,0,0:0:0:0:
76,252,162363,1,0,0:0:0:0:
96,292,162434,1,0,0:0:0:0:
132,316,162505,1,0,0:0:0:0:
176,324,162576,1,0,0:0:0:0:
216,312,162647,1,0,0:0:0:0:
244,280,162718,1,0,0:0:0:0:
256,240,162789,5,4,0:0:0:0:
300,248,162860,1,0,0:0:0:0:
340,236,162931,1,0,0:0:0:0:
364,200,163002,1,0,0:0:0:0:
360,156,163073,1,2,0:0:0:0:
332,124,163144,1,0,0:0:0:0:
292,112,163215,1,0,0:0:0:0:
252,128,163286,1,0,0:0:0:0:
224,164,163357,1,4,0:0:0:0:
204,204,163428,1,0,0:0:0:0:
176,240,163500,1,0,0:0:0:0:
136,260,163571,1,0,0:0:0:0:
92,260,163642,1,2,0:0:0:0:
52,248,163713,1,0,0:0:0:0:
20,216,163784,1,0,0:0:0:0:
8,176,163855,1,0,0:0:0:0:
12,132,163926,6,0,L|144:128,1,123.499994346619,2|0,0:0|0:0,0:0:0:0:
320,308,164210,2,0,L|196:304,1,123.499994346619,0|0,0:0|0:0,0:0:0:0:
376,128,164494,2,0,L|444:124,3,61.7499971733095,2|0|0|0,0:0|0:0|0:0|0:0,0:0:0:0:
508,176,164778,2,0,P|512:208|508:240,3,61.7499971733095,2|0|0|0,0:0|0:0|0:0|0:0,0:0:0:0:
476,316,165063,6,0,L|340:312,1,123.499994346619,6|0,0:0|0:0,0:0:0:0:
160,228,165347,2,0,L|156:96,1,123.499994346619,2|0,0:0|0:0,0:0:0:0:
355,104,165631,2,0,L|352:228,1,123.499994346619,2|0,0:0|0:0,0:0:0:0:
160,312,165915,2,0,L|80:308,3,61.7499971733095,2|0|0|0,0:0|0:0|0:0|0:0,0:0:0:0:
36,248,166200,5,4,0:0:0:0:
12,212,166271,1,0,0:0:0:0:
16,168,166342,1,0,0:0:0:0:
44,136,166413,1,0,0:0:0:0:
84,124,166484,1,2,0:0:0:0:
124,136,166555,1,0,0:0:0:0:
152,168,166626,1,0,0:0:0:0:
168,208,166697,1,0,0:0:0:0:
200,236,166768,1,4,0:0:0:0:
240,252,166839,1,0,0:0:0:0:
284,248,166910,1,0,0:0:0:0:
324,228,166981,1,0,0:0:0:0:
344,188,167052,2,0,L|340:64,1,123.499994346619,2|0,0:0|0:0,0:0:0:0:
256,336,167336,6,0,L|400:332,1,123.499994346619,4|0,0:0|0:0,0:0:0:0:
468,328,167550,2,0,L|464:172,1,123.499994346619,4|0,0:0|0:0,0:0:0:0:
464,120,167763,2,0,L|352:124,1,61.7499971733095,4|0,0:0|0:0,0:0:0:0:
244,128,167905,2,0,L|252:272,1,123.499994346619,6|0,0:0|0:0,0:0:0:0:
256,336,168118,1,0,0:0:0:0:
256,336,168189,2,0,L|184:332,3,61.7499971733095,0|0|0|0,0:0|0:0|0:0|0:0,0:0:0:0:
108,328,168473,5,4,0:0:0:0:
68,316,168544,1,0,0:0:0:0:
44,280,168615,1,0,0:0:0:0:
48,236,168686,1,0,0:0:0:0:
80,204,168757,1,2,0:0:0:0:
124,200,168828,1,0,0:0:0:0:
164,220,168900,1,0,0:0:0:0:
200,244,168971,1,0,0:0:0:0:
244,252,169042,1,0,0:0:0:0:
284,240,169113,1,0,0:0:0:0:
324,220,169184,1,0,0:0:0:0:
352,184,169255,1,0,0:0:0:0:
360,140,169326,1,2,0:0:0:0:
356,96,169397,1,0,0:0:0:0:
336,60,169468,1,0,0:0:0:0:
300,36,169539,1,0,0:0:0:0:
256,24,169610,6,0,L|184:28,3,61.7499971733095,6|0|0|0,0:0|0:0|0:0|0:0,0:0:0:0:
288,128,169894,2,0,L|360:132,3,61.7499971733095,6|0|0|0,0:0|0:0|0:0|0:0,0:0:0:0:
200,212,170178,2,0,L|128:216,3,61.7499971733095,6|0|0|0,0:0|0:0|0:0|0:0,0:0:0:0:
324,296,170463,2,0,L|396:300,3,61.7499971733095,6|0|0|0,0:0|0:0|0:0|0:0,0:0:0:0:
176,368,170747,5,4,0:0:0:0:
128,376,170818,1,0,0:0:0:0:
84,360,170889,1,0,0:0:0:0:
60,316,170960,1,0,0:0:0:0:
64,268,171031,1,2,0:0:0:0:
96,232,171102,1,0,0:0:0:0:
144,220,171173,1,0,0:0:0:0:
192,224,171244,1,0,0:0:0:0:
240,216,171315,1,4,0:0:0:0:
276,180,171386,1,0,0:0:0:0:
296,136,171457,1,0,0:0:0:0:
300,88,171528,1,0,0:0:0:0:
280,44,171600,1,2,0:0:0:0:
236,20,171671,1,0,0:0:0:0:
188,12,171742,1,0,0:0:0:0:
140,20,171813,1,0,0:0:0:0:
100,48,171884,6,0,L|108:172,1,123.499994346619,6|0,0:0|0:0,0:0:0:0:
256,320,172168,1,0,0:0:0:0:
252,296,172239,1,0,0:0:0:0:
248,272,172310,1,2,0:0:0:0:
48,336,172452,2,0,B|108:352|108:352|172:336,1,123.499994346619,0|0,0:0|0:0,0:0:0:0:
280,160,172736,1,0,0:0:0:0:
256,156,172807,1,0,0:0:0:0:
232,152,172878,1,0,0:0:0:0:
384,300,173021,6,0,L|476:296,2,82.3333295644126,4|0|0,0:0|0:0|0:0,0:0:0:0:
508,232,173305,2,0,L|504:140,2,82.3333295644126,2|0|0,0:0|0:0|0:0,0:0:0:0:
448,104,173589,2,0,L|365:107,2,82.3333295644126,2|0|0,0:0|0:0|0:0,0:0:0:0:
320,164,173873,2,0,L|323:246,2,82.3333295644126,2|0|0,0:0|0:0|0:0,0:0:0:0:
256,288,174157,5,6,0:0:0:0:
244,336,174228,1,0,0:0:0:0:
204,364,174300,1,0,0:0:0:0:
156,372,174371,1,0,0:0:0:0:
112,348,174442,1,2,0:0:0:0:
88,304,174513,1,0,0:0:0:0:
92,256,174584,1,0,0:0:0:0:
124,220,174655,1,0,0:0:0:0:
168,196,174726,1,4,0:0:0:0:
200,160,174797,1,0,0:0:0:0:
204,112,174868,1,0,0:0:0:0:
188,64,174939,1,0,0:0:0:0:
144,40,175010,1,2,0:0:0:0:
96,40,175081,1,0,0:0:0:0:
52,60,175152,1,0,0:0:0:0:
32,104,175223,1,0,0:0:0:0:
40,152,175294,5,6,0:0:0:0:
88,152,175365,1,0,0:0:0:0:
128,124,175436,1,0,0:0:0:0:
152,80,175507,1,0,0:0:0:0:
184,40,175578,1,2,0:0:0:0:
228,16,175650,1,0,0:0:0:0:
276,16,175721,1,0,0:0:0:0:
320,36,175792,1,0,0:0:0:0:
348,76,175863,1,4,0:0:0:0:
352,124,175934,1,0,0:0:0:0:
332,168,176005,1,0,0:0:0:0:
292,200,176076,1,0,0:0:0:0:
244,204,176147,1,2,0:0:0:0:
196,192,176218,1,0,0:0:0:0:
148,200,176289,1,0,0:0:0:0:
112,232,176360,1,0,0:0:0:0:
100,280,176431,6,0,L|104:352,3,61.7499971733095,2|0|0|0,0:0|0:0|0:0|0:0,0:0:0:0:
180,380,176715,1,2,0:0:0:0:
224,360,176786,1,0,0:0:0:0:
244,316,176857,1,0,0:0:0:0:
240,268,176928,1,0,0:0:0:0:
208,232,177000,1,2,0:0:0:0:
160,216,177071,1,0,0:0:0:0:
120,184,177142,1,0,0:0:0:0:
100,140,177213,1,0,0:0:0:0:
96,92,177284,1,2,0:0:0:0:
116,48,177355,1,0,0:0:0:0:
156,16,177426,1,0,0:0:0:0:
204,4,177497,1,0,0:0:0:0:
256,8,177568,5,4,0:0:0:0:
256,8,179415,2,0,L|256:84,1,47.5,0|0,0:0|0:0,0:0:0:0:
256,152,179557,1,4,0:0:0:0:
256,152,179842,6,0,B|320:140|320:140|388:152,1,132.999995941162,6|0,0:0|0:0,0:0:0:0:
480,168,180055,2,0,L|476:304,1,132.999995941162,2|0,0:0|0:0,0:0:0:0:
412,368,180268,1,2,0:0:0:0:
256,268,180410,2,0,B|188:252|188:252|124:268,1,132.999995941162,2|0,0:0|0:0,0:0:0:0:
56,328,180623,2,0,L|52:196,1,132.999995941162,2|0,0:0|0:0,0:0:0:0:
0,116,180836,1,2,0:0:0:0:
152,12,180978,5,6,0:0:0:0:
200,192,181121,1,0,0:0:0:0:
172,188,181192,1,2,0:0:0:0:
144,184,181263,1,0,0:0:0:0:
256,36,181405,1,2,0:0:0:0:
316,212,181547,1,2,0:0:0:0:
360,224,181618,1,0,0:0:0:0:
408,220,181689,1,0,0:0:0:0:
448,196,181760,1,2,0:0:0:0:
476,160,181831,1,0,0:0:0:0:
488,116,181902,1,0,0:0:0:0:
480,72,181973,1,2,0:0:0:0:
456,32,182044,1,0,0:0:0:0:
416,12,182115,6,0,L|280:20,1,132.999995941162,6|0,0:0|0:0,0:0:0:0:
256,108,182328,2,0,L|120:100,1,132.999995941162,2|0,0:0|0:0,0:0:0:0:
80,16,182542,1,2,0:0:0:0:
256,208,182684,2,0,L|392:200,1,132.999995941162,2|0,0:0|0:0,0:0:0:0:
480,196,182897,2,0,B|492:268|492:268|480:332,1,132.999995941162,2|0,0:0|0:0,0:0:0:0:
388,344,183110,1,2,0:0:0:0:
256,208,183252,5,6,0:0:0:0:
380,68,183394,1,0,0:0:0:0:
380,68,183465,1,2,0:0:0:0:
380,68,183536,2,0,L|516:64,1,132.999995941162,0|2,0:0|0:0,0:0:0:0:
256,208,183821,1,6,0:0:0:0:
212,224,183892,1,0,0:0:0:0:
168,216,183963,1,0,0:0:0:0:
140,180,184034,1,0,0:0:0:0:
140,132,184105,1,2,0:0:0:0:
116,92,184176,1,0,0:0:0:0:
72,76,184247,1,0,0:0:0:0:
28,84,184318,1,0,0:0:0:0:
0,120,184389,6,0,L|12:264,1,132.999995941162,6|0,0:0|0:0,0:0:0:0:
56,336,184602,1,0,0:0:0:0:
56,336,184673,2,0,P|120:352|184:336,1,132.999995941162,0|0,0:0|0:0,0:0:0:0:
320,144,184957,2,0,P|256:128|192:144,1,132.999995941162,6|0,0:0|0:0,0:0:0:0:
112,192,185171,1,0,0:0:0:0:
112,192,185242,2,0,L|120:268,3,66.4999979705811,2|0|0|0,0:0|0:0|0:0|0:0,0:0:0:0:
132,352,185526,5,6,0:0:0:0:
176,372,185597,1,0,0:0:0:0:
224,368,185668,1,0,0:0:0:0:
260,336,185739,1,0,0:0:0:0:
268,292,185810,1,2,0:0:0:0:
284,248,185881,1,0,0:0:0:0:
316,212,185952,1,0,0:0:0:0:
360,200,186023,1,0,0:0:0:0:
408,204,186094,1,2,0:0:0:0:
452,220,186165,1,0,0:0:0:0:
480,256,186236,1,0,0:0:0:0:
492,300,186307,1,0,0:0:0:0:
488,348,186378,2,0,L|344:344,1,132.999995941162,2|0,0:0|0:0,0:0:0:0:
300,268,186592,1,0,0:0:0:0:
300,268,186663,6,0,L|304:112,1,132.999995941162,6|0,0:0|0:0,0:0:0:0:
464,40,186947,2,0,L|460:172,1,132.999995941162,2|0,0:0|0:0,0:0:0:0:
212,268,187231,2,0,L|208:112,1,132.999995941162,2|0,0:0|0:0,0:0:0:0:
48,40,187515,2,0,L|51:172,1,132.999995941162,2|0,0:0|0:0,0:0:0:0:
72,356,187800,5,4,0:0:0:0:
116,372,187871,1,0,0:0:0:0:
160,364,187942,1,0,0:0:0:0:
200,340,188013,1,0,0:0:0:0:
220,296,188084,1,0,0:0:0:0:
216,248,188155,1,0,0:0:0:0:
192,208,188226,1,0,0:0:0:0:
152,188,188297,1,0,0:0:0:0:
104,192,188368,1,0,0:0:0:0:
60,180,188439,1,0,0:0:0:0:
28,144,188510,1,0,0:0:0:0:
20,100,188581,1,0,0:0:0:0:
28,56,188652,1,0,0:0:0:0:
60,24,188723,1,0,0:0:0:0:
104,16,188794,1,0,0:0:0:0:
152,20,188865,1,0,0:0:0:0:
188,52,188936,6,0,L|348:44,1,132.999995941162,6|0,0:0|0:0,0:0:0:0:
416,44,189150,1,0,0:0:0:0:
416,44,189221,2,0,B|428:112|428:112|416:188,1,132.999995941162,2|0,0:0|0:0,0:0:0:0:
324,332,189505,2,0,L|168:328,1,132.999995941162,2|0,0:0|0:0,0:0:0:0:
96,324,189718,1,0,0:0:0:0:
96,324,189789,2,0,B|84:256|84:256|96:180,1,132.999995941162,2|0,0:0|0:0,0:0:0:0:
256,104,190073,6,0,L|328:100,3,66.4999979705811,6|0|0|0,0:0|0:0|0:0|0:0,0:0:0:0:
348,188,190357,2,0,L|428:184,3,66.4999979705811,2|0|0|0,0:0|0:0|0:0|0:0,0:0:0:0:
508,184,190642,2,0,L|504:320,1,132.999995941162,6|0,0:0|0:0,0:0:0:0:
328,372,190926,1,2,0:0:0:0:
280,376,190997,1,0,0:0:0:0:
236,364,191068,1,0,0:0:0:0:
200,336,191139,1,0,0:0:0:0:
180,296,191210,6,0,L|172:148,1,132.999995941162,6|0,0:0|0:0,0:0:0:0:
192,72,191423,1,0,0:0:0:0:
192,72,191494,2,0,B|256:56|256:56|324:72,1,132.999995941162,2|0,0:0|0:0,0:0:0:0:
180,296,191778,2,0,B|116:312|116:312|48:296,1,132.999995941162,2|0,0:0|0:0,0:0:0:0:
0,216,191992,1,0,0:0:0:0:
0,216,192063,2,0,L|4:76,1,132.999995941162,2|0,0:0|0:0,0:0:0:0:
180,20,192347,6,0,L|264:16,3,66.4999979705811,6|0|0|0,0:0|0:0|0:0|0:0,0:0:0:0:
256,108,192631,2,0,L|332:104,3,66.4999979705811,2|0|0|0,0:0|0:0|0:0|0:0,0:0:0:0:
416,100,192915,1,6,0:0:0:0:
460,108,192986,1,0,0:0:0:0:
492,140,193057,1,0,0:0:0:0:
504,188,193128,1,0,0:0:0:0:
496,236,193200,1,6,0:0:0:0:
468,272,193271,1,0,0:0:0:0:
424,288,193342,1,0,0:0:0:0:
380,280,193413,1,0,0:0:0:0:
344,252,193484,6,0,L|272:256,3,66.4999979705811,6|0|0|0,0:0|0:0|0:0|0:0,0:0:0:0:
232,336,193768,1,0,0:0:0:0:
184,312,193839,1,0,0:0:0:0:
132,320,193910,1,0,0:0:0:0:
88,352,193981,1,0,0:0:0:0:
36,340,194052,1,0,0:0:0:0:
4,296,194123,1,0,0:0:0:0:
8,244,194194,1,0,0:0:0:0:
48,208,194265,1,0,0:0:0:0:
100,208,194336,1,0,0:0:0:0:
152,220,194407,1,0,0:0:0:0:
204,204,194478,1,0,0:0:0:0:
244,168,194550,1,0,0:0:0:0:
256,116,194621,5,6,0:0:0:0:
204,104,194692,1,0,0:0:0:0:
152,104,194763,1,0,0:0:0:0:
104,124,194834,1,0,0:0:0:0:
72,164,194905,1,0,0:0:0:0:
64,216,194976,1,0,0:0:0:0:
76,268,195047,1,2,0:0:0:0:
108,312,195118,1,0,0:0:0:0:
156,332,195189,1,0,0:0:0:0:
208,336,195260,1,0,0:0:0:0:
256,316,195331,1,0,0:0:0:0:
284,272,195402,1,0,0:0:0:0:
328,244,195473,1,2,0:0:0:0:
380,236,195544,1,0,0:0:0:0:
432,248,195615,1,0,0:0:0:0:
472,280,195686,1,0,0:0:0:0:
504,324,195757,5,6,0:0:0:0:
468,360,195828,1,0,0:0:0:0:
416,368,195900,1,0,0:0:0:0:
368,344,195971,1,0,0:0:0:0:
344,296,196042,1,0,0:0:0:0:
356,244,196113,1,0,0:0:0:0:
396,208,196184,1,0,0:0:0:0:
420,160,196255,1,0,0:0:0:0:
424,108,196326,1,0,0:0:0:0:
408,56,196397,1,0,0:0:0:0:
364,24,196468,1,0,0:0:0:0:
312,12,196539,1,0,0:0:0:0:
260,20,196610,1,0,0:0:0:0:
220,56,196681,1,0,0:0:0:0:
212,108,196752,1,0,0:0:0:0:
220,160,196823,1,0,0:0:0:0:
256,200,196894,5,6,0:0:0:0:
292,160,196965,1,0,0:0:0:0:
300,108,197036,1,0,0:0:0:0:
292,56,197107,1,0,0:0:0:0:
252,20,197178,1,0,0:0:0:0:
200,12,197250,1,0,0:0:0:0:
148,24,197321,1,0,0:0:0:0:
104,56,197392,1,0,0:0:0:0:
88,108,197463,1,0,0:0:0:0:
92,160,197534,1,0,0:0:0:0:
116,208,197605,1,0,0:0:0:0:
156,244,197676,1,0,0:0:0:0:
168,296,197747,1,0,0:0:0:0:
144,344,197818,1,0,0:0:0:0:
96,368,197889,1,0,0:0:0:0:
44,360,197960,1,0,0:0:0:0:
8,324,198031,5,6,0:0:0:0:
256,192,198102,12,4,200305,0:0:0:0:
