osu file format v14

[General]
AudioFilename: audio.mp3
AudioLeadIn: 0
PreviewTime: 30506
Countdown: 0
SampleSet: Normal
StackLeniency: 0.7
Mode: 3
LetterboxInBreaks: 0
SpecialStyle: 0
WidescreenStoryboard: 1

[Editor]
DistanceSpacing: 1
BeatDivisor: 12
GridSize: 4
TimelineZoom: 2.4

[Metadata]
Title:Tiferet
TitleUnicode:Tiferet
Artist:xi feat. Sta
ArtistUnicode:xi feat. Sta
Creator:gogozzzx
Version:Hard
Source:Tone Sphere
Tags:Arcaea Bit192 Labs Collaboration DVSP-0145 Luminous Sun OST C89 COMIC MARKET Comet Mobile Rhythm game Electronic Instrumental World Fragment STRLabel STR Label STRL-0038 Original Soundtrack Yasutaka Senoo 妹尾泰隆 Yusuke Ishiwata 石渡祐亮
BeatmapID:3674774
BeatmapSetID:1790685

[Difficulty]
HPDrainRate:7
CircleSize:4
OverallDifficulty:7
ApproachRate:5
SliderMultiplier:1.4
SliderTickRate:1

[Events]
//Background and Video events
0,0,"tf.jpg",0,0
//Break Periods
//Storyboard Layer 0 (Background)
//Storyboard Layer 1 (Fail)
//Storyboard Layer 2 (Pass)
//Storyboard Layer 3 (Foreground)
//Storyboard Layer 4 (Overlay)
//Storyboard Sound Samples

[TimingPoints]
626,214.285714285714,4,1,1,30,1,0
1268,230.769230769231,4,1,1,30,1,8
1268,-92.5925925925926,4,1,1,30,0,0
1498,214.285714285714,6,1,1,30,1,0
2783,214.285714285714,5,1,1,30,1,0
3854,214.285714285714,6,1,1,30,1,0
6103,214.285714285714,6,1,1,30,1,0
6746,214.285714285714,6,1,1,30,1,0
8031,214.285714285714,5,1,1,30,1,0
9102,214.285714285714,7,1,1,30,1,0
10494,327.868852459016,4,1,1,30,1,0
10494,-65.359477124183,4,1,1,30,0,0
11805,352.941176470588,4,1,1,30,1,0
11805,-60.6060606060606,4,1,1,30,0,0
12157,363.636363636364,4,1,1,30,1,0
12157,-58.8235294117647,4,1,1,30,0,0
12520,375,4,1,1,30,1,0
12520,-57.1428571428571,4,1,1,30,0,0
12895,400,4,1,1,30,1,0
12895,-53.475935828877,4,1,1,30,0,0
13295,413.793103448276,4,1,1,30,1,0
13295,-51.8134715025907,4,1,1,30,0,0
13708,480,4,1,1,30,1,0
13708,-44.6428571428571,4,1,1,30,0,0
14188,533.333333333333,4,1,1,30,1,0
14188,-40.1606425702811,4,1,1,30,0,0
14721,750,4,1,1,30,1,0
14721,-28.5714285714286,4,1,1,30,0,0
15094,465.116279069767,4,1,1,30,1,0
15094,-46.0829493087558,4,1,1,30,0,0
16954,214.285714285714,4,1,1,30,1,0
44382,214.285714285714,6,1,1,30,1,0
46953,214.285714285714,4,1,1,30,1,0
56381,217.391304347826,6,1,1,30,1,0
56381,-99.009900990099,6,1,1,30,0,0
64207,217.391304347826,5,1,1,30,1,0
64207,-99.009900990099,5,1,1,30,0,0
65293,217.391304347826,6,1,1,30,1,0
65293,-99.009900990099,6,1,1,30,0,0
71814,214.285714285714,5,1,1,30,1,0
88956,214.285714285714,6,1,1,30,1,0
91526,214.285714285714,5,1,1,30,1,0
92597,214.285714285714,6,1,1,30,1,0
96454,214.285714285714,5,1,1,30,1,0
97525,214.285714285714,6,1,1,30,1,0
98596,240,6,1,1,30,1,8
98596,-89.2857142857143,6,1,1,30,0,0
98836,375,6,1,1,30,1,0
98836,-57.1428571428571,6,1,1,30,0,0
99586,315.789473684211,6,1,1,30,1,0
99586,-68.0272108843538,6,1,1,30,0,0
100533,363.636363636364,4,1,1,30,1,0
100533,-58.8235294117647,4,1,1,30,0,0
100896,375,4,1,1,30,1,0
100896,-57.1428571428571,4,1,1,30,0,0
101271,400,4,1,1,30,1,0
101271,-53.475935828877,4,1,1,30,0,0
101671,413.793103448276,4,1,1,30,1,0
101671,-51.8134715025907,4,1,1,30,0,0
102084,461.538461538462,4,1,1,30,1,0
102084,-46.5116279069767,4,1,1,30,0,0
102545,510.63829787234,4,1,1,30,1,0
102545,-42.0168067226891,4,1,1,30,0,0
103055,571.428571428571,4,1,1,30,1,0
103055,-37.4531835205993,4,1,1,30,0,0
103435,458.015267175573,4,1,1,30,1,0
103435,-46.7289719626168,4,1,1,30,0,0
105267,214.285714285714,4,1,1,30,1,0
105267,-100,4,1,1,30,0,0
130766,240,4,1,1,30,1,8
130766,-89.2857142857143,4,1,1,30,0,0
131006,428.571428571429,4,1,1,30,1,0
131006,-50,4,1,1,30,0,0
132720,214.285714285714,4,1,1,30,1,0
134541,206.896551724138,4,1,1,30,1,8
134541,-103.092783505155,4,1,1,30,0,0
136196,352.941176470588,4,1,1,30,1,0
136196,-60.6060606060606,4,1,1,30,0,0
136548,458.015267175573,4,1,1,30,1,0
136548,-46.7289719626168,4,1,1,30,0,0
137922,480,5,1,1,30,1,0
137922,-44.6428571428571,5,1,1,30,0,0
140322,461.538461538462,4,1,1,30,1,0
140322,-46.5116279069767,4,1,1,30,0,0
140783,428.571428571429,4,1,1,30,1,0
140783,-50,4,1,1,30,0,0
141211,363.636363636364,4,1,1,30,1,0
141211,-58.8235294117647,4,1,1,30,0,0
141392,500,4,1,1,30,1,0
141392,-42.9184549356223,4,1,1,30,0,0
141642,419.58041958042,4,1,1,30,1,0
141642,-51.0204081632653,4,1,1,30,0,0
142900,422.535211267606,4,1,1,30,1,0
142900,-50.761421319797,4,1,1,30,0,0

[HitObjects]
192,192,626,5,0,0:0:0:0:
320,192,840,1,0,0:0:0:0:
192,192,1054,1,0,0:0:0:0:
320,192,1268,1,0,0:0:0:0:
192,192,1498,1,0,0:0:0:0:
64,192,1498,1,0,0:0:0:0:
320,192,1605,1,0,0:0:0:0:
448,192,1605,1,0,0:0:0:0:
64,192,1819,1,0,0:0:0:0:
448,192,1819,1,0,0:0:0:0:
192,192,2140,1,0,0:0:0:0:
64,192,2140,1,0,0:0:0:0:
320,192,2355,1,0,0:0:0:0:
448,192,2569,1,0,0:0:0:0:
64,192,2783,1,0,0:0:0:0:
192,192,2783,1,0,0:0:0:0:
320,192,2890,1,0,0:0:0:0:
448,192,2890,1,0,0:0:0:0:
192,192,3104,1,0,0:0:0:0:
192,192,3318,1,0,0:0:0:0:
448,192,3425,1,0,0:0:0:0:
320,192,3640,1,0,0:0:0:0:
64,192,3854,1,0,0:0:0:0:
192,192,3854,1,0,0:0:0:0:
320,192,3961,1,0,0:0:0:0:
448,192,3961,1,0,0:0:0:0:
448,192,4175,1,0,0:0:0:0:
64,192,4175,1,0,0:0:0:0:
320,192,4389,1,0,0:0:0:0:
192,192,4496,1,0,0:0:0:0:
64,192,4496,1,0,0:0:0:0:
192,192,4711,1,0,0:0:0:0:
320,192,4711,1,0,0:0:0:0:
320,192,4925,1,0,0:0:0:0:
448,192,4925,1,0,0:0:0:0:
64,192,5139,128,0,5461:0:0:0:0:
192,192,5461,128,0,5782:0:0:0:0:
320,192,5782,128,0,6103:0:0:0:0:
448,192,6103,128,0,6638:0:0:0:0:
64,192,6103,128,0,6638:0:0:0:0:
64,192,6745,1,0,0:0:0:0:
192,192,6745,1,0,0:0:0:0:
448,192,6853,1,0,0:0:0:0:
320,192,6853,1,0,0:0:0:0:
64,192,7067,1,0,0:0:0:0:
448,192,7067,1,0,0:0:0:0:
320,192,7281,1,0,0:0:0:0:
64,192,7388,1,0,0:0:0:0:
192,192,7388,1,0,0:0:0:0:
320,192,7603,1,0,0:0:0:0:
448,192,7817,1,0,0:0:0:0:
64,192,8031,1,0,0:0:0:0:
192,192,8031,1,0,0:0:0:0:
448,192,8138,1,0,0:0:0:0:
320,192,8245,1,0,0:0:0:0:
64,192,8352,128,0,8566:0:0:0:0:
192,192,8566,1,0,0:0:0:0:
448,192,8673,1,0,0:0:0:0:
320,192,8888,1,0,0:0:0:0:
64,192,9102,1,0,0:0:0:0:
192,192,9102,1,0,0:0:0:0:
448,192,9209,1,0,0:0:0:0:
320,192,9316,1,0,0:0:0:0:
192,192,9423,128,0,9637:0:0:0:0:
448,192,9637,1,0,0:0:0:0:
64,192,9744,1,0,0:0:0:0:
192,192,9744,1,0,0:0:0:0:
320,192,9851,1,0,0:0:0:0:
64,192,9959,1,0,0:0:0:0:
192,192,10066,1,0,0:0:0:0:
448,192,10173,128,0,10494:0:0:0:0:
320,192,10494,1,0,0:0:0:0:
192,192,10603,1,0,0:0:0:0:
448,192,10821,1,0,0:0:0:0:
64,192,10931,1,0,0:0:0:0:
192,192,11149,1,0,0:0:0:0:
320,192,11259,1,0,0:0:0:0:
64,192,11477,1,0,0:0:0:0:
448,192,11559,1,0,0:0:0:0:
64,192,11805,1,0,0:0:0:0:
192,192,11905,1,0,0:0:0:0:
448,192,12157,1,0,0:0:0:0:
64,192,12260,1,0,0:0:0:0:
320,192,12520,1,0,0:0:0:0:
192,192,12627,1,0,0:0:0:0:
448,192,12895,1,0,0:0:0:0:
320,192,13009,1,0,0:0:0:0:
192,192,13295,1,0,0:0:0:0:
320,192,13413,1,0,0:0:0:0:
64,192,13708,1,0,0:0:0:0:
448,192,13788,1,0,0:0:0:0:
64,192,13868,1,0,0:0:0:0:
320,192,14188,1,0,0:0:0:0:
320,192,14365,1,0,0:0:0:0:
64,192,14721,1,0,0:0:0:0:
448,192,14721,1,0,0:0:0:0:
448,192,14908,1,0,0:0:0:0:
192,192,15094,128,0,16954:0:0:0:0:
320,192,16954,1,0,0:0:0:0:
320,192,17168,1,0,0:0:0:0:
448,192,17275,1,0,0:0:0:0:
192,192,17489,1,0,0:0:0:0:
448,192,17596,1,0,0:0:0:0:
320,192,17596,1,0,0:0:0:0:
64,192,17811,1,0,0:0:0:0:
448,192,17918,1,0,0:0:0:0:
192,192,18025,1,0,0:0:0:0:
448,192,18132,1,0,0:0:0:0:
64,192,18239,1,0,0:0:0:0:
448,192,18346,1,0,0:0:0:0:
192,192,18453,1,0,0:0:0:0:
320,192,18561,1,0,0:0:0:0:
448,192,18668,1,0,0:0:0:0:
64,192,18668,1,0,0:0:0:0:
192,192,18775,1,0,0:0:0:0:
448,192,18989,1,0,0:0:0:0:
192,192,19096,1,0,0:0:0:0:
64,192,19096,1,0,0:0:0:0:
320,192,19203,1,0,0:0:0:0:
64,192,19311,1,0,0:0:0:0:
192,192,19418,1,0,0:0:0:0:
320,192,19525,1,0,0:0:0:0:
448,192,19525,1,0,0:0:0:0:
192,192,19739,1,0,0:0:0:0:
448,192,19953,1,0,0:0:0:0:
64,192,19953,1,0,0:0:0:0:
192,192,20168,1,0,0:0:0:0:
320,192,20382,128,0,20596:0:0:0:0:
448,192,20382,128,0,20596:0:0:0:0:
192,192,20596,1,0,0:0:0:0:
64,192,20596,1,0,0:0:0:0:
320,192,20811,1,0,0:0:0:0:
192,192,20918,1,0,0:0:0:0:
448,192,21025,1,0,0:0:0:0:
320,192,21132,1,0,0:0:0:0:
192,192,21239,1,0,0:0:0:0:
64,192,21239,1,0,0:0:0:0:
64,192,21453,1,0,0:0:0:0:
192,192,21561,1,0,0:0:0:0:
320,192,21668,1,0,0:0:0:0:
448,192,21668,1,0,0:0:0:0:
192,192,21882,1,0,0:0:0:0:
320,192,21989,1,0,0:0:0:0:
448,192,22096,1,0,0:0:0:0:
64,192,22096,1,0,0:0:0:0:
192,192,22203,1,0,0:0:0:0:
448,192,22433,1,0,0:0:0:0:
192,192,22525,1,0,0:0:0:0:
64,192,22525,1,0,0:0:0:0:
320,192,22647,1,0,0:0:0:0:
64,192,22739,1,0,0:0:0:0:
192,192,22862,1,0,0:0:0:0:
320,192,22953,1,0,0:0:0:0:
448,192,22953,1,0,0:0:0:0:
192,192,23168,1,0,0:0:0:0:
64,192,23382,1,0,0:0:0:0:
448,192,23382,1,0,0:0:0:0:
192,192,23650,1,0,0:0:0:0:
320,192,23703,1,0,0:0:0:0:
448,192,23757,1,0,0:0:0:0:
64,192,23811,1,0,0:0:0:0:
192,192,23811,1,0,0:0:0:0:
448,192,24025,1,0,0:0:0:0:
64,192,24025,1,0,0:0:0:0:
192,192,24239,1,0,0:0:0:0:
320,192,24239,1,0,0:0:0:0:
64,192,24453,1,0,0:0:0:0:
192,192,24453,1,0,0:0:0:0:
448,192,24561,1,0,0:0:0:0:
448,192,24775,1,0,0:0:0:0:
64,192,24882,1,0,0:0:0:0:
64,192,24989,1,0,0:0:0:0:
448,192,25096,1,0,0:0:0:0:
320,192,25096,1,0,0:0:0:0:
64,192,25203,1,0,0:0:0:0:
192,192,25311,1,0,0:0:0:0:
320,192,25418,1,0,0:0:0:0:
448,192,25525,1,0,0:0:0:0:
64,192,25525,1,0,0:0:0:0:
192,192,25632,1,0,0:0:0:0:
448,192,25846,1,0,0:0:0:0:
64,192,25953,1,0,0:0:0:0:
192,192,25953,1,0,0:0:0:0:
320,192,26061,1,0,0:0:0:0:
64,192,26168,1,0,0:0:0:0:
192,192,26275,1,0,0:0:0:0:
448,192,26382,1,0,0:0:0:0:
320,192,26382,1,0,0:0:0:0:
192,192,26596,1,0,0:0:0:0:
64,192,26811,1,0,0:0:0:0:
448,192,26811,1,0,0:0:0:0:
192,192,27025,1,0,0:0:0:0:
448,192,27239,1,0,0:0:0:0:
320,192,27239,128,0,27561:0:0:0:0:
192,192,27561,128,0,27882:0:0:0:0:
64,192,27882,128,0,28311:0:0:0:0:
448,192,27882,128,0,28311:0:0:0:0:
192,192,28311,1,0,0:0:0:0:
320,192,28418,1,0,0:0:0:0:
64,192,28525,1,0,0:0:0:0:
64,192,28739,1,0,0:0:0:0:
448,192,28739,1,0,0:0:0:0:
192,192,28953,1,0,0:0:0:0:
320,192,28953,1,0,0:0:0:0:
64,192,29168,1,0,0:0:0:0:
448,192,29168,1,0,0:0:0:0:
64,192,29382,1,0,0:0:0:0:
192,192,29382,1,0,0:0:0:0:
448,192,29489,1,0,0:0:0:0:
320,192,29596,1,0,0:0:0:0:
64,192,29703,1,0,0:0:0:0:
448,192,29811,1,0,0:0:0:0:
320,192,29882,1,0,0:0:0:0:
448,192,29953,1,0,0:0:0:0:
192,192,30025,1,0,0:0:0:0:
320,192,30132,1,0,0:0:0:0:
64,192,30239,1,0,0:0:0:0:
448,192,30346,1,0,0:0:0:0:
64,192,30561,1,0,0:0:0:0:
192,192,30561,1,0,0:0:0:0:
448,192,30668,128,0,31096:0:0:0:0:
64,192,30882,128,0,31096:0:0:0:0:
320,192,31096,1,0,0:0:0:0:
192,192,31096,128,0,31418:0:0:0:0:
448,192,31311,1,0,0:0:0:0:
320,192,31418,128,0,31739:0:0:0:0:
64,192,31739,1,0,0:0:0:0:
448,192,31846,1,0,0:0:0:0:
64,192,31953,1,0,0:0:0:0:
448,192,32061,1,0,0:0:0:0:
192,192,32168,1,0,0:0:0:0:
320,192,32275,1,0,0:0:0:0:
448,192,32382,1,0,0:0:0:0:
64,192,32382,1,0,0:0:0:0:
192,192,32489,1,0,0:0:0:0:
448,192,32703,1,0,0:0:0:0:
64,192,32811,1,0,0:0:0:0:
192,192,32811,1,0,0:0:0:0:
320,192,32918,1,0,0:0:0:0:
64,192,33025,1,0,0:0:0:0:
192,192,33132,1,0,0:0:0:0:
448,192,33239,1,0,0:0:0:0:
320,192,33239,1,0,0:0:0:0:
192,192,33346,1,0,0:0:0:0:
64,192,33453,1,0,0:0:0:0:
192,192,33561,1,0,0:0:0:0:
64,192,33668,1,0,0:0:0:0:
448,192,33668,1,0,0:0:0:0:
320,192,33775,1,0,0:0:0:0:
192,192,33882,1,0,0:0:0:0:
320,192,33989,1,0,0:0:0:0:
64,192,34096,1,0,0:0:0:0:
448,192,34096,128,0,34311:0:0:0:0:
192,192,34311,1,0,0:0:0:0:
320,192,34311,1,0,0:0:0:0:
64,192,34525,1,0,0:0:0:0:
448,192,34525,1,0,0:0:0:0:
320,192,34632,1,0,0:0:0:0:
192,192,34739,1,0,0:0:0:0:
64,192,34846,1,0,0:0:0:0:
320,192,34953,1,0,0:0:0:0:
448,192,34953,128,0,35168:0:0:0:0:
64,192,35168,1,0,0:0:0:0:
192,192,35275,1,0,0:0:0:0:
448,192,35382,1,0,0:0:0:0:
320,192,35382,1,0,0:0:0:0:
64,192,35489,1,0,0:0:0:0:
320,192,35596,1,0,0:0:0:0:
192,192,35703,1,0,0:0:0:0:
64,192,35811,1,0,0:0:0:0:
448,192,35811,1,0,0:0:0:0:
192,192,35918,1,0,0:0:0:0:
448,192,36147,1,0,0:0:0:0:
192,192,36239,1,0,0:0:0:0:
64,192,36239,1,0,0:0:0:0:
320,192,36362,1,0,0:0:0:0:
64,192,36453,1,0,0:0:0:0:
192,192,36576,1,0,0:0:0:0:
320,192,36668,1,0,0:0:0:0:
448,192,36668,1,0,0:0:0:0:
192,192,36775,1,0,0:0:0:0:
448,192,36882,1,0,0:0:0:0:
320,192,36989,1,0,0:0:0:0:
192,192,37096,128,0,37364:0:0:0:0:
64,192,37364,1,0,0:0:0:0:
320,192,37418,1,0,0:0:0:0:
448,192,37471,1,0,0:0:0:0:
64,192,37525,1,0,0:0:0:0:
192,192,37525,1,0,0:0:0:0:
64,192,37739,1,0,0:0:0:0:
448,192,37739,1,0,0:0:0:0:
192,192,37953,1,0,0:0:0:0:
320,192,37953,1,0,0:0:0:0:
192,192,38168,1,0,0:0:0:0:
64,192,38168,1,0,0:0:0:0:
448,192,38275,1,0,0:0:0:0:
448,192,38489,1,0,0:0:0:0:
64,192,38596,1,0,0:0:0:0:
64,192,38703,1,0,0:0:0:0:
448,192,38811,1,0,0:0:0:0:
320,192,38811,1,0,0:0:0:0:
64,192,38918,1,0,0:0:0:0:
192,192,39025,1,0,0:0:0:0:
320,192,39132,1,0,0:0:0:0:
64,192,39239,1,0,0:0:0:0:
448,192,39239,1,0,0:0:0:0:
192,192,39346,1,0,0:0:0:0:
448,192,39561,1,0,0:0:0:0:
64,192,39668,1,0,0:0:0:0:
192,192,39668,1,0,0:0:0:0:
320,192,39775,1,0,0:0:0:0:
64,192,39882,1,0,0:0:0:0:
192,192,39989,1,0,0:0:0:0:
448,192,40096,1,0,0:0:0:0:
320,192,40096,1,0,0:0:0:0:
64,192,40203,1,0,0:0:0:0:
320,192,40311,1,0,0:0:0:0:
192,192,40418,1,0,0:0:0:0:
64,192,40525,1,0,0:0:0:0:
448,192,40525,128,0,40739:0:0:0:0:
320,192,40739,1,0,0:0:0:0:
448,192,40953,128,0,41275:0:0:0:0:
64,192,40953,128,0,41275:0:0:0:0:
192,192,41275,128,0,41596:0:0:0:0:
320,192,41596,128,0,42025:0:0:0:0:
448,192,41596,1,0,0:0:0:0:
64,192,41811,1,0,0:0:0:0:
192,192,42025,1,0,0:0:0:0:
64,192,42025,1,0,0:0:0:0:
448,192,42132,1,0,0:0:0:0:
192,192,42239,1,0,0:0:0:0:
448,192,42453,1,0,0:0:0:0:
64,192,42453,1,0,0:0:0:0:
320,192,42668,1,0,0:0:0:0:
192,192,42668,1,0,0:0:0:0:
64,192,42882,1,0,0:0:0:0:
448,192,42882,1,0,0:0:0:0:
64,192,43096,1,0,0:0:0:0:
448,192,43203,1,0,0:0:0:0:
192,192,43311,1,0,0:0:0:0:
320,192,43311,1,0,0:0:0:0:
448,192,43418,1,0,0:0:0:0:
64,192,43525,1,0,0:0:0:0:
192,192,43525,1,0,0:0:0:0:
320,192,43632,1,0,0:0:0:0:
192,192,43739,1,0,0:0:0:0:
448,192,43811,1,0,0:0:0:0:
320,192,43882,1,0,0:0:0:0:
192,192,43953,1,0,0:0:0:0:
64,192,43953,1,0,0:0:0:0:
320,192,44061,128,0,44275:0:0:0:0:
64,192,44275,1,0,0:0:0:0:
192,192,44382,128,0,44810:0:0:0:0:
64,192,44810,1,0,0:0:0:0:
448,192,44810,1,0,0:0:0:0:
320,192,44917,1,0,0:0:0:0:
192,192,45024,1,0,0:0:0:0:
64,192,45239,1,0,0:0:0:0:
448,192,45346,1,0,0:0:0:0:
192,192,45453,1,0,0:0:0:0:
320,192,45560,1,0,0:0:0:0:
64,192,45667,1,0,0:0:0:0:
320,192,45774,1,0,0:0:0:0:
192,192,45882,1,0,0:0:0:0:
448,192,45989,1,0,0:0:0:0:
64,192,46096,1,0,0:0:0:0:
192,192,46218,1,0,0:0:0:0:
448,192,46310,128,0,46524:0:0:0:0:
64,192,46524,1,0,0:0:0:0:
320,192,46596,1,0,0:0:0:0:
192,192,46667,1,0,0:0:0:0:
448,192,46739,1,0,0:0:0:0:
192,192,46810,1,0,0:0:0:0:
320,192,46882,1,0,0:0:0:0:
64,192,46953,128,0,47381:0:0:0:0:
320,192,47381,1,0,0:0:0:0:
448,192,47381,1,0,0:0:0:0:
448,192,47595,1,0,0:0:0:0:
192,192,47703,1,0,0:0:0:0:
320,192,47810,1,0,0:0:0:0:
448,192,47810,1,0,0:0:0:0:
64,192,48024,1,0,0:0:0:0:
320,192,48131,1,0,0:0:0:0:
192,192,48238,1,0,0:0:0:0:
64,192,48238,1,0,0:0:0:0:
448,192,48453,1,0,0:0:0:0:
64,192,48560,1,0,0:0:0:0:
320,192,48667,1,0,0:0:0:0:
448,192,48667,1,0,0:0:0:0:
192,192,48881,1,0,0:0:0:0:
448,192,48988,1,0,0:0:0:0:
64,192,49095,1,0,0:0:0:0:
192,192,49095,1,0,0:0:0:0:
320,192,49310,1,0,0:0:0:0:
192,192,49417,1,0,0:0:0:0:
448,192,49524,1,0,0:0:0:0:
320,192,49524,1,0,0:0:0:0:
192,192,49738,1,0,0:0:0:0:
320,192,49845,1,0,0:0:0:0:
64,192,49952,1,0,0:0:0:0:
192,192,49952,1,0,0:0:0:0:
448,192,50167,1,0,0:0:0:0:
192,192,50274,1,0,0:0:0:0:
320,192,50381,1,0,0:0:0:0:
448,192,50381,1,0,0:0:0:0:
64,192,50595,1,0,0:0:0:0:
320,192,50702,1,0,0:0:0:0:
192,192,50810,1,0,0:0:0:0:
64,192,50810,1,0,0:0:0:0:
448,192,51024,1,0,0:0:0:0:
64,192,51131,1,0,0:0:0:0:
320,192,51238,1,0,0:0:0:0:
192,192,51238,1,0,0:0:0:0:
64,192,51452,1,0,0:0:0:0:
320,192,51560,1,0,0:0:0:0:
192,192,51667,1,0,0:0:0:0:
64,192,51667,1,0,0:0:0:0:
448,192,51881,1,0,0:0:0:0:
320,192,51988,1,0,0:0:0:0:
64,192,52095,128,0,52310:0:0:0:0:
192,192,52310,1,0,0:0:0:0:
320,192,52417,1,0,0:0:0:0:
64,192,52524,1,0,0:0:0:0:
448,192,52524,1,0,0:0:0:0:
192,192,52738,1,0,0:0:0:0:
320,192,52845,1,0,0:0:0:0:
64,192,52952,1,0,0:0:0:0:
192,192,52952,1,0,0:0:0:0:
448,192,53167,1,0,0:0:0:0:
192,192,53274,1,0,0:0:0:0:
320,192,53381,1,0,0:0:0:0:
448,192,53381,1,0,0:0:0:0:
64,192,53452,1,0,0:0:0:0:
192,192,53524,1,0,0:0:0:0:
320,192,53595,1,0,0:0:0:0:
448,192,53667,1,0,0:0:0:0:
192,192,53810,128,0,54024:0:0:0:0:
320,192,54024,128,0,54238:0:0:0:0:
64,192,54238,128,0,54452:0:0:0:0:
448,192,54452,128,0,54667:0:0:0:0:
192,192,54667,1,0,0:0:0:0:
64,192,54667,1,0,0:0:0:0:
320,192,54774,1,0,0:0:0:0:
64,192,54881,1,0,0:0:0:0:
448,192,54988,1,0,0:0:0:0:
192,192,55095,128,0,55524:0:0:0:0:
320,192,55524,1,0,0:0:0:0:
448,192,55524,1,0,0:0:0:0:
192,192,55631,1,0,0:0:0:0:
64,192,55738,1,0,0:0:0:0:
448,192,55845,1,0,0:0:0:0:
320,192,55952,128,0,56381:0:0:0:0:
64,192,56381,1,0,0:0:0:0:
448,192,56381,1,0,0:0:0:0:
192,192,56598,1,0,0:0:0:0:
320,192,56707,1,0,0:0:0:0:
64,192,56815,1,0,0:0:0:0:
192,192,56924,1,0,0:0:0:0:
320,192,57033,128,0,57250:0:0:0:0:
192,192,57250,1,0,0:0:0:0:
64,192,57359,1,0,0:0:0:0:
448,192,57467,1,0,0:0:0:0:
320,192,57576,1,0,0:0:0:0:
192,192,57685,128,0,57902:0:0:0:0:
64,192,57902,1,0,0:0:0:0:
320,192,58011,1,0,0:0:0:0:
448,192,58011,1,0,0:0:0:0:
192,192,58120,1,0,0:0:0:0:
448,192,58228,1,0,0:0:0:0:
320,192,58337,128,0,58554:0:0:0:0:
192,192,58554,1,0,0:0:0:0:
64,192,58554,1,0,0:0:0:0:
320,192,58663,1,0,0:0:0:0:
64,192,58772,1,0,0:0:0:0:
192,192,58881,1,0,0:0:0:0:
320,192,58989,1,0,0:0:0:0:
448,192,58989,1,0,0:0:0:0:
448,192,59144,1,0,0:0:0:0:
320,192,59207,128,0,59424:0:0:0:0:
192,192,59424,1,0,0:0:0:0:
64,192,59533,1,0,0:0:0:0:
320,192,59641,1,0,0:0:0:0:
192,192,59750,1,0,0:0:0:0:
448,192,59859,1,0,0:0:0:0:
192,192,59967,1,0,0:0:0:0:
320,192,60022,1,0,0:0:0:0:
64,192,60076,128,0,60294:0:0:0:0:
320,192,60294,1,0,0:0:0:0:
448,192,60294,1,0,0:0:0:0:
448,192,60511,1,0,0:0:0:0:
64,192,60666,1,0,0:0:0:0:
320,192,60728,1,0,0:0:0:0:
448,192,60728,1,0,0:0:0:0:
192,192,60946,1,0,0:0:0:0:
64,192,60946,1,0,0:0:0:0:
320,192,61163,1,0,0:0:0:0:
64,192,61236,1,0,0:0:0:0:
192,192,61326,1,0,0:0:0:0:
320,192,61453,1,0,0:0:0:0:
192,192,61525,1,0,0:0:0:0:
448,192,61598,128,0,62033:0:0:0:0:
64,192,61598,1,0,0:0:0:0:
64,192,62033,128,0,62467:0:0:0:0:
320,192,62033,1,0,0:0:0:0:
320,192,62467,128,0,62902:0:0:0:0:
192,192,62467,1,0,0:0:0:0:
192,192,62902,128,0,63337:0:0:0:0:
448,192,62902,1,0,0:0:0:0:
448,192,63337,128,0,63772:0:0:0:0:
64,192,63337,1,0,0:0:0:0:
320,192,63772,1,0,0:0:0:0:
64,192,63772,1,0,0:0:0:0:
192,192,63881,1,0,0:0:0:0:
448,192,63989,1,0,0:0:0:0:
320,192,64098,1,0,0:0:0:0:
64,192,64207,1,0,0:0:0:0:
192,192,64207,1,0,0:0:0:0:
448,192,64315,1,0,0:0:0:0:
192,192,64424,1,0,0:0:0:0:
320,192,64533,1,0,0:0:0:0:
448,192,64533,1,0,0:0:0:0:
64,192,64641,1,0,0:0:0:0:
320,192,64750,1,0,0:0:0:0:
64,192,64859,1,0,0:0:0:0:
192,192,64859,1,0,0:0:0:0:
448,192,64967,1,0,0:0:0:0:
192,192,65076,1,0,0:0:0:0:
64,192,65076,1,0,0:0:0:0:
448,192,65185,1,0,0:0:0:0:
192,192,65293,1,0,0:0:0:0:
320,192,65401,1,0,0:0:0:0:
192,192,65510,1,0,0:0:0:0:
320,192,65619,1,0,0:0:0:0:
448,192,65619,1,0,0:0:0:0:
64,192,65727,1,0,0:0:0:0:
320,192,65836,1,0,0:0:0:0:
192,192,65945,1,0,0:0:0:0:
64,192,65945,1,0,0:0:0:0:
192,192,66162,1,0,0:0:0:0:
64,192,66162,1,0,0:0:0:0:
64,192,66379,1,0,0:0:0:0:
448,192,66379,1,0,0:0:0:0:
192,192,66488,1,0,0:0:0:0:
320,192,66597,1,0,0:0:0:0:
448,192,66597,1,0,0:0:0:0:
192,192,66814,1,0,0:0:0:0:
448,192,66814,1,0,0:0:0:0:
64,192,67032,1,0,0:0:0:0:
448,192,67032,1,0,0:0:0:0:
320,192,67140,1,0,0:0:0:0:
192,192,67249,1,0,0:0:0:0:
448,192,67358,1,0,0:0:0:0:
64,192,67466,1,0,0:0:0:0:
192,192,67466,1,0,0:0:0:0:
64,192,67901,1,0,0:0:0:0:
192,192,67901,1,0,0:0:0:0:
448,192,68010,1,0,0:0:0:0:
320,192,68010,1,0,0:0:0:0:
448,192,68227,1,0,0:0:0:0:
320,192,68227,1,0,0:0:0:0:
448,192,68445,1,0,0:0:0:0:
320,192,68445,1,0,0:0:0:0:
64,192,68662,1,0,0:0:0:0:
192,192,68662,1,0,0:0:0:0:
448,192,68771,128,0,69097:0:0:0:0:
192,192,69314,1,0,0:0:0:0:
64,192,69314,1,0,0:0:0:0:
320,192,69423,1,0,0:0:0:0:
448,192,69532,1,0,0:0:0:0:
64,192,69640,1,0,0:0:0:0:
192,192,69749,1,0,0:0:0:0:
320,192,69858,1,0,0:0:0:0:
192,192,69966,1,0,0:0:0:0:
320,192,70075,1,0,0:0:0:0:
448,192,70184,1,0,0:0:0:0:
192,192,70293,1,0,0:0:0:0:
320,192,70401,1,0,0:0:0:0:
64,192,70510,1,0,0:0:0:0:
448,192,70582,1,0,0:0:0:0:
448,192,70727,1,0,0:0:0:0:
192,192,70872,1,0,0:0:0:0:
320,192,70945,1,0,0:0:0:0:
64,192,71017,1,0,0:0:0:0:
192,192,71162,1,0,0:0:0:0:
320,192,71235,1,0,0:0:0:0:
448,192,71307,1,0,0:0:0:0:
192,192,71452,1,0,0:0:0:0:
448,192,71524,1,0,0:0:0:0:
320,192,71597,1,0,0:0:0:0:
64,192,71814,1,0,0:0:0:0:
192,192,71814,1,0,0:0:0:0:
320,192,71921,1,0,0:0:0:0:
64,192,72028,1,0,0:0:0:0:
448,192,72135,1,0,0:0:0:0:
192,192,72135,1,0,0:0:0:0:
320,192,72242,1,0,0:0:0:0:
320,192,72349,1,0,0:0:0:0:
192,192,72456,1,0,0:0:0:0:
64,192,72456,1,0,0:0:0:0:
448,192,72564,1,0,0:0:0:0:
64,192,72671,1,0,0:0:0:0:
448,192,72778,1,0,0:0:0:0:
192,192,72885,1,0,0:0:0:0:
64,192,72885,1,0,0:0:0:0:
320,192,72992,1,0,0:0:0:0:
320,192,73206,1,0,0:0:0:0:
448,192,73206,1,0,0:0:0:0:
64,192,73314,1,0,0:0:0:0:
64,192,73421,1,0,0:0:0:0:
320,192,73528,1,0,0:0:0:0:
192,192,73599,1,0,0:0:0:0:
448,192,73671,1,0,0:0:0:0:
64,192,73742,1,0,0:0:0:0:
192,192,73849,1,0,0:0:0:0:
448,192,73849,1,0,0:0:0:0:
320,192,73956,1,0,0:0:0:0:
64,192,74064,1,0,0:0:0:0:
64,192,74171,1,0,0:0:0:0:
192,192,74278,1,0,0:0:0:0:
448,192,74385,1,0,0:0:0:0:
448,192,74492,1,0,0:0:0:0:
192,192,74599,1,0,0:0:0:0:
320,192,74706,1,0,0:0:0:0:
64,192,74814,1,0,0:0:0:0:
448,192,74921,1,0,0:0:0:0:
192,192,75028,1,0,0:0:0:0:
320,192,75135,1,0,0:0:0:0:
320,192,75242,1,0,0:0:0:0:
192,192,75349,1,0,0:0:0:0:
448,192,75456,1,0,0:0:0:0:
448,192,75564,1,0,0:0:0:0:
192,192,75671,1,0,0:0:0:0:
448,192,75778,1,0,0:0:0:0:
64,192,75885,1,0,0:0:0:0:
320,192,75992,1,0,0:0:0:0:
192,192,76099,1,0,0:0:0:0:
64,192,76099,1,0,0:0:0:0:
448,192,76206,1,0,0:0:0:0:
448,192,76314,1,0,0:0:0:0:
192,192,76421,1,0,0:0:0:0:
64,192,76421,1,0,0:0:0:0:
448,192,76528,1,0,0:0:0:0:
192,192,76635,1,0,0:0:0:0:
64,192,76635,1,0,0:0:0:0:
320,192,76742,1,0,0:0:0:0:
64,192,76849,1,0,0:0:0:0:
192,192,76885,1,0,0:0:0:0:
448,192,76956,1,0,0:0:0:0:
320,192,76956,1,0,0:0:0:0:
64,192,77064,1,0,0:0:0:0:
448,192,77171,1,0,0:0:0:0:
192,192,77278,1,0,0:0:0:0:
192,192,77385,1,0,0:0:0:0:
320,192,77492,1,0,0:0:0:0:
64,192,77599,1,0,0:0:0:0:
64,192,77706,1,0,0:0:0:0:
448,192,77813,1,0,0:0:0:0:
192,192,77921,1,0,0:0:0:0:
320,192,78028,1,0,0:0:0:0:
64,192,78135,1,0,0:0:0:0:
448,192,78242,1,0,0:0:0:0:
192,192,78349,1,0,0:0:0:0:
192,192,78456,1,0,0:0:0:0:
320,192,78563,1,0,0:0:0:0:
64,192,78671,1,0,0:0:0:0:
320,192,78885,1,0,0:0:0:0:
320,192,78992,1,0,0:0:0:0:
192,192,79099,1,0,0:0:0:0:
448,192,79206,1,0,0:0:0:0:
64,192,79313,1,0,0:0:0:0:
320,192,79421,1,0,0:0:0:0:
320,192,79528,1,0,0:0:0:0:
64,192,79599,1,0,0:0:0:0:
192,192,79671,1,0,0:0:0:0:
320,192,79742,1,0,0:0:0:0:
64,192,79849,1,0,0:0:0:0:
448,192,79956,1,0,0:0:0:0:
320,192,80063,1,0,0:0:0:0:
192,192,80171,1,0,0:0:0:0:
320,192,80278,1,0,0:0:0:0:
448,192,80385,1,0,0:0:0:0:
64,192,80385,1,0,0:0:0:0:
192,192,80599,1,0,0:0:0:0:
64,192,80599,1,0,0:0:0:0:
448,192,80706,1,0,0:0:0:0:
64,192,80813,1,0,0:0:0:0:
320,192,80921,1,0,0:0:0:0:
192,192,81028,1,0,0:0:0:0:
192,192,81242,1,0,0:0:0:0:
192,192,81456,1,0,0:0:0:0:
448,192,81563,1,0,0:0:0:0:
64,192,81778,1,0,0:0:0:0:
192,192,81885,1,0,0:0:0:0:
448,192,81992,1,0,0:0:0:0:
64,192,82099,128,0,82528:0:0:0:0:
320,192,82099,1,0,0:0:0:0:
192,192,82421,1,0,0:0:0:0:
448,192,82528,1,0,0:0:0:0:
320,192,82528,1,0,0:0:0:0:
64,192,82635,1,0,0:0:0:0:
448,192,82742,128,0,82956:0:0:0:0:
64,192,82956,1,0,0:0:0:0:
192,192,82956,1,0,0:0:0:0:
448,192,83063,1,0,0:0:0:0:
192,192,83171,1,0,0:0:0:0:
320,192,83171,1,0,0:0:0:0:
448,192,83385,1,0,0:0:0:0:
192,192,83385,1,0,0:0:0:0:
192,192,83492,1,0,0:0:0:0:
320,192,83813,1,0,0:0:0:0:
448,192,83813,1,0,0:0:0:0:
192,192,83921,1,0,0:0:0:0:
64,192,84028,1,0,0:0:0:0:
448,192,84135,1,0,0:0:0:0:
192,192,84242,1,0,0:0:0:0:
64,192,84242,1,0,0:0:0:0:
320,192,84349,1,0,0:0:0:0:
192,192,84456,1,0,0:0:0:0:
320,192,84563,1,0,0:0:0:0:
448,192,84671,1,0,0:0:0:0:
64,192,84671,128,0,84885:0:0:0:0:
192,192,84885,1,0,0:0:0:0:
320,192,84938,1,0,0:0:0:0:
448,192,84992,1,0,0:0:0:0:
64,192,85099,1,0,0:0:0:0:
192,192,85206,1,0,0:0:0:0:
320,192,85313,1,0,0:0:0:0:
448,192,85313,1,0,0:0:0:0:
64,192,85421,1,0,0:0:0:0:
320,192,85528,1,0,0:0:0:0:
192,192,85635,1,0,0:0:0:0:
448,192,85742,1,0,0:0:0:0:
64,192,85849,1,0,0:0:0:0:
320,192,85956,1,0,0:0:0:0:
448,192,85956,1,0,0:0:0:0:
192,192,86063,1,0,0:0:0:0:
448,192,86171,1,0,0:0:0:0:
64,192,86278,1,0,0:0:0:0:
320,192,86385,1,0,0:0:0:0:
192,192,86385,1,0,0:0:0:0:
448,192,86599,1,0,0:0:0:0:
64,192,86599,1,0,0:0:0:0:
192,192,86706,1,0,0:0:0:0:
320,192,86813,1,0,0:0:0:0:
448,192,86813,1,0,0:0:0:0:
64,192,86921,1,0,0:0:0:0:
192,192,87028,1,0,0:0:0:0:
320,192,87135,1,0,0:0:0:0:
448,192,87242,1,0,0:0:0:0:
64,192,87349,1,0,0:0:0:0:
192,192,87456,1,0,0:0:0:0:
320,192,87563,128,0,87956:0:0:0:0:
64,192,87671,1,0,0:0:0:0:
192,192,87885,1,0,0:0:0:0:
64,192,87956,1,0,0:0:0:0:
320,192,88099,1,0,0:0:0:0:
192,192,88153,1,0,0:0:0:0:
320,192,88206,1,0,0:0:0:0:
448,192,88313,1,0,0:0:0:0:
64,192,88313,1,0,0:0:0:0:
320,192,88421,1,0,0:0:0:0:
192,192,88528,1,0,0:0:0:0:
320,192,88635,1,0,0:0:0:0:
448,192,88635,1,0,0:0:0:0:
64,192,88706,1,0,0:0:0:0:
192,192,88742,1,0,0:0:0:0:
320,192,88956,1,0,0:0:0:0:
448,192,89098,1,0,0:0:0:0:
320,192,89170,1,0,0:0:0:0:
192,192,89241,128,0,90241:0:0:0:0:
448,192,90241,1,0,0:0:0:0:
320,192,90241,1,0,0:0:0:0:
192,192,90348,1,0,0:0:0:0:
64,192,90348,1,0,0:0:0:0:
192,192,90598,1,0,0:0:0:0:
64,192,90920,1,0,0:0:0:0:
320,192,91134,1,0,0:0:0:0:
448,192,91331,1,0,0:0:0:0:
64,192,91526,1,0,0:0:0:0:
192,192,91526,1,0,0:0:0:0:
320,192,91633,1,0,0:0:0:0:
448,192,91633,1,0,0:0:0:0:
192,192,91865,1,0,0:0:0:0:
64,192,92168,1,0,0:0:0:0:
192,192,92240,1,0,0:0:0:0:
320,192,92311,1,0,0:0:0:0:
64,192,92383,1,0,0:0:0:0:
448,192,92490,1,0,0:0:0:0:
64,192,92597,1,0,0:0:0:0:
192,192,92597,1,0,0:0:0:0:
320,192,92704,1,0,0:0:0:0:
448,192,92704,1,0,0:0:0:0:
448,192,92918,1,0,0:0:0:0:
64,192,92918,1,0,0:0:0:0:
320,192,93132,1,0,0:0:0:0:
64,192,93239,1,0,0:0:0:0:
192,192,93239,1,0,0:0:0:0:
320,192,93347,1,0,0:0:0:0:
64,192,93454,1,0,0:0:0:0:
192,192,93561,1,0,0:0:0:0:
448,192,93668,128,0,93882:0:0:0:0:
64,192,93882,128,0,94204:0:0:0:0:
192,192,94204,128,0,94525:0:0:0:0:
320,192,94525,128,0,94847:0:0:0:0:
64,192,94847,128,0,95061:0:0:0:0:
448,192,94847,128,0,95061:0:0:0:0:
64,192,95168,1,0,0:0:0:0:
192,192,95168,1,0,0:0:0:0:
320,192,95275,1,0,0:0:0:0:
448,192,95275,1,0,0:0:0:0:
448,192,95489,1,0,0:0:0:0:
448,192,95704,1,0,0:0:0:0:
192,192,95811,1,0,0:0:0:0:
64,192,95811,1,0,0:0:0:0:
320,192,96025,1,0,0:0:0:0:
448,192,96239,1,0,0:0:0:0:
64,192,96454,1,0,0:0:0:0:
192,192,96454,1,0,0:0:0:0:
448,192,96561,1,0,0:0:0:0:
320,192,96668,1,0,0:0:0:0:
64,192,96775,128,0,96989:0:0:0:0:
192,192,96989,1,0,0:0:0:0:
448,192,97096,1,0,0:0:0:0:
320,192,97311,1,0,0:0:0:0:
64,192,97525,1,0,0:0:0:0:
192,192,97525,1,0,0:0:0:0:
448,192,97632,1,0,0:0:0:0:
320,192,97632,1,0,0:0:0:0:
64,192,97846,1,0,0:0:0:0:
448,192,97846,1,0,0:0:0:0:
192,192,97953,1,0,0:0:0:0:
320,192,98060,1,0,0:0:0:0:
64,192,98167,1,0,0:0:0:0:
448,192,98167,1,0,0:0:0:0:
320,192,98275,1,0,0:0:0:0:
192,192,98382,1,0,0:0:0:0:
64,192,98382,1,0,0:0:0:0:
448,192,98525,1,0,0:0:0:0:
320,192,98596,1,0,0:0:0:0:
448,192,98676,1,0,0:0:0:0:
192,192,98836,1,0,0:0:0:0:
320,192,98929,1,0,0:0:0:0:
192,192,99023,1,0,0:0:0:0:
448,192,99211,1,0,0:0:0:0:
64,192,99304,1,0,0:0:0:0:
448,192,99398,1,0,0:0:0:0:
192,192,99586,1,0,0:0:0:0:
320,192,99691,1,0,0:0:0:0:
64,192,99901,1,0,0:0:0:0:
320,192,100007,1,0,0:0:0:0:
64,192,100112,1,0,0:0:0:0:
448,192,100217,1,0,0:0:0:0:
320,192,100322,1,0,0:0:0:0:
192,192,100533,1,0,0:0:0:0:
320,192,100654,1,0,0:0:0:0:
320,192,100896,1,0,0:0:0:0:
192,192,101021,1,0,0:0:0:0:
64,192,101271,1,0,0:0:0:0:
448,192,101404,1,0,0:0:0:0:
448,192,101671,1,0,0:0:0:0:
64,192,101808,1,0,0:0:0:0:
192,192,102084,1,0,0:0:0:0:
320,192,102160,1,0,0:0:0:0:
192,192,102237,1,0,0:0:0:0:
320,192,102545,1,0,0:0:0:0:
320,192,102715,1,0,0:0:0:0:
64,192,103055,1,0,0:0:0:0:
448,192,103055,1,0,0:0:0:0:
64,192,103245,1,0,0:0:0:0:
192,192,103435,128,0,105267:0:0:0:0:
320,192,105267,1,0,0:0:0:0:
320,192,105481,1,0,0:0:0:0:
448,192,105588,1,0,0:0:0:0:
192,192,105802,1,0,0:0:0:0:
448,192,105909,1,0,0:0:0:0:
320,192,105909,1,0,0:0:0:0:
64,192,106124,1,0,0:0:0:0:
448,192,106231,1,0,0:0:0:0:
192,192,106338,1,0,0:0:0:0:
448,192,106445,1,0,0:0:0:0:
64,192,106552,1,0,0:0:0:0:
448,192,106659,1,0,0:0:0:0:
192,192,106767,1,0,0:0:0:0:
320,192,106874,1,0,0:0:0:0:
448,192,106981,1,0,0:0:0:0:
64,192,106981,1,0,0:0:0:0:
192,192,107088,1,0,0:0:0:0:
448,192,107302,1,0,0:0:0:0:
64,192,107409,1,0,0:0:0:0:
192,192,107409,1,0,0:0:0:0:
320,192,107517,1,0,0:0:0:0:
64,192,107624,1,0,0:0:0:0:
192,192,107731,1,0,0:0:0:0:
448,192,107838,1,0,0:0:0:0:
320,192,107838,1,0,0:0:0:0:
192,192,108052,1,0,0:0:0:0:
64,192,108267,1,0,0:0:0:0:
448,192,108267,1,0,0:0:0:0:
192,192,108481,1,0,0:0:0:0:
448,192,108695,128,0,108909:0:0:0:0:
320,192,108695,128,0,108909:0:0:0:0:
64,192,108909,1,0,0:0:0:0:
192,192,108909,1,0,0:0:0:0:
320,192,109124,1,0,0:0:0:0:
192,192,109231,1,0,0:0:0:0:
448,192,109338,1,0,0:0:0:0:
320,192,109445,1,0,0:0:0:0:
64,192,109552,1,0,0:0:0:0:
192,192,109552,1,0,0:0:0:0:
64,192,109767,1,0,0:0:0:0:
192,192,109874,1,0,0:0:0:0:
448,192,109981,1,0,0:0:0:0:
320,192,109981,1,0,0:0:0:0:
192,192,110195,1,0,0:0:0:0:
320,192,110302,1,0,0:0:0:0:
448,192,110409,1,0,0:0:0:0:
64,192,110409,1,0,0:0:0:0:
192,192,110517,1,0,0:0:0:0:
448,192,110746,1,0,0:0:0:0:
64,192,110838,1,0,0:0:0:0:
192,192,110838,1,0,0:0:0:0:
320,192,110958,1,0,0:0:0:0:
64,192,111052,1,0,0:0:0:0:
192,192,111173,1,0,0:0:0:0:
320,192,111266,1,0,0:0:0:0:
448,192,111266,1,0,0:0:0:0:
192,192,111481,1,0,0:0:0:0:
448,192,111695,1,0,0:0:0:0:
64,192,111695,1,0,0:0:0:0:
192,192,111963,1,0,0:0:0:0:
320,192,112016,1,0,0:0:0:0:
448,192,112070,1,0,0:0:0:0:
64,192,112124,1,0,0:0:0:0:
192,192,112124,1,0,0:0:0:0:
64,192,112338,1,0,0:0:0:0:
448,192,112338,1,0,0:0:0:0:
320,192,112552,1,0,0:0:0:0:
192,192,112552,1,0,0:0:0:0:
64,192,112766,1,0,0:0:0:0:
192,192,112766,1,0,0:0:0:0:
448,192,112874,1,0,0:0:0:0:
448,192,113088,1,0,0:0:0:0:
64,192,113195,1,0,0:0:0:0:
64,192,113302,1,0,0:0:0:0:
448,192,113409,1,0,0:0:0:0:
320,192,113409,1,0,0:0:0:0:
64,192,113516,1,0,0:0:0:0:
192,192,113624,1,0,0:0:0:0:
320,192,113731,1,0,0:0:0:0:
448,192,113838,1,0,0:0:0:0:
64,192,113838,1,0,0:0:0:0:
192,192,113945,1,0,0:0:0:0:
448,192,114159,1,0,0:0:0:0:
64,192,114266,1,0,0:0:0:0:
192,192,114266,1,0,0:0:0:0:
320,192,114374,1,0,0:0:0:0:
64,192,114481,1,0,0:0:0:0:
192,192,114588,1,0,0:0:0:0:
448,192,114695,1,0,0:0:0:0:
320,192,114695,1,0,0:0:0:0:
192,192,114909,1,0,0:0:0:0:
448,192,115124,1,0,0:0:0:0:
64,192,115124,1,0,0:0:0:0:
192,192,115338,1,0,0:0:0:0:
320,192,115552,128,0,115874:0:0:0:0:
448,192,115552,1,0,0:0:0:0:
192,192,115874,128,0,116195:0:0:0:0:
448,192,116195,128,0,116624:0:0:0:0:
64,192,116195,128,0,116624:0:0:0:0:
192,192,116624,1,0,0:0:0:0:
320,192,116731,1,0,0:0:0:0:
64,192,116838,1,0,0:0:0:0:
448,192,117052,1,0,0:0:0:0:
64,192,117052,1,0,0:0:0:0:
320,192,117266,1,0,0:0:0:0:
192,192,117266,1,0,0:0:0:0:
448,192,117481,1,0,0:0:0:0:
64,192,117481,1,0,0:0:0:0:
192,192,117695,1,0,0:0:0:0:
448,192,117802,1,0,0:0:0:0:
320,192,117909,1,0,0:0:0:0:
64,192,118016,1,0,0:0:0:0:
448,192,118124,1,0,0:0:0:0:
320,192,118195,1,0,0:0:0:0:
448,192,118266,1,0,0:0:0:0:
192,192,118338,1,0,0:0:0:0:
320,192,118445,1,0,0:0:0:0:
64,192,118552,1,0,0:0:0:0:
192,192,118552,1,0,0:0:0:0:
448,192,118659,1,0,0:0:0:0:
192,192,118766,1,0,0:0:0:0:
320,192,118874,1,0,0:0:0:0:
448,192,118981,1,0,0:0:0:0:
64,192,118981,1,0,0:0:0:0:
192,192,119088,1,0,0:0:0:0:
448,192,119302,1,0,0:0:0:0:
192,192,119409,1,0,0:0:0:0:
64,192,119409,1,0,0:0:0:0:
320,192,119516,1,0,0:0:0:0:
64,192,119624,1,0,0:0:0:0:
192,192,119731,1,0,0:0:0:0:
320,192,119838,1,0,0:0:0:0:
448,192,119838,1,0,0:0:0:0:
64,192,119945,1,0,0:0:0:0:
192,192,120052,1,0,0:0:0:0:
448,192,120266,1,0,0:0:0:0:
64,192,120266,1,0,0:0:0:0:
320,192,120374,1,0,0:0:0:0:
192,192,120481,128,0,120695:0:0:0:0:
448,192,120695,128,0,120909:0:0:0:0:
64,192,120695,1,0,0:0:0:0:
192,192,120909,1,0,0:0:0:0:
64,192,120909,1,0,0:0:0:0:
320,192,121016,1,0,0:0:0:0:
64,192,121124,1,0,0:0:0:0:
448,192,121124,1,0,0:0:0:0:
192,192,121231,1,0,0:0:0:0:
320,192,121338,1,0,0:0:0:0:
448,192,121445,128,0,121766:0:0:0:0:
64,192,121552,1,0,0:0:0:0:
320,192,121766,1,0,0:0:0:0:
192,192,121874,1,0,0:0:0:0:
448,192,121981,1,0,0:0:0:0:
64,192,121981,1,0,0:0:0:0:
320,192,122088,1,0,0:0:0:0:
192,192,122195,1,0,0:0:0:0:
320,192,122302,1,0,0:0:0:0:
448,192,122409,1,0,0:0:0:0:
64,192,122409,1,0,0:0:0:0:
192,192,122516,1,0,0:0:0:0:
448,192,122746,1,0,0:0:0:0:
192,192,122838,1,0,0:0:0:0:
64,192,122838,1,0,0:0:0:0:
320,192,122960,1,0,0:0:0:0:
64,192,123052,1,0,0:0:0:0:
192,192,123175,1,0,0:0:0:0:
320,192,123266,1,0,0:0:0:0:
448,192,123266,1,0,0:0:0:0:
192,192,123374,1,0,0:0:0:0:
64,192,123481,1,0,0:0:0:0:
448,192,123588,1,0,0:0:0:0:
320,192,123695,1,0,0:0:0:0:
192,192,123695,128,0,123963:0:0:0:0:
64,192,123963,1,0,0:0:0:0:
320,192,124016,1,0,0:0:0:0:
448,192,124070,1,0,0:0:0:0:
192,192,124124,1,0,0:0:0:0:
64,192,124124,1,0,0:0:0:0:
64,192,124338,128,0,124552:0:0:0:0:
192,192,124552,1,0,0:0:0:0:
448,192,124552,1,0,0:0:0:0:
64,192,124766,1,0,0:0:0:0:
192,192,124766,1,0,0:0:0:0:
448,192,124874,1,0,0:0:0:0:
448,192,125088,1,0,0:0:0:0:
192,192,125195,1,0,0:0:0:0:
448,192,125409,1,0,0:0:0:0:
320,192,125409,1,0,0:0:0:0:
64,192,125516,1,0,0:0:0:0:
192,192,125624,1,0,0:0:0:0:
320,192,125731,1,0,0:0:0:0:
448,192,125838,1,0,0:0:0:0:
64,192,125838,1,0,0:0:0:0:
192,192,125945,1,0,0:0:0:0:
448,192,126159,1,0,0:0:0:0:
192,192,126266,1,0,0:0:0:0:
64,192,126266,1,0,0:0:0:0:
320,192,126374,1,0,0:0:0:0:
64,192,126481,1,0,0:0:0:0:
192,192,126588,1,0,0:0:0:0:
320,192,126695,1,0,0:0:0:0:
448,192,126695,1,0,0:0:0:0:
64,192,126802,1,0,0:0:0:0:
448,192,126909,1,0,0:0:0:0:
320,192,127016,1,0,0:0:0:0:
64,192,127124,1,0,0:0:0:0:
192,192,127124,128,0,127338:0:0:0:0:
320,192,127338,128,0,127552:0:0:0:0:
448,192,127552,128,0,127874:0:0:0:0:
64,192,127552,128,0,127874:0:0:0:0:
192,192,127874,128,0,128195:0:0:0:0:
320,192,128195,128,0,128624:0:0:0:0:
448,192,128195,1,0,0:0:0:0:
192,192,128624,1,0,0:0:0:0:
320,192,128731,1,0,0:0:0:0:
64,192,128838,1,0,0:0:0:0:
448,192,129052,1,0,0:0:0:0:
64,192,129052,1,0,0:0:0:0:
320,192,129266,1,0,0:0:0:0:
192,192,129266,1,0,0:0:0:0:
64,192,129481,1,0,0:0:0:0:
448,192,129481,1,0,0:0:0:0:
64,192,129695,1,0,0:0:0:0:
448,192,129802,1,0,0:0:0:0:
192,192,129909,1,0,0:0:0:0:
448,192,130016,1,0,0:0:0:0:
64,192,130124,1,0,0:0:0:0:
192,192,130195,1,0,0:0:0:0:
64,192,130266,1,0,0:0:0:0:
320,192,130338,1,0,0:0:0:0:
192,192,130445,1,0,0:0:0:0:
448,192,130552,1,0,0:0:0:0:
320,192,130659,128,0,130886:0:0:0:0:
64,192,130886,1,0,0:0:0:0:
192,192,131006,1,0,0:0:0:0:
64,192,131434,128,0,131863:0:0:0:0:
448,192,131434,128,0,131863:0:0:0:0:
192,192,131863,1,0,0:0:0:0:
320,192,131934,1,0,0:0:0:0:
448,192,132006,1,0,0:0:0:0:
64,192,132077,1,0,0:0:0:0:
192,192,132148,1,0,0:0:0:0:
448,192,132220,1,0,0:0:0:0:
320,192,132291,1,0,0:0:0:0:
192,192,132363,1,0,0:0:0:0:
64,192,132434,128,0,132720:0:0:0:0:
192,192,132720,1,0,0:0:0:0:
320,192,132827,1,0,0:0:0:0:
320,192,132934,1,0,0:0:0:0:
192,192,133041,1,0,0:0:0:0:
448,192,133148,1,0,0:0:0:0:
448,192,133255,1,0,0:0:0:0:
64,192,133362,1,0,0:0:0:0:
320,192,133470,1,0,0:0:0:0:
192,192,133577,1,0,0:0:0:0:
448,192,133684,1,0,0:0:0:0:
64,192,133791,1,0,0:0:0:0:
192,192,133791,1,0,0:0:0:0:
448,192,134005,1,0,0:0:0:0:
320,192,134005,1,0,0:0:0:0:
64,192,134112,1,0,0:0:0:0:
320,192,134220,1,0,0:0:0:0:
192,192,134327,1,0,0:0:0:0:
448,192,134434,1,0,0:0:0:0:
192,192,134541,1,0,0:0:0:0:
64,192,134541,1,0,0:0:0:0:
448,192,134644,1,0,0:0:0:0:
320,192,134644,1,0,0:0:0:0:
64,192,134747,1,0,0:0:0:0:
192,192,134747,1,0,0:0:0:0:
320,192,134851,1,0,0:0:0:0:
192,192,134954,1,0,0:0:0:0:
448,192,135058,1,0,0:0:0:0:
320,192,135161,1,0,0:0:0:0:
192,192,135161,1,0,0:0:0:0:
448,192,135368,1,0,0:0:0:0:
192,192,135368,1,0,0:0:0:0:
320,192,135575,1,0,0:0:0:0:
64,192,135575,1,0,0:0:0:0:
64,192,135782,1,0,0:0:0:0:
448,192,135782,1,0,0:0:0:0:
192,192,135989,128,0,136196:0:0:0:0:
320,192,135989,128,0,136196:0:0:0:0:
192,192,136548,128,0,137693:0:0:0:0:
320,192,136548,128,0,137693:0:0:0:0:
192,192,137750,1,0,0:0:0:0:
320,192,137807,1,0,0:0:0:0:
448,192,137883,128,0,140082:0:0:0:0:
