osu file format v14

[General]
AudioFilename: audio.mp3
AudioLeadIn: 0
PreviewTime: 81770
Countdown: 1
SampleSet: Soft
StackLeniency: 0.7
Mode: 0
LetterboxInBreaks: 0
WidescreenStoryboard: 1

[Editor]
DistanceSpacing: 1.4
BeatDivisor: 4
GridSize: 4
TimelineZoom: 2.9

[Metadata]
Title:over the top
TitleUnicode:over the top
Artist:xi
ArtistUnicode:xi
Creator:tporter
Version:Beyond the Atmosphere
Source:
Tags:
BeatmapID:1362711
BeatmapSetID:642783

[Difficulty]
HPDrainRate:4
CircleSize:4
OverallDifficulty:9
ApproachRate:10
SliderMultiplier:2.6
SliderTickRate:1

[Events]
//Background and Video events
0,0,"232659.jpg",0,0
//Break Periods
//Storyboard Layer 0 (Background)
//Storyboard Layer 1 (Fail)
//Storyboard Layer 2 (Pass)
//Storyboard Layer 3 (Foreground)
//Storyboard Sound Samples

[TimingPoints]
1275,297.029702970297,4,2,0,65,1,0
15532,-100,4,2,0,40,0,0
33354,-100,4,2,0,10,0,0
34542,-100,4,2,0,10,0,1
34690,-100,4,2,0,65,0,1
42265,-100,4,2,0,45,0,1
42413,-100,4,2,0,25,0,1
43156,-100,4,2,0,45,0,1
43453,-100,4,2,0,65,0,1
53552,-100,4,2,0,65,0,0
70185,-200,4,2,0,65,0,0
74789,-100,4,2,0,65,0,0
79987,-100,4,2,0,25,0,0
80284,-100,4,2,0,35,0,0
80581,-100,4,2,0,45,0,0
80878,-100,4,2,0,55,0,0
81175,-100,4,2,0,65,0,0
82067,-100,4,2,0,65,0,1
115334,-100,4,2,0,65,0,0

[HitObjects]
307,78,1275,5,4,0:0:0:0:
404,26,1374,1,0,0:0:0:0:
456,123,1473,1,4,0:0:0:0:
358,175,1572,1,0,0:0:0:0:
307,78,2166,5,4,0:0:0:0:
439,160,2265,1,0,0:0:0:0:
414,52,2364,1,4,0:0:0:0:
331,184,2463,1,0,0:0:0:0:
205,306,3651,5,4,0:0:0:0:
73,224,3750,1,0,0:0:0:0:
98,332,3849,1,4,0:0:0:0:
181,200,3948,1,0,0:0:0:0:
205,306,4542,5,4,0:0:0:0:
94,305,4641,1,0,0:0:0:0:
92,195,4740,1,4,0:0:0:0:
204,195,4839,1,0,0:0:0:0:
256,192,4888,12,0,5878,0:0:0:0:
377,57,6027,5,0,0:0:0:0:
375,77,6101,1,0,0:0:0:0:
373,98,6175,1,0,0:0:0:0:
370,115,6250,1,0,0:0:0:0:
406,166,6324,5,2,0:0:0:0:
414,191,6398,1,0,0:0:0:0:
421,229,6473,1,0,0:0:0:0:
412,278,6547,1,0,0:0:0:0:
377,318,6621,1,0,0:0:0:0:
317,334,6695,1,0,0:0:0:0:
254,319,6770,1,0,0:0:0:0:
206,274,6844,1,0,0:0:0:0:
145,265,6918,1,2,0:0:0:0:
82,281,6992,1,0,0:0:0:0:
37,330,7067,5,0,0:0:0:0:
102,336,7141,1,0,0:0:0:0:
147,289,7215,1,0,0:0:0:0:
150,226,7289,1,0,0:0:0:0:
116,171,7364,1,0,0:0:0:0:
92,107,7438,1,0,0:0:0:0:
96,41,7512,1,2,0:0:0:0:
156,8,7586,1,0,0:0:0:0:
224,17,7660,1,0,0:0:0:0:
266,72,7734,1,0,0:0:0:0:
258,141,7808,1,0,0:0:0:0:
210,194,7883,5,0,0:0:0:0:
204,126,7957,1,0,0:0:0:0:
255,80,8031,1,0,0:0:0:0:
325,79,8105,1,2,0:0:0:0:
379,124,8180,1,0,0:0:0:0:
384,193,8254,1,0,0:0:0:0:
336,244,8328,1,0,0:0:0:0:
320,310,8403,6,0,P|357:329|405:329,7,65,0|0|0|0|2|0|0|0,0:0|0:0|0:0|0:0|0:0|0:0|0:0|0:0,0:0:0:0:
296,229,8997,6,0,P|259:210|211:210,7,65,0|0|0|0|2|0|0|0,0:0|0:0|0:0|0:0|0:0|0:0|0:0|0:0,0:0:0:0:
320,310,9591,5,0,0:0:0:0:
386,330,9666,1,0,0:0:0:0:
452,309,9741,1,0,0:0:0:0:
484,248,9815,1,0,0:0:0:0:
479,180,9889,1,2,0:0:0:0:
429,131,9963,1,0,0:0:0:0:
389,73,10038,1,0,0:0:0:0:
401,6,10111,5,0,0:0:0:0:
444,58,10185,1,0,0:0:0:0:
419,124,10259,1,0,0:0:0:0:
356,153,10333,1,0,0:0:0:0:
288,144,10408,1,0,0:0:0:0:
229,108,10482,1,2,0:0:0:0:
162,94,10556,1,0,0:0:0:0:
95,112,10631,2,0,P|67:140|50:180,1,65
81,300,10779,5,0,0:0:0:0:
132,249,10854,1,0,0:0:0:0:
157,182,10928,1,0,0:0:0:0:
161,111,11002,1,0,0:0:0:0:
144,44,11076,1,2,0:0:0:0:
81,8,11151,5,0,0:0:0:0:
72,78,11225,1,0,0:0:0:0:
109,137,11299,1,0,0:0:0:0:
175,165,11374,1,0,0:0:0:0:
246,157,11448,1,0,0:0:0:0:
307,123,11522,1,0,0:0:0:0:
379,129,11596,1,0,0:0:0:0:
440,166,11671,1,2,0:0:0:0:
470,233,11745,1,0,0:0:0:0:
466,304,11819,1,0,0:0:0:0:
417,355,11893,1,0,0:0:0:0:
346,360,11968,6,0,P|306:352|263:308,7,65,0|0|0|0|2|0|0|0,0:0|0:0|0:0|0:0|0:0|0:0|0:0|0:0,0:0:0:0:
363,239,12562,2,0,P|394:243|422:259,7,65,0|0|0|0|2|0|0|0,0:0|0:0|0:0|0:0|0:0|0:0|0:0|0:0,0:0:0:0:
335,357,13156,6,0,L|269:339,1,65,4|0,0:0|0:0,0:0:0:0:
203,231,13304,2,0,L|289:252,1,65,2|0,0:0|0:0,0:0:0:0:
340,348,13453,6,0,L|274:330,1,65,4|0,0:0|0:0,0:0:0:0:
208,222,13601,2,0,L|294:243,1,65,2|0,0:0|0:0,0:0:0:0:
344,336,13750,6,0,L|278:318,1,65,4|0,0:0|0:0,0:0:0:0:
212,210,13898,2,0,L|298:231,1,65,2|0,0:0|0:0,0:0:0:0:
348,324,14047,6,0,L|282:306,1,65,4|0,0:0|0:0,0:0:0:0:
216,198,14195,2,0,L|302:219,1,65,2|0,0:0|0:0,0:0:0:0:
365,232,14344,5,2,0:0:0:0:
366,222,14418,1,2,0:0:0:0:
368,211,14492,1,2,0:0:0:0:
370,200,14567,1,0,0:0:0:0:
373,188,14641,1,2,0:0:0:0:
375,178,14715,1,2,0:0:0:0:
378,164,14789,1,2,0:0:0:0:
380,152,14864,1,0,0:0:0:0:
326,35,14938,5,8,0:0:0:0:
319,80,15012,1,8,0:0:0:0:
312,126,15086,1,8,0:0:0:0:
305,172,15160,1,8,0:0:0:0:
298,218,15235,1,8,0:0:0:0:
291,264,15309,1,8,0:0:0:0:
284,310,15383,1,8,0:0:0:0:
277,356,15457,1,8,0:0:0:0:
192,358,15532,6,0,B|111:376|46:355|18:286|24:220|55:168|117:149|117:149|168:133|208:83|201:13|201:13|157:75|165:137|252:177|273:245|247:315|247:315|293:254|352:228,1,975,4|0,0:0|0:0,0:0:0:0:
431,204,16720,5,2,0:0:0:0:
430,226,16794,1,2,0:0:0:0:
428,252,16869,2,2,L|386:312,1,65,2|2,0:0|0:0,0:0:0:0:
210,311,17017,6,2,P|195:276|199:227,3,65,2|2|2|2,0:0|0:0|0:0|0:0,0:0:0:0:
276,147,17314,6,2,P|291:182|287:231,3,65,2|2|2|2,0:0|0:0|0:0|0:0,0:0:0:0:
206,307,17611,5,2,0:0:0:0:
203,286,17685,1,2,0:0:0:0:
200,264,17760,1,2,0:0:0:0:
197,244,17834,1,2,0:0:0:0:
244,161,17908,6,0,B|321:193|340:275|340:275|412:233|446:183|460:129|457:73|418:9|366:-22|272:-21|214:8|181:68|174:119|174:119|175:174|155:225|105:258|57:264|16:249|-13:227,1,975,4|0,0:0|0:0,0:0:0:0:
63,157,19096,5,2,0:0:0:0:
64,175,19171,1,2,0:0:0:0:
69,199,19245,2,2,P|85:231|117:259,1,65
239,252,19393,6,2,P|295:257|324:275,3,65
190,171,19690,6,2,P|141:174|115:168,3,65
291,154,19987,5,2,0:0:0:0:
305,191,20062,1,2,0:0:0:0:
303,230,20136,1,2,0:0:0:0:
276,263,20210,1,2,0:0:0:0:
156,304,20284,6,0,B|134:299|98:273|73:238|62:200|61:154|73:108|108:72|152:52|204:41|252:65|252:65|237:127|263:181|334:192|385:181|410:154|431:127|437:83|412:36|412:36|382:65|357:115|362:174|434:180|441:254,1,975,4|0,0:0|0:0,0:0:0:0:
431,309,21473,5,2,0:0:0:0:
388,339,21547,1,2,0:0:0:0:
333,343,21621,2,2,P|250:321|236:313,1,65
194,258,21770,6,2,L|205:178,3,65
302,109,22067,6,2,L|311:190,3,65
189,262,22364,5,2,0:0:0:0:
191,224,22438,1,2,0:0:0:0:
194,187,22512,1,2,0:0:0:0:
197,149,22586,1,2,0:0:0:0:
199,111,22661,6,0,B|252:66|311:75|348:117|348:117|382:81|430:84|463:115|473:160|458:205|407:220|380:212|380:212|343:182|277:166|215:215|212:297|255:358|320:375|387:324,1,780,4|0,0:0|0:0,0:0:0:0:
324,273,23849,2,0,P|146:46|145:355,1,780,4|0,0:0|0:0,0:0:0:0:
192,308,25037,5,2,0:0:0:0:
221,323,25111,1,2,0:0:0:0:
261,331,25185,1,2,0:0:0:0:
312,329,25260,1,2,0:0:0:0:
372,316,25334,1,0,0:0:0:0:
427,278,25408,1,2,0:0:0:0:
469,223,25482,1,2,0:0:0:0:
484,152,25557,1,2,0:0:0:0:
480,69,25631,5,2,0:0:0:0:
461,70,25705,1,2,0:0:0:0:
443,72,25779,1,2,0:0:0:0:
424,74,25853,1,2,0:0:0:0:
406,76,25928,1,2,0:0:0:0:
387,78,26002,1,2,0:0:0:0:
369,80,26076,1,2,0:0:0:0:
350,82,26150,1,2,0:0:0:0:
335,84,26225,6,0,P|281:99|251:97,3,65,4|0|0|0,0:0|0:0|0:0|0:0,0:0:0:0:
154,191,26522,6,0,P|208:176|238:178,3,65,4|0|4|0,0:0|0:0|0:0|0:0,0:0:0:0:
350,235,26819,5,4,0:0:0:0:
357,268,26893,1,0,0:0:0:0:
342,310,26968,1,4,0:0:0:0:
304,331,27042,1,0,0:0:0:0:
257,325,27116,1,4,0:0:0:0:
227,291,27190,1,0,0:0:0:0:
226,242,27265,1,4,0:0:0:0:
253,207,27339,1,0,0:0:0:0:
301,198,27413,5,2,0:0:0:0:
294,246,27487,1,2,0:0:0:0:
272,292,27562,1,2,0:0:0:0:
226,315,27636,1,2,0:0:0:0:
174,317,27710,1,0,0:0:0:0:
124,304,27784,1,2,0:0:0:0:
93,262,27859,1,2,0:0:0:0:
79,211,27933,1,2,0:0:0:0:
89,160,28007,1,2,0:0:0:0:
117,117,28081,1,2,0:0:0:0:
151,156,28156,1,2,0:0:0:0:
199,177,28230,1,2,0:0:0:0:
254,188,28304,1,2,0:0:0:0:
309,184,28378,1,2,0:0:0:0:
361,170,28453,1,2,0:0:0:0:
408,146,28527,1,2,0:0:0:0:
441,104,28601,6,0,P|452:61|450:26,3,65,4|0|4|0,0:0|0:0|0:0|0:0,0:0:0:0:
358,137,28898,6,0,P|359:169|368:200,3,65,4|0|4|0,0:0|0:0|0:0|0:0,0:0:0:0:
264,116,29195,5,4,0:0:0:0:
265,89,29270,1,0,0:0:0:0:
263,58,29344,1,4,0:0:0:0:
255,28,29418,1,0,0:0:0:0:
221,50,29492,1,4,0:0:0:0:
206,89,29567,1,0,0:0:0:0:
204,133,29641,1,4,0:0:0:0:
212,179,29715,1,0,0:0:0:0:
230,226,29789,5,2,0:0:0:0:
295,251,29864,1,2,0:0:0:0:
361,218,29938,1,2,0:0:0:0:
370,146,30012,1,2,0:0:0:0:
313,94,30086,1,0,0:0:0:0:
243,113,30161,1,2,0:0:0:0:
174,112,30235,1,2,0:0:0:0:
110,77,30309,1,2,0:0:0:0:
182,62,30383,1,2,0:0:0:0:
219,126,30458,1,2,0:0:0:0:
231,197,30532,1,2,0:0:0:0:
214,263,30606,1,2,0:0:0:0:
241,333,30680,1,2,0:0:0:0:
317,337,30755,1,2,0:0:0:0:
362,281,30829,1,2,0:0:0:0:
353,211,30903,1,2,0:0:0:0:
300,162,30977,6,0,P|243:153|226:142,3,65,4|0|4|0,0:0|0:0|0:0|0:0,0:0:0:0:
244,73,31275,6,0,P|214:61|182:61,3,65,4|0|4|0,0:0|0:0|0:0|0:0,0:0:0:0:
90,125,31572,5,4,0:0:0:0:
90,142,31646,1,0,0:0:0:0:
90,160,31720,1,4,0:0:0:0:
90,180,31794,1,0,0:0:0:0:
114,205,31869,1,4,0:0:0:0:
116,243,31943,1,0,0:0:0:0:
119,280,32017,1,4,0:0:0:0:
122,315,32091,1,0,0:0:0:0:
173,360,32166,5,2,0:0:0:0:
241,363,32240,1,2,0:0:0:0:
297,322,32314,1,2,0:0:0:0:
314,257,32388,1,0,0:0:0:0:
286,193,32463,1,2,0:0:0:0:
225,162,32537,1,2,0:0:0:0:
158,177,32611,1,2,0:0:0:0:
115,230,32685,1,0,0:0:0:0:
115,300,32760,5,8,0:0:0:0:
198,285,32834,1,8,0:0:0:0:
254,215,32908,1,8,0:0:0:0:
303,146,32982,1,8,0:0:0:0:
384,111,33056,1,8,0:0:0:0:
462,151,33130,1,8,0:0:0:0:
482,237,33204,1,8,0:0:0:0:
430,307,33279,1,8,0:0:0:0:
342,313,33354,5,2,0:0:0:0:
340,296,33428,1,2,0:0:0:0:
338,280,33502,1,2,0:0:0:0:
337,264,33576,1,2,0:0:0:0:
335,248,33651,1,2,0:0:0:0:
334,232,33725,1,2,0:0:0:0:
332,215,33799,1,2,0:0:0:0:
331,199,33873,1,2,0:0:0:0:
328,182,33948,1,2,0:0:0:0:
306,165,34022,5,2,0:0:0:0:
263,157,34096,1,2,0:0:0:0:
210,170,34171,1,2,0:0:0:0:
177,216,34245,1,2,0:0:0:0:
174,280,34319,1,2,0:0:0:0:
219,332,34393,1,2,0:0:0:0:
292,347,34468,1,2,0:0:0:0:
364,316,34542,6,0,P|367:270|359:223,1,65
294,195,34690,5,2,0:0:0:0:
240,222,34765,1,2,0:0:0:0:
185,248,34839,2,0,L|141:193,1,65,4|0,0:0|0:0,0:0:0:0:
163,130,34987,5,2,0:0:0:0:
217,101,35062,1,2,0:0:0:0:
272,75,35136,2,0,L|323:134,1,65,4|0,0:0|0:0,0:0:0:0:
294,195,35284,5,2,0:0:0:0:
240,222,35359,1,2,0:0:0:0:
185,248,35433,2,0,L|143:198,1,65,4|0,0:0|0:0,0:0:0:0:
163,130,35581,5,2,0:0:0:0:
217,101,35656,1,2,0:0:0:0:
272,75,35730,1,0,0:0:0:0:
214,52,35804,5,0,0:0:0:0:
153,72,35878,1,0,0:0:0:0:
115,126,35952,1,0,0:0:0:0:
107,189,36026,1,0,0:0:0:0:
117,251,36101,1,0,0:0:0:0:
156,301,36175,1,0,0:0:0:0:
214,329,36249,1,0,0:0:0:0:
279,332,36324,1,8,0:0:0:0:
233,267,36398,1,8,0:0:0:0:
232,192,36472,1,8,0:0:0:0:
276,133,36546,1,8,0:0:0:0:
350,119,36621,1,8,0:0:0:0:
422,142,36695,1,8,0:0:0:0:
464,203,36769,1,8,0:0:0:0:
462,277,36843,1,8,0:0:0:0:
441,362,36918,5,2,0:0:0:0:
417,358,36992,1,2,0:0:0:0:
392,350,37067,1,2,0:0:0:0:
370,344,37141,1,2,0:0:0:0:
348,337,37215,1,2,0:0:0:0:
321,327,37289,1,2,0:0:0:0:
272,322,37364,1,2,0:0:0:0:
223,338,37438,1,2,0:0:0:0:
171,363,37512,1,2,0:0:0:0:
116,369,37586,1,2,0:0:0:0:
70,335,37660,1,2,0:0:0:0:
54,278,37734,1,2,0:0:0:0:
70,218,37808,1,2,0:0:0:0:
112,169,37883,1,2,0:0:0:0:
158,138,37958,1,2,0:0:0:0:
182,88,38032,1,2,0:0:0:0:
172,39,38106,5,2,0:0:0:0:
134,16,38180,1,2,0:0:0:0:
88,20,38255,1,2,0:0:0:0:
59,62,38329,1,2,0:0:0:0:
49,126,38403,5,8,0:0:0:0:
123,132,38477,1,8,0:0:0:0:
197,136,38552,1,8,0:0:0:0:
273,140,38626,1,8,0:0:0:0:
350,144,38700,1,8,0:0:0:0:
375,155,38774,1,0,0:0:0:0:
335,171,38848,1,8,0:0:0:0:
353,197,38922,1,0,0:0:0:0:
308,196,38997,1,8,0:0:0:0:
312,224,39071,1,0,0:0:0:0:
269,203,39145,1,8,0:0:0:0:
268,230,39219,1,0,0:0:0:0:
195,208,39294,5,8,0:0:0:0:
196,356,39443,1,8,0:0:0:0:
316,356,39591,5,2,0:0:0:0:
316,309,39666,1,2,0:0:0:0:
316,253,39740,1,0,0:0:0:0:
317,195,39814,1,2,0:0:0:0:
319,139,39888,1,2,0:0:0:0:
196,28,40037,5,2,0:0:0:0:
196,75,40112,1,2,0:0:0:0:
196,131,40186,1,0,0:0:0:0:
195,189,40260,1,2,0:0:0:0:
193,245,40334,1,2,0:0:0:0:
277,315,40482,6,0,L|357:299,1,65,8|0,0:0|0:0,0:0:0:0:
284,293,40631,6,0,L|364:277,1,65
289,275,40779,6,0,L|369:259,1,65,8|0,0:0|0:0,0:0:0:0:
297,252,40928,6,0,L|377:236,1,65
301,231,41076,6,0,L|381:215,1,65,8|0,0:0|0:0,0:0:0:0:
308,209,41225,6,0,L|388:193,1,65
314,189,41374,6,0,L|394:173,2,65,8|0|0,0:0|0:0|0:0,0:0:0:0:
324,68,41671,1,0,0:0:0:0:
204,72,41819,5,2,0:0:0:0:
146,78,41893,1,2,0:0:0:0:
88,86,41968,1,2,0:0:0:0:
61,142,42042,1,2,0:0:0:0:
72,188,42116,1,2,0:0:0:0:
103,215,42190,1,0,0:0:0:0:
142,231,42265,1,2,0:0:0:0:
175,231,42339,1,2,0:0:0:0:
203,225,42413,1,2,0:0:0:0:
221,218,42487,1,2,0:0:0:0:
235,207,42562,1,2,0:0:0:0:
245,195,42636,1,2,0:0:0:0:
251,182,42710,1,2,0:0:0:0:
252,168,42784,1,2,0:0:0:0:
247,154,42859,5,0,0:0:0:0:
229,129,42933,1,0,0:0:0:0:
196,115,43007,1,0,0:0:0:0:
154,113,43081,1,2,0:0:0:0:
114,137,43156,1,2,0:0:0:0:
96,184,43230,1,2,0:0:0:0:
105,238,43304,1,2,0:0:0:0:
150,280,43378,1,2,0:0:0:0:
218,277,43453,5,8,0:0:0:0:
194,197,43527,1,0,0:0:0:0:
212,119,43601,1,8,0:0:0:0:
272,65,43675,1,0,0:0:0:0:
350,52,43750,1,8,0:0:0:0:
422,87,43824,1,0,0:0:0:0:
454,160,43898,1,8,0:0:0:0:
454,243,43973,1,0,0:0:0:0:
416,311,44047,5,0,0:0:0:0:
284,307,44195,5,8,0:0:0:0:
222,314,44270,1,8,0:0:0:0:
161,321,44344,1,8,0:0:0:0:
284,307,44492,5,8,0:0:0:0:
222,314,44567,1,8,0:0:0:0:
161,321,44641,1,8,0:0:0:0:
284,307,44789,5,8,0:0:0:0:
222,314,44864,1,8,0:0:0:0:
161,321,44938,1,8,0:0:0:0:
284,307,45086,5,0,0:0:0:0:
222,314,45161,1,0,0:0:0:0:
161,321,45235,1,0,0:0:0:0:
124,325,45309,5,0,0:0:0:0:
121,298,45383,1,0,0:0:0:0:
117,268,45458,1,0,0:0:0:0:
113,235,45532,1,0,0:0:0:0:
107,200,45606,1,0,0:0:0:0:
101,159,45680,1,0,0:0:0:0:
94,110,45755,1,0,0:0:0:0:
86,52,45829,5,2,0:0:0:0:
36,91,45903,1,2,0:0:0:0:
16,152,45977,1,2,0:0:0:0:
31,214,46051,1,2,0:0:0:0:
77,258,46126,1,2,0:0:0:0:
140,270,46200,1,2,0:0:0:0:
200,247,46274,1,2,0:0:0:0:
237,194,46348,1,2,0:0:0:0:
243,129,46423,6,0,P|237:94|219:59,1,65
149,126,46572,5,8,0:0:0:0:
147,142,46646,1,8,0:0:0:0:
145,157,46720,1,8,0:0:0:0:
141,182,46794,1,0,0:0:0:0:
134,220,46869,2,0,L|140:295,1,65
208,344,47017,5,8,0:0:0:0:
277,356,47091,1,8,0:0:0:0:
343,334,47166,1,8,0:0:0:0:
389,284,47240,1,8,0:0:0:0:
407,218,47314,1,8,0:0:0:0:
410,150,47388,1,8,0:0:0:0:
381,88,47463,1,8,0:0:0:0:
327,46,47537,1,8,0:0:0:0:
260,36,47611,5,2,0:0:0:0:
249,54,47686,1,2,0:0:0:0:
263,69,47760,1,2,0:0:0:0:
244,79,47834,1,2,0:0:0:0:
254,97,47908,1,2,0:0:0:0:
241,109,47983,1,2,0:0:0:0:
253,124,48057,1,2,0:0:0:0:
240,137,48131,1,2,0:0:0:0:
253,154,48205,1,2,0:0:0:0:
239,168,48280,1,2,0:0:0:0:
249,182,48354,1,2,0:0:0:0:
238,193,48428,1,2,0:0:0:0:
250,207,48502,1,2,0:0:0:0:
235,220,48577,1,2,0:0:0:0:
249,233,48651,2,0,P|321:271|322:271,1,65
421,227,48799,5,8,0:0:0:0:
412,80,48948,1,0,0:0:0:0:
324,209,49096,5,8,0:0:0:0:
315,62,49245,1,0,0:0:0:0:
211,190,49393,5,8,0:0:0:0:
202,43,49542,1,0,0:0:0:0:
96,179,49690,5,8,0:0:0:0:
87,32,49839,1,0,0:0:0:0:
56,286,49987,5,8,0:0:0:0:
207,360,50136,1,0,0:0:0:0:
281,208,50284,1,8,0:0:0:0:
130,134,50433,1,0,0:0:0:0:
256,21,50581,5,8,0:0:0:0:
454,121,50730,1,0,0:0:0:0:
352,319,50878,1,8,0:0:0:0:
153,218,51027,1,0,0:0:0:0:
256,21,51175,5,8,0:0:0:0:
287,46,51250,1,8,0:0:0:0:
334,59,51324,1,8,0:0:0:0:
390,61,51398,1,8,0:0:0:0:
455,40,51473,2,0,L|495:100,1,65,8|0,0:0|0:0,0:0:0:0:
438,164,51621,2,0,L|398:104,1,65,8|0,0:0|0:0,0:0:0:0:
448,56,51770,2,0,L|488:116,1,65,8|0,0:0|0:0,0:0:0:0:
431,180,51918,2,0,L|391:120,1,65,8|0,0:0|0:0,0:0:0:0:
440,73,52067,2,0,L|480:133,1,65,8|0,0:0|0:0,0:0:0:0:
423,197,52215,2,0,L|383:137,1,65,8|0,0:0|0:0,0:0:0:0:
491,253,52364,5,8,0:0:0:0:
479,268,52438,1,8,0:0:0:0:
464,285,52512,1,8,0:0:0:0:
453,301,52586,1,0,0:0:0:0:
435,273,52661,5,8,0:0:0:0:
423,285,52735,1,8,0:0:0:0:
413,298,52809,1,8,0:0:0:0:
403,310,52883,1,0,0:0:0:0:
375,292,52958,5,8,0:0:0:0:
345,315,53032,1,8,0:0:0:0:
299,327,53106,1,8,0:0:0:0:
246,323,53180,1,8,0:0:0:0:
195,298,53255,1,8,0:0:0:0:
163,242,53329,1,8,0:0:0:0:
158,176,53403,1,8,0:0:0:0:
183,114,53477,1,8,0:0:0:0:
243,79,53552,1,8,0:0:0:0:
243,79,54740,5,8,0:0:0:0:
245,77,55631,6,0,B|304:95|373:80|373:80|338:126|343:158,1,195
351,220,55928,1,8,0:0:0:0:
352,219,57116,5,8,0:0:0:0:
352,219,58007,5,0,0:0:0:0:
324,333,58156,1,0,0:0:0:0:
165,325,58304,5,8,0:0:0:0:
146,203,58453,1,0,0:0:0:0:
181,312,58601,5,8,0:0:0:0:
160,177,58750,1,0,0:0:0:0:
202,298,58898,5,8,0:0:0:0:
179,151,59047,1,0,0:0:0:0:
222,288,59195,5,8,0:0:0:0:
197,129,59344,1,0,0:0:0:0:
252,60,59492,5,8,0:0:0:0:
401,111,59641,1,0,0:0:0:0:
256,85,59789,5,8,0:0:0:0:
423,143,59938,1,0,0:0:0:0:
259,117,60086,5,8,0:0:0:0:
440,180,60235,1,0,0:0:0:0:
259,146,60383,5,8,0:0:0:0:
455,214,60532,1,0,0:0:0:0:
454,288,60680,5,8,0:0:0:0:
441,288,60754,1,8,0:0:0:0:
428,289,60828,1,8,0:0:0:0:
415,290,60902,1,0,0:0:0:0:
402,291,60977,1,8,0:0:0:0:
389,292,61051,1,8,0:0:0:0:
376,293,61125,1,8,0:0:0:0:
363,294,61199,1,0,0:0:0:0:
350,295,61274,1,8,0:0:0:0:
337,296,61348,1,8,0:0:0:0:
324,297,61422,1,8,0:0:0:0:
311,298,61496,1,0,0:0:0:0:
298,299,61571,1,8,0:0:0:0:
285,300,61645,1,8,0:0:0:0:
272,301,61719,1,8,0:0:0:0:
259,302,61793,1,0,0:0:0:0:
249,303,61869,6,0,P|174:321|108:217,1,195,4|0,0:0|0:0,0:0:0:0:
144,141,62166,6,0,P|219:123|285:227,1,195,4|0,0:0|0:0,0:0:0:0:
199,211,62463,6,0,P|123:229|57:125,1,195,4|0,0:0|0:0,0:0:0:0:
266,152,62760,6,0,P|341:133|407:237,1,195,4|0,0:0|0:0,0:0:0:0:
368,326,63057,5,8,0:0:0:0:
368,326,63156,1,8,0:0:0:0:
368,326,63255,1,8,0:0:0:0:
368,326,63354,1,4,0:0:0:0:
368,326,63948,5,8,0:0:0:0:
368,326,64047,1,8,0:0:0:0:
368,326,64146,1,8,0:0:0:0:
368,326,64245,1,4,0:0:0:0:
368,326,64542,6,0,B|263:296|263:296|166:305,1,195,4|0,0:0|0:0,0:0:0:0:
80,285,64839,6,0,P|16:242|99:245,1,195,4|0,0:0|0:0,0:0:0:0:
173,174,65136,6,0,P|249:156|185:114,1,195,4|0,0:0|0:0,0:0:0:0:
183,286,65433,5,8,0:0:0:0:
183,286,65532,1,8,0:0:0:0:
183,286,65631,1,8,0:0:0:0:
183,286,65730,1,4,0:0:0:0:
183,286,66324,5,8,0:0:0:0:
183,286,66423,1,8,0:0:0:0:
294,259,66522,1,8,0:0:0:0:
294,259,66621,1,4,0:0:0:0:
294,259,66918,6,0,B|326:236|372:231|415:241|443:268|443:268|443:237|458:213|458:213,1,195,4|0,0:0|0:0,0:0:0:0:
403,55,67215,6,0,P|465:99|383:107,1,195,4|0,0:0|0:0,0:0:0:0:
291,83,67512,6,0,B|222:97|146:87|146:87|182:103|193:125,1,195,4|0,0:0|0:0,0:0:0:0:
292,186,67809,5,8,0:0:0:0:
292,186,67908,1,8,0:0:0:0:
292,186,68007,1,8,0:0:0:0:
292,186,68106,1,4,0:0:0:0:
292,186,68700,5,8,0:0:0:0:
292,186,68799,1,8,0:0:0:0:
292,186,68898,1,8,0:0:0:0:
292,186,68997,1,4,0:0:0:0:
292,186,69294,6,0,P|192:198|123:114,1,195,4|0,0:0|0:0,0:0:0:0:
305,99,69591,6,0,P|405:87|474:171,1,195,4|0,0:0|0:0,0:0:0:0:
374,248,69888,6,0,B|280:285|280:285|189:217,1,195,4|0,0:0|0:0,0:0:0:0:
115,82,70185,6,0,L|106:235,1,130,4|0,0:0|0:0,0:0:0:0:
202,291,70779,6,0,L|211:138,1,130,4|0,0:0|0:0,0:0:0:0:
165,83,71374,6,0,L|156:236,1,130,4|0,0:0|0:0,0:0:0:0:
252,292,71968,6,0,L|261:139,1,130,4|0,0:0|0:0,0:0:0:0:
374,62,72562,5,8,0:0:0:0:
379,78,72636,1,8,0:0:0:0:
386,94,72710,1,8,0:0:0:0:
380,108,72784,1,0,0:0:0:0:
374,122,72859,1,8,0:0:0:0:
367,136,72933,1,8,0:0:0:0:
376,149,73007,1,8,0:0:0:0:
385,161,73081,1,0,0:0:0:0:
394,175,73156,1,8,0:0:0:0:
387,187,73230,1,8,0:0:0:0:
380,200,73304,1,8,0:0:0:0:
372,215,73378,1,0,0:0:0:0:
381,231,73453,1,8,0:0:0:0:
387,244,73527,1,8,0:0:0:0:
399,263,73601,1,8,0:0:0:0:
420,297,73675,5,8,0:0:0:0:
408,353,73750,1,8,0:0:0:0:
356,373,73824,1,8,0:0:0:0:
299,364,73898,1,0,0:0:0:0:
264,315,73973,1,8,0:0:0:0:
265,251,74047,1,8,0:0:0:0:
302,198,74121,1,8,0:0:0:0:
332,137,74195,1,0,0:0:0:0:
323,67,74270,1,8,0:0:0:0:
267,15,74344,1,8,0:0:0:0:
192,8,74418,1,8,0:0:0:0:
123,40,74492,1,0,0:0:0:0:
99,112,74567,1,8,0:0:0:0:
113,184,74641,1,8,0:0:0:0:
170,236,74715,1,8,0:0:0:0:
245,255,74789,2,0,P|287:256|338:220,1,65
394,193,74938,5,2,0:0:0:0:
384,200,75012,1,2,0:0:0:0:
374,207,75086,1,2,0:0:0:0:
364,215,75160,1,2,0:0:0:0:
355,222,75235,1,2,0:0:0:0:
345,229,75309,1,2,0:0:0:0:
335,237,75383,1,2,0:0:0:0:
325,244,75457,1,2,0:0:0:0:
316,251,75532,1,2,0:0:0:0:
306,259,75606,1,2,0:0:0:0:
296,266,75680,1,2,0:0:0:0:
287,273,75754,1,2,0:0:0:0:
277,281,75829,1,2,0:0:0:0:
267,288,75903,1,2,0:0:0:0:
257,295,75977,1,2,0:0:0:0:
248,303,76051,1,2,0:0:0:0:
240,311,76126,6,0,L|214:333,7,32.5
211,277,76423,2,0,L|180:292,7,32.5
195,228,76720,2,0,L|161:234,7,32.5
223,153,77017,6,0,L|352:177,1,130,0|4,0:0|0:0,0:0:0:0:
256,192,77314,12,0,79542,0:0:0:0:
390,218,79690,6,0,P|384:304|346:336,1,130
248,325,79987,1,8,0:0:0:0:
203,315,80062,1,8,0:0:0:0:
154,313,80136,1,8,0:0:0:0:
100,320,80210,1,0,0:0:0:0:
54,351,80284,5,8,0:0:0:0:
112,355,80359,1,8,0:0:0:0:
159,308,80433,1,8,0:0:0:0:
161,240,80507,1,0,0:0:0:0:
120,186,80581,1,8,0:0:0:0:
79,129,80656,1,8,0:0:0:0:
85,62,80730,1,8,0:0:0:0:
141,24,80804,1,0,0:0:0:0:
209,24,80878,1,8,0:0:0:0:
255,79,80953,1,8,0:0:0:0:
261,148,81027,1,8,0:0:0:0:
250,218,81101,1,0,0:0:0:0:
254,288,81175,1,8,0:0:0:0:
312,331,81250,1,8,0:0:0:0:
384,329,81324,1,8,0:0:0:0:
435,278,81398,1,0,0:0:0:0:
444,205,81473,6,0,P|450:165|442:128,1,65,8|0,0:0|0:0,0:0:0:0:
354,267,81621,2,0,P|348:307|356:344,1,65,8|0,0:0|0:0,0:0:0:0:
436,60,81770,5,4,0:0:0:0:
436,60,82067,5,4,0:0:0:0:
370,83,82141,1,0,0:0:0:0:
305,88,82215,1,0,0:0:0:0:
240,71,82289,1,0,0:0:0:0:
187,29,82364,1,4,0:0:0:0:
121,15,82438,1,0,0:0:0:0:
57,44,82512,1,0,0:0:0:0:
24,107,82586,1,0,0:0:0:0:
38,176,82661,1,4,0:0:0:0:
99,215,82735,1,0,0:0:0:0:
171,213,82809,1,0,0:0:0:0:
203,149,82883,1,0,0:0:0:0:
267,111,82958,1,4,0:0:0:0:
338,113,83032,1,0,0:0:0:0:
400,153,83106,1,0,0:0:0:0:
430,218,83180,1,0,0:0:0:0:
423,289,83255,1,4,0:0:0:0:
373,340,83329,1,0,0:0:0:0:
301,357,83403,1,0,0:0:0:0:
230,351,83477,1,0,0:0:0:0:
181,298,83552,1,4,0:0:0:0:
124,258,83626,1,0,0:0:0:0:
58,275,83700,1,0,0:0:0:0:
26,337,83774,2,0,L|105:364,1,65,0|4,0:0|0:0,0:0:0:0:
174,353,83923,5,0,0:0:0:0:
178,335,83997,1,0,0:0:0:0:
183,313,84072,1,0,0:0:0:0:
188,290,84146,1,4,0:0:0:0:
192,266,84220,1,0,0:0:0:0:
199,241,84294,2,0,L|271:213,1,65
385,169,84443,5,8,0:0:0:0:
414,317,84591,1,0,0:0:0:0:
251,351,84740,1,8,0:0:0:0:
248,332,84814,1,8,0:0:0:0:
244,313,84888,1,8,0:0:0:0:
257,286,84963,1,8,0:0:0:0:
251,262,85037,1,8,0:0:0:0:
245,240,85111,1,8,0:0:0:0:
206,220,85185,1,8,0:0:0:0:
199,183,85260,1,8,0:0:0:0:
190,143,85334,1,8,0:0:0:0:
180,96,85408,1,8,0:0:0:0:
230,49,85482,1,8,0:0:0:0:
301,48,85557,1,8,0:0:0:0:
363,84,85631,6,0,P|404:145|393:221,1,130,2|0,0:0|0:0,0:0:0:0:
298,349,85928,6,0,P|257:288|268:212,1,130,2|0,0:0|0:0,0:0:0:0:
416,42,86225,6,0,P|457:103|446:179,1,130,2|0,0:0|0:0,0:0:0:0:
240,364,86522,6,0,P|199:303|210:227,1,130,2|0,0:0|0:0,0:0:0:0:
338,33,86819,5,4,0:0:0:0:
400,68,86893,1,0,0:0:0:0:
421,135,86968,1,0,0:0:0:0:
408,204,87042,1,0,0:0:0:0:
349,247,87116,1,4,0:0:0:0:
326,315,87190,1,0,0:0:0:0:
355,379,87265,2,0,L|430:372,1,65
482,280,87413,5,4,0:0:0:0:
455,215,87487,1,0,0:0:0:0:
398,171,87562,1,0,0:0:0:0:
326,164,87636,1,0,0:0:0:0:
257,190,87710,1,4,0:0:0:0:
215,250,87784,1,0,0:0:0:0:
197,322,87859,1,0,0:0:0:0:
133,358,87933,1,0,0:0:0:0:
65,331,88007,1,4,0:0:0:0:
39,264,88081,1,0,0:0:0:0:
57,195,88156,1,0,0:0:0:0:
118,158,88230,1,0,0:0:0:0:
191,162,88304,1,4,0:0:0:0:
263,151,88378,1,0,0:0:0:0:
328,112,88453,2,0,P|348:71|351:40,1,65
216,26,88601,1,4,0:0:0:0:
218,69,88675,1,0,0:0:0:0:
221,112,88749,1,0,0:0:0:0:
223,156,88823,1,0,0:0:0:0:
226,199,88898,1,4,0:0:0:0:
229,243,88972,1,0,0:0:0:0:
231,286,89046,1,0,0:0:0:0:
234,330,89120,1,0,0:0:0:0:
295,363,89195,6,0,P|367:334|398:268,1,130,8|0,0:0|0:0,0:0:0:0:
406,125,89492,1,8,0:0:0:0:
351,84,89567,1,8,0:0:0:0:
286,65,89641,1,8,0:0:0:0:
221,86,89715,1,0,0:0:0:0:
172,133,89789,2,8,L|150:216,1,65
210,320,89938,5,8,0:0:0:0:
226,249,90012,1,8,0:0:0:0:
240,176,90086,1,8,0:0:0:0:
260,104,90161,1,0,0:0:0:0:
337,90,90235,1,8,0:0:0:0:
405,139,90309,1,8,0:0:0:0:
423,223,90383,1,8,0:0:0:0:
392,298,90458,1,0,0:0:0:0:
318,336,90532,1,8,0:0:0:0:
240,308,90606,1,8,0:0:0:0:
164,279,90680,1,8,0:0:0:0:
85,295,90755,1,0,0:0:0:0:
30,364,90829,1,8,0:0:0:0:
114,347,90903,1,8,0:0:0:0:
140,264,90977,1,8,0:0:0:0:
105,189,91052,1,0,0:0:0:0:
83,109,91126,1,8,0:0:0:0:
132,39,91200,1,8,0:0:0:0:
214,34,91274,1,8,0:0:0:0:
276,88,91349,1,0,0:0:0:0:
282,169,91423,6,0,P|281:223|270:255,1,65
132,251,91572,5,4,0:0:0:0:
137,229,91646,1,0,0:0:0:0:
143,203,91720,1,0,0:0:0:0:
148,175,91794,1,0,0:0:0:0:
155,143,91869,1,4,0:0:0:0:
161,114,91943,1,0,0:0:0:0:
167,89,92017,1,0,0:0:0:0:
173,63,92091,1,0,0:0:0:0:
179,38,92166,2,0,L|265:25,1,65,4|0,0:0|0:0,0:0:0:0:
379,86,92314,2,0,L|306:97,1,65
239,126,92463,5,4,0:0:0:0:
234,148,92537,1,0,0:0:0:0:
228,174,92611,1,0,0:0:0:0:
223,202,92685,1,0,0:0:0:0:
216,234,92760,1,4,0:0:0:0:
226,282,92834,1,0,0:0:0:0:
276,301,92908,1,0,0:0:0:0:
331,287,92982,1,0,0:0:0:0:
361,237,93057,1,4,0:0:0:0:
350,184,93131,1,0,0:0:0:0:
311,139,93205,1,0,0:0:0:0:
255,118,93279,1,0,0:0:0:0:
228,68,93354,1,4,0:0:0:0:
254,15,93428,1,0,0:0:0:0:
316,2,93502,1,0,0:0:0:0:
372,20,93576,1,0,0:0:0:0:
406,81,93651,1,4,0:0:0:0:
395,153,93725,1,0,0:0:0:0:
365,224,93799,1,0,0:0:0:0:
289,242,93874,1,0,0:0:0:0:
208,228,93948,5,4,0:0:0:0:
204,214,94022,1,0,0:0:0:0:
197,191,94096,1,4,0:0:0:0:
190,167,94171,1,0,0:0:0:0:
181,133,94245,1,4,0:0:0:0:
168,96,94319,1,0,0:0:0:0:
158,65,94393,1,4,0:0:0:0:
145,20,94468,1,0,0:0:0:0:
93,69,94542,1,4,0:0:0:0:
111,126,94616,1,0,0:0:0:0:
137,188,94690,1,4,0:0:0:0:
168,251,94765,1,0,0:0:0:0:
200,313,94839,1,4,0:0:0:0:
267,342,94913,1,0,0:0:0:0:
340,336,94987,1,4,0:0:0:0:
397,288,95062,1,0,0:0:0:0:
425,215,95136,6,0,P|439:131|424:62,1,130,8|0,0:0|0:0,0:0:0:0:
299,215,95433,6,0,P|285:299|300:368,1,130,8|0,0:0|0:0,0:0:0:0:
333,110,95730,6,0,P|249:96|180:111,1,130,8|0,0:0|0:0,0:0:0:0:
119,163,96027,1,4,0:0:0:0:
119,163,96324,5,4,0:0:0:0:
75,220,96398,1,0,0:0:0:0:
65,291,96472,1,0,0:0:0:0:
102,353,96547,1,0,0:0:0:0:
174,376,96621,1,4,0:0:0:0:
248,358,96695,1,0,0:0:0:0:
294,303,96770,1,0,0:0:0:0:
300,232,96844,1,0,0:0:0:0:
252,177,96918,1,4,0:0:0:0:
186,144,96992,1,0,0:0:0:0:
159,76,97067,1,0,0:0:0:0:
190,10,97141,2,0,L|259:0,1,65,0|4,0:0|0:0,0:0:0:0:
375,62,97289,2,0,L|280:78,1,65
201,84,97438,5,0,0:0:0:0:
145,128,97512,1,4,0:0:0:0:
128,199,97586,1,0,0:0:0:0:
139,271,97661,1,0,0:0:0:0:
183,331,97735,1,0,0:0:0:0:
253,363,97809,1,4,0:0:0:0:
255,335,97883,1,0,0:0:0:0:
258,307,97957,1,0,0:0:0:0:
261,279,98031,1,0,0:0:0:0:
264,252,98106,1,4,0:0:0:0:
267,224,98180,1,0,0:0:0:0:
270,196,98254,1,0,0:0:0:0:
272,169,98328,1,0,0:0:0:0:
275,137,98403,5,4,0:0:0:0:
338,100,98477,1,0,0:0:0:0:
409,124,98552,1,0,0:0:0:0:
439,198,98626,1,0,0:0:0:0:
392,263,98700,5,8,0:0:0:0:
338,100,98849,1,8,0:0:0:0:
205,68,98997,5,8,0:0:0:0:
181,108,99072,1,8,0:0:0:0:
181,157,99146,1,8,0:0:0:0:
202,200,99220,1,0,0:0:0:0:
246,223,99294,1,8,0:0:0:0:
270,269,99369,1,8,0:0:0:0:
258,320,99443,1,8,0:0:0:0:
221,349,99517,1,0,0:0:0:0:
171,345,99591,2,0,P|138:275|159:204,1,130,8|0,0:0|0:0,0:0:0:0:
232,85,99888,5,8,0:0:0:0:
294,96,99963,1,8,0:0:0:0:
359,104,100037,1,8,0:0:0:0:
424,116,100111,1,0,0:0:0:0:
458,174,100185,1,8,0:0:0:0:
455,242,100260,1,8,0:0:0:0:
421,298,100334,1,8,0:0:0:0:
365,327,100408,1,0,0:0:0:0:
298,325,100482,1,8,0:0:0:0:
240,291,100557,1,8,0:0:0:0:
223,225,100631,1,8,0:0:0:0:
247,164,100705,1,0,0:0:0:0:
263,99,100779,1,8,0:0:0:0:
225,44,100854,1,8,0:0:0:0:
162,37,100928,2,0,P|141:95|144:125,1,65,8|0,0:0|0:0,0:0:0:0:
119,193,101076,5,4,0:0:0:0:
188,220,101151,1,0,0:0:0:0:
258,204,101225,1,0,0:0:0:0:
312,155,101299,1,0,0:0:0:0:
353,95,101374,1,4,0:0:0:0:
425,88,101448,1,0,0:0:0:0:
485,133,101522,1,0,0:0:0:0:
490,207,101596,1,0,0:0:0:0:
452,269,101671,1,4,0:0:0:0:
380,275,101745,1,0,0:0:0:0:
321,230,101819,1,0,0:0:0:0:
286,164,101893,1,0,0:0:0:0:
224,124,101968,1,4,0:0:0:0:
155,103,102042,1,0,0:0:0:0:
88,127,102116,1,0,0:0:0:0:
48,187,102190,1,0,0:0:0:0:
43,259,102265,5,4,0:0:0:0:
110,286,102339,1,0,0:0:0:0:
178,263,102413,1,0,0:0:0:0:
215,200,102487,1,0,0:0:0:0:
231,131,102562,1,4,0:0:0:0:
274,74,102636,1,0,0:0:0:0:
344,56,102710,1,0,0:0:0:0:
414,73,102784,1,0,0:0:0:0:
463,126,102859,1,4,0:0:0:0:
475,198,102933,1,0,0:0:0:0:
457,267,103007,1,0,0:0:0:0:
415,324,103081,1,0,0:0:0:0:
347,350,103156,1,4,0:0:0:0:
336,306,103230,1,0,0:0:0:0:
326,258,103304,1,0,0:0:0:0:
314,208,103379,1,0,0:0:0:0:
305,160,103453,5,8,0:0:0:0:
230,258,103601,1,8,0:0:0:0:
350,275,103750,5,8,0:0:0:0:
360,229,103824,1,8,0:0:0:0:
354,182,103898,1,8,0:0:0:0:
336,138,103973,1,0,0:0:0:0:
299,109,104047,1,8,0:0:0:0:
248,100,104121,1,8,0:0:0:0:
188,110,104195,1,8,0:0:0:0:
218,171,104270,1,8,0:0:0:0:
238,238,104344,1,8,0:0:0:0:
223,306,104418,1,8,0:0:0:0:
163,342,104492,1,8,0:0:0:0:
94,324,104567,1,8,0:0:0:0:
62,256,104641,6,0,P|60:182|110:110,1,130,2|0,0:0|0:0,0:0:0:0:
336,82,104938,6,0,P|338:156|288:228,1,130,2|0,0:0|0:0,0:0:0:0:
90,9,105235,6,0,P|164:7|236:57,1,130,2|0,0:0|0:0,0:0:0:0:
327,326,105532,6,0,P|253:328|181:278,1,130,2|0,0:0|0:0,0:0:0:0:
152,190,105829,5,8,0:0:0:0:
274,37,105977,1,0,0:0:0:0:
303,244,106126,1,8,0:0:0:0:
157,73,106274,1,0,0:0:0:0:
384,131,106423,1,8,0:0:0:0:
194,302,106572,1,0,0:0:0:0:
305,35,106720,1,8,0:0:0:0:
399,293,106869,1,0,0:0:0:0:
97,197,107017,5,8,0:0:0:0:
435,126,107166,1,0,0:0:0:0:
297,352,107315,1,8,0:0:0:0:
156,53,107463,1,0,0:0:0:0:
436,242,107612,1,8,0:0:0:0:
166,326,107760,1,0,0:0:0:0:
310,18,107908,1,8,0:0:0:0:
408,344,108057,1,0,0:0:0:0:
88,158,108205,5,8,0:0:0:0:
421,99,108354,1,0,0:0:0:0:
305,355,108502,1,8,0:0:0:0:
174,22,108651,1,0,0:0:0:0:
133,333,108799,1,8,0:0:0:0:
366,44,108948,1,0,0:0:0:0:
449,288,109096,1,8,0:0:0:0:
72,151,109245,1,0,0:0:0:0:
462,153,109393,5,8,0:0:0:0:
285,348,109542,1,0,0:0:0:0:
179,40,109690,1,8,0:0:0:0:
469,233,109839,1,0,0:0:0:0:
145,333,109987,1,8,0:0:0:0:
291,94,110136,1,0,0:0:0:0:
407,340,110284,1,8,0:0:0:0:
150,153,110433,1,0,0:0:0:0:
262,32,110581,5,8,0:0:0:0:
282,31,110656,1,8,0:0:0:0:
301,32,110730,1,8,0:0:0:0:
319,36,110804,1,8,0:0:0:0:
337,42,110878,1,8,0:0:0:0:
354,50,110953,1,8,0:0:0:0:
370,59,111027,1,8,0:0:0:0:
384,71,111101,1,8,0:0:0:0:
398,83,111175,1,8,0:0:0:0:
410,98,111250,1,8,0:0:0:0:
420,113,111324,1,8,0:0:0:0:
428,130,111398,1,8,0:0:0:0:
435,147,111472,1,8,0:0:0:0:
439,165,111547,1,8,0:0:0:0:
442,183,111621,1,8,0:0:0:0:
442,202,111695,1,8,0:0:0:0:
352,294,111770,5,8,0:0:0:0:
358,276,111844,1,8,0:0:0:0:
361,257,111918,1,8,0:0:0:0:
362,239,111992,1,8,0:0:0:0:
361,220,112067,1,8,0:0:0:0:
357,202,112141,1,8,0:0:0:0:
352,184,112215,1,8,0:0:0:0:
344,168,112289,1,8,0:0:0:0:
334,152,112364,1,8,0:0:0:0:
323,137,112438,1,8,0:0:0:0:
310,124,112512,1,8,0:0:0:0:
295,112,112586,1,8,0:0:0:0:
279,103,112661,1,8,0:0:0:0:
263,95,112735,1,8,0:0:0:0:
245,89,112809,1,8,0:0:0:0:
228,89,112883,1,8,0:0:0:0:
126,97,112958,5,8,0:0:0:0:
122,164,113032,1,8,0:0:0:0:
117,233,113106,1,8,0:0:0:0:
115,301,113180,1,0,0:0:0:0:
113,369,113255,2,0,L|182:378,1,65
304,322,113403,2,0,L|221:313,1,65
136,300,113552,5,8,0:0:0:0:
72,264,113626,1,8,0:0:0:0:
50,193,113700,1,8,0:0:0:0:
52,120,113774,1,0,0:0:0:0:
100,64,113849,1,0,0:0:0:0:
167,37,113923,1,0,0:0:0:0:
238,46,113997,2,0,L|228:118,1,65
216,248,114146,5,8,0:0:0:0:
266,306,114220,1,8,0:0:0:0:
335,333,114294,1,8,0:0:0:0:
406,327,114369,1,0,0:0:0:0:
457,277,114443,1,8,0:0:0:0:
451,205,114517,1,8,0:0:0:0:
380,208,114591,1,8,0:0:0:0:
322,253,114666,1,0,0:0:0:0:
261,294,114740,1,8,0:0:0:0:
190,298,114814,1,8,0:0:0:0:
125,271,114888,1,8,0:0:0:0:
89,208,114963,1,0,0:0:0:0:
77,137,115037,1,8,0:0:0:0:
100,69,115111,1,8,0:0:0:0:
159,31,115185,1,8,0:0:0:0:
229,36,115260,1,0,0:0:0:0:
289,74,115334,6,0,P|242:128|117:109,1,195
359,24,115631,2,0,B|367:293|367:293|347:217|298:158,1,390,4|0,0:0|0:0,0:0:0:0:
234,102,116225,5,2,0:0:0:0:
234,102,116374,1,2,0:0:0:0:
112,84,116671,5,2,0:0:0:0:
112,84,116819,1,2,0:0:0:0:
155,196,117116,5,2,0:0:0:0:
155,196,117265,1,2,0:0:0:0:
234,102,117562,5,2,0:0:0:0:
234,102,117711,1,2,0:0:0:0:
94,81,118007,5,2,0:0:0:0:
94,81,118156,1,2,0:0:0:0:
143,210,118453,5,2,0:0:0:0:
143,210,118602,1,2,0:0:0:0:
260,164,118898,5,2,0:0:0:0:
366,128,119047,1,2,0:0:0:0:
473,218,119344,5,2,0:0:0:0:
242,319,119492,1,2,0:0:0:0:
58,131,119789,5,2,0:0:0:0:
464,107,120086,1,6,0:0:0:0:
