osu file format v14

[General]
AudioFilename: audio.mp3
AudioLeadIn: 0
PreviewTime: 121876
Countdown: 0
SampleSet: Soft
StackLeniency: 0.3
Mode: 0
LetterboxInBreaks: 0
WidescreenStoryboard: 1

[Editor]
Bookmarks: 41011,54228,146753,159822,183863,251685
DistanceSpacing: 1.2
BeatDivisor: 4
GridSize: 4
TimelineZoom: 2.400001

[Metadata]
Title:over the top
TitleUnicode:over the top
Artist:xi
ArtistUnicode:xi
Creator:Weriko
Version:sdafsf's Extreme
Source:
Tags:Electronic Instrumental Artcore Yusuke Ishiwata 石渡祐亮 Trance Diverse System DVSP-0145 [ zzz ] [zzz] kalindraz sdafsf atsuro Janssen Hardcore underground doujin C89 Comiket89 DiverseSystem コミケ89 コミックマーケット89 ComicMarket89 M3-36 M32015春 M3 2015 Spring AD:Nearly 120 seconds dvsp-0131 streams 200bpm piano rsi epic hard happyrocket88 chaos world fragments world_fragments
BeatmapID:1408381
BeatmapSetID:519505

[Difficulty]
HPDrainRate:5
CircleSize:4.4
OverallDifficulty:9
ApproachRate:9.4
SliderMultiplier:2
SliderTickRate:1

[Events]
//Background and Video events
0,0,"sp_clock.jpg",0,0
//Break Periods
//Storyboard Layer 0 (Background)
//Storyboard Layer 1 (Fail)
//Storyboard Layer 2 (Pass)
//Storyboard Layer 3 (Foreground)
//Storyboard Layer 4 (Overlay)
//Storyboard Sound Samples

[TimingPoints]
615,297.029702970297,4,2,1,5,1,0
10119,-100,4,2,1,25,0,0
19624,-400,4,2,1,70,0,0
29129,-200,4,2,1,70,0,0
40936,-200,4,2,1,70,0,0
41011,-200,4,2,1,70,0,0
46060,-181.818181818182,4,2,1,70,0,0
46357,-166.666666666667,4,2,1,70,0,0
46654,-153.846153846154,4,2,1,70,0,0
46951,-142.857142857143,4,2,1,70,0,0
47248,-133.333333333333,4,2,1,70,0,0
47545,-125,4,2,1,70,0,0
47842,-117.647058823529,4,2,1,70,0,0
56456,-100,4,2,1,70,0,0
104278,-133.333333333333,4,2,1,70,0,0
124179,-83.3333333333333,4,2,1,70,0,0
125367,-100,4,2,2,50,0,0
125961,-83.3333333333333,4,2,2,50,0,0
126555,-83.3333333333333,4,2,1,70,0,0
144377,-83.3333333333333,4,2,2,50,0,0
145565,-83.3333333333333,4,2,1,70,0,0
155367,-200,4,2,1,70,0,0
160119,-133.333333333333,4,2,1,70,0,0
160572,297.029702970297,4,2,1,70,1,0
160720,297.029702970297,4,2,1,70,1,0
161165,-133.333333333333,4,2,1,70,0,0
176462,-100,4,2,1,70,0,0
180026,-100,4,2,1,70,0,0
183591,-100,4,2,2,70,0,0
202601,-100,4,2,1,70,0,0
214482,-133.333333333333,4,2,1,70,0,0
219234,-83.3333333333333,4,2,1,70,0,0
220422,-83.3333333333333,4,2,2,50,0,0
221611,-83.3333333333333,4,2,1,70,0,0
239432,-83.3333333333333,4,2,2,50,0,0
240620,-83.3333333333333,4,2,1,70,0,0
250422,-200,4,2,1,70,0,0
253244,-200,4,2,1,25,0,0
253690,-200,4,2,1,20,0,0
254135,-200,4,2,1,15,0,0
254878,-200,4,2,1,10,0,0
256066,-200,4,2,1,5,0,0

[Colours]
Combo1 : 255,255,0
Combo2 : 25,149,236
Combo3 : 122,0,255
Combo4 : 149,77,209
Combo5 : 7,218,218
Combo6 : 255,16,16
Combo7 : 251,0,147
Combo8 : 0,255,0

[HitObjects]
88,254,19624,6,0,L|82:310,3,50,4|0|0|0,0:0|0:0|0:0|0:0,0:0:0:0:
138,356,20813,1,2,0:0:0:0:
196,304,21110,1,0,0:0:0:0:
251,311,21407,1,0,0:0:0:0:
269,330,21704,1,8,0:0:0:0:
345,271,22001,6,0,L|339:221,3,50,4|0|0|0,0:0|0:0|0:0|0:0,0:0:0:0:
282,166,23189,6,0,P|270:134|276:107,1,50,2|0,0:0|0:0,0:0:0:0:
365,103,23783,2,0,P|376:134|370:161,1,50,2|0,0:0|0:0,0:0:0:0:
306,49,24377,6,0,L|300:-1,3,50,4|0|0|0,0:0|0:0|0:0|0:0,0:0:0:0:
225,47,25565,70,0,L|219:97,3,50,2|0|0|8,0:0|0:0|0:0|0:0,0:0:0:0:
256,173,26753,6,0,P|256:197|245:220,1,50,4|0,0:0|0:0,0:0:0:0:
153,204,27347,2,0,P|152:179|162:156,1,50,4|0,0:0|0:0,0:0:0:0:
260,187,27941,6,0,P|260:211|249:234,1,50,4|0,0:0|0:0,0:0:0:0:
157,218,28535,2,0,P|156:193|166:170,1,50,4|0,0:0|0:0,0:0:0:0:
199,319,29129,6,0,L|202:370,1,50,6|0,0:0|0:0,0:0:0:0:
283,334,29426,2,0,L|285:284,1,50,2|0,0:0|0:0,0:0:0:0:
360,323,29723,2,0,L|363:374,1,50,2|0,0:0|0:0,0:0:0:0:
444,338,30020,2,0,L|446:288,1,50,10|0,0:0|0:0,0:0:0:0:
267,204,30317,70,0,P|261:173|266:146,1,50,6|0,0:0|0:0,0:0:0:0:
343,100,30615,2,0,P|372:110|393:128,1,50,2|0,0:0|0:0,0:0:0:0:
398,220,30912,2,0,P|374:240|348:249,1,50,2|0,0:0|0:0,0:0:0:0:
335,179,31209,1,10,0:0:0:0:
335,179,31357,1,0,0:0:0:0:
270,76,31506,6,0,L|267:18,1,50,6|0,0:0|0:0,0:0:0:0:
192,64,31803,2,0,L|189:113,1,50,2|0,0:0|0:0,0:0:0:0:
112,78,32100,2,0,L|109:20,1,50,2|0,0:0|0:0,0:0:0:0:
34,66,32397,2,0,L|31:115,1,50,10|0,0:0|0:0,0:0:0:0:
35,233,32694,6,0,P|42:257|56:278,1,50,6|0,0:0|0:0,0:0:0:0:
156,287,32991,2,0,P|173:269|185:246,1,50,2|0,0:0|0:0,0:0:0:0:
143,158,33288,2,0,P|119:152|95:153,1,50,2|0,0:0|0:0,0:0:0:0:
111,231,33585,1,4,0:0:0:0:
111,231,33733,1,4,0:0:0:0:
95,357,33882,5,8,0:0:0:0:
168,346,34030,1,0,0:0:0:0:
239,370,34179,1,0,0:0:0:0:
313,365,34327,1,0,0:0:0:0:
377,326,34476,1,8,0:0:0:0:
385,251,34624,1,0,0:0:0:0:
332,198,34773,70,0,L|299:174,3,25
404,178,35070,2,0,L|441:161,3,25,8|0|0|0,0:0|0:0|0:0|0:0,0:0:0:0:
385,251,35367,2,0,L|380:291,3,25
313,318,35664,5,8,0:0:0:0:
282,329,35738,1,0,0:0:0:0:
249,325,35813,1,0,0:0:0:0:
221,307,35887,1,0,0:0:0:0:
216,318,35961,5,0,0:0:0:0:
199,303,36035,1,0,0:0:0:0:
191,284,36110,1,0,0:0:0:0:
192,262,36184,1,0,0:0:0:0:
202,238,36258,5,4,0:0:0:0:
249,230,36332,1,0,0:0:0:0:
280,203,36407,1,0,0:0:0:0:
289,171,36481,1,0,0:0:0:0:
282,139,36555,1,0,0:0:0:0:
261,123,36629,1,0,0:0:0:0:
238,118,36704,1,0,0:0:0:0:
217,125,36778,1,0,0:0:0:0:
203,137,36852,1,4,0:0:0:0:
200,155,36926,1,0,0:0:0:0:
204,165,37001,1,0,0:0:0:0:
211,169,37075,1,0,0:0:0:0:
223,170,37149,1,0,0:0:0:0:
232,167,37223,1,0,0:0:0:0:
239,160,37298,1,0,0:0:0:0:
241,153,37372,1,0,0:0:0:0:
240,145,37446,69,4,0:0:0:0:
281,124,37520,1,0,0:0:0:0:
326,132,37595,1,0,0:0:0:0:
358,157,37669,1,0,0:0:0:0:
394,169,37743,1,4,0:0:0:0:
433,166,37817,1,0,0:0:0:0:
461,142,37892,1,0,0:0:0:0:
465,111,37966,1,0,0:0:0:0:
456,89,38040,1,4,0:0:0:0:
436,77,38115,1,0,0:0:0:0:
421,78,38189,1,0,0:0:0:0:
412,85,38263,1,0,0:0:0:0:
408,92,38337,1,4,0:0:0:0:
408,98,38412,1,0,0:0:0:0:
409,102,38486,1,0,0:0:0:0:
412,105,38560,1,0,0:0:0:0:
414,108,38634,1,12,0:0:0:0:
256,192,38709,12,0,40936,0:0:0:0:
96,123,41011,101,2,0:0:0:0:
93,197,41110,1,2,0:0:0:0:
90,271,41209,1,2,0:0:0:0:
87,345,41308,1,2,0:0:0:0:
69,359,41902,101,2,0:0:0:0:
72,285,42001,1,2,0:0:0:0:
75,211,42100,1,2,0:0:0:0:
78,137,42199,1,2,0:0:0:0:
416,123,43387,5,2,0:0:0:0:
419,197,43486,1,2,0:0:0:0:
422,271,43585,1,2,0:0:0:0:
425,345,43684,1,2,0:0:0:0:
443,359,44278,101,2,0:0:0:0:
440,285,44377,1,2,0:0:0:0:
437,211,44476,1,2,0:0:0:0:
434,137,44575,1,2,0:0:0:0:
256,192,44872,12,0,45466,0:0:0:0:
49,86,45763,22,0,L|14:75,3,25,12|0|0|0,0:0|0:0|0:0|0:0,0:0:0:0:
128,117,46060,2,0,L|163:106,3,27.5
57,168,46357,2,0,L|22:157,3,29.9999999999999,8|0|0|0,0:0|0:0|0:0|0:0,0:0:0:0:
130,196,46654,2,0,L|165:185,3,32.5
61,247,46951,2,0,L|26:236,3,35,8|0|0|0,0:0|0:0|0:0|0:0,0:0:0:0:
134,275,47248,2,0,L|169:264,3,37.5000000000001
61,331,47545,2,0,L|20:318,3,40,8|0|0|0,0:0|0:0|0:0|0:0,0:0:0:0:
144,363,47842,2,0,L|184:350,3,42.5000000000001
243,295,48139,5,12,0:0:0:0:
276,272,48214,1,0,0:0:0:0:
307,272,48288,1,0,0:0:0:0:
328,281,48362,1,0,0:0:0:0:
341,293,48436,1,0,0:0:0:0:
346,304,48511,1,0,0:0:0:0:
346,315,48585,1,0,0:0:0:0:
341,324,48659,1,0,0:0:0:0:
332,331,48733,5,8,0:0:0:0:
367,350,48808,1,0,0:0:0:0:
400,347,48882,1,0,0:0:0:0:
422,335,48956,1,0,0:0:0:0:
429,319,49030,1,0,0:0:0:0:
431,306,49105,1,0,0:0:0:0:
427,296,49179,1,0,0:0:0:0:
422,290,49253,1,0,0:0:0:0:
414,282,49327,5,8,0:0:0:0:
441,243,49402,1,0,0:0:0:0:
439,201,49476,1,0,0:0:0:0:
429,174,49550,1,0,0:0:0:0:
418,160,49624,1,0,0:0:0:0:
408,149,49699,1,0,0:0:0:0:
404,140,49773,1,0,0:0:0:0:
404,131,49847,1,0,0:0:0:0:
409,124,49921,69,8,0:0:0:0:
364,158,49996,1,0,0:0:0:0:
323,157,50070,1,0,0:0:0:0:
296,146,50144,1,0,0:0:0:0:
281,135,50218,1,0,0:0:0:0:
271,125,50293,1,0,0:0:0:0:
261,121,50367,1,0,0:0:0:0:
253,121,50441,1,0,0:0:0:0:
244,125,50515,5,12,0:0:0:0:
257,162,50590,1,0,0:0:0:0:
249,193,50664,1,0,0:0:0:0:
235,211,50738,1,0,0:0:0:0:
220,220,50813,1,0,0:0:0:0:
208,224,50887,1,0,0:0:0:0:
198,220,50961,1,0,0:0:0:0:
189,213,51035,1,0,0:0:0:0:
185,203,51110,5,8,0:0:0:0:
158,243,51184,1,0,0:0:0:0:
160,286,51258,1,0,0:0:0:0:
170,313,51332,1,0,0:0:0:0:
181,328,51407,1,0,0:0:0:0:
191,339,51481,1,0,0:0:0:0:
196,348,51555,1,0,0:0:0:0:
196,357,51629,1,0,0:0:0:0:
190,364,51704,5,8,0:0:0:0:
226,384,51778,1,0,0:0:0:0:
260,381,51852,1,0,0:0:0:0:
282,369,51926,1,0,0:0:0:0:
289,352,52001,1,0,0:0:0:0:
291,339,52075,1,0,0:0:0:0:
287,329,52149,1,0,0:0:0:0:
282,323,52223,1,0,0:0:0:0:
274,314,52298,69,8,0:0:0:0:
320,349,52372,1,0,0:0:0:0:
362,348,52446,1,0,0:0:0:0:
390,337,52520,1,0,0:0:0:0:
405,326,52595,1,0,0:0:0:0:
415,315,52669,1,0,0:0:0:0:
425,311,52743,1,0,0:0:0:0:
433,311,52817,1,0,0:0:0:0:
440,315,52892,5,12,0:0:0:0:
388,291,52966,1,0,0:0:0:0:
360,245,53040,1,0,0:0:0:0:
365,207,53115,1,0,0:0:0:0:
391,183,53189,1,0,0:0:0:0:
417,179,53263,1,0,0:0:0:0:
435,189,53337,1,0,0:0:0:0:
440,203,53412,1,0,0:0:0:0:
440,212,53486,5,8,0:0:0:0:
482,177,53560,1,0,0:0:0:0:
500,126,53634,1,0,0:0:0:0:
485,89,53709,1,0,0:0:0:0:
455,72,53783,1,0,0:0:0:0:
428,74,53857,1,0,0:0:0:0:
412,89,53931,1,0,0:0:0:0:
412,103,54006,1,0,0:0:0:0:
416,112,54080,5,12,0:0:0:0:
366,109,54154,1,0,0:0:0:0:
316,107,54228,1,2,0:0:0:0:
266,105,54303,1,0,0:0:0:0:
272,115,54377,69,2,0:0:0:0:
222,112,54451,1,0,0:0:0:0:
172,110,54525,1,2,0:0:0:0:
122,108,54600,1,0,0:0:0:0:
108,122,54674,5,6,0:0:0:0:
77,160,54748,1,0,0:0:0:0:
71,209,54822,1,2,0:0:0:0:
92,253,54897,1,0,0:0:0:0:
108,246,54971,5,2,0:0:0:0:
138,284,55045,1,0,0:0:0:0:
144,333,55119,1,2,0:0:0:0:
123,377,55194,1,0,0:0:0:0:
108,377,55268,5,8,0:0:0:0:
256,192,55342,12,0,56382,0:0:0:0:
452,282,56456,70,0,L|459:228,3,50,8|0|0|0,0:0|0:0|0:0|0:0,0:0:0:0:
382,322,56753,2,0,L|388:371,3,50
319,271,57050,2,0,L|326:217,3,50
249,311,57347,2,0,L|255:360,3,50,8|0|0|0,0:0|0:0|0:0|0:0,0:0:0:0:
181,244,57644,1,8,0:0:0:0:
256,192,57718,12,0,58758,0:0:0:0:
60,102,58832,6,0,L|53:156,3,50,8|0|0|0,0:0|0:0|0:0|0:0,0:0:0:0:
130,62,59129,2,0,L|123:12,3,50
193,113,59426,2,0,L|186:167,3,50
263,73,59723,2,0,L|256:23,3,50,8|0|0|0,0:0|0:0|0:0|0:0,0:0:0:0:
331,140,60020,1,8,0:0:0:0:
256,192,60095,12,0,61134,0:0:0:0:
109,189,61209,6,0,L|97:131,3,50,8|0|0|0,0:0|0:0|0:0|0:0,0:0:0:0:
54,279,61506,2,0,L|-4:291,3,50
143,336,61803,2,0,L|155:394,3,50
198,246,62100,2,0,L|256:234,3,50,8|0|0|0,0:0|0:0|0:0|0:0,0:0:0:0:
127,263,62397,1,8,0:0:0:0:
256,192,62471,12,8,63585,0:0:0:0:
256,192,63659,12,0,64699,0:0:0:0:
436,330,64773,6,0,L|497:338,3,50,12|0|0|0,0:0|0:0|0:0|0:0,0:0:0:0:
358,286,65070,2,0,L|297:294,3,50,8|0|0|0,0:0|0:0|0:0|0:0,0:0:0:0:
436,245,65367,2,0,L|497:253,3,50,8|0|0|0,0:0|0:0|0:0|0:0,0:0:0:0:
358,201,65664,2,0,L|297:209,3,50,8|0|0|0,0:0|0:0|0:0|0:0,0:0:0:0:
438,148,65961,69,6,0:0:0:0:
400,112,66035,1,0,0:0:0:0:
352,104,66110,1,0,0:0:0:0:
304,116,66184,1,0,0:0:0:0:
267,149,66258,5,2,0:0:0:0:
242,177,66332,1,0,0:0:0:0:
208,191,66407,1,0,0:0:0:0:
170,190,66481,1,0,0:0:0:0:
138,172,66555,5,2,0:0:0:0:
124,193,66629,1,0,0:0:0:0:
118,217,66704,1,0,0:0:0:0:
121,242,66778,1,0,0:0:0:0:
132,264,66852,5,2,0:0:0:0:
136,275,66926,1,0,0:0:0:0:
138,287,67001,1,0,0:0:0:0:
138,300,67075,1,0,0:0:0:0:
136,312,67149,70,0,L|71:317,3,50,12|0|0|0,0:0|0:0|0:0|0:0,0:0:0:0:
217,384,67446,2,0,L|152:379,3,50,8|0|0|0,0:0|0:0|0:0|0:0,0:0:0:0:
270,303,67743,2,0,L|205:308,3,50,8|0|0|0,0:0|0:0|0:0|0:0,0:0:0:0:
351,375,68040,2,0,L|286:370,3,50,8|0|0|0,0:0|0:0|0:0|0:0,0:0:0:0:
431,338,68337,5,6,0:0:0:0:
470,307,68412,1,0,0:0:0:0:
488,261,68486,1,0,0:0:0:0:
481,212,68560,1,0,0:0:0:0:
450,174,68634,5,2,0:0:0:0:
426,145,68709,1,0,0:0:0:0:
418,109,68783,1,0,0:0:0:0:
426,73,68857,1,0,0:0:0:0:
450,44,68931,5,2,0:0:0:0:
428,32,69006,1,0,0:0:0:0:
404,26,69080,1,0,0:0:0:0:
379,27,69154,1,0,0:0:0:0:
355,37,69228,69,2,0:0:0:0:
343,42,69303,1,0,0:0:0:0:
331,45,69377,1,0,0:0:0:0:
319,45,69451,1,0,0:0:0:0:
304,45,69525,6,0,L|308:-5,3,50,12|0|0|0,0:0|0:0|0:0|0:0,0:0:0:0:
251,110,69822,2,0,L|255:160,3,50,8|0|0|0,0:0|0:0|0:0|0:0,0:0:0:0:
197,49,70119,2,0,L|201:-1,3,50,8|0|0|0,0:0|0:0|0:0|0:0,0:0:0:0:
144,114,70416,2,0,L|148:164,3,50,8|0|0|0,0:0|0:0|0:0|0:0,0:0:0:0:
91,37,70714,5,8,0:0:0:0:
51,67,70788,1,0,0:0:0:0:
33,113,70862,1,4,0:0:0:0:
40,162,70936,1,0,0:0:0:0:
71,200,71011,5,8,0:0:0:0:
95,229,71085,1,0,0:0:0:0:
103,265,71159,1,4,0:0:0:0:
95,301,71233,1,0,0:0:0:0:
71,330,71308,69,8,0:0:0:0:
93,342,71382,1,0,0:0:0:0:
117,348,71456,1,4,0:0:0:0:
142,347,71530,1,0,0:0:0:0:
167,338,71605,5,8,0:0:0:0:
178,332,71679,1,0,0:0:0:0:
190,329,71753,1,4,0:0:0:0:
202,329,71827,1,0,0:0:0:0:
218,333,71902,5,4,0:0:0:0:
256,363,71976,1,0,0:0:0:0:
306,366,72050,1,0,0:0:0:0:
348,340,72124,1,0,0:0:0:0:
368,295,72199,1,0,0:0:0:0:
360,247,72273,1,0,0:0:0:0:
326,212,72347,1,0,0:0:0:0:
278,202,72421,1,0,0:0:0:0:
272,214,72496,5,4,0:0:0:0:
310,244,72570,1,0,0:0:0:0:
360,247,72644,1,0,0:0:0:0:
402,221,72718,1,0,0:0:0:0:
422,176,72793,1,0,0:0:0:0:
414,128,72867,1,0,0:0:0:0:
380,93,72941,1,0,0:0:0:0:
332,83,73015,1,0,0:0:0:0:
289,105,73090,69,4,0:0:0:0:
278,112,73164,1,0,0:0:0:0:
268,118,73238,1,0,0:0:0:0:
256,122,73313,1,0,0:0:0:0:
244,125,73387,1,0,0:0:0:0:
231,126,73461,1,0,0:0:0:0:
219,124,73535,1,0,0:0:0:0:
207,122,73610,1,0,0:0:0:0:
195,117,73684,1,4,0:0:0:0:
184,111,73758,1,0,0:0:0:0:
174,103,73832,1,0,0:0:0:0:
166,94,73907,1,0,0:0:0:0:
158,84,73981,2,0,L|149:191,1,100
113,369,74278,5,4,0:0:0:0:
205,236,74426,1,2,0:0:0:0:
201,285,74501,1,2,0:0:0:0:
198,335,74575,1,2,0:0:0:0:
282,263,74723,1,2,0:0:0:0:
280,292,74798,1,2,0:0:0:0:
278,322,74872,1,2,0:0:0:0:
357,279,75020,1,2,0:0:0:0:
356,297,75095,1,2,0:0:0:0:
354,315,75169,1,2,0:0:0:0:
434,295,75317,1,2,0:0:0:0:
434,306,75392,1,2,0:0:0:0:
432,316,75466,85,14,0:0:0:0:
463,295,75540,1,0,0:0:0:0:
480,262,75615,1,0,0:0:0:0:
478,225,75689,1,0,0:0:0:0:
459,194,75763,1,0,0:0:0:0:
439,162,75837,1,0,0:0:0:0:
438,125,75912,1,0,0:0:0:0:
455,92,75986,1,0,0:0:0:0:
486,72,76060,101,2,0:0:0:0:
318,1,76283,1,0,0:0:0:0:
316,25,76357,1,0,0:0:0:0:
466,0,76506,1,2,0:0:0:0:
250,85,76654,6,0,P|309:116|364:102,1,100,4|2,0:0|0:0,0:0:0:0:
240,3,76951,1,2,0:0:0:0:
208,12,77025,1,0,0:0:0:0:
184,35,77100,1,2,0:0:0:0:
171,65,77174,1,2,0:0:0:0:
156,68,77248,101,2,0:0:0:0:
152,100,77322,1,0,0:0:0:0:
166,131,77397,1,2,0:0:0:0:
190,152,77471,1,2,0:0:0:0:
187,168,77545,5,2,0:0:0:0:
215,182,77619,1,0,0:0:0:0:
249,180,77694,1,2,0:0:0:0:
277,164,77768,1,2,0:0:0:0:
274,149,77842,102,0,L|268:252,1,100,6|2,0:0|0:0,0:0:0:0:
162,328,78139,6,0,P|214:345|267:326,1,100,2|0,0:0|0:0,0:0:0:0:
100,284,78436,1,0,0:0:0:0:
100,284,78511,2,0,P|89:313|88:337,2,50,2|0|2,0:0|0:0|0:0,0:0:0:0:
148,221,78733,2,0,P|96:204|43:223,1,100
214,271,79030,102,0,L|226:139,1,100,14|0,0:0|0:0,0:0:0:0:
213,164,79253,1,0,0:0:0:0:
203,155,79327,1,2,0:0:0:0:
135,49,79476,1,2,0:0:0:0:
132,87,79550,1,0,0:0:0:0:
130,125,79624,1,2,0:0:0:0:
261,37,79773,2,0,L|191:46,1,50,2|0,0:0|0:0,0:0:0:0:
55,69,79921,1,2,0:0:0:0:
52,107,79996,1,2,0:0:0:0:
50,145,80070,1,2,0:0:0:0:
211,258,80218,5,10,0:0:0:0:
211,258,80293,2,0,P|153:271|110:241,1,100
278,215,80515,1,10,0:0:0:0:
278,215,80590,2,0,P|291:273|261:316,1,100
235,148,80813,1,10,0:0:0:0:
235,148,80887,2,0,P|293:135|336:165,1,100
168,191,81110,1,10,0:0:0:0:
168,191,81184,2,0,P|155:133|185:90,1,100
244,65,81407,101,6,0:0:0:0:
393,231,81555,2,0,L|399:171,1,50,2|0,0:0|0:0,0:0:0:0:
338,33,81704,2,0,L|346:96,1,50,2|2,0:0|0:0,0:0:0:0:
310,262,81852,5,2,0:0:0:0:
332,295,81926,1,0,0:0:0:0:
357,312,82001,1,2,0:0:0:0:
382,320,82075,1,2,0:0:0:0:
402,320,82149,1,2,0:0:0:0:
415,317,82223,1,0,0:0:0:0:
424,314,82298,1,2,0:0:0:0:
431,309,82372,1,2,0:0:0:0:
438,306,82446,1,2,0:0:0:0:
443,301,82520,1,0,0:0:0:0:
448,296,82595,101,6,0:0:0:0:
441,293,82669,1,0,0:0:0:0:
428,286,82743,1,0,0:0:0:0:
419,275,82817,1,0,0:0:0:0:
415,259,82892,1,2,0:0:0:0:
414,241,82966,1,2,0:0:0:0:
422,222,83040,1,2,0:0:0:0:
434,205,83115,1,0,0:0:0:0:
441,182,83189,5,6,0:0:0:0:
442,147,83263,1,2,0:0:0:0:
419,118,83337,1,2,0:0:0:0:
376,101,83412,1,0,0:0:0:0:
325,112,83486,1,0,0:0:0:0:
301,161,83560,1,0,0:0:0:0:
322,214,83634,1,0,0:0:0:0:
383,241,83709,1,0,0:0:0:0:
452,196,83783,101,4,0:0:0:0:
374,355,83931,1,2,0:0:0:0:
378,306,84006,1,2,0:0:0:0:
381,256,84080,1,2,0:0:0:0:
297,328,84228,1,2,0:0:0:0:
299,299,84303,1,2,0:0:0:0:
301,269,84377,1,2,0:0:0:0:
222,312,84525,1,2,0:0:0:0:
223,294,84600,1,2,0:0:0:0:
225,276,84674,1,2,0:0:0:0:
145,296,84822,1,2,0:0:0:0:
145,285,84897,1,2,0:0:0:0:
145,271,84971,6,0,L|85:277,3,50,14|0|0|0,0:0|0:0|0:0|0:0,0:0:0:0:
0,204,85268,2,0,L|60:210,3,50
188,206,85565,102,0,P|204:159|195:111,1,100,2|0,0:0|0:0,0:0:0:0:
83,140,85788,1,2,0:0:0:0:
83,140,85862,2,0,P|109:153|141:152,1,50
308,93,86011,2,0,P|281:79|249:80,1,50,2|0,0:0|0:0,0:0:0:0:
115,253,86159,1,4,0:0:0:0:
145,320,86308,6,0,L|147:377,1,50,2|2,0:0|0:0,0:0:0:0:
201,225,86456,2,0,L|202:175,1,50,2|0,0:0|0:0,0:0:0:0:
234,335,86605,1,2,0:0:0:0:
268,354,86679,1,2,0:0:0:0:
294,354,86753,1,2,0:0:0:0:
315,348,86827,1,0,0:0:0:0:
327,338,86902,1,2,0:0:0:0:
341,331,86976,1,2,0:0:0:0:
356,332,87050,1,2,0:0:0:0:
368,338,87124,1,0,0:0:0:0:
375,344,87199,1,2,0:0:0:0:
381,351,87273,1,2,0:0:0:0:
383,358,87347,101,12,0:0:0:0:
374,350,87421,1,2,0:0:0:0:
365,335,87496,1,2,0:0:0:0:
360,316,87570,1,0,0:0:0:0:
365,293,87644,1,2,0:0:0:0:
382,267,87718,1,2,0:0:0:0:
392,232,87793,1,2,0:0:0:0:
384,191,87867,1,0,0:0:0:0:
354,151,87941,5,12,0:0:0:0:
383,157,88015,2,0,L|457:169,1,50,10|0,0:0|0:0,0:0:0:0:
386,76,88164,1,0,0:0:0:0:
415,82,88238,2,0,L|489:94,1,50,8|0,0:0|0:0,0:0:0:0:
444,9,88387,2,0,L|518:21,1,50,8|0,0:0|0:0,0:0:0:0:
294,83,88535,101,8,0:0:0:0:
209,105,88684,2,0,L|208:155,2,50,0|0|10,0:0|0:0|0:0,0:0:0:0:
310,236,88907,1,2,0:0:0:0:
274,224,88981,1,2,0:0:0:0:
237,227,89055,1,2,0:0:0:0:
203,243,89129,2,0,P|217:303|196:345,1,100,10|2,0:0|0:0,0:0:0:0:
139,200,89352,1,2,0:0:0:0:
103,188,89426,1,10,0:0:0:0:
66,191,89501,1,2,0:0:0:0:
32,207,89575,2,0,P|40:237|26:283,1,50,2|0,0:0|0:0,0:0:0:0:
119,372,89723,5,14,0:0:0:0:
253,384,89872,1,2,0:0:0:0:
332,334,90020,1,10,0:0:0:0:
348,260,90169,1,2,0:0:0:0:
333,227,90317,101,14,0:0:0:0:
297,201,90392,1,0,0:0:0:0:
263,197,90466,1,0,0:0:0:0:
242,211,90540,1,0,0:0:0:0:
231,227,90615,1,8,0:0:0:0:
230,241,90689,1,0,0:0:0:0:
235,250,90763,1,0,0:0:0:0:
243,257,90837,1,0,0:0:0:0:
250,260,90912,5,12,0:0:0:0:
289,230,90986,1,0,0:0:0:0:
305,184,91060,1,0,0:0:0:0:
292,136,91134,1,0,0:0:0:0:
255,105,91209,1,0,0:0:0:0:
206,100,91283,1,0,0:0:0:0:
163,123,91357,1,0,0:0:0:0:
141,167,91431,1,0,0:0:0:0:
150,185,91506,101,12,0:0:0:0:
189,155,91580,1,0,0:0:0:0:
205,109,91654,1,0,0:0:0:0:
192,61,91728,1,0,0:0:0:0:
155,30,91803,1,0,0:0:0:0:
106,25,91877,1,0,0:0:0:0:
63,48,91951,1,0,0:0:0:0:
41,92,92025,1,0,0:0:0:0:
53,107,92100,6,0,L|119:100,3,50,12|0|0|0,0:0|0:0|0:0|0:0,0:0:0:0:
166,211,92397,1,8,0:0:0:0:
179,231,92471,1,0,0:0:0:0:
186,255,92545,1,0,0:0:0:0:
185,280,92619,1,0,0:0:0:0:
176,303,92694,101,14,0:0:0:0:
210,289,92768,1,0,0:0:0:0:
247,290,92842,1,2,0:0:0:0:
280,307,92916,1,0,0:0:0:0:
303,337,92991,5,10,0:0:0:0:
289,289,93065,1,0,0:0:0:0:
299,241,93139,1,2,0:0:0:0:
330,202,93214,1,0,0:0:0:0:
375,181,93288,5,10,0:0:0:0:
25,82,94476,5,0,0:0:0:0:
375,181,95367,1,8,0:0:0:0:
375,181,95664,5,6,0:0:0:0:
136,19,96852,1,2,0:0:0:0:
375,181,97743,1,8,0:0:0:0:
375,181,98040,69,6,0:0:0:0:
380,195,98189,1,2,0:0:0:0:
381,212,98337,1,2,0:0:0:0:
374,231,98486,1,2,0:0:0:0:
364,247,98634,1,2,0:0:0:0:
355,270,98783,1,2,0:0:0:0:
358,296,98931,1,2,0:0:0:0:
392,328,99080,1,0,0:0:0:0:
451,336,99228,101,6,0:0:0:0:
442,281,99377,1,2,0:0:0:0:
395,220,99525,1,2,0:0:0:0:
303,209,99674,1,2,0:0:0:0:
232,274,99822,1,2,0:0:0:0:
134,299,99971,1,2,0:0:0:0:
46,239,100119,1,2,0:0:0:0:
35,127,100268,1,0,0:0:0:0:
141,31,100416,5,6,0:0:0:0:
174,14,100491,1,0,0:0:0:0:
212,14,100565,1,2,0:0:0:0:
246,28,100639,1,0,0:0:0:0:
271,56,100714,1,2,0:0:0:0:
296,84,100788,1,0,0:0:0:0:
330,98,100862,1,2,0:0:0:0:
367,97,100936,1,0,0:0:0:0:
369,82,101011,101,6,0:0:0:0:
342,56,101085,1,0,0:0:0:0:
309,40,101159,1,2,0:0:0:0:
271,41,101233,1,0,0:0:0:0:
239,56,101308,1,2,0:0:0:0:
203,71,101382,1,0,0:0:0:0:
166,71,101456,1,2,0:0:0:0:
133,55,101530,1,0,0:0:0:0:
137,40,101605,5,4,0:0:0:0:
105,60,101679,1,0,0:0:0:0:
85,91,101753,1,0,0:0:0:0:
78,127,101827,1,0,0:0:0:0:
85,139,101902,101,4,0:0:0:0:
116,159,101976,1,0,0:0:0:0:
136,190,102050,1,0,0:0:0:0:
143,226,102124,1,0,0:0:0:0:
130,261,102199,6,0,L|104:280,5,33.3333333333333,2|0|0|2|0|0,0:0|0:0|0:0|0:0|0:0|0:0,0:0:0:0:
48,311,102496,1,2,0:0:0:0:
401,340,102793,101,0,0:0:0:0:
327,343,102892,1,0,0:0:0:0:
253,346,102991,1,0,0:0:0:0:
179,349,103090,1,0,0:0:0:0:
165,367,103684,5,2,0:0:0:0:
239,364,103783,1,0,0:0:0:0:
313,361,103882,1,0,0:0:0:0:
387,358,103981,1,2,0:0:0:0:
336,137,104278,102,0,P|356:188|337:240,1,112.5,8|0,0:0|0:0,0:0:0:0:
184,153,104575,2,0,P|218:109|272:100,1,112.5,8|0,0:0|0:0,0:0:0:0:
275,275,104872,2,0,P|220:266|184:224,1,112.5,8|0,0:0|0:0,0:0:0:0:
266,188,105169,5,2,0:0:0:0:
340,191,105268,1,0,0:0:0:0:
414,194,105367,1,0,0:0:0:0:
488,197,105466,1,2,0:0:0:0:
502,215,106060,101,2,0:0:0:0:
428,212,106159,1,0,0:0:0:0:
354,209,106258,1,0,0:0:0:0:
278,158,106357,1,2,0:0:0:0:
128,191,106654,6,0,P|107:233|131:303,1,112.5,8|0,0:0|0:0,0:0:0:0:
204,166,106951,2,0,P|178:126|105:112,1,112.5,8|0,0:0|0:0,0:0:0:0:
187,244,107248,2,0,P|233:241|282:185,1,112.5,8|0,0:0|0:0,0:0:0:0:
279,113,107545,101,2,0:0:0:0:
205,116,107644,1,0,0:0:0:0:
131,119,107743,1,0,0:0:0:0:
57,122,107842,1,2,0:0:0:0:
43,140,108436,5,2,0:0:0:0:
117,137,108535,1,0,0:0:0:0:
191,134,108634,1,0,0:0:0:0:
265,131,108733,1,2,0:0:0:0:
416,218,109030,102,0,P|436:166|417:114,1,112.5,8|0,0:0|0:0,0:0:0:0:
264,202,109327,2,0,P|298:245|352:254,1,112.5,8|0,0:0|0:0,0:0:0:0:
355,80,109624,2,0,P|300:88|264:130,1,112.5,8|0,0:0|0:0,0:0:0:0:
346,167,109921,21,6,0:0:0:0:
344,175,109996,1,0,0:0:0:0:
342,186,110070,1,0,0:0:0:0:
343,197,110144,1,0,0:0:0:0:
347,208,110218,1,0,0:0:0:0:
353,219,110293,1,0,0:0:0:0:
360,232,110367,1,0,0:0:0:0:
366,246,110441,1,0,0:0:0:0:
369,261,110515,1,2,0:0:0:0:
367,277,110590,1,0,0:0:0:0:
364,293,110664,1,0,0:0:0:0:
353,309,110738,1,0,0:0:0:0:
333,317,110813,1,0,0:0:0:0:
310,319,110887,1,0,0:0:0:0:
286,309,110961,1,0,0:0:0:0:
271,285,111035,1,0,0:0:0:0:
270,255,111110,5,4,0:0:0:0:
284,227,111184,1,0,0:0:0:0:
286,194,111258,1,0,0:0:0:0:
270,163,111332,1,0,0:0:0:0:
236,146,111407,1,0,0:0:0:0:
197,153,111481,1,0,0:0:0:0:
170,183,111555,1,0,0:0:0:0:
170,226,111629,1,0,0:0:0:0:
202,259,111704,1,2,0:0:0:0:
249,263,111778,1,0,0:0:0:0:
292,243,111852,1,0,0:0:0:0:
336,222,111926,1,0,0:0:0:0:
387,222,112001,1,0,0:0:0:0:
431,251,112075,1,0,0:0:0:0:
442,307,112149,1,0,0:0:0:0:
411,357,112223,1,0,0:0:0:0:
349,359,112298,6,0,L|355:318,3,37.5000000000001,12|0|2|0,0:0|0:0|0:0|0:0,0:0:0:0:
270,280,112595,2,0,L|275:317,3,37.5000000000001,2|0|2|0,0:0|0:0|0:0|0:0,0:0:0:0:
193,371,112892,2,0,L|199:330,3,37.5000000000001,2|0|2|0,0:0|0:0|0:0|0:0,0:0:0:0:
114,292,113189,2,0,L|119:329,3,37.5000000000001,2|0|2|0,0:0|0:0|0:0|0:0,0:0:0:0:
38,239,113486,6,0,L|-10:248,3,37.5000000000001,12|0|2|0,0:0|0:0|0:0|0:0,0:0:0:0:
123,199,113783,2,0,L|171:208,3,37.5000000000001,2|0|2|0,0:0|0:0|0:0|0:0,0:0:0:0:
36,151,114080,2,0,L|-12:160,3,37.5000000000001,2|0|2|0,0:0|0:0|0:0|0:0,0:0:0:0:
121,111,114377,2,0,L|169:120,3,37.5000000000001,2|0|2|0,0:0|0:0|0:0|0:0,0:0:0:0:
63,47,114674,69,12,0:0:0:0:
94,27,114748,1,0,0:0:0:0:
131,20,114822,1,2,0:0:0:0:
167,29,114897,1,0,0:0:0:0:
197,50,114971,1,2,0:0:0:0:
227,71,115045,1,0,0:0:0:0:
263,79,115119,1,2,0:0:0:0:
300,73,115194,1,0,0:0:0:0:
304,59,115268,5,2,0:0:0:0:
339,69,115342,1,0,0:0:0:0:
366,95,115416,1,2,0:0:0:0:
377,131,115491,1,0,0:0:0:0:
371,167,115565,1,2,0:0:0:0:
349,197,115639,1,0,0:0:0:0:
316,214,115714,1,2,0:0:0:0:
279,213,115788,1,0,0:0:0:0:
272,200,115862,5,12,0:0:0:0:
234,202,115936,1,0,0:0:0:0:
197,204,116011,1,2,0:0:0:0:
159,206,116085,1,0,0:0:0:0:
147,193,116159,5,6,0:0:0:0:
109,195,116233,1,0,0:0:0:0:
72,197,116308,1,2,0:0:0:0:
34,199,116382,1,0,0:0:0:0:
24,188,116456,69,6,0:0:0:0:
0,230,116530,1,0,0:0:0:0:
1,279,116605,1,0,0:0:0:0:
30,319,116679,1,0,0:0:0:0:
44,309,116753,6,0,L|80:316,3,37.5000000000001,2|2|2|2,0:0|0:0|0:0|0:0,0:0:0:0:
157,287,117050,5,10,0:0:0:0:
256,192,117124,12,0,119352,0:0:0:0:
327,168,119426,6,0,P|275:151|211:182,1,112.5,2|0,0:0|0:0,0:0:0:0:
211,241,119723,2,0,L|206:290,1,37.5000000000001,2|0,0:0|0:0,0:0:0:0:
308,370,119872,2,0,L|303:321,1,37.5000000000001,2|0,0:0|0:0,0:0:0:0:
400,295,120020,69,2,0:0:0:0:
419,254,120095,1,0,0:0:0:0:
412,215,120169,1,0,0:0:0:0:
397,179,120243,1,0,0:0:0:0:
404,143,120317,1,2,0:0:0:0:
424,117,120392,1,0,0:0:0:0:
442,111,120466,1,0,0:0:0:0:
457,114,120540,1,0,0:0:0:0:
469,122,120615,5,6,0:0:0:0:
478,140,120689,1,0,0:0:0:0:
475,168,120763,1,0,0:0:0:0:
456,192,120837,1,0,0:0:0:0:
416,204,120912,1,0,0:0:0:0:
365,190,120986,1,0,0:0:0:0:
323,154,121060,1,0,0:0:0:0:
268,139,121134,1,0,0:0:0:0:
217,166,121209,1,8,0:0:0:0:
193,224,121283,1,0,0:0:0:0:
222,285,121357,1,0,0:0:0:0:
290,309,121431,1,0,0:0:0:0:
312,325,121803,37,14,0:0:0:0:
352,335,121877,1,0,0:0:0:0:
392,326,121951,1,0,0:0:0:0:
425,301,122025,1,0,0:0:0:0:
443,263,122100,1,8,0:0:0:0:
441,221,122174,1,0,0:0:0:0:
422,185,122248,1,0,0:0:0:0:
388,161,122322,1,0,0:0:0:0:
346,154,122397,1,8,0:0:0:0:
307,167,122471,1,0,0:0:0:0:
277,197,122545,1,0,0:0:0:0:
247,227,122619,1,0,0:0:0:0:
208,240,122694,1,8,0:0:0:0:
167,233,122768,1,0,0:0:0:0:
133,210,122842,1,0,0:0:0:0:
116,170,122916,1,0,0:0:0:0:
118,128,122991,5,14,0:0:0:0:
158,138,123065,1,0,0:0:0:0:
191,163,123139,1,0,0:0:0:0:
213,199,123214,1,0,0:0:0:0:
221,240,123288,1,8,0:0:0:0:
213,281,123362,1,0,0:0:0:0:
190,316,123436,1,0,0:0:0:0:
156,340,123511,1,0,0:0:0:0:
115,350,123585,1,8,0:0:0:0:
74,344,123659,1,0,0:0:0:0:
38,324,123733,1,0,0:0:0:0:
12,291,123808,1,0,0:0:0:0:
0,251,123882,1,8,0:0:0:0:
2,210,123956,1,0,0:0:0:0:
20,172,124030,1,0,0:0:0:0:
50,142,124105,1,0,0:0:0:0:
90,130,124179,102,0,B|134:222|52:217|110:331,1,180,4|0,0:0|0:0,0:0:0:0:
223,268,124476,2,0,P|192:257|152:261,1,60,2|0,0:0|0:0,0:0:0:0:
50,368,124624,2,0,P|81:379|121:375,1,60,2|0,0:0|0:0,0:0:0:0:
243,363,124773,1,10,0:0:0:0:
292,333,124847,1,0,0:0:0:0:
318,292,124921,1,0,0:0:0:0:
323,256,124996,1,0,0:0:0:0:
318,226,125070,1,10,0:0:0:0:
304,205,125144,1,0,0:0:0:0:
290,197,125218,1,0,0:0:0:0:
277,193,125293,1,0,0:0:0:0:
267,191,125367,38,0,P|237:189|212:201,3,50,4|0|0|0,0:0|0:0|0:0|0:0,0:0:0:0:
169,144,125664,2,0,P|150:167|145:194,3,50,4|0|0|0,0:0|0:0|0:0|0:0,0:0:0:0:
169,267,125961,102,0,P|139:268|101:251,3,60,4|0|0|0,0:0|0:0|0:0|0:0,0:0:0:0:
61,316,126258,2,0,P|42:292|35:251,3,60,4|0|0|0,0:0|0:0|0:0|0:0,0:0:0:0:
28,138,126555,85,14,0:0:0:0:
43,99,126629,1,0,0:0:0:0:
71,68,126704,1,0,0:0:0:0:
108,47,126778,1,0,0:0:0:0:
149,40,126852,1,8,0:0:0:0:
190,47,126926,1,0,0:0:0:0:
227,68,127001,1,0,0:0:0:0:
254,99,127075,1,0,0:0:0:0:
270,138,127149,1,8,0:0:0:0:
285,176,127223,1,0,0:0:0:0:
313,208,127298,1,0,0:0:0:0:
349,228,127372,1,0,0:0:0:0:
391,235,127446,1,8,0:0:0:0:
432,228,127520,1,0,0:0:0:0:
468,208,127595,1,0,0:0:0:0:
496,176,127669,1,0,0:0:0:0:
512,138,127743,5,14,0:0:0:0:
477,114,127817,1,0,0:0:0:0:
434,107,127892,1,0,0:0:0:0:
396,123,127966,1,0,0:0:0:0:
369,154,128040,1,8,0:0:0:0:
359,194,128114,1,0,0:0:0:0:
369,236,128189,1,0,0:0:0:0:
378,277,128263,1,0,0:0:0:0:
369,317,128337,1,8,0:0:0:0:
340,349,128412,1,0,0:0:0:0:
302,365,128486,1,0,0:0:0:0:
261,362,128560,1,0,0:0:0:0:
225,342,128634,1,8,0:0:0:0:
202,306,128709,1,0,0:0:0:0:
198,265,128783,1,0,0:0:0:0:
212,226,128857,1,0,0:0:0:0:
241,197,128931,102,0,P|266:214|282:239,3,60,12|0|0|0,0:0|0:0|0:0|0:0,0:0:0:0:
359,225,129228,2,0,P|359:254|347:282,1,60,10|0,0:0|0:0,0:0:0:0:
410,332,129377,2,0,P|385:349|356:355,1,60,2|0,0:0|0:0,0:0:0:0:
244,350,129525,5,10,0:0:0:0:
203,343,129600,1,0,0:0:0:0:
173,319,129674,1,0,0:0:0:0:
158,296,129748,1,0,0:0:0:0:
156,274,129822,1,10,0:0:0:0:
159,258,129897,1,0,0:0:0:0:
164,248,129971,1,0,0:0:0:0:
173,241,130045,1,0,0:0:0:0:
181,236,130119,101,4,0:0:0:0:
199,285,130194,1,0,0:0:0:0:
182,327,130268,1,0,0:0:0:0:
150,337,130342,1,0,0:0:0:0:
120,334,130416,1,8,0:0:0:0:
99,321,130491,1,0,0:0:0:0:
80,315,130565,1,0,0:0:0:0:
65,317,130639,1,0,0:0:0:0:
56,325,130714,6,0,L|64:390,3,60,14|0|0|0,0:0|0:0|0:0|0:0,0:0:0:0:
135,261,131011,2,0,L|142:201,3,60,8|0|0|0,0:0|0:0|0:0|0:0,0:0:0:0:
0,45,131308,101,12,0:0:0:0:
5,86,131382,1,0,0:0:0:0:
24,123,131456,1,0,0:0:0:0:
55,151,131530,1,0,0:0:0:0:
93,168,131605,1,8,0:0:0:0:
135,170,131679,1,0,0:0:0:0:
175,158,131753,1,0,0:0:0:0:
208,133,131827,1,0,0:0:0:0:
231,98,131902,1,8,0:0:0:0:
253,62,131976,1,0,0:0:0:0:
287,37,132050,1,0,0:0:0:0:
327,25,132124,1,0,0:0:0:0:
368,27,132199,1,8,0:0:0:0:
407,43,132273,1,0,0:0:0:0:
438,72,132347,1,0,0:0:0:0:
456,109,132421,1,0,0:0:0:0:
443,118,132496,5,12,0:0:0:0:
467,151,132570,1,0,0:0:0:0:
474,192,132644,1,0,0:0:0:0:
463,232,132718,1,0,0:0:0:0:
436,264,132793,1,8,0:0:0:0:
397,280,132867,1,0,0:0:0:0:
356,278,132941,1,0,0:0:0:0:
319,258,133015,1,0,0:0:0:0:
294,225,133090,1,8,0:0:0:0:
287,184,133164,1,0,0:0:0:0:
298,144,133238,1,0,0:0:0:0:
308,103,133313,1,0,0:0:0:0:
301,62,133387,1,8,0:0:0:0:
277,29,133461,1,0,0:0:0:0:
240,9,133535,1,0,0:0:0:0:
198,9,133610,1,0,0:0:0:0:
188,0,133684,101,4,0:0:0:0:
162,32,133758,1,0,0:0:0:0:
156,74,133832,1,0,0:0:0:0:
170,113,133907,1,0,0:0:0:0:
201,141,133981,1,8,0:0:0:0:
214,180,134055,1,0,0:0:0:0:
208,221,134129,1,0,0:0:0:0:
184,255,134204,1,0,0:0:0:0:
170,251,134278,5,4,0:0:0:0:
137,276,134352,1,0,0:0:0:0:
96,280,134426,1,0,0:0:0:0:
58,262,134501,1,0,0:0:0:0:
36,227,134575,1,8,0:0:0:0:
36,186,134649,1,0,0:0:0:0:
58,150,134723,1,0,0:0:0:0:
95,132,134798,1,0,0:0:0:0:
105,142,134872,101,12,0:0:0:0:
146,143,134946,1,0,0:0:0:0:
188,144,135020,1,0,0:0:0:0:
230,145,135095,1,0,0:0:0:0:
239,156,135169,5,12,0:0:0:0:
280,157,135243,1,0,0:0:0:0:
322,158,135317,1,0,0:0:0:0:
364,159,135392,1,0,0:0:0:0:
371,169,135466,101,12,0:0:0:0:
412,170,135540,1,0,0:0:0:0:
454,171,135614,1,0,0:0:0:0:
496,172,135689,1,0,0:0:0:0:
484,192,136060,5,12,0:0:0:0:
499,230,136134,1,0,0:0:0:0:
497,271,136209,1,0,0:0:0:0:
479,309,136283,1,0,0:0:0:0:
447,337,136357,1,8,0:0:0:0:
408,351,136431,1,0,0:0:0:0:
366,350,136506,1,0,0:0:0:0:
328,334,136580,1,0,0:0:0:0:
298,305,136654,1,8,0:0:0:0:
280,267,136728,1,0,0:0:0:0:
278,225,136803,1,0,0:0:0:0:
291,185,136877,1,0,0:0:0:0:
317,153,136951,1,8,0:0:0:0:
343,120,137025,1,0,0:0:0:0:
356,81,137100,1,0,0:0:0:0:
353,39,137174,1,0,0:0:0:0:
336,2,137248,101,12,0:0:0:0:
295,10,137322,1,0,0:0:0:0:
259,32,137397,1,0,0:0:0:0:
232,63,137471,1,0,0:0:0:0:
216,102,137545,1,8,0:0:0:0:
213,144,137619,1,0,0:0:0:0:
225,184,137694,1,0,0:0:0:0:
248,219,137768,1,0,0:0:0:0:
281,244,137842,1,8,0:0:0:0:
321,258,137916,1,0,0:0:0:0:
363,258,137991,1,0,0:0:0:0:
402,245,138065,1,0,0:0:0:0:
436,219,138139,1,8,0:0:0:0:
459,185,138214,1,0,0:0:0:0:
470,144,138288,1,0,0:0:0:0:
468,103,138362,1,0,0:0:0:0:
454,64,138436,6,0,B|358:101|384:32|266:68,1,180,12|0,0:0|0:0,0:0:0:0:
323,194,138733,2,0,P|333:166|329:136,1,60,10|0,0:0|0:0,0:0:0:0:
208,24,138882,2,0,P|197:51|201:81,1,60,2|0,0:0|0:0,0:0:0:0:
240,211,139030,101,10,0:0:0:0:
272,256,139105,1,0,0:0:0:0:
319,275,139179,1,0,0:0:0:0:
359,273,139253,1,0,0:0:0:0:
386,260,139327,1,10,0:0:0:0:
402,245,139402,1,0,0:0:0:0:
409,230,139476,1,0,0:0:0:0:
410,218,139550,1,0,0:0:0:0:
407,208,139624,5,4,0:0:0:0:
365,202,139699,1,0,0:0:0:0:
327,218,139773,1,0,0:0:0:0:
304,252,139847,1,0,0:0:0:0:
301,294,139921,1,8,0:0:0:0:
320,330,139996,1,0,0:0:0:0:
355,352,140070,1,0,0:0:0:0:
397,352,140144,1,0,0:0:0:0:
429,323,140218,101,4,0:0:0:0:
392,305,140293,1,0,0:0:0:0:
351,302,140367,1,0,0:0:0:0:
311,314,140441,1,0,0:0:0:0:
279,341,140515,1,8,0:0:0:0:
237,352,140590,1,0,0:0:0:0:
196,349,140664,1,0,0:0:0:0:
159,331,140738,1,0,0:0:0:0:
170,319,140813,5,12,0:0:0:0:
138,292,140887,1,0,0:0:0:0:
119,254,140961,1,0,0:0:0:0:
115,213,141035,1,0,0:0:0:0:
128,172,141110,1,8,0:0:0:0:
155,141,141184,1,0,0:0:0:0:
193,121,141258,1,0,0:0:0:0:
234,118,141332,1,0,0:0:0:0:
274,130,141407,1,8,0:0:0:0:
306,158,141481,1,0,0:0:0:0:
326,195,141555,1,0,0:0:0:0:
329,237,141629,1,0,0:0:0:0:
332,279,141704,1,8,0:0:0:0:
352,316,141778,1,0,0:0:0:0:
384,344,141852,1,0,0:0:0:0:
424,356,141926,1,0,0:0:0:0:
431,345,142001,101,12,0:0:0:0:
433,303,142075,1,0,0:0:0:0:
421,263,142149,1,0,0:0:0:0:
396,230,142223,1,0,0:0:0:0:
360,208,142298,1,8,0:0:0:0:
319,201,142372,1,0,0:0:0:0:
278,209,142446,1,0,0:0:0:0:
242,231,142520,1,0,0:0:0:0:
217,264,142595,1,8,0:0:0:0:
191,297,142669,1,0,0:0:0:0:
156,319,142743,1,0,0:0:0:0:
115,327,142817,1,0,0:0:0:0:
74,319,142892,1,8,0:0:0:0:
38,298,142966,1,0,0:0:0:0:
12,265,143040,1,0,0:0:0:0:
0,225,143114,1,0,0:0:0:0:
7,185,143189,6,0,B|103:148|77:217|195:181,1,180,4|0,0:0|0:0,0:0:0:0:
138,55,143486,2,0,P|127:82|131:112,1,60,2|0,0:0|0:0,0:0:0:0:
253,225,143634,2,0,P|263:197|259:167,1,60,2|0,0:0|0:0,0:0:0:0:
221,65,143783,101,8,0:0:0:0:
253,20,143857,1,0,0:0:0:0:
300,1,143931,1,0,0:0:0:0:
340,3,144006,1,0,0:0:0:0:
367,16,144080,1,8,0:0:0:0:
383,31,144154,1,0,0:0:0:0:
390,46,144228,1,0,0:0:0:0:
392,57,144303,1,0,0:0:0:0:
390,67,144377,37,4,0:0:0:0:
349,97,144451,1,0,0:0:0:0:
334,145,144525,1,0,0:0:0:0:
351,194,144600,1,0,0:0:0:0:
393,222,144674,101,4,0:0:0:0:
419,257,144748,1,0,0:0:0:0:
427,301,144822,1,0,0:0:0:0:
413,343,144897,1,0,0:0:0:0:
382,375,144971,5,4,0:0:0:0:
349,353,145045,1,0,0:0:0:0:
311,342,145119,1,0,0:0:0:0:
271,345,145194,1,0,0:0:0:0:
237,365,145268,101,4,0:0:0:0:
207,378,145342,1,0,0:0:0:0:
174,382,145416,1,0,0:0:0:0:
142,372,145491,1,0,0:0:0:0:
136,357,145565,85,12,0:0:0:0:
182,343,145639,1,0,0:0:0:0:
214,307,145714,1,0,0:0:0:0:
219,258,145788,1,0,0:0:0:0:
199,215,145862,1,8,0:0:0:0:
158,190,145936,1,0,0:0:0:0:
112,177,146011,1,0,0:0:0:0:
80,141,146085,1,0,0:0:0:0:
72,93,146159,1,8,0:0:0:0:
92,50,146233,1,0,0:0:0:0:
132,23,146308,1,0,0:0:0:0:
180,23,146382,1,0,0:0:0:0:
221,48,146456,1,8,0:0:0:0:
241,91,146530,1,0,0:0:0:0:
249,139,146605,1,0,0:0:0:0:
281,175,146679,1,0,0:0:0:0:
327,188,146753,5,12,0:0:0:0:
373,174,146827,1,0,0:0:0:0:
405,138,146902,1,0,0:0:0:0:
410,89,146976,1,0,0:0:0:0:
390,46,147050,1,8,0:0:0:0:
349,21,147124,1,0,0:0:0:0:
301,21,147199,1,0,0:0:0:0:
261,48,147273,1,0,0:0:0:0:
241,91,147347,1,8,0:0:0:0:
249,139,147421,1,0,0:0:0:0:
281,175,147496,1,0,0:0:0:0:
322,200,147570,1,0,0:0:0:0:
342,243,147644,1,8,0:0:0:0:
337,292,147718,1,0,0:0:0:0:
305,328,147793,1,0,0:0:0:0:
259,342,147867,1,0,0:0:0:0:
247,330,147941,102,0,P|233:303|233:270,3,60,14|0|2|0,0:0|0:0|0:0|0:0,0:0:0:0:
159,250,148238,2,0,P|173:223|200:204,1,60,10|0,0:0|0:0,0:0:0:0:
167,136,148387,2,0,P|197:132|228:143,1,60,2|0,0:0|0:0,0:0:0:0:
312,217,148535,1,14,0:0:0:0:
353,228,148610,1,0,0:0:0:0:
389,225,148684,1,2,0:0:0:0:
416,207,148758,1,0,0:0:0:0:
425,188,148832,1,10,0:0:0:0:
427,170,148907,1,0,0:0:0:0:
423,156,148981,1,2,0:0:0:0:
415,151,149055,1,0,0:0:0:0:
409,148,149129,5,14,0:0:0:0:
367,189,149204,1,0,0:0:0:0:
360,241,149278,1,2,0:0:0:0:
384,281,149352,1,0,0:0:0:0:
414,299,149426,1,10,0:0:0:0:
441,302,149501,1,0,0:0:0:0:
454,294,149575,1,2,0:0:0:0:
459,286,149649,1,0,0:0:0:0:
464,279,149723,102,0,L|470:212,3,60,10|8|0|8,0:0|0:0|0:0|0:0,0:0:0:0:
375,320,150020,2,0,L|380:379,3,60,8|0|8|0,0:0|0:0|0:0|0:0,0:0:0:0:
309,181,150317,1,12,0:0:0:0:
285,146,150392,1,0,0:0:0:0:
250,122,150466,1,2,0:0:0:0:
209,114,150540,1,0,0:0:0:0:
168,122,150614,1,2,0:0:0:0:
133,146,150689,1,0,0:0:0:0:
110,180,150763,1,2,0:0:0:0:
101,222,150837,1,0,0:0:0:0:
110,263,150912,1,2,0:0:0:0:
133,298,150986,1,0,0:0:0:0:
168,321,151060,1,2,0:0:0:0:
209,329,151134,1,0,0:0:0:0:
250,321,151209,1,10,0:0:0:0:
285,298,151283,1,0,0:0:0:0:
309,263,151357,1,2,0:0:0:0:
317,222,151431,1,0,0:0:0:0:
298,217,151506,5,6,0:0:0:0:
280,255,151580,1,0,0:0:0:0:
280,296,151654,1,2,0:0:0:0:
297,334,151728,1,0,0:0:0:0:
328,362,151803,1,2,0:0:0:0:
367,376,151877,1,0,0:0:0:0:
409,372,151951,1,2,0:0:0:0:
445,351,152025,1,0,0:0:0:0:
470,318,152100,1,2,0:0:0:0:
479,277,152174,1,0,0:0:0:0:
471,236,152248,1,2,0:0:0:0:
447,202,152322,1,0,0:0:0:0:
422,167,152397,1,10,0:0:0:0:
414,127,152471,1,0,0:0:0:0:
423,86,152545,1,2,0:0:0:0:
448,52,152619,1,0,0:0:0:0:
456,64,152694,101,6,0:0:0:0:
413,105,152768,1,0,0:0:0:0:
356,118,152842,1,2,0:0:0:0:
300,98,152916,1,0,0:0:0:0:
263,52,152991,1,2,0:0:0:0:
207,31,153065,1,0,0:0:0:0:
150,45,153139,1,2,0:0:0:0:
107,86,153214,1,0,0:0:0:0:
124,97,153288,5,6,0:0:0:0:
170,133,153362,1,0,0:0:0:0:
182,190,153436,1,2,0:0:0:0:
153,242,153511,1,0,0:0:0:0:
99,263,153585,1,2,0:0:0:0:
43,244,153659,1,0,0:0:0:0:
13,193,153733,1,2,0:0:0:0:
23,135,153808,1,0,0:0:0:0:
39,146,153882,101,6,0:0:0:0:
98,148,153956,1,0,0:0:0:0:
158,151,154030,1,2,0:0:0:0:
218,154,154105,1,0,0:0:0:0:
230,172,154179,5,6,0:0:0:0:
289,174,154253,1,0,0:0:0:0:
349,177,154327,1,2,0:0:0:0:
409,180,154402,1,0,0:0:0:0:
427,166,154476,102,0,P|438:136|433:105,1,60,6|0,0:0|0:0,0:0:0:0:
341,16,154624,5,2,0:0:0:0:
336,87,154699,1,2,0:0:0:0:
332,159,154773,1,2,0:0:0:0:
328,231,154847,1,2,0:0:0:0:
324,303,154921,1,2,0:0:0:0:
320,375,154996,1,2,0:0:0:0:
303,384,155070,101,0,0:0:0:0:
119,117,155367,54,0,P|55:87|86:159,1,175
142,189,155961,5,0,0:0:0:0:
144,212,156110,1,0,0:0:0:0:
139,235,156407,5,0,0:0:0:0:
145,166,156555,1,0,0:0:0:0:
127,144,156852,5,0,0:0:0:0:
157,256,157001,1,0,0:0:0:0:
109,274,157298,69,0,0:0:0:0:
176,126,157446,1,0,0:0:0:0:
95,108,157743,5,0,0:0:0:0:
191,292,157892,1,0,0:0:0:0:
66,302,158189,5,0,0:0:0:0:
218,98,158337,1,0,0:0:0:0:
22,110,158634,5,0,0:0:0:0:
263,288,158783,1,0,0:0:0:0:
15,316,159080,69,0,0:0:0:0:
268,82,159228,1,0,0:0:0:0:
78,39,159525,5,0,0:0:0:0:
205,359,159822,5,0,0:0:0:0:
218,341,160119,6,0,P|294:318|370:357,1,150
435,382,160572,1,0,0:0:0:0:
471,306,160720,1,0,0:0:0:0:
447,226,160868,1,0,0:0:0:0:
340,243,161017,69,0,0:0:0:0:
377,168,161165,2,0,P|416:141|521:175,2,150
324,277,162056,1,0,0:0:0:0:
312,293,162502,6,0,P|273:320|168:286,2,150
139,205,163393,2,0,L|131:359,1,150
236,97,163987,2,0,L|244:251,1,150
185,27,164581,6,0,B|298:-11|294:88|415:34,1,225.000008583069
419,22,165323,1,0,0:0:0:0:
475,91,165472,2,0,L|529:99,3,37.5000014305115
404,164,165769,6,0,P|344:127|263:155,2,150
438,247,166660,1,0,0:0:0:0:
243,225,166957,69,0,0:0:0:0:
254,236,167254,2,0,L|246:357,1,112.500004291535
178,361,167551,2,0,L|224:365,3,37.5000014305115
112,303,167848,2,0,L|73:306,3,37.5000014305115
196,246,168145,5,0,0:0:0:0:
256,192,168220,12,0,169333,0:0:0:0:
421,86,169630,5,0,0:0:0:0:
417,182,169779,1,0,0:0:0:0:
426,194,170076,1,0,0:0:0:0:
443,209,170373,6,0,P|382:181|287:251,1,187.500007152558
298,257,170819,1,0,0:0:0:0:
249,358,171116,1,0,0:0:0:0:
165,304,171413,69,0,0:0:0:0:
173,287,171487,1,0,0:0:0:0:
177,269,171561,1,0,0:0:0:0:
177,250,171635,1,0,0:0:0:0:
172,232,171710,5,0,0:0:0:0:
43,347,172007,1,0,0:0:0:0:
48,338,172304,1,0,0:0:0:0:
93,148,172601,1,0,0:0:0:0:
90,160,172898,1,0,0:0:0:0:
55,325,173195,1,0,0:0:0:0:
27,87,173492,5,0,0:0:0:0:
104,37,173640,1,0,0:0:0:0:
126,48,173715,1,0,0:0:0:0:
150,50,173789,1,0,0:0:0:0:
175,44,173863,1,0,0:0:0:0:
199,38,173937,1,0,0:0:0:0:
223,40,174012,1,0,0:0:0:0:
246,52,174086,6,0,P|219:115|275:197,2,150,4|0|0,0:0|0:0|0:0,0:0:0:0:
322,201,174977,1,0,0:0:0:0:
195,241,175274,70,0,L|28:230,1,150,4|0,0:0|0:0,0:0:0:0:
44,361,175868,2,0,L|211:350,1,150,4|0,0:0|0:0,0:0:0:0:
278,287,176462,6,0,L|291:390,3,100,4|0|0|0,0:0|0:0|0:0|0:0,0:0:0:0:
350,251,177056,2,0,L|361:148,3,100
422,314,177650,6,0,L|368:324,3,50,4|0|0|0,0:0|0:0|0:0|0:0,0:0:0:0:
475,260,177947,2,0,L|531:271,3,50
389,221,178244,5,4,0:0:0:0:
370,188,178319,1,0,0:0:0:0:
371,151,178393,1,0,0:0:0:0:
391,120,178467,1,0,0:0:0:0:
411,88,178541,1,0,0:0:0:0:
411,51,178616,1,0,0:0:0:0:
389,12,178690,1,0,0:0:0:0:
362,0,178764,1,0,0:0:0:0:
323,1,179135,69,4,0:0:0:0:
302,10,179284,1,0,0:0:0:0:
288,35,179432,1,0,0:0:0:0:
292,71,179581,1,0,0:0:0:0:
316,96,179729,1,0,0:0:0:0:
345,153,179878,1,0,0:0:0:0:
308,223,180026,6,0,P|297:251|297:281,3,50,4|0|0|0,0:0|0:0|0:0|0:0,0:0:0:0:
228,301,180323,2,0,P|244:326|269:343,3,50,4|0|0|0,0:0|0:0|0:0|0:0,0:0:0:0:
339,337,180620,5,4,0:0:0:0:
375,360,180695,1,0,0:0:0:0:
418,362,180769,1,0,0:0:0:0:
456,341,180843,1,0,0:0:0:0:
477,303,180918,1,4,0:0:0:0:
476,260,180992,1,0,0:0:0:0:
452,224,181066,1,0,0:0:0:0:
413,205,181140,1,0,0:0:0:0:
370,209,181215,5,4,0:0:0:0:
512,384,181363,1,2,0:0:0:0:
479,103,181660,69,2,0:0:0:0:
283,107,181957,1,2,0:0:0:0:
400,286,182254,1,2,0:0:0:0:
403,301,182403,5,0,0:0:0:0:
406,318,182551,1,0,0:0:0:0:
453,218,182700,2,0,P|388:198|311:256,1,150
292,313,182997,1,0,0:0:0:0:
257,331,183071,1,0,0:0:0:0:
225,325,183145,1,0,0:0:0:0:
205,309,183220,1,0,0:0:0:0:
192,294,183294,1,0,0:0:0:0:
175,287,183368,1,0,0:0:0:0:
159,288,183442,1,0,0:0:0:0:
151,294,183517,1,0,0:0:0:0:
145,300,183591,85,4,0:0:0:0:
91,240,183690,1,0,0:0:0:0:
86,160,183789,1,0,0:0:0:0:
131,94,183888,1,0,0:0:0:0:
112,92,184185,101,4,0:0:0:0:
67,158,184284,1,0,0:0:0:0:
72,238,184383,1,0,0:0:0:0:
126,298,184482,1,0,0:0:0:0:
144,287,184779,5,4,0:0:0:0:
215,251,184878,1,0,0:0:0:0:
293,266,184977,1,0,0:0:0:0:
340,330,185076,101,4,0:0:0:0:
273,287,185175,1,0,0:0:0:0:
247,212,185274,1,0,0:0:0:0:
279,139,185373,5,4,0:0:0:0:
275,218,185472,1,0,0:0:0:0:
223,278,185571,1,0,0:0:0:0:
144,287,185670,101,4,0:0:0:0:
215,251,185769,1,0,0:0:0:0:
293,266,185868,1,0,0:0:0:0:
340,330,185967,5,4,0:0:0:0:
395,272,186066,1,0,0:0:0:0:
396,192,186165,1,0,0:0:0:0:
360,120,186264,1,0,0:0:0:0:
376,118,186561,101,4,0:0:0:0:
412,190,186660,1,0,0:0:0:0:
411,270,186759,1,0,0:0:0:0:
356,328,186858,1,0,0:0:0:0:
340,330,187155,5,4,0:0:0:0:
293,266,187254,1,0,0:0:0:0:
215,251,187353,1,0,0:0:0:0:
144,287,187452,101,4,0:0:0:0:
223,278,187551,1,0,0:0:0:0:
275,218,187650,1,0,0:0:0:0:
279,139,187749,5,4,0:0:0:0:
247,212,187848,1,0,0:0:0:0:
273,287,187947,1,0,0:0:0:0:
340,330,188046,101,4,0:0:0:0:
293,266,188145,1,0,0:0:0:0:
215,251,188244,1,0,0:0:0:0:
144,287,188343,5,4,0:0:0:0:
91,226,188442,1,0,0:0:0:0:
90,146,188541,1,0,0:0:0:0:
126,74,188640,1,0,0:0:0:0:
386,74,188937,101,4,0:0:0:0:
422,146,189036,1,0,0:0:0:0:
421,226,189135,1,0,0:0:0:0:
368,287,189234,1,0,0:0:0:0:
357,265,189531,5,4,0:0:0:0:
277,272,189630,1,0,0:0:0:0:
198,283,189729,1,0,0:0:0:0:
118,292,189828,101,0,0:0:0:0:
197,298,189927,1,0,0:0:0:0:
277,309,190026,1,0,0:0:0:0:
356,319,190125,5,0,0:0:0:0:
188,45,190323,1,0,0:0:0:0:
44,333,190521,1,0,0:0:0:0:
279,189,190720,101,4,0:0:0:0:
351,155,190819,1,0,0:0:0:0:
430,166,190918,1,0,0:0:0:0:
484,224,191017,2,0,L|482:278,3,50
436,151,191314,5,4,0:0:0:0:
360,124,191413,1,0,0:0:0:0:
283,143,191512,1,0,0:0:0:0:
235,207,191611,2,0,L|242:260,3,50
134,285,191908,102,0,P|129:312|138:353,3,50
117,207,192205,2,0,P|92:218|63:249,1,50
165,147,192353,2,0,P|141:133|99:127,1,50
35,158,192502,1,0,0:0:0:0:
18,149,192799,2,0,L|21:89,3,50
84,45,193096,5,4,0:0:0:0:
158,17,193195,1,0,0:0:0:0:
236,33,193294,1,0,0:0:0:0:
285,95,193393,2,0,P|352:126|420:102,1,133.333333333333
356,48,193690,101,4,0:0:0:0:
311,113,193789,1,0,0:0:0:0:
307,193,193888,1,0,0:0:0:0:
355,256,193987,2,0,P|369:328|329:389,1,133.333333333333
296,313,194284,5,4,0:0:0:0:
219,288,194383,1,0,0:0:0:0:
141,306,194482,1,0,0:0:0:0:
93,370,194581,101,4,0:0:0:0:
108,291,194680,1,0,0:0:0:0:
166,236,194779,1,0,0:0:0:0:
245,240,194878,5,4,0:0:0:0:
175,200,194977,1,0,0:0:0:0:
95,211,195076,1,0,0:0:0:0:
55,280,195175,101,4,0:0:0:0:
68,201,195274,1,0,0:0:0:0:
125,145,195373,1,0,0:0:0:0:
204,150,195472,5,4,0:0:0:0:
243,219,195571,1,0,0:0:0:0:
321,235,195670,1,0,0:0:0:0:
394,202,195769,2,0,P|426:146|412:82,1,133.333333333333
352,135,196066,101,4,0:0:0:0:
306,200,196165,1,0,0:0:0:0:
324,277,196264,1,0,0:0:0:0:
384,330,196363,2,0,P|449:335|501:295,1,133.333333333333
429,260,196660,5,4,0:0:0:0:
433,180,196759,1,0,0:0:0:0:
439,100,196858,1,0,0:0:0:0:
446,20,196957,101,4,0:0:0:0:
367,37,197056,1,0,0:0:0:0:
289,54,197155,1,0,0:0:0:0:
210,71,197254,5,4,0:0:0:0:
260,133,197353,1,0,0:0:0:0:
312,193,197452,1,0,0:0:0:0:
372,245,197551,101,4,0:0:0:0:
382,165,197650,1,0,0:0:0:0:
391,85,197749,1,0,0:0:0:0:
400,5,197848,5,4,0:0:0:0:
344,62,197947,1,0,0:0:0:0:
264,68,198046,1,0,0:0:0:0:
198,22,198145,2,0,P|123:16|66:61,1,133.333333333333
71,126,198442,101,4,0:0:0:0:
127,183,198541,1,0,0:0:0:0:
207,189,198640,1,0,0:0:0:0:
273,143,198739,2,0,P|348:137|405:182,1,133.333333333333
435,236,199036,5,4,0:0:0:0:
395,305,199135,1,0,0:0:0:0:
316,320,199234,1,0,0:0:0:0:
257,265,199333,101,4,0:0:0:0:
216,334,199432,1,0,0:0:0:0:
136,332,199531,1,0,0:0:0:0:
78,276,199630,5,0,0:0:0:0:
182,66,199828,1,0,0:0:0:0:
347,237,200026,1,0,0:0:0:0:
100,187,200224,101,4,0:0:0:0:
93,107,200323,1,0,0:0:0:0:
143,45,200422,1,0,0:0:0:0:
222,39,200521,6,0,L|227:98,3,50,4|0|0|0,0:0|0:0|0:0|0:0,0:0:0:0:
319,117,200819,101,4,0:0:0:0:
326,197,200918,1,0,0:0:0:0:
276,259,201017,1,0,0:0:0:0:
197,265,201116,6,0,L|192:206,3,50,4|0|0|0,0:0|0:0|0:0|0:0,0:0:0:0:
86,187,201413,102,0,L|25:193,3,50,4|0|0|0,0:0|0:0|0:0|0:0,0:0:0:0:
162,134,201710,2,0,L|223:140,3,50,4|0|0|0,0:0|0:0|0:0|0:0,0:0:0:0:
75,83,202007,2,0,L|11:88,1,50,4|0,0:0|0:0,0:0:0:0:
168,154,202155,2,0,L|232:159,1,50
26,211,202304,2,0,P|13:264|92:344,1,150
86,334,202601,21,4,0:0:0:0:
256,192,202675,12,0,203715,0:0:0:0:
60,102,203789,6,0,L|53:156,3,50,8|0|0|0,0:0|0:0|0:0|0:0,0:0:0:0:
130,62,204086,2,0,L|124:13,3,50
193,113,204383,2,0,L|186:167,3,50
263,73,204680,2,0,L|257:24,3,50,8|0|0|0,0:0|0:0|0:0|0:0,0:0:0:0:
331,140,204977,1,4,0:0:0:0:
256,192,205051,12,0,206091,0:0:0:0:
452,282,206165,22,0,L|459:228,3,50,8|0|0|0,0:0|0:0|0:0|0:0,0:0:0:0:
382,322,206462,2,0,L|389:372,3,50
319,271,206759,2,0,L|326:217,3,50
249,311,207056,2,0,L|256:361,3,50,8|0|0|0,0:0|0:0|0:0|0:0,0:0:0:0:
165,276,207353,70,0,L|111:285,3,50,4|0|0|0,0:0|0:0|0:0|0:0,0:0:0:0:
123,211,207650,2,0,L|69:200,3,50
105,135,207947,2,0,L|57:107,3,50
114,57,208244,2,0,L|79:14,3,50
186,106,208541,5,4,0:0:0:0:
6,167,208690,2,0,L|8:219,5,50,4|0|0|0|0|0,0:0|0:0|0:0|0:0|0:0|0:0,0:0:0:0:
10,247,209135,21,4,0:0:0:0:
190,308,209284,2,0,L|188:360,5,50,4|0|0|0|2|0,0:0|0:0|0:0|0:0|0:0|0:0,0:0:0:0:
266,373,209729,69,4,0:0:0:0:
309,376,209804,1,0,0:0:0:0:
350,368,209878,1,0,0:0:0:0:
372,351,209952,1,0,0:0:0:0:
384,331,210026,1,0,0:0:0:0:
385,311,210101,1,0,0:0:0:0:
380,295,210175,1,0,0:0:0:0:
368,282,210249,1,0,0:0:0:0:
360,271,210323,1,0,0:0:0:0:
356,258,210398,1,0,0:0:0:0:
360,249,210472,1,0,0:0:0:0:
368,241,210546,1,0,0:0:0:0:
380,240,210620,1,0,0:0:0:0:
387,245,210695,1,0,0:0:0:0:
391,250,210769,1,0,0:0:0:0:
394,256,210843,1,0,0:0:0:0:
395,263,210918,5,4,0:0:0:0:
357,231,210992,1,0,0:0:0:0:
339,184,211066,1,0,0:0:0:0:
347,136,211140,1,0,0:0:0:0:
360,128,211215,21,0,0:0:0:0:
326,127,211289,1,0,0:0:0:0:
293,126,211363,1,0,0:0:0:0:
260,125,211437,1,0,0:0:0:0:
245,137,211512,69,0,0:0:0:0:
211,136,211586,1,0,0:0:0:0:
178,135,211660,1,0,0:0:0:0:
145,134,211734,1,0,0:0:0:0:
130,123,211809,6,0,L|128:73,3,50
125,207,212106,21,0,0:0:0:0:
256,192,212180,12,0,214408,0:0:0:0:
185,216,214482,70,0,P|237:233|301:202,1,112.5,2|0,0:0|0:0,0:0:0:0:
301,143,214779,2,0,L|306:94,1,37.5000000000001,2|0,0:0|0:0,0:0:0:0:
204,14,214927,2,0,L|209:63,1,37.5000000000001,2|0,0:0|0:0,0:0:0:0:
112,89,215076,5,2,0:0:0:0:
93,130,215150,1,0,0:0:0:0:
100,169,215224,1,0,0:0:0:0:
115,205,215299,1,0,0:0:0:0:
108,241,215373,1,2,0:0:0:0:
88,267,215447,1,0,0:0:0:0:
70,273,215521,1,0,0:0:0:0:
55,270,215596,1,0,0:0:0:0:
43,262,215670,21,4,0:0:0:0:
34,244,215744,1,0,0:0:0:0:
37,216,215819,1,0,0:0:0:0:
56,192,215893,1,0,0:0:0:0:
96,180,215967,1,0,0:0:0:0:
147,194,216041,1,0,0:0:0:0:
189,230,216116,1,0,0:0:0:0:
244,245,216190,1,0,0:0:0:0:
295,218,216264,1,8,0:0:0:0:
319,160,216338,1,0,0:0:0:0:
290,99,216413,1,0,0:0:0:0:
222,75,216487,1,0,0:0:0:0:
200,59,216858,5,12,0:0:0:0:
160,49,216932,1,0,0:0:0:0:
120,58,217007,1,0,0:0:0:0:
87,83,217081,1,0,0:0:0:0:
69,121,217155,1,8,0:0:0:0:
71,163,217229,1,0,0:0:0:0:
90,199,217304,1,0,0:0:0:0:
124,223,217378,1,0,0:0:0:0:
166,230,217452,1,8,0:0:0:0:
205,217,217526,1,0,0:0:0:0:
235,187,217601,1,0,0:0:0:0:
265,157,217675,1,0,0:0:0:0:
304,144,217749,1,8,0:0:0:0:
345,151,217823,1,0,0:0:0:0:
379,174,217898,1,0,0:0:0:0:
396,214,217972,1,0,0:0:0:0:
394,256,218046,5,12,0:0:0:0:
354,246,218120,1,0,0:0:0:0:
321,221,218195,1,0,0:0:0:0:
299,185,218269,1,0,0:0:0:0:
291,144,218343,1,8,0:0:0:0:
299,103,218418,1,0,0:0:0:0:
322,68,218492,1,0,0:0:0:0:
356,44,218566,1,0,0:0:0:0:
397,34,218640,1,8,0:0:0:0:
438,40,218715,1,0,0:0:0:0:
474,60,218789,1,0,0:0:0:0:
500,93,218863,1,0,0:0:0:0:
512,133,218937,1,8,0:0:0:0:
510,174,219012,1,0,0:0:0:0:
492,212,219086,1,0,0:0:0:0:
462,242,219160,1,0,0:0:0:0:
422,254,219234,102,0,B|378:162|460:167|402:53,1,180,4|0,0:0|0:0,0:0:0:0:
289,116,219531,2,0,P|320:127|360:123,1,60,2|0,0:0|0:0,0:0:0:0:
462,16,219680,2,0,P|431:5|391:9,1,60,2|0,0:0|0:0,0:0:0:0:
269,21,219828,1,10,0:0:0:0:
220,51,219903,1,0,0:0:0:0:
194,92,219977,1,0,0:0:0:0:
189,128,220051,1,0,0:0:0:0:
194,158,220125,1,10,0:0:0:0:
208,179,220200,1,0,0:0:0:0:
222,187,220274,1,0,0:0:0:0:
235,191,220348,1,0,0:0:0:0:
245,193,220422,38,0,P|275:195|300:183,3,40,4|0|0|0,0:0|0:0|0:0|0:0,0:0:0:0:
343,240,220719,2,0,P|362:217|367:190,3,40,4|0|0|0,0:0|0:0|0:0|0:0,0:0:0:0:
343,117,221017,102,0,P|373:116|411:133,3,60,4|0|0|0,0:0|0:0|0:0|0:0,0:0:0:0:
451,68,221314,2,0,P|470:92|477:133,3,60,4|0|0|0,0:0|0:0|0:0|0:0,0:0:0:0:
484,246,221611,85,12,0:0:0:0:
469,285,221685,1,0,0:0:0:0:
441,316,221759,1,0,0:0:0:0:
404,337,221833,1,0,0:0:0:0:
363,344,221908,1,8,0:0:0:0:
322,337,221982,1,0,0:0:0:0:
285,316,222056,1,0,0:0:0:0:
258,285,222130,1,0,0:0:0:0:
242,246,222205,1,8,0:0:0:0:
227,208,222279,1,0,0:0:0:0:
199,176,222353,1,0,0:0:0:0:
163,156,222427,1,0,0:0:0:0:
121,149,222502,1,8,0:0:0:0:
80,156,222576,1,0,0:0:0:0:
44,176,222650,1,0,0:0:0:0:
16,208,222724,1,0,0:0:0:0:
0,246,222799,5,12,0:0:0:0:
35,270,222873,1,0,0:0:0:0:
78,277,222947,1,0,0:0:0:0:
116,261,223021,1,0,0:0:0:0:
143,230,223096,1,8,0:0:0:0:
153,190,223170,1,0,0:0:0:0:
143,148,223244,1,0,0:0:0:0:
134,107,223319,1,0,0:0:0:0:
143,67,223393,1,8,0:0:0:0:
172,35,223467,1,0,0:0:0:0:
210,19,223541,1,0,0:0:0:0:
251,22,223616,1,0,0:0:0:0:
287,42,223690,1,8,0:0:0:0:
310,78,223764,1,0,0:0:0:0:
314,119,223838,1,0,0:0:0:0:
300,158,223913,1,0,0:0:0:0:
271,187,223987,102,0,P|246:170|230:145,3,60,4|0|0|0,0:0|0:0|0:0|0:0,0:0:0:0:
153,159,224284,2,0,P|153:130|165:102,1,60,10|0,0:0|0:0,0:0:0:0:
102,52,224432,2,0,P|127:35|156:29,1,60,2|0,0:0|0:0,0:0:0:0:
268,34,224581,5,10,0:0:0:0:
309,41,224655,1,0,0:0:0:0:
339,65,224729,1,0,0:0:0:0:
354,88,224804,1,0,0:0:0:0:
356,110,224878,1,10,0:0:0:0:
353,126,224952,1,0,0:0:0:0:
348,136,225026,1,0,0:0:0:0:
339,143,225101,1,0,0:0:0:0:
331,148,225175,101,12,0:0:0:0:
313,99,225249,1,0,0:0:0:0:
330,57,225323,1,0,0:0:0:0:
362,47,225398,1,0,0:0:0:0:
392,50,225472,1,8,0:0:0:0:
413,63,225546,1,0,0:0:0:0:
432,69,225620,1,0,0:0:0:0:
447,67,225695,1,0,0:0:0:0:
456,59,225769,6,0,L|448:-6,3,60,12|0|0|0,0:0|0:0|0:0|0:0,0:0:0:0:
377,123,226066,2,0,L|370:183,3,60,14|0|0|0,0:0|0:0|0:0|0:0,0:0:0:0:
512,339,226363,101,12,0:0:0:0:
507,298,226437,1,0,0:0:0:0:
488,261,226512,1,0,0:0:0:0:
457,233,226586,1,0,0:0:0:0:
419,216,226660,1,8,0:0:0:0:
377,214,226734,1,0,0:0:0:0:
337,226,226809,1,0,0:0:0:0:
304,251,226883,1,0,0:0:0:0:
281,286,226957,1,8,0:0:0:0:
259,322,227031,1,0,0:0:0:0:
225,347,227106,1,0,0:0:0:0:
185,359,227180,1,0,0:0:0:0:
144,357,227254,1,8,0:0:0:0:
105,341,227328,1,0,0:0:0:0:
74,312,227403,1,0,0:0:0:0:
56,275,227477,1,0,0:0:0:0:
69,266,227551,5,4,0:0:0:0:
45,233,227625,1,0,0:0:0:0:
38,192,227700,1,0,0:0:0:0:
49,152,227774,1,0,0:0:0:0:
76,120,227848,1,8,0:0:0:0:
115,104,227922,1,0,0:0:0:0:
156,106,227997,1,0,0:0:0:0:
193,126,228071,1,0,0:0:0:0:
218,159,228145,1,8,0:0:0:0:
225,200,228219,1,0,0:0:0:0:
214,240,228294,1,0,0:0:0:0:
204,281,228368,1,0,0:0:0:0:
211,322,228442,1,8,0:0:0:0:
235,355,228517,1,0,0:0:0:0:
272,375,228591,1,0,0:0:0:0:
314,375,228665,1,0,0:0:0:0:
324,384,228739,101,4,0:0:0:0:
350,352,228814,1,0,0:0:0:0:
356,310,228888,1,0,0:0:0:0:
342,271,228962,1,0,0:0:0:0:
311,243,229036,1,8,0:0:0:0:
298,204,229111,1,0,0:0:0:0:
304,163,229185,1,0,0:0:0:0:
328,129,229259,1,0,0:0:0:0:
342,133,229333,5,4,0:0:0:0:
375,108,229408,1,0,0:0:0:0:
416,104,229482,1,0,0:0:0:0:
454,122,229556,1,0,0:0:0:0:
476,157,229630,1,8,0:0:0:0:
476,198,229705,1,0,0:0:0:0:
454,234,229779,1,0,0:0:0:0:
417,252,229853,1,0,0:0:0:0:
407,242,229927,101,4,0:0:0:0:
366,241,230002,1,0,0:0:0:0:
324,240,230076,1,0,0:0:0:0:
282,239,230150,1,0,0:0:0:0:
273,228,230224,5,4,0:0:0:0:
232,227,230299,1,0,0:0:0:0:
190,226,230373,1,0,0:0:0:0:
148,225,230447,1,0,0:0:0:0:
141,215,230521,101,4,0:0:0:0:
100,214,230596,1,0,0:0:0:0:
58,213,230670,1,0,0:0:0:0:
16,212,230744,1,0,0:0:0:0:
28,192,231116,5,12,0:0:0:0:
13,154,231190,1,0,0:0:0:0:
15,113,231264,1,0,0:0:0:0:
33,75,231338,1,0,0:0:0:0:
65,47,231413,1,8,0:0:0:0:
104,33,231487,1,0,0:0:0:0:
146,34,231561,1,0,0:0:0:0:
184,50,231635,1,0,0:0:0:0:
214,79,231710,1,8,0:0:0:0:
232,117,231784,1,0,0:0:0:0:
234,159,231858,1,0,0:0:0:0:
221,199,231932,1,0,0:0:0:0:
195,231,232007,1,8,0:0:0:0:
169,264,232081,1,0,0:0:0:0:
156,303,232155,1,0,0:0:0:0:
159,345,232229,1,0,0:0:0:0:
176,382,232304,101,12,0:0:0:0:
217,374,232378,1,0,0:0:0:0:
253,352,232452,1,0,0:0:0:0:
280,321,232526,1,0,0:0:0:0:
296,282,232601,1,8,0:0:0:0:
299,240,232675,1,0,0:0:0:0:
287,200,232749,1,0,0:0:0:0:
264,165,232823,1,0,0:0:0:0:
231,140,232898,1,8,0:0:0:0:
191,126,232972,1,0,0:0:0:0:
149,126,233046,1,0,0:0:0:0:
110,139,233120,1,0,0:0:0:0:
76,165,233195,1,8,0:0:0:0:
53,199,233269,1,0,0:0:0:0:
42,240,233343,1,0,0:0:0:0:
44,281,233418,1,0,0:0:0:0:
58,320,233492,6,0,B|154:283|128:352|246:316,1,180,4|0,0:0|0:0,0:0:0:0:
189,190,233789,2,0,P|179:218|183:248,1,60,2|0,0:0|0:0,0:0:0:0:
304,360,233937,2,0,P|315:333|311:303,1,60,2|0,0:0|0:0,0:0:0:0:
272,173,234086,101,10,0:0:0:0:
240,128,234160,1,0,0:0:0:0:
193,109,234234,1,0,0:0:0:0:
153,111,234309,1,0,0:0:0:0:
126,124,234383,1,10,0:0:0:0:
110,139,234457,1,0,0:0:0:0:
103,154,234531,1,0,0:0:0:0:
102,166,234606,1,0,0:0:0:0:
105,176,234680,5,4,0:0:0:0:
147,182,234754,1,0,0:0:0:0:
185,166,234828,1,0,0:0:0:0:
208,132,234903,1,0,0:0:0:0:
211,90,234977,1,8,0:0:0:0:
192,54,235051,1,0,0:0:0:0:
157,32,235125,1,0,0:0:0:0:
115,32,235200,1,0,0:0:0:0:
83,61,235274,101,4,0:0:0:0:
120,79,235348,1,0,0:0:0:0:
161,82,235422,1,0,0:0:0:0:
201,70,235497,1,0,0:0:0:0:
233,43,235571,1,8,0:0:0:0:
275,32,235645,1,0,0:0:0:0:
316,35,235719,1,0,0:0:0:0:
353,53,235794,1,0,0:0:0:0:
342,65,235868,5,12,0:0:0:0:
374,92,235942,1,0,0:0:0:0:
393,130,236017,1,0,0:0:0:0:
397,171,236091,1,0,0:0:0:0:
384,212,236165,1,8,0:0:0:0:
357,243,236239,1,0,0:0:0:0:
319,263,236314,1,0,0:0:0:0:
278,266,236388,1,0,0:0:0:0:
238,254,236462,1,8,0:0:0:0:
206,226,236536,1,0,0:0:0:0:
186,189,236611,1,0,0:0:0:0:
183,147,236685,1,0,0:0:0:0:
180,105,236759,1,8,0:0:0:0:
160,68,236833,1,0,0:0:0:0:
128,40,236908,1,0,0:0:0:0:
88,28,236982,1,0,0:0:0:0:
81,39,237056,101,12,0:0:0:0:
79,81,237130,1,0,0:0:0:0:
91,121,237205,1,0,0:0:0:0:
116,154,237279,1,0,0:0:0:0:
152,176,237353,1,8,0:0:0:0:
193,183,237427,1,0,0:0:0:0:
234,175,237502,1,0,0:0:0:0:
270,153,237576,1,0,0:0:0:0:
295,120,237650,1,8,0:0:0:0:
321,87,237724,1,0,0:0:0:0:
356,65,237799,1,0,0:0:0:0:
397,57,237873,1,0,0:0:0:0:
438,65,237947,1,8,0:0:0:0:
474,86,238021,1,0,0:0:0:0:
500,119,238096,1,0,0:0:0:0:
512,159,238170,1,0,0:0:0:0:
505,199,238244,6,0,B|409:236|435:167|317:203,1,180,4|0,0:0|0:0,0:0:0:0:
374,329,238541,2,0,P|385:302|381:272,1,60,2|0,0:0|0:0,0:0:0:0:
259,159,238690,2,0,P|249:187|253:217,1,60,2|0,0:0|0:0,0:0:0:0:
291,319,238838,101,10,0:0:0:0:
259,364,238913,1,0,0:0:0:0:
212,383,238987,1,0,0:0:0:0:
172,381,239061,1,0,0:0:0:0:
145,368,239135,1,10,0:0:0:0:
129,353,239210,1,0,0:0:0:0:
122,338,239284,1,0,0:0:0:0:
120,327,239358,1,0,0:0:0:0:
122,317,239432,37,4,0:0:0:0:
163,287,239507,1,0,0:0:0:0:
178,239,239581,1,0,0:0:0:0:
161,190,239655,1,0,0:0:0:0:
119,162,239729,101,4,0:0:0:0:
93,127,239804,1,0,0:0:0:0:
85,83,239878,1,0,0:0:0:0:
99,41,239952,1,0,0:0:0:0:
130,9,240026,5,4,0:0:0:0:
163,31,240101,1,0,0:0:0:0:
201,42,240175,1,0,0:0:0:0:
241,39,240249,1,0,0:0:0:0:
275,19,240323,101,4,0:0:0:0:
305,6,240398,1,0,0:0:0:0:
338,2,240472,1,0,0:0:0:0:
370,12,240546,1,0,0:0:0:0:
376,27,240620,85,12,0:0:0:0:
330,41,240695,1,0,0:0:0:0:
298,77,240769,1,0,0:0:0:0:
293,126,240843,1,0,0:0:0:0:
313,169,240918,1,8,0:0:0:0:
354,194,240992,1,0,0:0:0:0:
400,207,241066,1,0,0:0:0:0:
432,243,241140,1,0,0:0:0:0:
440,291,241215,1,8,0:0:0:0:
420,334,241289,1,0,0:0:0:0:
380,361,241363,1,0,0:0:0:0:
332,361,241437,1,0,0:0:0:0:
291,336,241512,1,8,0:0:0:0:
271,293,241586,1,0,0:0:0:0:
263,245,241660,1,0,0:0:0:0:
231,209,241734,1,0,0:0:0:0:
185,196,241809,5,12,0:0:0:0:
139,210,241883,1,0,0:0:0:0:
107,246,241957,1,0,0:0:0:0:
102,295,242031,1,0,0:0:0:0:
122,338,242106,1,8,0:0:0:0:
163,363,242180,1,0,0:0:0:0:
211,363,242254,1,0,0:0:0:0:
251,336,242328,1,0,0:0:0:0:
271,293,242403,1,8,0:0:0:0:
263,245,242477,1,0,0:0:0:0:
231,209,242551,1,0,0:0:0:0:
190,184,242625,1,0,0:0:0:0:
170,141,242700,1,8,0:0:0:0:
175,92,242774,1,0,0:0:0:0:
207,56,242848,1,0,0:0:0:0:
253,42,242922,1,0,0:0:0:0:
265,54,242997,102,0,P|279:81|279:114,3,60,12|0|0|0,0:0|0:0|0:0|0:0,0:0:0:0:
353,134,243294,2,0,P|339:161|312:180,1,60,8|0,0:0|0:0,0:0:0:0:
345,248,243442,2,0,P|315:252|284:241,1,60
200,167,243591,1,8,0:0:0:0:
159,156,243665,1,0,0:0:0:0:
123,159,243739,1,0,0:0:0:0:
96,177,243814,1,0,0:0:0:0:
87,196,243888,1,8,0:0:0:0:
85,214,243962,1,0,0:0:0:0:
89,228,244036,1,0,0:0:0:0:
97,233,244111,1,0,0:0:0:0:
103,236,244185,5,12,0:0:0:0:
145,195,244259,1,0,0:0:0:0:
152,143,244333,1,0,0:0:0:0:
128,103,244408,1,0,0:0:0:0:
98,85,244482,1,8,0:0:0:0:
71,82,244556,1,0,0:0:0:0:
58,90,244630,1,0,0:0:0:0:
53,98,244705,1,0,0:0:0:0:
48,105,244779,102,0,L|42:172,3,60,12|8|0|8,0:0|0:0|0:0|0:0,0:0:0:0:
137,64,245076,2,0,L|132:5,3,60,12|0|8|0,0:0|0:0|0:0|0:0,0:0:0:0:
203,203,245373,1,14,0:0:0:0:
227,238,245447,1,0,0:0:0:0:
262,262,245521,1,10,0:0:0:0:
303,270,245596,1,0,0:0:0:0:
344,262,245670,1,10,0:0:0:0:
379,238,245744,1,0,0:0:0:0:
402,204,245819,1,10,0:0:0:0:
411,162,245893,1,0,0:0:0:0:
402,121,245967,1,10,0:0:0:0:
379,86,246041,1,0,0:0:0:0:
344,63,246116,1,10,0:0:0:0:
303,55,246190,1,0,0:0:0:0:
262,63,246264,1,2,0:0:0:0:
227,86,246338,1,0,0:0:0:0:
203,121,246413,1,0,0:0:0:0:
195,162,246487,1,0,0:0:0:0:
214,167,246561,5,14,0:0:0:0:
232,129,246635,1,0,0:0:0:0:
232,88,246710,1,10,0:0:0:0:
215,50,246784,1,0,0:0:0:0:
184,22,246858,1,10,0:0:0:0:
145,8,246932,1,0,0:0:0:0:
103,12,247007,1,10,0:0:0:0:
67,33,247081,1,0,0:0:0:0:
42,66,247155,1,10,0:0:0:0:
33,107,247229,1,0,0:0:0:0:
41,148,247304,1,10,0:0:0:0:
65,182,247378,1,0,0:0:0:0:
90,217,247452,1,10,0:0:0:0:
98,257,247526,1,0,0:0:0:0:
89,298,247601,1,0,0:0:0:0:
64,332,247675,1,0,0:0:0:0:
56,320,247749,101,14,0:0:0:0:
99,279,247823,1,0,0:0:0:0:
156,266,247898,1,10,0:0:0:0:
212,286,247972,1,0,0:0:0:0:
249,332,248046,1,10,0:0:0:0:
305,353,248120,1,0,0:0:0:0:
362,339,248195,1,10,0:0:0:0:
405,298,248269,1,0,0:0:0:0:
388,287,248343,5,14,0:0:0:0:
342,251,248418,1,0,0:0:0:0:
330,194,248492,1,10,0:0:0:0:
359,142,248566,1,0,0:0:0:0:
413,121,248640,1,10,0:0:0:0:
469,140,248715,1,0,0:0:0:0:
499,191,248789,1,10,0:0:0:0:
489,249,248863,1,0,0:0:0:0:
473,238,248937,101,14,0:0:0:0:
414,236,249012,1,0,0:0:0:0:
354,233,249086,1,10,0:0:0:0:
294,230,249160,1,0,0:0:0:0:
282,212,249234,5,14,0:0:0:0:
223,210,249309,1,0,0:0:0:0:
163,207,249383,1,10,0:0:0:0:
103,204,249457,1,0,0:0:0:0:
85,218,249531,102,0,P|74:248|79:279,1,60,14|0,0:0|0:0,0:0:0:0:
171,368,249680,5,10,0:0:0:0:
176,297,249754,1,2,0:0:0:0:
180,225,249828,1,10,0:0:0:0:
184,153,249903,1,2,0:0:0:0:
188,81,249977,1,10,0:0:0:0:
192,9,250051,1,2,0:0:0:0:
209,0,250125,101,6,0:0:0:0:
393,267,250422,54,0,P|457:297|426:225,1,175
370,195,251017,5,0,0:0:0:0:
368,172,251165,1,0,0:0:0:0:
373,149,251462,5,0,0:0:0:0:
367,218,251611,1,0,0:0:0:0:
385,240,251908,85,0,0:0:0:0:
355,128,252056,1,0,0:0:0:0:
403,110,252353,5,0,0:0:0:0:
336,258,252502,1,0,0:0:0:0:
417,276,252799,5,0,0:0:0:0:
321,92,252947,1,0,0:0:0:0:
446,82,253244,85,0,0:0:0:0:
294,286,253393,1,0,0:0:0:0:
490,274,253690,5,0,0:0:0:0:
249,96,253838,1,0,0:0:0:0:
497,68,254135,5,0,0:0:0:0:
244,302,254284,1,0,0:0:0:0:
434,345,254581,85,0,0:0:0:0:
307,25,254878,2,0,P|261:8|199:25,4,100
