osu file format v14

[General]
AudioFilename: audio.mp3
AudioLeadIn: 0
PreviewTime: 121876
Countdown: 0
SampleSet: Soft
StackLeniency: 0.4
Mode: 0
LetterboxInBreaks: 0
WidescreenStoryboard: 1

[Editor]
Bookmarks: 43436,55287,66407,68783,125664,127817,132644,146827,151654,180398,183851,189927,205274,208393,226363,235868,242106,251685
DistanceSpacing: 1.4
BeatDivisor: 4
GridSize: 4
TimelineZoom: 1.900001

[Metadata]
Title:over the top
TitleUnicode:over the top
Artist:xi
ArtistUnicode:xi
Creator:Weriko
Version:Atsuro's Eternal Dimension
Source:
Tags:Electronic Instrumental Artcore Yusuke Ishiwata 石渡祐亮 Trance Diverse System DVSP-0145 [ zzz ] [zzz] kalindraz sdafsf atsuro Janssen Hardcore underground doujin C89 Comiket89 DiverseSystem コミケ89 コミックマーケット89 ComicMarket89 M3-36 M32015春 M3 2015 Spring AD:Nearly 120 seconds dvsp-0131 streams 200bpm piano rsi epic hard happyrocket88 chaos world fragments world_fragments
BeatmapID:1430944
BeatmapSetID:519505

[Difficulty]
HPDrainRate:5
CircleSize:4
OverallDifficulty:9.5
ApproachRate:9.7
SliderMultiplier:1.8
SliderTickRate:1

[Events]
//Background and Video events
0,0,"sp_clock.jpg",0,0
//Break Periods
2,160319,166462
//Storyboard Layer 0 (Background)
//Storyboard Layer 1 (Fail)
//Storyboard Layer 2 (Pass)
//Storyboard Layer 3 (Foreground)
//Storyboard Layer 4 (Overlay)
//Storyboard Sound Samples

[TimingPoints]
615,297.029702970297,4,2,1,5,1,0
615,-500,4,2,1,5,0,0
10119,-250,4,2,1,25,0,0
19624,-125,4,2,1,70,0,0
26753,-100,4,2,1,70,0,0
33882,-90.9090909090909,4,2,1,70,0,0
36258,-76.9230769230769,4,2,1,70,0,0
37892,-83.3333333333333,4,2,1,70,0,0
38189,-95.2380952380952,4,2,1,70,0,0
38486,-111.111111111111,4,2,1,70,0,0
38634,-500,4,2,1,70,0,0
40936,-500,4,2,1,70,0,0
41011,-500,4,2,1,70,0,0
45466,-66.6666666666667,4,2,1,70,0,0
45763,-100,4,2,1,70,0,0
50367,-83.3333333333333,4,2,1,70,0,0
52892,-76.9230769230769,4,2,1,70,0,0
55268,-100,4,2,1,70,0,0
64773,-83.3333333333333,4,2,1,70,0,0
73981,-66.6666666666667,4,2,1,70,0,0
74278,-71.4285714285714,4,2,1,70,0,1
93288,-100,4,2,1,70,0,0
100416,-83.3333333333333,4,2,1,70,0,0
101605,-76.9230769230769,4,2,1,70,0,0
102496,-58.8235294117647,4,2,1,70,0,0
102793,-100,4,2,1,70,0,0
114674,-83.3333333333333,4,2,1,70,0,0
117050,-100,4,2,1,70,0,0
120615,-83.3333333333333,4,2,1,70,0,0
121506,-50,4,2,1,70,0,0
121803,-66.6666666666667,4,2,1,70,0,1
125367,-66.6666666666667,4,2,2,50,0,1
126555,-66.6666666666667,4,2,1,70,0,1
135169,-58.8235294117647,4,2,1,70,0,1
135466,-52.6315789473684,4,2,1,70,0,1
135689,-100,4,2,1,70,0,0
136060,-66.6666666666667,4,2,1,70,0,1
144377,-66.6666666666667,4,2,2,50,0,1
145565,-66.6666666666667,4,2,1,70,0,1
155367,-100,4,2,1,70,0,0
156110,-142.857142857143,4,2,1,70,0,0
156258,-142.857142857143,4,2,1,5,0,0
156407,-125,4,2,1,70,0,0
156704,-142.857142857143,4,2,1,5,0,0
156852,-111.111111111111,4,2,1,70,0,0
157149,-142.857142857143,4,2,1,5,0,0
157298,-100,4,2,1,70,0,0
157595,-142.857142857143,4,2,1,5,0,0
157743,-90.9090909090909,4,2,1,70,0,0
158040,-142.857142857143,4,2,1,5,0,0
158189,-83.3333333333333,4,2,1,70,0,0
158486,-142.857142857143,4,2,1,5,0,0
158634,-76.9230769230769,4,2,1,70,0,0
158931,-142.857142857143,4,2,1,5,0,0
159080,-71.4285714285714,4,2,1,70,0,0
159377,-142.857142857143,4,2,1,5,0,0
159525,-66.6666666666667,4,2,1,70,0,0
159674,-142.857142857143,4,2,1,5,0,0
159822,-62.5,4,2,1,70,0,0
160045,-142.857142857143,4,2,1,5,0,0
160119,-62.5,4,2,1,70,0,0
160572,297.029702970297,4,2,1,70,1,0
160572,-100,4,2,1,70,0,0
160720,297.029702970297,4,2,1,70,1,0
160720,-100,4,2,1,70,0,0
161017,-100,4,2,1,70,0,0
169333,-125,4,2,1,70,0,0
174086,-125,4,2,1,70,0,0
178764,-200,4,2,1,70,0,0
180026,-100,4,2,1,70,0,0
182403,-83.3333333333333,4,2,1,70,0,0
183591,-83.3333333333333,4,2,2,70,0,0
202304,-200,4,2,2,70,0,0
202601,-90.9090909090909,4,2,1,70,0,0
207947,-83.3333333333333,4,2,1,70,0,0
208244,-76.9230769230769,4,2,1,70,0,0
208541,-71.4285714285714,4,2,1,70,0,0
212106,-90.9090909090909,4,2,1,70,0,0
216561,-50,4,2,1,70,0,1
216858,-66.6666666666667,4,2,1,70,0,1
220422,-66.6666666666667,4,2,2,50,0,1
221611,-66.6666666666667,4,2,1,70,0,1
229927,-58.8235294117647,4,2,1,70,0,1
230224,-55.5555555555556,4,2,1,70,0,1
230521,-52.6315789473684,4,2,1,70,0,1
230744,-100,4,2,1,70,0,0
231116,-66.6666666666667,4,2,1,70,0,1
239432,-50,4,2,2,50,0,1
240620,-62.5,4,2,1,70,0,1
250422,-100,4,2,1,70,0,0
251314,-100,4,2,1,5,0,0
251462,-100,4,2,1,70,0,0
251759,-100,4,2,1,5,0,0
251908,-83.3333333333333,4,2,1,70,0,0
252205,-100,4,2,1,5,0,0
252353,-83.3333333333333,4,2,1,70,0,0
252650,-100,4,2,1,5,0,0
252799,-71.4285714285714,4,2,1,70,0,0
253096,-100,4,2,1,5,0,0
253244,-71.4285714285714,4,2,1,25,0,0
253541,-100,4,2,1,5,0,0
253690,-62.5,4,2,1,20,0,0
253987,-100,4,2,1,5,0,0
254135,-62.5,4,2,1,15,0,0
254432,-100,4,2,1,5,0,0
254581,-55.5555555555556,4,2,1,15,0,0
254729,-100,4,2,1,5,0,0
254878,-55.5555555555556,4,2,1,10,0,0
255026,-100,4,2,1,5,0,0
255175,-83.3333333333333,4,2,1,10,0,0
255323,-100,4,2,1,5,0,0
255472,-83.3333333333333,4,2,1,10,0,0
255620,-100,4,2,1,5,0,0
255769,-125,4,2,1,10,0,0
255918,-100,4,2,1,5,0,0
256066,-100,4,2,1,5,0,0

[Colours]
Combo1 : 255,255,0
Combo2 : 25,149,236
Combo3 : 122,0,255
Combo4 : 149,77,209
Combo5 : 7,218,218
Combo6 : 255,16,16
Combo7 : 251,0,147
Combo8 : 0,255,0

[HitObjects]
69,178,615,6,0,P|133:243|37:222,1,252
1,84,2991,6,0,L|113:100,1,108
215,122,4179,5,0,0:0:0:0:
323,145,4773,1,0,0:0:0:0:
431,168,5367,6,0,P|456:136|405:125,1,108
323,233,6555,70,0,L|337:343,1,108,2|0,0:0|0:0,0:0:0:0:
416,267,7743,5,0,0:0:0:0:
243,306,8337,1,0,0:0:0:0:
204,133,8931,1,0,0:0:0:0:
377,94,9525,1,0,0:0:0:0:
243,306,10119,6,0,L|176:303,2,48
301,225,10714,2,0,L|234:222,2,48
359,144,11308,2,0,P|313:99|409:93,1,216
492,271,12496,6,0,P|456:257|433:238,2,48
375,285,13090,2,0,P|369:246|374:217,2,48
304,112,13684,69,0,0:0:0:0:
272,179,13882,2,0,L|250:237,1,48
184,140,14278,1,0,0:0:0:0:
155,207,14476,2,0,L|133:265,1,48
11,164,14872,6,0,P|49:143|62:123,2,48
76,56,15466,2,0,P|114:77|127:97,2,48
146,162,16060,6,0,B|191:144|200:104|200:104|266:146|324:104,1,216
445,35,17248,6,0,L|437:98,2,48
439,163,17842,2,0,L|447:226,2,48
296,88,18436,69,0,0:0:0:0:
272,85,18535,1,0,0:0:0:0:
255,101,18634,1,0,0:0:0:0:
255,125,18733,1,0,0:0:0:0:
272,141,18832,1,0,0:0:0:0:
295,139,18931,1,0,0:0:0:0:
342,115,19030,1,0,0:0:0:0:
366,112,19129,1,0,0:0:0:0:
383,128,19228,1,0,0:0:0:0:
383,152,19327,1,0,0:0:0:0:
366,168,19426,1,0,0:0:0:0:
343,166,19525,1,0,0:0:0:0:
292,222,19624,6,0,P|425:218|263:95,1,504,4|0,0:0|0:0,0:0:0:0:
174,237,20813,5,2,0:0:0:0:
138,240,20887,1,0,0:0:0:0:
108,221,20961,1,0,0:0:0:0:
96,188,21035,1,0,0:0:0:0:
107,154,21110,1,0,0:0:0:0:
117,120,21184,1,0,0:0:0:0:
105,87,21258,1,0,0:0:0:0:
75,68,21332,1,0,0:0:0:0:
40,71,21407,2,0,L|23:122,3,36
9,177,21704,2,0,L|77:199,1,72,8|0,0:0|0:0,0:0:0:0:
309,264,22001,5,4,0:0:0:0:
261,354,22149,2,0,B|183:303|219:214|219:214|268:100|208:67|126:89|126:180|203:186,1,432
424,108,23189,69,2,0:0:0:0:
391,93,23263,1,0,0:0:0:0:
356,97,23337,1,0,0:0:0:0:
329,121,23412,1,0,0:0:0:0:
320,155,23486,1,0,0:0:0:0:
330,189,23560,1,0,0:0:0:0:
357,211,23634,1,0,0:0:0:0:
393,216,23709,1,0,0:0:0:0:
424,200,23783,2,0,L|437:158,3,36,2|0|0|0,0:0|0:0|0:0|0:0,0:0:0:0:
426,283,24080,2,0,L|438:325,1,36
313,241,24228,2,0,L|371:241,1,36
510,154,24377,5,4,0:0:0:0:
496,121,24451,1,0,0:0:0:0:
468,98,24525,1,0,0:0:0:0:
434,89,24600,1,0,0:0:0:0:
399,98,24674,2,0,L|355:120,3,36
302,153,24971,1,0,0:0:0:0:
270,168,25045,1,0,0:0:0:0:
234,168,25119,1,0,0:0:0:0:
202,153,25194,1,0,0:0:0:0:
181,123,25268,2,0,L|160:77,3,36
103,10,25565,5,2,0:0:0:0:
96,49,25639,1,0,0:0:0:0:
89,89,25714,1,0,0:0:0:0:
83,129,25788,1,0,0:0:0:0:
76,169,25862,1,0,0:0:0:0:
70,209,25936,1,0,0:0:0:0:
63,249,26011,1,0,0:0:0:0:
57,289,26085,1,0,0:0:0:0:
50,328,26159,1,0,0:0:0:0:
70,311,26233,1,0,0:0:0:0:
94,299,26308,1,0,0:0:0:0:
120,291,26382,1,0,0:0:0:0:
147,288,26456,1,8,0:0:0:0:
174,291,26530,1,0,0:0:0:0:
199,299,26605,1,0,0:0:0:0:
223,312,26679,1,0,0:0:0:0:
244,329,26753,6,0,L|258:379,1,45,4|0,0:0|0:0,0:0:0:0:
350,271,26902,2,0,L|361:227,1,45
455,329,27050,1,0,0:0:0:0:
494,309,27124,1,0,0:0:0:0:
511,269,27199,1,0,0:0:0:0:
498,227,27273,1,0,0:0:0:0:
460,205,27347,1,4,0:0:0:0:
435,182,27421,1,0,0:0:0:0:
425,150,27496,1,0,0:0:0:0:
433,118,27570,1,0,0:0:0:0:
456,94,27644,1,0,0:0:0:0:
477,69,27718,1,0,0:0:0:0:
470,37,27793,1,0,0:0:0:0:
440,25,27867,1,0,0:0:0:0:
412,42,27941,69,4,0:0:0:0:
376,15,28015,1,0,0:0:0:0:
333,3,28090,1,0,0:0:0:0:
288,7,28164,1,0,0:0:0:0:
248,27,28238,1,0,0:0:0:0:
217,59,28313,1,0,0:0:0:0:
199,100,28387,1,0,0:0:0:0:
196,144,28461,1,0,0:0:0:0:
210,187,28535,1,4,0:0:0:0:
246,160,28610,1,0,0:0:0:0:
289,148,28684,1,0,0:0:0:0:
334,152,28758,1,0,0:0:0:0:
374,172,28832,1,0,0:0:0:0:
405,204,28907,1,0,0:0:0:0:
423,245,28981,1,0,0:0:0:0:
426,289,29055,1,0,0:0:0:0:
412,332,29129,6,0,L|308:320,1,90,6|0,0:0|0:0,0:0:0:0:
244,141,29426,2,0,L|333:151,1,90,2|0,0:0|0:0,0:0:0:0:
423,350,29723,2,0,L|319:338,1,90,2|0,0:0|0:0,0:0:0:0:
255,159,30020,2,0,L|344:169,1,90,10|0,0:0|0:0,0:0:0:0:
199,322,30317,5,6,0:0:0:0:
154,315,30392,1,0,0:0:0:0:
109,309,30466,1,0,0:0:0:0:
65,303,30540,1,0,0:0:0:0:
35,257,30615,1,2,0:0:0:0:
74,250,30689,1,0,0:0:0:0:
115,245,30763,1,0,0:0:0:0:
154,239,30837,1,0,0:0:0:0:
180,190,30912,1,2,0:0:0:0:
144,185,30986,1,0,0:0:0:0:
108,180,31060,1,0,0:0:0:0:
72,175,31134,1,0,0:0:0:0:
38,130,31209,2,0,L|96:118,1,45,10|0,0:0|0:0,0:0:0:0:
190,27,31357,2,0,L|248:39,1,45
378,139,31506,5,6,0:0:0:0:
421,145,31580,1,0,0:0:0:0:
461,124,31654,1,0,0:0:0:0:
480,85,31728,1,0,0:0:0:0:
473,41,31803,1,2,0:0:0:0:
442,10,31877,1,0,0:0:0:0:
398,3,31951,1,0,0:0:0:0:
359,23,32025,1,0,0:0:0:0:
338,62,32100,2,0,L|328:106,3,45,2|0|0|0,0:0|0:0|0:0|0:0,0:0:0:0:
231,156,32397,2,0,L|221:200,3,45,10|0|0|0,0:0|0:0|0:0|0:0,0:0:0:0:
124,250,32694,69,6,0:0:0:0:
151,285,32768,1,0,0:0:0:0:
190,306,32842,1,0,0:0:0:0:
235,309,32916,1,0,0:0:0:0:
277,295,32991,1,2,0:0:0:0:
319,280,33065,1,0,0:0:0:0:
363,284,33139,1,0,0:0:0:0:
403,305,33214,1,0,0:0:0:0:
430,340,33288,1,2,0:0:0:0:
472,328,33362,1,0,0:0:0:0:
500,294,33436,1,0,0:0:0:0:
503,250,33511,1,0,0:0:0:0:
478,213,33585,2,0,L|426:196,1,45,4|0,0:0|0:0,0:0:0:0:
288,147,33733,2,0,L|235:129,1,45,4|0,0:0|0:0,0:0:0:0:
50,64,33882,6,0,L|97:80,1,49.5000015106202,8|0,0:0|0:0,0:0:0:0:
277,233,34030,2,0,L|230:217,1,49.5000015106202
143,9,34179,2,0,L|165:52,1,49.5000015106202
184,288,34327,2,0,L|162:244,1,49.5000015106202
247,35,34476,2,0,L|232:82,1,49.5000015106202,8|0,0:0|0:0,0:0:0:0:
79,262,34624,2,0,L|94:215,1,49.5000015106202
303,128,34773,2,0,L|259:150,1,49.5000015106202
24,169,34921,2,0,L|67:147,1,49.5000015106202
277,233,35070,5,8,0:0:0:0:
325,227,35144,1,0,0:0:0:0:
366,200,35218,1,0,0:0:0:0:
388,156,35293,1,0,0:0:0:0:
386,107,35367,1,0,0:0:0:0:
345,134,35441,1,0,0:0:0:0:
324,177,35515,1,0,0:0:0:0:
327,227,35590,1,0,0:0:0:0:
351,271,35664,5,8,0:0:0:0:
327,315,35738,1,0,0:0:0:0:
284,341,35813,2,0,L|223:336,1,49.5000015106202
36,271,35961,1,0,0:0:0:0:
60,315,36035,1,0,0:0:0:0:
103,341,36110,2,0,L|164:336,1,49.5000015106202
326,226,36258,69,4,0:0:0:0:
337,170,36332,1,0,0:0:0:0:
314,117,36407,1,0,0:0:0:0:
266,86,36481,1,0,0:0:0:0:
208,86,36555,1,0,0:0:0:0:
161,119,36629,1,0,0:0:0:0:
140,173,36704,1,0,0:0:0:0:
152,229,36778,1,0,0:0:0:0:
194,269,36852,1,4,0:0:0:0:
236,229,36926,1,0,0:0:0:0:
248,173,37001,1,0,0:0:0:0:
227,119,37075,1,0,0:0:0:0:
180,86,37149,1,0,0:0:0:0:
122,86,37223,1,0,0:0:0:0:
74,117,37298,1,0,0:0:0:0:
51,170,37372,1,0,0:0:0:0:
62,226,37446,6,0,L|100:300,1,58.4999973220826,4|0,0:0|0:0,0:0:0:0:
244,384,37595,1,0,0:0:0:0:
301,375,37669,1,0,0:0:0:0:
359,367,37743,2,0,L|440:352,1,58.4999973220826,4|0,0:0|0:0,0:0:0:0:
238,268,37892,1,0,0:0:0:0:
286,260,37966,1,0,0:0:0:0:
335,253,38040,2,0,L|404:240,1,53.9999983520508,4|0,0:0|0:0,0:0:0:0:
227,159,38189,1,0,0:0:0:0:
267,152,38263,1,0,0:0:0:0:
309,146,38337,2,0,L|355:137,1,47.2499985580445,4|0,0:0|0:0,0:0:0:0:
220,52,38486,1,0,0:0:0:0:
254,46,38560,1,0,0:0:0:0:
289,40,38634,6,0,B|392:21|392:21|349:103|445:162|477:80|439:88,1,276,12|0,0:0|0:0,0:0:0:0:
318,110,41011,69,2,0:0:0:0:
376,176,41110,1,2,0:0:0:0:
347,259,41209,1,2,0:0:0:0:
405,325,41308,1,2,0:0:0:0:
194,110,41902,1,2,0:0:0:0:
136,176,42001,1,2,0:0:0:0:
165,259,42100,1,2,0:0:0:0:
107,325,42199,1,2,0:0:0:0:
327,97,43387,101,2,0:0:0:0:
393,173,43486,1,2,0:0:0:0:
360,268,43585,1,2,0:0:0:0:
427,344,43684,1,2,0:0:0:0:
184,97,44278,1,2,0:0:0:0:
118,173,44377,1,2,0:0:0:0:
151,268,44476,1,2,0:0:0:0:
84,344,44575,1,2,0:0:0:0:
386,145,45466,22,0,P|304:154|344:82,1,202.500007724762
427,76,45763,5,12,0:0:0:0:
451,98,45837,1,0,0:0:0:0:
465,129,45912,1,0,0:0:0:0:
465,162,45986,1,0,0:0:0:0:
451,193,46060,1,0,0:0:0:0:
437,224,46134,1,0,0:0:0:0:
437,257,46209,1,0,0:0:0:0:
451,288,46283,1,0,0:0:0:0:
476,311,46357,1,8,0:0:0:0:
454,337,46431,1,0,0:0:0:0:
427,357,46506,1,0,0:0:0:0:
396,370,46580,1,0,0:0:0:0:
363,375,46654,1,0,0:0:0:0:
330,372,46728,1,0,0:0:0:0:
298,360,46803,1,0,0:0:0:0:
270,342,46877,1,0,0:0:0:0:
247,317,46951,5,8,0:0:0:0:
224,342,47025,1,0,0:0:0:0:
196,360,47100,1,0,0:0:0:0:
164,372,47174,1,0,0:0:0:0:
131,375,47248,1,0,0:0:0:0:
98,370,47322,1,0,0:0:0:0:
67,357,47397,1,0,0:0:0:0:
40,337,47471,1,0,0:0:0:0:
19,311,47545,1,8,0:0:0:0:
47,328,47619,1,0,0:0:0:0:
80,326,47694,1,0,0:0:0:0:
106,305,47768,1,0,0:0:0:0:
116,273,47842,1,0,0:0:0:0:
106,242,47916,1,0,0:0:0:0:
79,222,47991,1,0,0:0:0:0:
46,220,48065,1,0,0:0:0:0:
18,238,48139,5,12,0:0:0:0:
43,268,48214,1,0,0:0:0:0:
75,291,48288,1,0,0:0:0:0:
111,306,48362,1,0,0:0:0:0:
152,306,48436,1,0,0:0:0:0:
177,275,48511,1,0,0:0:0:0:
208,252,48585,1,0,0:0:0:0:
245,238,48659,1,0,0:0:0:0:
285,238,48733,1,8,0:0:0:0:
290,276,48808,1,0,0:0:0:0:
310,310,48882,1,0,0:0:0:0:
342,332,48956,1,0,0:0:0:0:
380,340,49030,1,0,0:0:0:0:
418,332,49105,1,0,0:0:0:0:
450,309,49179,1,0,0:0:0:0:
470,276,49253,1,0,0:0:0:0:
475,237,49327,69,8,0:0:0:0:
441,265,49402,1,0,0:0:0:0:
397,267,49476,1,0,0:0:0:0:
360,243,49550,1,0,0:0:0:0:
346,201,49624,1,0,0:0:0:0:
359,159,49699,1,0,0:0:0:0:
395,133,49773,1,0,0:0:0:0:
439,134,49847,1,0,0:0:0:0:
474,161,49921,1,8,0:0:0:0:
439,189,49996,1,0,0:0:0:0:
395,191,50070,1,0,0:0:0:0:
359,166,50144,1,0,0:0:0:0:
344,124,50218,1,0,0:0:0:0:
166,20,50367,2,0,L|157:84,1,53.9999983520508
124,271,50515,5,12,0:0:0:0:
147,310,50590,1,0,0:0:0:0:
190,330,50664,1,0,0:0:0:0:
236,323,50738,1,0,0:0:0:0:
269,291,50813,1,0,0:0:0:0:
280,246,50887,1,0,0:0:0:0:
263,202,50961,1,0,0:0:0:0:
225,176,51035,1,0,0:0:0:0:
178,175,51110,1,8,0:0:0:0:
131,174,51184,1,0,0:0:0:0:
93,148,51258,1,0,0:0:0:0:
76,104,51332,1,0,0:0:0:0:
87,59,51407,1,0,0:0:0:0:
120,27,51481,1,0,0:0:0:0:
166,20,51555,1,0,0:0:0:0:
209,40,51629,1,0,0:0:0:0:
233,80,51704,5,8,0:0:0:0:
284,110,51778,1,0,0:0:0:0:
344,106,51852,1,0,0:0:0:0:
390,69,51926,1,0,0:0:0:0:
408,12,52001,1,0,0:0:0:0:
362,49,52075,1,0,0:0:0:0:
344,106,52149,1,0,0:0:0:0:
366,162,52223,1,0,0:0:0:0:
411,198,52298,1,8,0:0:0:0:
445,240,52372,1,0,0:0:0:0:
447,293,52446,1,0,0:0:0:0:
417,336,52520,1,0,0:0:0:0:
367,354,52595,1,0,0:0:0:0:
317,337,52669,1,0,0:0:0:0:
286,294,52743,1,0,0:0:0:0:
288,241,52817,1,0,0:0:0:0:
321,199,52892,6,0,L|385:178,1,58.4999973220826,12|0,0:0|0:0,0:0:0:0:
424,12,53040,1,0,0:0:0:0:
368,30,53114,1,0,0:0:0:0:
312,48,53189,1,0,0:0:0:0:
257,66,53263,1,0,0:0:0:0:
201,84,53337,1,0,0:0:0:0:
145,66,53412,1,0,0:0:0:0:
90,48,53486,2,0,L|71:103,1,58.4999973220826,8|0,0:0|0:0,0:0:0:0:
8,289,53634,1,0,0:0:0:0:
64,307,53709,1,0,0:0:0:0:
120,325,53783,1,0,0:0:0:0:
175,343,53857,1,0,0:0:0:0:
231,361,53931,1,0,0:0:0:0:
287,343,54006,1,0,0:0:0:0:
341,324,54080,70,0,L|322:268,1,58.4999973220826,12|0,0:0|0:0,0:0:0:0:
368,30,54228,1,2,0:0:0:0:
312,48,54303,1,0,0:0:0:0:
257,66,54377,2,0,L|275:121,1,58.4999973220826,2|0,0:0|0:0,0:0:0:0:
464,264,54525,1,2,0:0:0:0:
446,207,54600,1,0,0:0:0:0:
428,152,54674,2,0,L|373:171,1,58.4999973220826,6|0,0:0|0:0,0:0:0:0:
133,127,54822,1,2,0:0:0:0:
151,182,54897,1,0,0:0:0:0:
170,236,54971,2,0,L|226:218,1,58.4999973220826,2|0,0:0|0:0,0:0:0:0:
424,12,55119,1,2,0:0:0:0:
368,30,55194,1,0,0:0:0:0:
312,48,55268,5,8,0:0:0:0:
287,24,55342,1,0,0:0:0:0:
257,10,55416,1,0,0:0:0:0:
223,7,55491,1,0,0:0:0:0:
191,15,55565,1,0,0:0:0:0:
163,34,55639,1,0,0:0:0:0:
142,60,55714,1,0,0:0:0:0:
132,92,55788,1,0,0:0:0:0:
132,126,55862,1,0,0:0:0:0:
148,153,55936,1,0,0:0:0:0:
155,187,56011,1,0,0:0:0:0:
151,220,56085,1,0,0:0:0:0:
135,250,56159,1,0,0:0:0:0:
111,273,56233,1,0,0:0:0:0:
81,287,56308,1,0,0:0:0:0:
47,290,56382,1,0,0:0:0:0:
15,282,56456,6,0,L|-4:227,1,45,8|0,0:0|0:0,0:0:0:0:
117,217,56605,1,0,0:0:0:0:
151,220,56679,1,0,0:0:0:0:
183,212,56753,2,0,L|202:157,1,45
81,147,56902,1,0,0:0:0:0:
47,150,56976,1,0,0:0:0:0:
15,142,57050,2,0,L|-4:87,1,45
117,77,57199,1,0,0:0:0:0:
151,80,57273,1,0,0:0:0:0:
183,72,57347,2,0,L|202:17,3,45,8|0|0|0,0:0|0:0|0:0|0:0,0:0:0:0:
291,27,57644,5,8,0:0:0:0:
312,52,57718,1,0,0:0:0:0:
323,84,57793,1,0,0:0:0:0:
323,118,57867,1,0,0:0:0:0:
311,149,57941,1,0,0:0:0:0:
290,175,58015,1,0,0:0:0:0:
261,192,58090,1,0,0:0:0:0:
228,198,58164,1,0,0:0:0:0:
195,193,58238,1,0,0:0:0:0:
206,161,58313,1,0,0:0:0:0:
228,136,58387,1,0,0:0:0:0:
257,119,58461,1,0,0:0:0:0:
290,113,58535,1,0,0:0:0:0:
323,119,58610,1,0,0:0:0:0:
353,135,58684,1,0,0:0:0:0:
374,161,58758,1,0,0:0:0:0:
386,192,58832,70,0,L|393:236,1,45,8|0,0:0|0:0,0:0:0:0:
263,297,58981,1,0,0:0:0:0:
284,271,59055,1,0,0:0:0:0:
296,240,59129,2,0,L|303:195,1,45
173,135,59278,1,0,0:0:0:0:
194,161,59352,1,0,0:0:0:0:
206,192,59426,2,0,L|213:236,1,45
83,297,59575,1,0,0:0:0:0:
104,271,59649,1,0,0:0:0:0:
116,240,59723,2,0,L|123:195,3,45,8|0|0|0,0:0|0:0|0:0|0:0,0:0:0:0:
39,175,60020,5,8,0:0:0:0:
13,153,60095,1,0,0:0:0:0:
1,122,60169,1,0,0:0:0:0:
6,89,60243,1,0,0:0:0:0:
27,63,60317,1,0,0:0:0:0:
58,51,60392,1,0,0:0:0:0:
91,55,60466,1,0,0:0:0:0:
117,76,60540,1,0,0:0:0:0:
130,106,60615,1,0,0:0:0:0:
142,75,60689,1,0,0:0:0:0:
169,54,60763,1,0,0:0:0:0:
202,50,60837,1,0,0:0:0:0:
233,62,60912,1,0,0:0:0:0:
253,88,60986,1,0,0:0:0:0:
259,121,61060,1,0,0:0:0:0:
247,152,61134,1,0,0:0:0:0:
221,174,61209,6,0,L|233:233,1,45,8|0,0:0|0:0,0:0:0:0:
203,303,61357,1,0,0:0:0:0:
236,308,61431,1,0,0:0:0:0:
268,296,61506,2,0,L|313:335,1,45
360,266,61654,1,0,0:0:0:0:
380,292,61728,1,0,0:0:0:0:
386,325,61803,2,0,L|443:344,1,45
512,317,61951,1,0,0:0:0:0:
499,286,62025,1,0,0:0:0:0:
473,264,62100,2,0,L|485:204,3,45,8|0|0|0,0:0|0:0|0:0|0:0,0:0:0:0:
396,191,62397,5,8,0:0:0:0:
368,171,62471,1,0,0:0:0:0:
355,141,62545,1,0,0:0:0:0:
359,108,62619,1,0,0:0:0:0:
380,82,62694,1,0,0:0:0:0:
412,70,62768,1,0,0:0:0:0:
444,76,62842,1,0,0:0:0:0:
469,99,62916,1,0,0:0:0:0:
479,131,62991,1,0,0:0:0:0:
445,133,63065,1,0,0:0:0:0:
411,136,63139,1,0,0:0:0:0:
378,138,63214,1,0,0:0:0:0:
344,141,63288,1,0,0:0:0:0:
310,143,63362,1,0,0:0:0:0:
277,146,63436,1,0,0:0:0:0:
243,148,63511,1,0,0:0:0:0:
209,150,63585,69,8,0:0:0:0:
181,116,63659,1,0,0:0:0:0:
138,106,63733,1,0,0:0:0:0:
98,125,63808,1,0,0:0:0:0:
77,164,63882,1,0,0:0:0:0:
120,159,63956,1,0,0:0:0:0:
158,183,64030,1,0,0:0:0:0:
174,224,64105,1,0,0:0:0:0:
161,266,64179,1,0,0:0:0:0:
132,231,64253,1,0,0:0:0:0:
89,221,64327,1,0,0:0:0:0:
49,240,64402,1,0,0:0:0:0:
28,279,64476,2,0,L|13:330,3,45,8|0|0|0,0:0|0:0|0:0|0:0,0:0:0:0:
81,366,64773,5,12,0:0:0:0:
111,323,64847,1,0,0:0:0:0:
159,300,64921,1,0,0:0:0:0:
212,305,64996,1,0,0:0:0:0:
256,336,65070,1,8,0:0:0:0:
299,366,65144,1,0,0:0:0:0:
352,371,65218,1,0,0:0:0:0:
400,349,65293,1,0,0:0:0:0:
431,305,65367,1,8,0:0:0:0:
377,300,65441,1,0,0:0:0:0:
334,270,65515,1,0,0:0:0:0:
311,221,65590,1,0,0:0:0:0:
316,168,65664,1,8,0:0:0:0:
321,115,65738,1,0,0:0:0:0:
299,67,65813,1,0,0:0:0:0:
255,36,65887,1,0,0:0:0:0:
202,33,65961,6,0,L|126:47,1,53.9999983520508,6|0,0:0|0:0,0:0:0:0:
9,155,66110,1,0,0:0:0:0:
53,124,66184,1,0,0:0:0:0:
106,121,66258,2,0,L|182:135,1,53.9999983520508,2|0,0:0|0:0,0:0:0:0:
299,243,66407,1,0,0:0:0:0:
255,212,66481,1,0,0:0:0:0:
202,209,66555,2,0,L|126:223,1,53.9999983520508,2|0,0:0|0:0,0:0:0:0:
9,331,66704,1,0,0:0:0:0:
53,300,66778,1,0,0:0:0:0:
106,297,66852,2,0,L|182:311,3,53.9999983520508,2|0|0|0,0:0|0:0|0:0|0:0,0:0:0:0:
234,357,67149,5,12,0:0:0:0:
265,313,67223,1,0,0:0:0:0:
312,289,67298,1,0,0:0:0:0:
366,290,67372,1,0,0:0:0:0:
413,317,67446,1,8,0:0:0:0:
461,336,67520,1,0,0:0:0:0:
504,308,67595,1,0,0:0:0:0:
504,256,67669,1,0,0:0:0:0:
461,227,67743,1,8,0:0:0:0:
413,246,67817,1,0,0:0:0:0:
369,218,67892,1,0,0:0:0:0:
369,166,67966,1,0,0:0:0:0:
412,137,68040,1,8,0:0:0:0:
459,156,68115,1,0,0:0:0:0:
503,128,68189,1,0,0:0:0:0:
503,76,68263,1,0,0:0:0:0:
460,47,68337,70,0,L|389:55,1,53.9999983520508,6|0,0:0|0:0,0:0:0:0:
369,166,68486,1,0,0:0:0:0:
369,218,68560,1,0,0:0:0:0:
326,247,68634,2,0,L|255:238,1,53.9999983520508,2|0,0:0|0:0,0:0:0:0:
235,128,68783,1,0,0:0:0:0:
235,76,68857,1,0,0:0:0:0:
192,47,68931,2,0,L|121:55,1,53.9999983520508,2|0,0:0|0:0,0:0:0:0:
101,166,69080,1,0,0:0:0:0:
101,218,69154,1,0,0:0:0:0:
58,247,69228,2,0,L|-12:238,3,53.9999983520508,2|0|0|0,0:0|0:0|0:0|0:0,0:0:0:0:
48,344,69525,5,12,0:0:0:0:
93,315,69600,1,0,0:0:0:0:
145,303,69674,1,0,0:0:0:0:
198,311,69748,1,0,0:0:0:0:
245,337,69822,1,8,0:0:0:0:
290,365,69897,1,0,0:0:0:0:
342,377,69971,1,0,0:0:0:0:
395,369,70045,1,0,0:0:0:0:
442,343,70119,1,8,0:0:0:0:
472,300,70194,1,0,0:0:0:0:
463,248,70268,1,0,0:0:0:0:
418,220,70342,1,0,0:0:0:0:
367,232,70416,1,8,0:0:0:0:
315,243,70491,1,0,0:0:0:0:
271,215,70565,1,0,0:0:0:0:
261,163,70639,1,0,0:0:0:0:
291,120,70714,6,0,L|340:56,1,53.9999983520508,8|0,0:0|0:0,0:0:0:0:
292,284,70862,2,0,L|324:327,1,53.9999983520508,4|0,0:0|0:0,0:0:0:0:
168,120,71011,2,0,L|231:69,1,53.9999983520508,8|0,0:0|0:0,0:0:0:0:
168,264,71159,2,0,L|231:314,1,53.9999983520508,4|0,0:0|0:0,0:0:0:0:
40,120,71308,2,0,L|114:87,1,53.9999983520508,8|0,0:0|0:0,0:0:0:0:
40,264,71456,2,0,L|114:296,1,53.9999983520508,4|0,0:0|0:0,0:0:0:0:
272,192,71605,2,0,L|204:192,1,53.9999983520508,8|0,0:0|0:0,0:0:0:0:
16,192,71753,2,0,L|84:192,1,53.9999983520508,4|0,0:0|0:0,0:0:0:0:
272,288,71902,5,4,0:0:0:0:
329,272,71976,1,0,0:0:0:0:
366,224,72050,1,0,0:0:0:0:
367,165,72124,1,0,0:0:0:0:
332,116,72199,1,0,0:0:0:0:
327,58,72273,1,0,0:0:0:0:
368,15,72347,1,0,0:0:0:0:
427,20,72421,1,0,0:0:0:0:
464,68,72496,69,4,0:0:0:0:
405,89,72570,1,0,0:0:0:0:
348,110,72644,1,0,0:0:0:0:
292,132,72718,1,0,0:0:0:0:
235,154,72793,1,0,0:0:0:0:
291,175,72867,1,0,0:0:0:0:
348,197,72941,1,0,0:0:0:0:
405,219,73015,1,0,0:0:0:0:
461,240,73090,5,4,0:0:0:0:
422,253,73164,1,0,0:0:0:0:
387,273,73238,1,0,0:0:0:0:
357,299,73313,1,0,0:0:0:0:
331,331,73387,1,0,0:0:0:0:
299,355,73461,1,0,0:0:0:0:
260,364,73535,1,0,0:0:0:0:
221,355,73610,1,0,0:0:0:0:
188,330,73684,1,4,0:0:0:0:
213,293,73758,1,0,0:0:0:0:
213,248,73832,1,0,0:0:0:0:
189,211,73907,1,0,0:0:0:0:
139,271,73981,6,0,B|171:279|171:279|204:271|204:271|237:279|237:279|270:271|270:271|302:279|302:279|335:271|335:271,1,202.500007724762
487,269,74278,5,4,0:0:0:0:
251,111,74426,1,2,0:0:0:0:
204,150,74501,1,2,0:0:0:0:
189,211,74575,1,2,0:0:0:0:
391,374,74723,1,2,0:0:0:0:
380,313,74798,1,2,0:0:0:0:
335,270,74872,1,2,0:0:0:0:
94,363,75020,1,2,0:0:0:0:
151,384,75095,1,2,0:0:0:0:
211,366,75169,1,2,0:0:0:0:
307,101,75317,1,2,0:0:0:0:
48,166,75466,53,14,0:0:0:0:
9,201,75540,1,0,0:0:0:0:
23,251,75615,1,0,0:0:0:0:
74,261,75689,1,0,0:0:0:0:
106,220,75763,1,0,0:0:0:0:
155,196,75837,1,0,0:0:0:0:
209,188,75912,1,0,0:0:0:0:
263,196,75986,1,0,0:0:0:0:
313,221,76060,102,0,P|371:244|460:240,1,125.999996154785,2|0,0:0|0:0,0:0:0:0:
434,52,76283,2,0,P|371:54|313:77,1,125.999996154785
450,149,76506,2,0,L|512:149,1,62.9999980773926,2|0,0:0|0:0,0:0:0:0:
245,149,76654,5,4,0:0:0:0:
434,52,76803,1,2,0:0:0:0:
433,245,76951,1,2,0:0:0:0:
399,287,77025,1,0,0:0:0:0:
349,310,77100,1,2,0:0:0:0:
295,308,77174,1,2,0:0:0:0:
247,281,77248,1,2,0:0:0:0:
199,255,77322,1,0,0:0:0:0:
145,253,77397,1,2,0:0:0:0:
95,276,77471,1,2,0:0:0:0:
62,318,77545,1,2,0:0:0:0:
16,316,77619,1,0,0:0:0:0:
0,277,77694,1,2,0:0:0:0:
14,237,77768,1,2,0:0:0:0:
59,232,77842,101,6,0:0:0:0:
313,237,77991,1,2,0:0:0:0:
292,277,78065,1,0,0:0:0:0:
247,281,78139,2,0,L|185:270,1,62.9999980773926,2|2,0:0|0:0,0:0:0:0:
185,95,78288,2,0,L|247:83,1,62.9999980773926,0|2,0:0|0:0,0:0:0:0:
438,180,78436,1,0,0:0:0:0:
398,205,78511,1,2,0:0:0:0:
352,214,78585,1,0,0:0:0:0:
306,205,78659,1,2,0:0:0:0:
266,180,78733,2,0,P|231:170|196:167,1,62.9999980773926
3,287,78882,1,0,0:0:0:0:
49,278,78956,1,2,0:0:0:0:
89,253,79030,6,0,P|114:234|135:211,1,62.9999980773926,14|0,0:0|0:0,0:0:0:0:
19,4,79179,1,0,0:0:0:0:
12,66,79253,1,0,0:0:0:0:
6,129,79327,1,2,0:0:0:0:
50,160,79402,1,2,0:0:0:0:
105,164,79476,1,2,0:0:0:0:
154,141,79550,1,0,0:0:0:0:
185,96,79624,2,0,L|209:33,1,62.9999980773926,2|0,0:0|0:0,0:0:0:0:
400,10,79773,1,2,0:0:0:0:
350,31,79847,1,0,0:0:0:0:
319,76,79921,1,2,0:0:0:0:
317,131,79996,1,2,0:0:0:0:
344,178,80070,1,2,0:0:0:0:
391,203,80144,1,0,0:0:0:0:
445,199,80218,102,0,L|512:189,1,62.9999980773926,10|0,0:0|0:0,0:0:0:0:
430,318,80367,2,0,L|367:327,1,62.9999980773926
166,199,80515,2,0,L|99:189,1,62.9999980773926,10|0,0:0|0:0,0:0:0:0:
181,318,80664,2,0,L|243:327,1,62.9999980773926
428,112,80813,2,0,L|490:102,1,62.9999980773926,10|0,0:0|0:0,0:0:0:0:
371,250,80961,2,0,L|308:240,1,62.9999980773926
189,112,81110,2,0,L|126:102,1,62.9999980773926,10|0,0:0|0:0,0:0:0:0:
246,250,81258,2,0,L|308:240,1,62.9999980773926
309,24,81407,5,6,0:0:0:0:
445,199,81555,1,2,0:0:0:0:
166,199,81704,1,2,0:0:0:0:
120,239,81778,1,2,0:0:0:0:
117,300,81852,1,2,0:0:0:0:
160,344,81926,1,0,0:0:0:0:
218,338,82001,1,2,0:0:0:0:
255,299,82075,1,2,0:0:0:0:
308,285,82149,1,2,0:0:0:0:
360,299,82223,1,0,0:0:0:0:
398,339,82298,1,2,0:0:0:0:
457,345,82372,1,2,0:0:0:0:
500,301,82446,1,2,0:0:0:0:
497,240,82520,1,0,0:0:0:0:
451,200,82595,101,6,0:0:0:0:
429,242,82669,1,0,0:0:0:0:
396,275,82743,1,0,0:0:0:0:
354,296,82817,1,0,0:0:0:0:
308,303,82892,1,2,0:0:0:0:
261,296,82966,1,2,0:0:0:0:
220,274,83040,1,2,0:0:0:0:
187,241,83115,1,0,0:0:0:0:
166,198,83189,6,0,L|174:121,1,62.9999980773926,6|2,0:0|0:0,0:0:0:0:
186,0,83337,1,2,0:0:0:0:
56,245,83486,1,0,0:0:0:0:
282,89,83634,2,0,L|274:166,1,62.9999980773926
260,371,83783,101,4,0:0:0:0:
472,177,83931,1,2,0:0:0:0:
416,149,84006,1,2,0:0:0:0:
355,161,84080,1,2,0:0:0:0:
144,356,84228,1,2,0:0:0:0:
199,383,84303,1,2,0:0:0:0:
260,371,84377,1,2,0:0:0:0:
370,66,84525,1,2,0:0:0:0:
314,38,84600,1,2,0:0:0:0:
253,50,84674,1,2,0:0:0:0:
27,247,84822,1,2,0:0:0:0:
82,274,84897,1,2,0:0:0:0:
143,262,84971,5,14,0:0:0:0:
168,215,85045,1,0,0:0:0:0:
147,166,85119,1,0,0:0:0:0:
95,154,85194,1,0,0:0:0:0:
54,187,85268,1,0,0:0:0:0:
49,240,85342,1,0,0:0:0:0:
43,292,85416,1,0,0:0:0:0:
38,344,85491,1,0,0:0:0:0:
85,369,85565,102,0,L|218:350,1,125.999996154785,2|0,0:0|0:0,0:0:0:0:
340,245,85788,2,0,L|207:226,1,125.999996154785,2|0,0:0|0:0,0:0:0:0:
85,121,86011,2,0,L|151:111,1,62.9999980773926,2|0,0:0|0:0,0:0:0:0:
367,80,86159,5,4,0:0:0:0:
65,36,86308,1,2,0:0:0:0:
18,63,86382,1,2,0:0:0:0:
0,113,86456,1,2,0:0:0:0:
8,166,86530,1,0,0:0:0:0:
49,202,86605,1,2,0:0:0:0:
91,235,86679,1,2,0:0:0:0:
99,284,86753,1,2,0:0:0:0:
135,255,86827,1,0,0:0:0:0:
181,244,86902,1,2,0:0:0:0:
227,255,86976,1,2,0:0:0:0:
264,284,87050,1,2,0:0:0:0:
300,312,87124,1,0,0:0:0:0:
346,323,87199,1,2,0:0:0:0:
392,312,87273,1,2,0:0:0:0:
429,283,87347,101,12,0:0:0:0:
371,280,87421,1,2,0:0:0:0:
326,244,87496,1,2,0:0:0:0:
312,187,87570,1,0,0:0:0:0:
335,134,87644,1,2,0:0:0:0:
386,106,87718,1,2,0:0:0:0:
443,114,87793,1,2,0:0:0:0:
484,155,87867,1,0,0:0:0:0:
492,213,87941,2,0,L|413:226,1,62.9999980773926,12|10,0:0|0:0,0:0:0:0:
312,353,88090,1,0,0:0:0:0:
271,311,88164,1,0,0:0:0:0:
263,254,88238,2,0,L|342:241,1,62.9999980773926,8|0,0:0|0:0,0:0:0:0:
475,338,88387,1,8,0:0:0:0:
190,295,88535,5,8,0:0:0:0:
354,174,88684,1,0,0:0:0:0:
168,93,88832,1,10,0:0:0:0:
117,114,88907,1,2,0:0:0:0:
87,159,88981,1,2,0:0:0:0:
86,213,89055,1,2,0:0:0:0:
115,259,89129,1,10,0:0:0:0:
403,259,89278,1,2,0:0:0:0:
360,228,89352,1,2,0:0:0:0:
311,210,89426,1,10,0:0:0:0:
259,203,89501,1,2,0:0:0:0:
207,210,89575,1,2,0:0:0:0:
158,229,89649,1,0,0:0:0:0:
115,259,89723,102,0,L|93:337,1,62.9999980773926,14|0,0:0|0:0,0:0:0:0:
403,259,89872,2,0,L|425:336,1,62.9999980773926,2|0,0:0|0:0,0:0:0:0:
157,117,90020,2,0,L|134:194,1,62.9999980773926,10|0,0:0|0:0,0:0:0:0:
361,116,90169,2,0,L|383:193,1,62.9999980773926,2|0,0:0|0:0,0:0:0:0:
171,333,90317,1,14,0:0:0:0:
223,368,90392,1,0,0:0:0:0:
285,368,90466,1,0,0:0:0:0:
336,333,90540,1,0,0:0:0:0:
346,272,90615,1,8,0:0:0:0:
317,217,90689,1,0,0:0:0:0:
261,192,90763,1,0,0:0:0:0:
239,134,90837,1,0,0:0:0:0:
256,75,90912,5,12,0:0:0:0:
274,134,90986,1,0,0:0:0:0:
252,192,91060,1,0,0:0:0:0:
196,217,91134,1,0,0:0:0:0:
167,272,91209,1,0,0:0:0:0:
177,333,91283,1,0,0:0:0:0:
228,368,91357,1,0,0:0:0:0:
290,368,91431,1,0,0:0:0:0:
344,330,91506,1,12,0:0:0:0:
369,274,91580,1,0,0:0:0:0:
426,251,91654,1,0,0:0:0:0:
483,274,91728,1,0,0:0:0:0:
507,330,91803,1,0,0:0:0:0:
451,307,91877,1,0,0:0:0:0:
426,251,91951,1,0,0:0:0:0:
447,193,92025,1,0,0:0:0:0:
502,167,92100,101,12,0:0:0:0:
503,104,92174,1,0,0:0:0:0:
475,48,92248,1,0,0:0:0:0:
424,12,92322,1,0,0:0:0:0:
362,4,92397,1,8,0:0:0:0:
303,24,92471,1,0,0:0:0:0:
261,70,92545,1,0,0:0:0:0:
244,130,92619,1,0,0:0:0:0:
256,192,92694,1,14,0:0:0:0:
269,253,92768,1,0,0:0:0:0:
252,313,92842,1,2,0:0:0:0:
210,359,92916,1,0,0:0:0:0:
151,379,92991,1,10,0:0:0:0:
89,371,93065,1,0,0:0:0:0:
38,335,93139,1,2,0:0:0:0:
10,279,93214,1,0,0:0:0:0:
11,212,93288,22,0,B|20:161|65:128|65:128|169:197|262:128,1,315,10|0,0:0|0:0,0:0:0:0:
106,62,93956,2,0,P|165:89|224:62,2,135
34,13,94476,6,0,L|15:55,3,45
49,127,94773,2,0,L|30:169,3,45
64,241,95070,2,0,L|83:283,3,45
157,314,95367,2,0,L|176:356,3,45,8|0|0|0,0:0|0:0|0:0|0:0,0:0:0:0:
256,380,95664,6,0,B|272:336|316:320|368:336|368:336|416:348|489:322|478:231,1,315,6|0,0:0|0:0,0:0:0:0:
299,163,96332,2,0,P|336:219|394:253,2,135
232,100,96852,6,0,L|216:156,3,45,2|0|0|0,0:0|0:0|0:0|0:0,0:0:0:0:
140,164,97149,2,0,L|152:207,3,45
232,228,97446,2,0,L|219:271,3,45
140,292,97743,1,8,0:0:0:0:
143,302,97817,1,0,0:0:0:0:
146,313,97892,1,0,0:0:0:0:
149,324,97966,1,0,0:0:0:0:
152,336,98040,54,0,P|104:360|56:360,1,90,6|2,0:0|0:0,0:0:0:0:
68,21,98337,2,0,P|112:26|152:48,1,90,2|2,0:0|0:0,0:0:0:0:
316,324,98634,2,0,L|223:303,1,90,2|2,0:0|0:0,0:0:0:0:
228,79,98931,2,0,L|316:60,1,90,2|0,0:0|0:0,0:0:0:0:
497,304,99228,2,0,B|456:324|456:324|412:324,1,90,6|2,0:0|0:0,0:0:0:0:
412,60,99525,2,0,B|456:60|456:60|497:79,1,90,2|2,0:0|0:0,0:0:0:0:
161,281,99822,101,2,0:0:0:0:
152,238,99897,1,0,0:0:0:0:
176,202,99971,1,2,0:0:0:0:
219,193,100045,1,0,0:0:0:0:
255,218,100119,1,2,0:0:0:0:
292,193,100194,1,0,0:0:0:0:
335,202,100268,1,0,0:0:0:0:
359,238,100342,1,0,0:0:0:0:
350,281,100416,6,0,P|343:312|327:354,1,53.9999983520508,6|0,0:0|0:0,0:0:0:0:
176,333,100565,2,0,P|167:307|161:281,1,53.9999983520508,2|0,0:0|0:0,0:0:0:0:
336,145,100714,2,0,P|344:170|351:197,1,53.9999983520508,2|0,0:0|0:0,0:0:0:0:
162,196,100862,2,0,P|168:170|177:145,1,53.9999983520508,2|0,0:0|0:0,0:0:0:0:
376,16,101011,102,0,L|354:82,1,53.9999983520508,6|0,0:0|0:0,0:0:0:0:
153,67,101159,2,0,L|136:16,1,53.9999983520508,2|0,0:0|0:0,0:0:0:0:
395,166,101308,2,0,P|374:184|350:196,1,53.9999983520508,2|0,0:0|0:0,0:0:0:0:
161,196,101456,2,0,P|137:184|116:166,1,53.9999983520508,2|0,0:0|0:0,0:0:0:0:
256,0,101605,5,4,0:0:0:0:
256,62,101679,1,0,0:0:0:0:
256,120,101753,1,0,0:0:0:0:
256,179,101827,1,0,0:0:0:0:
256,237,101902,1,4,0:0:0:0:
293,282,101976,1,0,0:0:0:0:
347,300,102050,1,0,0:0:0:0:
403,285,102124,1,0,0:0:0:0:
448,241,102199,101,2,0:0:0:0:
388,202,102273,1,0,0:0:0:0:
317,201,102347,1,2,0:0:0:0:
256,237,102421,1,0,0:0:0:0:
222,299,102496,2,0,B|198:315|198:315|174:299|174:299|150:315|150:315|126:299|126:299|86:325|33:293,1,204.000003890991,2|0,0:0|0:0,0:0:0:0:
0,204,102793,5,0,0:0:0:0:
78,144,102892,1,0,0:0:0:0:
19,66,102991,1,0,0:0:0:0:
97,7,103090,1,0,0:0:0:0:
512,204,103684,1,2,0:0:0:0:
434,144,103783,1,0,0:0:0:0:
493,66,103882,1,0,0:0:0:0:
415,7,103981,1,2,0:0:0:0:
256,32,104278,101,8,0:0:0:0:
256,64,104575,1,8,0:0:0:0:
256,96,104872,1,8,0:0:0:0:
184,352,105169,5,2,0:0:0:0:
118,280,105268,1,0,0:0:0:0:
148,186,105367,1,0,0:0:0:0:
82,114,105466,1,2,0:0:0:0:
328,352,106060,1,2,0:0:0:0:
394,280,106159,1,0,0:0:0:0:
364,186,106258,1,0,0:0:0:0:
430,114,106357,1,2,0:0:0:0:
192,28,106654,101,8,0:0:0:0:
256,80,106951,1,8,0:0:0:0:
320,28,107248,1,8,0:0:0:0:
56,60,107545,5,2,0:0:0:0:
122,132,107644,1,0,0:0:0:0:
92,226,107743,1,0,0:0:0:0:
158,298,107842,1,2,0:0:0:0:
456,60,108436,1,2,0:0:0:0:
390,132,108535,1,0,0:0:0:0:
420,226,108634,1,0,0:0:0:0:
354,298,108733,1,2,0:0:0:0:
92,226,109030,101,8,0:0:0:0:
256,332,109327,1,8,0:0:0:0:
420,226,109624,1,8,0:0:0:0:
256,16,109921,21,6,0:0:0:0:
256,49,109996,1,0,0:0:0:0:
256,83,110070,1,0,0:0:0:0:
256,117,110144,1,0,0:0:0:0:
256,151,110218,2,0,L|256:208,3,45
256,272,110515,1,2,0:0:0:0:
223,265,110590,1,0,0:0:0:0:
196,244,110664,1,0,0:0:0:0:
180,215,110738,1,0,0:0:0:0:
178,182,110813,1,0,0:0:0:0:
176,148,110887,1,0,0:0:0:0:
160,119,110961,1,0,0:0:0:0:
133,98,111035,1,0,0:0:0:0:
100,92,111110,5,4,0:0:0:0:
139,113,111184,1,0,0:0:0:0:
183,121,111258,1,0,0:0:0:0:
227,114,111332,1,0,0:0:0:0:
266,93,111407,1,0,0:0:0:0:
305,71,111481,1,0,0:0:0:0:
349,63,111555,1,0,0:0:0:0:
393,70,111629,1,0,0:0:0:0:
432,91,111704,2,0,L|481:115,3,45,2|0|0|0,0:0|0:0|0:0|0:0,0:0:0:0:
468,191,112001,2,0,L|427:210,3,45
374,288,112298,6,0,L|279:283,1,90,12|2,0:0|0:0,0:0:0:0:
138,96,112595,2,0,L|233:101,1,90,2|2,0:0|0:0,0:0:0:0:
160,310,112892,2,0,L|165:215,1,90,2|2,0:0|0:0,0:0:0:0:
352,74,113189,2,0,L|347:169,1,90,2|2,0:0|0:0,0:0:0:0:
138,96,113486,5,12,0:0:0:0:
160,97,113560,1,0,0:0:0:0:
182,98,113634,2,0,L|227:100,1,45,2|0,0:0|0:0,0:0:0:0:
374,288,113783,1,2,0:0:0:0:
351,286,113857,1,0,0:0:0:0:
329,285,113931,2,0,L|284:283,1,45,2|0,0:0|0:0,0:0:0:0:
352,74,114080,1,2,0:0:0:0:
350,96,114154,1,0,0:0:0:0:
349,118,114228,2,0,L|347:163,1,45,2|0,0:0|0:0,0:0:0:0:
160,310,114377,1,2,0:0:0:0:
161,287,114451,1,0,0:0:0:0:
162,265,114525,2,0,L|164:220,1,45,2|0,0:0|0:0,0:0:0:0:
59,20,114674,70,0,L|56:73,1,53.9999983520508,12|0,0:0|0:0,0:0:0:0:
52,157,114822,2,0,L|49:210,1,53.9999983520508,2|0,0:0|0:0,0:0:0:0:
201,365,114971,2,0,L|198:311,1,53.9999983520508,2|0,0:0|0:0,0:0:0:0:
194,228,115119,2,0,L|191:174,1,53.9999983520508,2|0,0:0|0:0,0:0:0:0:
327,37,115268,2,0,L|324:90,1,53.9999983520508,2|0,0:0|0:0,0:0:0:0:
320,174,115416,2,0,L|317:227,1,53.9999983520508,2|0,0:0|0:0,0:0:0:0:
469,382,115565,2,0,L|466:328,1,53.9999983520508,2|0,0:0|0:0,0:0:0:0:
462,245,115714,2,0,L|459:191,1,53.9999983520508,2|0,0:0|0:0,0:0:0:0:
182,12,115862,5,12,0:0:0:0:
186,79,115936,1,0,0:0:0:0:
189,147,116011,1,2,0:0:0:0:
193,214,116085,1,0,0:0:0:0:
196,281,116159,1,6,0:0:0:0:
131,278,116233,1,0,0:0:0:0:
85,230,116308,1,2,0:0:0:0:
85,164,116382,1,0,0:0:0:0:
130,116,116456,1,6,0:0:0:0:
189,146,116530,1,0,0:0:0:0:
255,140,116605,1,0,0:0:0:0:
307,98,116679,1,0,0:0:0:0:
327,35,116753,5,2,0:0:0:0:
285,35,116827,1,2,0:0:0:0:
251,61,116902,1,2,0:0:0:0:
240,102,116976,1,2,0:0:0:0:
255,140,117050,6,0,P|302:210|255:280,1,180,10|0,0:0|0:0,0:0:0:0:
42,343,117644,2,0,L|25:293,3,45,2|0|0|0,0:0|0:0|0:0|0:0,0:0:0:0:
25,227,117941,2,0,L|42:177,3,45
42,111,118238,70,0,L|25:61,3,45,2|0|0|0,0:0|0:0|0:0|0:0,0:0:0:0:
110,155,118535,2,0,L|124:112,3,45
208,111,118832,2,0,L|191:61,3,45
276,155,119129,2,0,L|290:112,3,45,2|0|0|0,0:0|0:0|0:0|0:0,0:0:0:0:
315,37,119426,5,2,0:0:0:0:
315,37,119723,2,0,L|357:51,1,45,2|0,0:0|0:0,0:0:0:0:
434,76,119872,2,0,L|476:90,1,45,2|0,0:0|0:0,0:0:0:0:
474,168,120020,1,2,0:0:0:0:
447,187,120095,1,0,0:0:0:0:
436,219,120169,1,0,0:0:0:0:
447,250,120243,1,0,0:0:0:0:
473,270,120317,1,2,0:0:0:0:
491,297,120392,1,0,0:0:0:0:
483,329,120466,1,0,0:0:0:0:
453,343,120540,1,0,0:0:0:0:
422,330,120615,5,6,0:0:0:0:
367,367,120689,1,0,0:0:0:0:
301,381,120763,1,0,0:0:0:0:
236,367,120837,1,0,0:0:0:0:
180,329,120912,1,0,0:0:0:0:
145,274,120986,1,0,0:0:0:0:
81,264,121060,1,0,0:0:0:0:
31,306,121134,1,0,0:0:0:0:
30,372,121209,1,8,0:0:0:0:
80,329,121283,1,0,0:0:0:0:
81,264,121357,1,0,0:0:0:0:
82,199,121431,1,0,0:0:0:0:
83,134,121506,6,0,P|35:243|143:221,1,270,8|0,0:0|0:0,0:0:0:0:
362,233,121803,6,0,P|297:215|233:233,1,135.000005149842,14|0,0:0|0:0,0:0:0:0:
393,359,122100,1,8,0:0:0:0:
438,339,122174,1,0,0:0:0:0:
473,303,122248,1,0,0:0:0:0:
491,256,122322,1,0,0:0:0:0:
491,206,122397,1,8,0:0:0:0:
436,190,122471,1,0,0:0:0:0:
411,138,122545,1,0,0:0:0:0:
435,86,122619,1,0,0:0:0:0:
490,70,122694,1,8,0:0:0:0:
466,122,122768,1,0,0:0:0:0:
411,138,122842,1,0,0:0:0:0:
356,122,122916,1,0,0:0:0:0:
332,71,122991,5,14,0:0:0:0:
270,43,123065,1,0,0:0:0:0:
203,34,123139,1,0,0:0:0:0:
137,44,123214,1,0,0:0:0:0:
75,71,123288,1,8,0:0:0:0:
122,102,123362,1,0,0:0:0:0:
118,158,123436,1,0,0:0:0:0:
67,182,123511,1,0,0:0:0:0:
21,149,123585,1,8,0:0:0:0:
67,114,123659,1,0,0:0:0:0:
122,102,123733,1,0,0:0:0:0:
177,116,123808,1,0,0:0:0:0:
223,150,123882,1,8,0:0:0:0:
268,183,123956,1,0,0:0:0:0:
323,197,124030,1,0,0:0:0:0:
378,183,124105,1,0,0:0:0:0:
424,149,124179,102,0,L|442:79,1,67.5000025749208,4|0,0:0|0:0,0:0:0:0:
189,18,124327,1,0,0:0:0:0:
197,50,124402,1,0,0:0:0:0:
206,84,124476,2,0,L|224:154,1,67.5000025749208,2|0,0:0|0:0,0:0:0:0:
323,359,124624,2,0,L|323:291,1,67.5000025749208,2|0,0:0|0:0,0:0:0:0:
440,82,124773,1,10,0:0:0:0:
387,40,124847,1,0,0:0:0:0:
322,25,124921,1,0,0:0:0:0:
257,41,124996,1,0,0:0:0:0:
205,83,125070,1,10,0:0:0:0:
156,127,125144,1,0,0:0:0:0:
90,127,125218,1,0,0:0:0:0:
40,84,125293,1,0,0:0:0:0:
33,18,125367,38,0,P|66:22|99:54,1,67.5000025749208,4|0,0:0|0:0,0:0:0:0:
205,83,125515,2,0,P|215:114|200:158,1,67.5000025749208
0,321,125664,102,0,P|4:288|36:255,1,67.5000025749208,4|0,0:0|0:0,0:0:0:0:
65,149,125813,2,0,P|96:138|140:153,1,67.5000025749208
303,354,125961,6,0,P|270:350|237:318,1,67.5000025749208,4|0,0:0|0:0,0:0:0:0:
131,289,126110,2,0,P|120:257|135:213,1,67.5000025749208
336,51,126258,102,0,P|332:84|300:117,1,67.5000025749208,4|0,0:0|0:0,0:0:0:0:
271,223,126407,2,0,P|239:233|195:218,1,67.5000025749208
80,54,126555,86,0,P|148:66|188:141,1,135.000005149842,14|0,0:0|0:0,0:0:0:0:
98,333,126852,1,8,0:0:0:0:
79,287,126926,1,0,0:0:0:0:
72,237,127001,1,0,0:0:0:0:
79,187,127075,1,0,0:0:0:0:
98,141,127149,1,8,0:0:0:0:
124,183,127223,1,0,0:0:0:0:
169,205,127298,1,0,0:0:0:0:
219,200,127372,1,0,0:0:0:0:
258,168,127446,1,8,0:0:0:0:
283,125,127520,1,0,0:0:0:0:
328,103,127595,1,0,0:0:0:0:
378,108,127669,1,0,0:0:0:0:
417,140,127743,5,14,0:0:0:0:
461,105,127817,1,0,0:0:0:0:
455,49,127892,1,0,0:0:0:0:
405,24,127966,1,0,0:0:0:0:
357,54,128040,1,8,0:0:0:0:
305,83,128114,1,0,0:0:0:0:
247,92,128189,1,0,0:0:0:0:
189,83,128263,1,0,0:0:0:0:
138,54,128337,1,8,0:0:0:0:
90,24,128412,1,0,0:0:0:0:
40,49,128486,1,0,0:0:0:0:
34,105,128560,1,0,0:0:0:0:
79,140,128634,1,8,0:0:0:0:
122,190,128709,1,0,0:0:0:0:
139,255,128783,1,0,0:0:0:0:
124,320,128857,1,0,0:0:0:0:
82,372,128931,102,0,P|36:361|1:284,1,135.000005149842,12|0,0:0|0:0,0:0:0:0:
138,54,129228,1,10,0:0:0:0:
79,295,129377,1,2,0:0:0:0:
318,226,129525,1,10,0:0:0:0:
357,186,129600,1,0,0:0:0:0:
337,134,129674,1,0,0:0:0:0:
281,130,129748,1,0,0:0:0:0:
255,180,129822,1,10,0:0:0:0:
202,219,129897,1,0,0:0:0:0:
135,223,129971,1,0,0:0:0:0:
78,190,130045,1,0,0:0:0:0:
48,130,130119,5,4,0:0:0:0:
114,127,130194,1,0,0:0:0:0:
170,161,130268,1,0,0:0:0:0:
202,219,130342,1,0,0:0:0:0:
185,283,130416,1,8,0:0:0:0:
194,340,130491,1,0,0:0:0:0:
239,377,130565,1,0,0:0:0:0:
297,376,130639,1,0,0:0:0:0:
340,338,130714,102,0,L|366:256,1,67.5000025749208,14|0,0:0|0:0,0:0:0:0:
476,252,130862,2,0,L|496:187,1,67.5000025749208
202,13,131011,2,0,L|222:77,1,67.5000025749208,8|0,0:0|0:0,0:0:0:0:
337,99,131159,2,0,L|357:163,1,67.5000025749208
239,377,131308,6,0,L|198:248,1,135.000005149842,12|0,0:0|0:0,0:0:0:0:
123,11,131605,1,8,0:0:0:0:
105,67,131679,1,0,0:0:0:0:
87,123,131753,1,0,0:0:0:0:
69,179,131827,1,0,0:0:0:0:
51,236,131902,1,8,0:0:0:0:
101,265,131976,1,0,0:0:0:0:
159,275,132050,1,0,0:0:0:0:
217,265,132124,1,0,0:0:0:0:
268,235,132199,1,8,0:0:0:0:
318,205,132273,1,0,0:0:0:0:
376,195,132347,1,0,0:0:0:0:
434,205,132421,1,0,0:0:0:0:
484,234,132496,102,0,P|505:297|484:360,1,135.000005149842,12|0,0:0|0:0,0:0:0:0:
178,371,132793,1,8,0:0:0:0:
151,319,132867,1,0,0:0:0:0:
164,263,132941,1,0,0:0:0:0:
211,229,133015,1,0,0:0:0:0:
268,235,133090,1,8,0:0:0:0:
325,241,133164,1,0,0:0:0:0:
372,207,133238,1,0,0:0:0:0:
385,151,133313,1,0,0:0:0:0:
358,99,133387,1,8,0:0:0:0:
310,56,133461,1,0,0:0:0:0:
253,85,133535,1,0,0:0:0:0:
259,148,133610,1,0,0:0:0:0:
319,167,133684,6,0,L|388:149,1,67.5000025749208,4|0,0:0|0:0,0:0:0:0:
499,313,133832,1,0,0:0:0:0:
433,329,133907,1,0,0:0:0:0:
369,347,133981,2,0,L|299:364,1,67.5000025749208,8|0,0:0|0:0,0:0:0:0:
164,263,134129,2,0,L|233:245,1,67.5000025749208
384,46,134278,102,0,L|318:29,1,67.5000025749208,4|0,0:0|0:0,0:0:0:0:
99,212,134426,1,0,0:0:0:0:
165,228,134501,1,0,0:0:0:0:
229,246,134575,2,0,L|298:263,1,67.5000025749208,8|0,0:0|0:0,0:0:0:0:
449,167,134723,2,0,L|379:149,1,67.5000025749208
53,129,134872,6,0,L|36:194,1,67.5000025749208,12|0,0:0|0:0,0:0:0:0:
121,376,135020,1,0,0:0:0:0:
174,363,135095,1,0,0:0:0:0:
209,320,135169,2,0,L|228:244,1,76.5000014591217,12|0,0:0|0:0,0:0:0:0:
376,16,135317,1,0,0:0:0:0:
312,31,135392,1,0,0:0:0:0:
270,83,135466,2,0,L|246:173,1,85.4999977169037,12|0,0:0|0:0,0:0:0:0:
440,353,135615,101,0,0:0:0:0:
472,320,135689,2,0,B|508:228|436:228|472:147,1,180
376,16,136060,6,0,P|312:31|265:100,1,135.000005149842,12|0,0:0|0:0,0:0:0:0:
121,384,136357,1,8,0:0:0:0:
169,369,136431,1,0,0:0:0:0:
204,334,136506,1,0,0:0:0:0:
219,286,136580,1,0,0:0:0:0:
210,237,136654,1,8,0:0:0:0:
171,203,136728,1,0,0:0:0:0:
154,157,136803,1,0,0:0:0:0:
161,107,136877,1,0,0:0:0:0:
186,62,136951,1,8,0:0:0:0:
221,108,137025,1,0,0:0:0:0:
215,165,137100,1,0,0:0:0:0:
171,203,137174,1,0,0:0:0:0:
113,201,137248,101,12,0:0:0:0:
55,199,137322,1,0,0:0:0:0:
11,237,137397,1,0,0:0:0:0:
5,294,137471,1,0,0:0:0:0:
40,340,137545,1,8,0:0:0:0:
94,361,137619,1,0,0:0:0:0:
153,368,137694,1,0,0:0:0:0:
211,360,137768,1,0,0:0:0:0:
265,336,137842,1,8,0:0:0:0:
318,312,137916,1,0,0:0:0:0:
377,303,137991,1,0,0:0:0:0:
435,310,138065,1,0,0:0:0:0:
490,332,138139,1,8,0:0:0:0:
435,356,138214,1,0,0:0:0:0:
377,365,138288,1,0,0:0:0:0:
319,357,138362,1,0,0:0:0:0:
265,336,138436,6,0,L|201:307,1,67.5000025749208,12|0,0:0|0:0,0:0:0:0:
326,91,138585,1,0,0:0:0:0:
295,76,138659,1,0,0:0:0:0:
265,63,138733,2,0,L|201:93,1,67.5000025749208,10|0,0:0|0:0,0:0:0:0:
0,200,138882,2,0,L|76:200,1,67.5000025749208,2|0,0:0|0:0,0:0:0:0:
326,310,139030,1,10,0:0:0:0:
375,265,139105,1,0,0:0:0:0:
393,201,139179,1,0,0:0:0:0:
375,136,139253,1,0,0:0:0:0:
326,91,139327,1,10,0:0:0:0:
323,26,139402,1,0,0:0:0:0:
379,0,139476,1,0,0:0:0:0:
432,31,139550,1,0,0:0:0:0:
424,95,139624,102,0,P|396:129|360:136,1,67.5000025749208,4|0,0:0|0:0,0:0:0:0:
193,229,139773,1,0,0:0:0:0:
138,203,139847,1,0,0:0:0:0:
123,145,139921,1,8,0:0:0:0:
157,96,139996,1,0,0:0:0:0:
216,90,140070,1,0,0:0:0:0:
259,132,140144,1,0,0:0:0:0:
255,192,140218,2,0,L|248:277,1,67.5000025749208,4|0,0:0|0:0,0:0:0:0:
444,384,140367,1,0,0:0:0:0:
446,350,140441,1,0,0:0:0:0:
450,317,140515,2,0,L|455:249,1,67.5000025749208,8|0,0:0|0:0,0:0:0:0:
363,117,140664,2,0,L|358:185,1,67.5000025749208
134,364,140813,6,0,L|144:229,1,135.000005149842,12|0,0:0|0:0,0:0:0:0:
30,13,141110,1,8,0:0:0:0:
0,52,141184,1,0,0:0:0:0:
8,101,141258,1,0,0:0:0:0:
49,128,141332,1,0,0:0:0:0:
97,118,141407,1,8,0:0:0:0:
145,102,141481,1,0,0:0:0:0:
195,97,141555,1,0,0:0:0:0:
246,102,141629,1,0,0:0:0:0:
294,117,141704,1,8,0:0:0:0:
350,117,141778,1,0,0:0:0:0:
378,68,141852,1,0,0:0:0:0:
350,19,141926,1,0,0:0:0:0:
294,19,142001,101,12,0:0:0:0:
294,78,142075,1,0,0:0:0:0:
293,137,142149,1,0,0:0:0:0:
293,196,142223,1,0,0:0:0:0:
292,255,142298,1,8,0:0:0:0:
325,303,142372,1,0,0:0:0:0:
380,322,142446,1,0,0:0:0:0:
435,304,142520,1,0,0:0:0:0:
467,256,142595,1,8,0:0:0:0:
435,208,142669,1,0,0:0:0:0:
380,190,142743,1,0,0:0:0:0:
325,208,142817,1,0,0:0:0:0:
293,257,142892,1,8,0:0:0:0:
261,305,142966,1,0,0:0:0:0:
206,323,143040,1,0,0:0:0:0:
151,305,143114,1,0,0:0:0:0:
119,257,143189,6,0,L|106:181,1,67.5000025749208,4|0,0:0|0:0,0:0:0:0:
324,74,143337,1,0,0:0:0:0:
329,107,143412,1,0,0:0:0:0:
336,141,143486,2,0,L|324:207,1,67.5000025749208,2|0,0:0|0:0,0:0:0:0:
162,371,143634,2,0,L|149:295,1,67.5000025749208,2|0,0:0|0:0,0:0:0:0:
95,50,143783,1,8,0:0:0:0:
161,38,143857,1,0,0:0:0:0:
220,68,143931,1,0,0:0:0:0:
249,128,144006,1,0,0:0:0:0:
237,193,144080,1,8,0:0:0:0:
225,258,144154,1,0,0:0:0:0:
254,318,144228,1,0,0:0:0:0:
313,348,144303,1,0,0:0:0:0:
379,337,144377,22,0,P|423:323|457:299,1,67.5000025749208,4|0,0:0|0:0,0:0:0:0:
220,68,144525,1,0,0:0:0:0:
161,38,144600,1,0,0:0:0:0:
95,49,144674,2,0,P|51:63|17:87,1,67.5000025749208,4|0,0:0|0:0,0:0:0:0:
403,243,144822,1,0,0:0:0:0:
433,183,144897,1,0,0:0:0:0:
422,117,144971,2,0,P|408:73|384:39,1,67.5000025749208,4|0,0:0|0:0,0:0:0:0:
81,142,145119,1,0,0:0:0:0:
51,202,145194,1,0,0:0:0:0:
62,268,145268,2,0,P|76:312|100:346,1,67.5000025749208,4|0,0:0|0:0,0:0:0:0:
470,239,145416,1,0,0:0:0:0:
433,183,145491,1,0,0:0:0:0:
370,159,145565,70,0,P|301:162|245:200,1,135.000005149842,12|0,0:0|0:0,0:0:0:0:
13,364,145862,1,8,0:0:0:0:
69,328,145936,1,0,0:0:0:0:
103,270,146011,1,0,0:0:0:0:
107,203,146085,1,0,0:0:0:0:
81,142,146159,1,8,0:0:0:0:
101,77,146233,1,0,0:0:0:0:
158,42,146308,1,0,0:0:0:0:
224,49,146382,1,0,0:0:0:0:
271,99,146456,1,8,0:0:0:0:
274,166,146530,1,0,0:0:0:0:
235,221,146605,1,0,0:0:0:0:
168,234,146679,1,0,0:0:0:0:
108,204,146753,5,12,0:0:0:0:
168,174,146827,1,0,0:0:0:0:
235,187,146902,1,0,0:0:0:0:
274,242,146976,1,0,0:0:0:0:
271,309,147050,1,8,0:0:0:0:
331,339,147124,1,0,0:0:0:0:
398,326,147199,1,0,0:0:0:0:
437,271,147273,1,0,0:0:0:0:
434,204,147347,1,8,0:0:0:0:
374,173,147421,1,0,0:0:0:0:
346,112,147496,1,0,0:0:0:0:
369,47,147570,1,0,0:0:0:0:
425,11,147644,1,8,0:0:0:0:
484,42,147718,1,0,0:0:0:0:
512,103,147793,1,0,0:0:0:0:
489,168,147867,1,0,0:0:0:0:
434,204,147941,102,0,P|358:197|296:166,1,135.000005149842,14|2,0:0|0:0,0:0:0:0:
44,61,148238,2,0,P|99:73|120:88,1,67.5000025749208,10|0,0:0|0:0,0:0:0:0:
102,263,148387,2,0,P|72:277|39:281,1,67.5000025749208,2|0,0:0|0:0,0:0:0:0:
175,40,148535,1,14,0:0:0:0:
200,102,148610,1,0,0:0:0:0:
208,169,148684,1,2,0:0:0:0:
200,235,148758,1,0,0:0:0:0:
174,298,148832,1,10,0:0:0:0:
192,360,148907,1,0,0:0:0:0:
255,377,148981,1,2,0:0:0:0:
319,360,149055,1,0,0:0:0:0:
337,298,149129,5,14,0:0:0:0:
355,360,149204,1,0,0:0:0:0:
419,377,149278,1,2,0:0:0:0:
482,360,149352,1,0,0:0:0:0:
500,298,149426,1,10,0:0:0:0:
474,235,149501,1,0,0:0:0:0:
466,169,149575,1,2,0:0:0:0:
474,102,149649,1,0,0:0:0:0:
499,40,149723,102,0,P|446:20|419:12,1,67.5000025749208,10|8,0:0|0:0,0:0:0:0:
195,166,149872,1,0,0:0:0:0:
225,180,149946,1,8,0:0:0:0:
256,192,150020,2,0,P|287:179|317:165,1,67.5000025749208,8|0,0:0|0:0,0:0:0:0:
137,40,150169,2,0,P|108:26|75:13,1,67.5000025749208,8|0,0:0|0:0,0:0:0:0:
75,370,150317,5,12,0:0:0:0:
137,345,150392,1,0,0:0:0:0:
182,296,150466,1,2,0:0:0:0:
203,232,150540,1,0,0:0:0:0:
195,165,150615,1,2,0:0:0:0:
221,104,150689,1,0,0:0:0:0:
271,59,150763,1,2,0:0:0:0:
335,39,150837,1,0,0:0:0:0:
402,48,150912,1,2,0:0:0:0:
376,109,150986,1,0,0:0:0:0:
326,154,151060,1,2,0:0:0:0:
262,174,151134,1,0,0:0:0:0:
195,165,151209,2,0,L|111:154,1,67.5000025749208,10|0,0:0|0:0,0:0:0:0:
6,343,151357,2,0,L|90:354,1,67.5000025749208,2|0,0:0|0:0,0:0:0:0:
334,364,151506,101,6,0:0:0:0:
393,333,151580,1,0,0:0:0:0:
426,276,151654,1,2,0:0:0:0:
421,209,151728,1,0,0:0:0:0:
380,156,151803,1,2,0:0:0:0:
354,96,151877,1,0,0:0:0:0:
389,40,151951,1,2,0:0:0:0:
453,36,152025,1,0,0:0:0:0:
495,85,152100,1,2,0:0:0:0:
437,120,152174,1,0,0:0:0:0:
380,156,152248,1,2,0:0:0:0:
322,121,152322,1,0,0:0:0:0:
265,84,152397,2,0,P|235:69|202:66,1,67.5000025749208,10|0,0:0|0:0,0:0:0:0:
202,323,152545,2,0,P|235:318|265:303,1,67.5000025749208,2|0,0:0|0:0,0:0:0:0:
134,70,152694,5,6,0:0:0:0:
96,125,152768,1,0,0:0:0:0:
83,191,152842,1,2,0:0:0:0:
96,257,152916,1,0,0:0:0:0:
134,312,152991,1,2,0:0:0:0:
202,323,153065,1,0,0:0:0:0:
241,268,153139,1,2,0:0:0:0:
218,206,153214,1,0,0:0:0:0:
151,197,153288,101,6,0:0:0:0:
174,259,153362,1,0,0:0:0:0:
241,268,153436,1,2,0:0:0:0:
282,214,153511,1,0,0:0:0:0:
323,160,153585,1,2,0:0:0:0:
364,106,153659,1,0,0:0:0:0:
431,115,153733,1,2,0:0:0:0:
454,177,153808,1,0,0:0:0:0:
413,231,153882,5,6,0:0:0:0:
349,223,153956,1,0,0:0:0:0:
282,214,154030,1,2,0:0:0:0:
218,206,154105,1,0,0:0:0:0:
151,197,154179,1,6,0:0:0:0:
128,135,154253,1,0,0:0:0:0:
169,81,154327,1,2,0:0:0:0:
236,90,154402,1,0,0:0:0:0:
259,152,154476,101,6,0:0:0:0:
236,223,154550,1,0,0:0:0:0:
258,295,154624,1,2,0:0:0:0:
316,342,154699,1,2,0:0:0:0:
390,349,154773,1,2,0:0:0:0:
456,313,154847,1,2,0:0:0:0:
490,246,154921,1,2,0:0:0:0:
482,172,154996,1,2,0:0:0:0:
433,115,155070,6,0,B|442:135|430:165|430:165|441:185|429:215|429:215|439:235|428:266|428:266|437:286|427:316,1,202.500007724762
236,223,155367,38,0,P|338:187|297:286,1,270
66,359,155961,5,0,0:0:0:0:
66,359,156110,2,0,L|55:290,1,62.9999980773926
30,149,156407,1,0,0:0:0:0:
30,149,156555,2,0,L|42:220,1,72
203,304,156852,5,0,0:0:0:0:
203,304,157001,2,0,L|190:222,1,80.9999975280763
161,60,157298,1,0,0:0:0:0:
161,60,157446,2,0,L|176:148,1,90
348,298,157743,5,0,0:0:0:0:
348,298,157892,2,0,L|333:199,1,99.0000030212403
304,15,158189,1,0,0:0:0:0:
304,15,158337,2,0,L|324:137,1,107.999996704102
494,276,158634,69,0,0:0:0:0:
494,276,158783,2,0,L|475:153,1,116.999994644165
194,122,159080,1,0,0:0:0:0:
194,122,159228,2,0,P|256:112|317:122,1,125.999996154785
18,276,159525,2,0,L|40:142,1,135.000005149842
256,36,159822,6,0,L|256:256,1,216
256,328,160119,1,0,0:0:0:0:
256,192,166957,12,0,169185,0:0:0:0:
256,192,169333,5,0,0:0:0:0:
256,192,169630,1,0,0:0:0:0:
193,263,169779,1,0,0:0:0:0:
226,101,170076,1,0,0:0:0:0:
348,211,170373,6,0,P|334:266|356:369,1,144
412,280,170819,1,0,0:0:0:0:
256,192,171116,1,0,0:0:0:0:
100,280,171413,2,0,L|84:328,3,36
20,267,171710,70,0,P|57:209|126:204,1,144
364,252,172304,2,0,P|294:248|255:191,1,144
344,38,172898,6,0,L|331:182,1,144
444,359,173492,1,0,0:0:0:0:
444,359,173640,2,0,L|440:323,5,36
435,245,174086,5,4,0:0:0:0:
321,307,174383,1,0,0:0:0:0:
191,307,174680,1,0,0:0:0:0:
77,245,174977,1,0,0:0:0:0:
136,192,175125,1,0,0:0:0:0:
77,139,175274,5,4,0:0:0:0:
191,77,175571,1,0,0:0:0:0:
321,77,175868,1,4,0:0:0:0:
435,139,176165,1,0,0:0:0:0:
376,192,176314,1,0,0:0:0:0:
482,310,176462,69,4,0:0:0:0:
327,343,176611,1,0,0:0:0:0:
376,192,176759,1,0,0:0:0:0:
409,347,176908,1,0,0:0:0:0:
258,298,177056,1,0,0:0:0:0:
482,310,177205,1,0,0:0:0:0:
222,225,177353,1,0,0:0:0:0:
409,347,177502,1,0,0:0:0:0:
422,125,177650,5,4,0:0:0:0:
258,338,177799,1,0,0:0:0:0:
222,336,177873,1,0,0:0:0:0:
187,334,177947,1,0,0:0:0:0:
187,116,178096,1,0,0:0:0:0:
222,113,178170,1,0,0:0:0:0:
258,111,178244,1,4,0:0:0:0:
293,109,178319,1,0,0:0:0:0:
308,66,178393,1,0,0:0:0:0:
293,23,178467,1,0,0:0:0:0:
256,0,178541,1,0,0:0:0:0:
210,0,178616,1,0,0:0:0:0:
176,30,178690,1,0,0:0:0:0:
167,75,178764,6,0,L|174:173,1,90
63,127,179135,1,4,0:0:0:0:
277,112,179284,1,0,0:0:0:0:
182,289,179432,1,0,0:0:0:0:
167,75,179581,1,0,0:0:0:0:
387,149,179729,1,0,0:0:0:0:
173,164,179878,1,0,0:0:0:0:
396,274,180026,5,4,0:0:0:0:
427,283,180101,1,0,0:0:0:0:
458,270,180175,1,0,0:0:0:0:
475,241,180249,1,0,0:0:0:0:
470,209,180323,1,4,0:0:0:0:
438,218,180398,1,0,0:0:0:0:
407,205,180472,1,0,0:0:0:0:
390,176,180546,1,0,0:0:0:0:
394,143,180620,69,4,0:0:0:0:
345,117,180695,1,0,0:0:0:0:
290,108,180769,1,0,0:0:0:0:
235,117,180843,1,0,0:0:0:0:
186,144,180918,1,4,0:0:0:0:
135,166,180992,1,0,0:0:0:0:
84,147,181066,1,0,0:0:0:0:
59,98,181140,1,0,0:0:0:0:
75,46,181215,5,4,0:0:0:0:
38,283,181363,1,2,0:0:0:0:
75,46,181660,5,2,0:0:0:0:
57,165,181957,1,2,0:0:0:0:
38,283,182254,1,2,0:0:0:0:
175,183,182403,5,0,0:0:0:0:
175,183,182551,1,0,0:0:0:0:
308,286,182700,2,0,P|368:287|442:210,1,161.999995056153
345,111,182997,2,2,L|337:182,2,71.9999978027344,0|0|0,0:0|0:0|0:0,0:0:0:0:
167,111,183294,2,0,L|174:182,2,71.9999978027344
256,28,183591,53,4,0:0:0:0:
256,100,183690,1,0,0:0:0:0:
256,172,183789,1,0,0:0:0:0:
256,244,183888,1,0,0:0:0:0:
244,28,184185,101,4,0:0:0:0:
268,100,184284,1,0,0:0:0:0:
244,172,184383,1,0,0:0:0:0:
268,244,184482,1,0,0:0:0:0:
232,28,184779,5,4,0:0:0:0:
280,100,184878,1,0,0:0:0:0:
232,172,184977,1,0,0:0:0:0:
280,244,185076,1,4,0:0:0:0:
241,321,185175,1,0,0:0:0:0:
154,326,185274,1,0,0:0:0:0:
106,254,185373,1,4,0:0:0:0:
192,248,185472,1,0,0:0:0:0:
241,321,185571,1,0,0:0:0:0:
327,315,185670,1,4,0:0:0:0:
365,238,185769,1,0,0:0:0:0:
318,166,185868,1,0,0:0:0:0:
232,172,185967,101,4,0:0:0:0:
253,105,186066,1,0,0:0:0:0:
317,77,186165,1,0,0:0:0:0:
381,106,186264,1,0,0:0:0:0:
214,176,186561,5,4,0:0:0:0:
240,96,186660,1,0,0:0:0:0:
317,62,186759,1,0,0:0:0:0:
393,97,186858,1,0,0:0:0:0:
197,181,187155,101,4,0:0:0:0:
227,88,187254,1,0,0:0:0:0:
317,48,187353,1,0,0:0:0:0:
405,89,187452,1,4,0:0:0:0:
364,177,187551,1,0,0:0:0:0:
404,267,187650,1,0,0:0:0:0:
497,297,187749,1,4,0:0:0:0:
457,207,187848,1,0,0:0:0:0:
364,177,187947,1,0,0:0:0:0:
276,218,188046,1,4,0:0:0:0:
186,178,188145,1,0,0:0:0:0:
156,85,188244,1,0,0:0:0:0:
60,64,188343,5,4,0:0:0:0:
63,134,188442,1,0,0:0:0:0:
115,181,188541,1,0,0:0:0:0:
186,178,188640,2,0,L|269:163,2,71.9999978027344
38,211,188937,1,4,0:0:0:0:
41,281,189036,1,0,0:0:0:0:
93,328,189135,1,0,0:0:0:0:
164,325,189234,2,0,L|247:310,2,71.9999978027344
38,211,189531,101,4,0:0:0:0:
115,181,189630,1,0,0:0:0:0:
179,233,189729,1,0,0:0:0:0:
256,203,189828,1,0,0:0:0:0:
333,233,189927,1,0,0:0:0:0:
396,181,190026,1,0,0:0:0:0:
474,211,190125,6,4,L|496:283,1,71.9999978027344,0|0,0:0|0:0,0:0:0:0:
256,72,190323,2,0,L|256:0,1,71.9999978027344
38,211,190521,2,0,L|16:283,1,71.9999978027344
256,352,190719,101,4,0:0:0:0:
325,308,190819,1,0,0:0:0:0:
349,230,190918,1,0,0:0:0:0:
315,155,191017,2,0,P|295:107|295:59,2,71.9999978027344
256,352,191314,1,4,0:0:0:0:
186,308,191413,1,0,0:0:0:0:
162,230,191512,1,0,0:0:0:0:
196,155,191611,2,0,P|215:107|215:59,2,71.9999978027344
48,328,191908,6,0,B|32:256|32:256|57:190,1,143.999995605469
256,352,192205,2,0,L|256:200,1,143.999995605469
464,328,192502,2,0,B|480:256|480:256|454:190,1,143.999995605469
256,52,192799,2,0,L|256:124,2,71.9999978027344
143,20,193096,101,4,0:0:0:0:
83,56,193195,1,0,0:0:0:0:
53,121,193294,1,0,0:0:0:0:
63,191,193393,1,0,0:0:0:0:
368,20,193690,5,4,0:0:0:0:
434,60,193789,1,0,0:0:0:0:
468,131,193888,1,0,0:0:0:0:
456,208,193987,1,0,0:0:0:0:
44,354,194284,101,4,0:0:0:0:
98,292,194383,1,0,0:0:0:0:
179,272,194482,1,0,0:0:0:0:
255,302,194581,1,4,0:0:0:0:
332,272,194680,1,0,0:0:0:0:
413,292,194779,1,0,0:0:0:0:
467,354,194878,1,4,0:0:0:0:
387,335,194977,1,0,0:0:0:0:
333,272,195076,1,0,0:0:0:0:
323,189,195175,1,4,0:0:0:0:
313,106,195274,1,0,0:0:0:0:
259,43,195373,1,0,0:0:0:0:
179,24,195472,5,4,0:0:0:0:
132,79,195571,1,0,0:0:0:0:
138,149,195670,1,0,0:0:0:0:
91,203,195769,1,0,0:0:0:0:
333,24,196066,101,4,0:0:0:0:
386,86,196165,1,0,0:0:0:0:
379,166,196264,1,0,0:0:0:0:
433,228,196363,1,0,0:0:0:0:
135,367,196660,5,4,0:0:0:0:
215,343,196759,1,0,0:0:0:0:
296,320,196858,1,0,0:0:0:0:
377,297,196957,1,4,0:0:0:0:
297,273,197056,1,0,0:0:0:0:
216,250,197155,1,0,0:0:0:0:
135,227,197254,1,4,0:0:0:0:
215,203,197353,1,0,0:0:0:0:
296,180,197452,1,0,0:0:0:0:
377,157,197551,1,4,0:0:0:0:
297,133,197650,1,0,0:0:0:0:
216,110,197749,1,0,0:0:0:0:
135,87,197848,101,4,0:0:0:0:
195,33,197947,1,0,0:0:0:0:
273,55,198046,1,0,0:0:0:0:
297,132,198145,1,0,0:0:0:0:
46,338,198442,5,4,0:0:0:0:
67,268,198541,1,0,0:0:0:0:
137,248,198640,1,0,0:0:0:0:
192,297,198739,1,0,0:0:0:0:
483,346,199036,101,4,0:0:0:0:
459,269,199135,1,0,0:0:0:0:
381,247,199234,1,0,0:0:0:0:
320,301,199333,1,4,0:0:0:0:
242,279,199432,1,0,0:0:0:0:
218,202,199531,1,0,0:0:0:0:
272,142,199630,6,4,L|330:94,1,71.9999978027344,0|0,0:0|0:0,0:0:0:0:
0,96,199828,2,0,L|58:144,1,71.9999978027344
161,378,200026,2,0,L|161:306,1,71.9999978027344
250,73,200224,101,4,0:0:0:0:
201,10,200323,1,0,0:0:0:0:
122,10,200422,1,0,0:0:0:0:
72,71,200521,2,0,L|50:166,2,71.9999978027344,4|0|0,0:0|0:0|0:0,0:0:0:0:
250,73,200819,1,4,0:0:0:0:
299,10,200918,1,0,0:0:0:0:
378,10,201017,1,0,0:0:0:0:
428,71,201116,2,0,L|450:166,2,71.9999978027344,4|0|0,0:0|0:0|0:0,0:0:0:0:
158,94,201413,6,0,B|141:164|141:164|86:265,1,143.999995605469,4|0,0:0|0:0,0:0:0:0:
256,384,201710,2,0,L|256:236,1,143.999995605469,4|0,0:0|0:0,0:0:0:0:
354,94,202007,2,0,B|371:164|371:164|405:227,1,143.999995605469,4|0,0:0|0:0,0:0:0:0:
256,68,202304,102,0,L|256:0,1,67.5
256,152,202601,21,4,0:0:0:0:
216,145,202675,1,0,0:0:0:0:
185,120,202749,1,0,0:0:0:0:
169,83,202823,1,0,0:0:0:0:
174,44,202898,1,0,0:0:0:0:
132,20,202972,1,0,0:0:0:0:
85,32,203046,1,0,0:0:0:0:
58,72,203120,1,0,0:0:0:0:
66,120,203195,1,0,0:0:0:0:
87,164,203269,1,0,0:0:0:0:
95,213,203343,1,0,0:0:0:0:
87,261,203418,1,0,0:0:0:0:
65,306,203492,1,0,0:0:0:0:
28,274,203566,1,0,0:0:0:0:
20,226,203640,1,0,0:0:0:0:
43,183,203715,1,0,0:0:0:0:
87,164,203789,6,0,L|156:148,1,49.5000015106202,8|0,0:0|0:0,0:0:0:0:
284,255,203937,1,0,0:0:0:0:
241,231,204012,1,0,0:0:0:0:
221,187,204086,2,0,L|204:118,1,49.5000015106202
367,28,204234,1,0,0:0:0:0:
410,52,204309,1,0,0:0:0:0:
430,96,204383,2,0,L|446:164,1,49.5000015106202
221,187,204531,1,0,0:0:0:0:
244,144,204606,1,0,0:0:0:0:
288,125,204680,2,0,L|356:108,3,49.5000015106202,8|0|0|0,0:0|0:0|0:0|0:0,0:0:0:0:
187,64,204977,21,4,0:0:0:0:
140,50,205051,1,0,0:0:0:0:
98,72,205125,1,0,0:0:0:0:
83,118,205200,1,0,0:0:0:0:
104,160,205274,1,0,0:0:0:0:
127,204,205348,1,0,0:0:0:0:
135,253,205422,1,0,0:0:0:0:
127,301,205497,1,0,0:0:0:0:
106,346,205571,1,0,0:0:0:0:
147,371,205645,1,0,0:0:0:0:
196,370,205719,1,0,0:0:0:0:
237,343,205794,1,0,0:0:0:0:
256,298,205868,1,0,0:0:0:0:
275,253,205942,1,0,0:0:0:0:
316,226,206017,1,0,0:0:0:0:
365,224,206091,1,0,0:0:0:0:
406,250,206165,70,0,L|456:284,1,49.5000015106202,8|0,0:0|0:0,0:0:0:0:
339,154,206314,1,0,0:0:0:0:
290,152,206388,1,0,0:0:0:0:
248,178,206462,2,0,L|198:211,1,49.5000015106202
316,81,206611,1,0,0:0:0:0:
365,79,206685,1,0,0:0:0:0:
407,105,206759,2,0,L|456:138,1,49.5000015106202
338,8,206908,1,0,0:0:0:0:
289,6,206982,1,0,0:0:0:0:
247,32,207056,2,0,L|197:65,3,49.5000015106202,8|0|0|0,0:0|0:0|0:0|0:0,0:0:0:0:
133,104,207353,6,0,L|21:100,1,99.0000030212403,4|0,0:0|0:0,0:0:0:0:
226,283,207650,22,0,L|275:284,1,49.5000015106202
426,147,207799,2,0,L|376:148,1,49.5000015106202
334,347,207947,2,0,L|362:300,1,53.9999983520508
316,81,208096,2,0,L|290:129,1,53.9999983520508
456,278,208244,2,0,L|428:225,1,58.4999973220826
195,151,208393,2,0,L|226:201,1,58.4999973220826
488,144,208541,70,0,L|425:146,1,62.9999980773926,4|0,0:0|0:0,0:0:0:0:
163,285,208690,2,0,L|225:282,1,62.9999980773926,4|0,0:0|0:0,0:0:0:0:
386,85,208838,1,0,0:0:0:0:
361,66,208913,1,0,0:0:0:0:
331,59,208987,1,0,0:0:0:0:
300,65,209061,1,0,0:0:0:0:
275,84,209135,2,0,L|277:167,1,62.9999980773926,4|0,0:0|0:0,0:0:0:0:
164,347,209284,2,0,L|162:284,1,62.9999980773926,4|0,0:0|0:0,0:0:0:0:
51,43,209432,1,0,0:0:0:0:
32,68,209507,1,0,0:0:0:0:
25,98,209581,1,2,0:0:0:0:
31,129,209655,1,0,0:0:0:0:
49,154,209729,6,0,L|132:152,1,62.9999980773926,4|0,0:0|0:0,0:0:0:0:
369,137,209878,1,0,0:0:0:0:
330,97,209952,1,0,0:0:0:0:
275,84,210026,1,0,0:0:0:0:
144,354,210175,1,0,0:0:0:0:
199,341,210249,1,0,0:0:0:0:
238,301,210323,1,0,0:0:0:0:
49,59,210472,1,0,0:0:0:0:
49,106,210546,1,0,0:0:0:0:
49,154,210620,1,0,0:0:0:0:
82,196,210695,1,0,0:0:0:0:
133,214,210769,1,0,0:0:0:0:
186,201,210843,1,0,0:0:0:0:
223,161,210918,21,4,0:0:0:0:
184,114,210992,1,0,0:0:0:0:
200,55,211066,1,0,0:0:0:0:
256,33,211140,1,0,0:0:0:0:
307,65,211215,1,0,0:0:0:0:
359,99,211289,1,0,0:0:0:0:
423,99,211363,1,0,0:0:0:0:
473,65,211437,1,0,0:0:0:0:
497,8,211512,1,0,0:0:0:0:
446,42,211586,1,0,0:0:0:0:
423,99,211660,1,0,0:0:0:0:
437,161,211734,1,0,0:0:0:0:
481,204,211809,69,0,0:0:0:0:
438,222,211883,1,0,0:0:0:0:
395,206,211957,1,0,0:0:0:0:
375,164,212031,1,0,0:0:0:0:
389,120,212106,6,0,P|406:84|287:50,1,198.000006042481
51,199,212700,2,0,L|31:260,3,49.5000015106202
122,269,212997,2,0,L|138:317,3,49.5000015106202
232,222,213294,22,0,L|212:283,3,49.5000015106202
303,292,213591,2,0,L|318:339,3,49.5000015106202
328,201,213888,2,0,L|348:140,3,49.5000015106202
271,101,214185,2,0,L|251:40,3,49.5000015106202
329,9,214482,69,2,0:0:0:0:
329,9,214779,2,0,L|390:29,1,49.5000015106202,2|0,0:0|0:0,0:0:0:0:
415,91,214927,2,0,L|476:111,1,49.5000015106202,2|0,0:0|0:0,0:0:0:0:
497,177,215076,1,2,0:0:0:0:
479,195,215150,1,0,0:0:0:0:
473,219,215224,1,0,0:0:0:0:
479,243,215299,1,0,0:0:0:0:
496,262,215373,1,2,0:0:0:0:
492,286,215447,1,0,0:0:0:0:
475,303,215521,1,0,0:0:0:0:
451,307,215596,1,0,0:0:0:0:
428,298,215670,5,4,0:0:0:0:
399,350,215744,1,0,0:0:0:0:
340,365,215819,1,0,0:0:0:0:
290,332,215893,1,0,0:0:0:0:
280,272,215967,1,0,0:0:0:0:
317,223,216041,1,0,0:0:0:0:
330,163,216116,1,0,0:0:0:0:
317,103,216190,1,0,0:0:0:0:
281,54,216264,1,8,0:0:0:0:
231,90,216338,1,0,0:0:0:0:
171,102,216413,1,0,0:0:0:0:
111,89,216487,1,0,0:0:0:0:
62,53,216561,22,0,P|169:72|90:147,1,270,8|0,0:0|0:0,0:0:0:0:
40,340,216858,6,0,P|20:276|40:212,1,135.000005149842,12|0,0:0|0:0,0:0:0:0:
244,73,217155,1,8,0:0:0:0:
242,114,217229,1,0,0:0:0:0:
228,154,217304,1,0,0:0:0:0:
202,187,217378,1,0,0:0:0:0:
168,211,217452,1,8,0:0:0:0:
135,236,217526,1,0,0:0:0:0:
123,276,217601,1,0,0:0:0:0:
137,315,217675,1,0,0:0:0:0:
171,338,217749,1,8,0:0:0:0:
215,312,217823,1,0,0:0:0:0:
264,303,217898,1,0,0:0:0:0:
314,312,217972,1,0,0:0:0:0:
357,337,218046,5,12,0:0:0:0:
404,367,218120,1,0,0:0:0:0:
457,346,218195,1,0,0:0:0:0:
470,291,218269,1,0,0:0:0:0:
432,249,218343,1,8,0:0:0:0:
397,202,218418,1,0,0:0:0:0:
385,145,218492,1,0,0:0:0:0:
397,88,218566,1,0,0:0:0:0:
433,41,218640,1,8,0:0:0:0:
455,92,218715,1,0,0:0:0:0:
423,139,218789,1,0,0:0:0:0:
367,138,218863,1,0,0:0:0:0:
337,90,218937,1,8,0:0:0:0:
279,56,219012,1,0,0:0:0:0:
213,44,219086,1,0,0:0:0:0:
147,56,219160,1,0,0:0:0:0:
89,89,219234,102,0,L|71:184,1,67.5000025749208,4|0,0:0|0:0,0:0:0:0:
189,355,219383,1,0,0:0:0:0:
222,361,219457,1,0,0:0:0:0:
255,367,219531,2,0,L|267:300,1,67.5000025749208,2|0,0:0|0:0,0:0:0:0:
213,44,219680,2,0,L|200:110,1,67.5000025749208,2|0,0:0|0:0,0:0:0:0:
358,321,219828,1,10,0:0:0:0:
423,307,219903,1,0,0:0:0:0:
467,258,219977,1,0,0:0:0:0:
473,192,220051,1,0,0:0:0:0:
439,135,220125,1,10,0:0:0:0:
379,110,220200,1,0,0:0:0:0:
371,41,220274,1,0,0:0:0:0:
426,1,220348,1,0,0:0:0:0:
486,29,220422,38,0,P|493:67|487:110,1,67.5000025749208,4|0,0:0|0:0,0:0:0:0:
408,277,220571,2,0,P|385:302|357:320,1,67.5000025749208
97,172,220719,102,0,P|124:151|156:140,1,67.5000025749208,4|0,0:0|0:0,0:0:0:0:
355,140,220868,2,0,P|387:151|414:172,1,67.5000025749208
154,320,221017,6,0,P|126:302|104:277,1,67.5000025749208,4|0,0:0|0:0,0:0:0:0:
20,95,221165,2,0,P|18:61|26:29,1,67.5000025749208
414,172,221314,102,0,P|387:192|355:204,1,67.5000025749208,4|0,0:0|0:0,0:0:0:0:
155,204,221462,2,0,P|123:192|96:171,1,67.5000025749208
256,0,221611,86,0,L|256:144,1,135.000005149842,12|0,0:0|0:0,0:0:0:0:
424,352,221908,1,8,0:0:0:0:
436,306,221982,1,0,0:0:0:0:
401,271,222056,1,0,0:0:0:0:
355,283,222130,1,0,0:0:0:0:
340,330,222205,1,8,0:0:0:0:
296,355,222279,1,0,0:0:0:0:
246,364,222353,1,0,0:0:0:0:
197,355,222427,1,0,0:0:0:0:
154,329,222502,1,8,0:0:0:0:
122,290,222576,1,0,0:0:0:0:
106,242,222650,1,0,0:0:0:0:
108,192,222724,1,0,0:0:0:0:
127,145,222799,5,12,0:0:0:0:
169,177,222873,1,0,0:0:0:0:
158,229,222947,1,0,0:0:0:0:
106,241,223021,1,0,0:0:0:0:
64,208,223096,1,8,0:0:0:0:
37,156,223170,1,0,0:0:0:0:
49,99,223244,1,0,0:0:0:0:
93,61,223319,1,0,0:0:0:0:
151,60,223393,1,8,0:0:0:0:
202,88,223467,1,0,0:0:0:0:
260,98,223541,1,0,0:0:0:0:
317,88,223616,1,0,0:0:0:0:
369,59,223690,1,8,0:0:0:0:
311,27,223764,1,0,0:0:0:0:
246,38,223838,1,0,0:0:0:0:
202,88,223913,1,0,0:0:0:0:
200,154,223987,102,0,L|206:227,1,67.5000025749208,4|0,0:0|0:0,0:0:0:0:
351,369,224135,1,0,0:0:0:0:
379,349,224210,1,0,0:0:0:0:
406,331,224284,2,0,L|400:263,1,67.5000025749208,10|0,0:0|0:0,0:0:0:0:
246,38,224432,2,0,L|251:110,1,67.5000025749208,2|0,0:0|0:0,0:0:0:0:
478,291,224581,1,10,0:0:0:0:
478,241,224655,1,0,0:0:0:0:
451,199,224729,1,0,0:0:0:0:
404,181,224804,1,0,0:0:0:0:
356,193,224878,1,10,0:0:0:0:
305,223,224952,1,0,0:0:0:0:
247,233,225026,1,0,0:0:0:0:
189,223,225101,1,0,0:0:0:0:
138,194,225175,5,12,0:0:0:0:
196,162,225249,1,0,0:0:0:0:
261,173,225323,1,0,0:0:0:0:
305,223,225398,1,0,0:0:0:0:
307,289,225472,1,8,0:0:0:0:
269,340,225546,1,0,0:0:0:0:
204,358,225620,1,0,0:0:0:0:
144,335,225695,1,0,0:0:0:0:
107,280,225769,2,0,L|95:208,1,67.5000025749208,12|0,0:0|0:0,0:0:0:0:
60,26,225918,2,0,L|72:98,1,67.5000025749208
266,280,226066,2,0,L|278:208,1,67.5000025749208,14|0,0:0|0:0,0:0:0:0:
313,26,226215,2,0,L|301:98,1,67.5000025749208
186,384,226363,102,0,L|186:244,1,135.000005149842,12|0,0:0|0:0,0:0:0:0:
184,8,226660,1,8,0:0:0:0:
148,27,226734,1,0,0:0:0:0:
146,67,226809,1,0,0:0:0:0:
179,90,226883,1,0,0:0:0:0:
216,75,226957,1,8,0:0:0:0:
262,55,227031,1,0,0:0:0:0:
312,49,227106,1,0,0:0:0:0:
362,56,227180,1,0,0:0:0:0:
408,76,227254,1,8,0:0:0:0:
363,110,227328,1,0,0:0:0:0:
369,166,227403,1,0,0:0:0:0:
421,189,227477,1,0,0:0:0:0:
467,156,227551,6,0,L|488:16,1,135.000005149842,4|0,0:0|0:0,0:0:0:0:
25,22,227848,1,8,0:0:0:0:
32,73,227922,1,0,0:0:0:0:
39,123,227997,1,0,0:0:0:0:
47,173,228071,1,0,0:0:0:0:
54,223,228145,1,8,0:0:0:0:
99,186,228219,1,0,0:0:0:0:
157,186,228294,1,0,0:0:0:0:
202,222,228368,1,0,0:0:0:0:
214,279,228442,1,8,0:0:0:0:
266,322,228517,1,0,0:0:0:0:
331,337,228591,1,0,0:0:0:0:
396,322,228665,1,0,0:0:0:0:
448,280,228739,102,0,L|457:213,1,67.5000025749208,4|0,0:0|0:0,0:0:0:0:
318,56,228888,1,0,0:0:0:0:
272,77,228962,1,0,0:0:0:0:
239,115,229036,2,0,L|230:182,1,67.5000025749208,8|0,0:0|0:0,0:0:0:0:
205,345,229185,2,0,L|214:278,1,67.5000025749208
75,89,229333,2,0,L|142:98,1,67.5000025749208,4|0,0:0|0:0,0:0:0:0:
443,143,229482,1,0,0:0:0:0:
422,97,229556,1,0,0:0:0:0:
384,64,229630,2,0,L|317:55,1,67.5000025749208,8|0,0:0|0:0,0:0:0:0:
147,269,229779,2,0,L|214:278,1,67.5000025749208
497,107,229927,6,0,L|421:96,1,76.5000014591217,4|0,0:0|0:0,0:0:0:0:
188,360,230076,1,0,0:0:0:0:
244,360,230150,1,0,0:0:0:0:
288,325,230224,2,0,L|298:244,1,80.9999975280763,4|0,0:0|0:0,0:0:0:0:
136,5,230373,1,0,0:0:0:0:
79,4,230447,1,0,0:0:0:0:
36,40,230521,2,0,L|24:124,1,85.4999977169037,4|0,0:0|0:0,0:0:0:0:
174,322,230670,101,0,0:0:0:0:
213,277,230744,2,0,B|249:185|177:185|213:104,1,180
361,23,231116,6,0,P|422:48|459:104,1,135.000005149842,12|0,0:0|0:0,0:0:0:0:
357,368,231413,1,8,0:0:0:0:
317,379,231487,1,0,0:0:0:0:
282,359,231561,1,0,0:0:0:0:
271,319,231635,1,0,0:0:0:0:
293,284,231710,1,8,0:0:0:0:
317,240,231784,1,0,0:0:0:0:
326,190,231858,1,0,0:0:0:0:
317,140,231932,1,0,0:0:0:0:
292,97,232007,1,8,0:0:0:0:
273,51,232081,1,0,0:0:0:0:
296,8,232155,1,0,0:0:0:0:
344,0,232229,1,0,0:0:0:0:
383,28,232304,101,12,0:0:0:0:
383,76,232378,1,0,0:0:0:0:
425,101,232452,1,0,0:0:0:0:
467,78,232526,1,0,0:0:0:0:
469,29,232601,1,8,0:0:0:0:
427,53,232675,1,0,0:0:0:0:
425,101,232749,1,0,0:0:0:0:
427,149,232823,1,0,0:0:0:0:
470,173,232898,1,8,0:0:0:0:
493,225,232972,1,0,0:0:0:0:
473,280,233046,1,0,0:0:0:0:
421,305,233120,1,0,0:0:0:0:
366,289,233195,1,8,0:0:0:0:
327,237,233269,1,0,0:0:0:0:
263,242,233343,1,0,0:0:0:0:
232,299,233418,1,0,0:0:0:0:
264,355,233492,6,0,L|336:369,1,67.5000025749208,4|0,0:0|0:0,0:0:0:0:
504,158,233640,1,0,0:0:0:0:
498,191,233715,1,0,0:0:0:0:
493,225,233789,2,0,L|421:238,1,67.5000025749208,2|0,0:0|0:0,0:0:0:0:
166,287,233937,2,0,L|237:300,1,67.5000025749208,2|0,0:0|0:0,0:0:0:0:
504,158,234086,1,10,0:0:0:0:
487,94,234160,1,0,0:0:0:0:
428,66,234234,1,0,0:0:0:0:
369,94,234309,1,0,0:0:0:0:
353,157,234383,1,10,0:0:0:0:
355,213,234457,1,0,0:0:0:0:
308,243,234531,1,0,0:0:0:0:
259,216,234606,1,0,0:0:0:0:
259,160,234680,102,0,L|263:82,1,67.5000025749208,4|0,0:0|0:0,0:0:0:0:
68,1,234828,1,0,0:0:0:0:
18,24,234903,1,0,0:0:0:0:
0,76,234977,1,8,0:0:0:0:
23,125,235051,1,0,0:0:0:0:
75,143,235125,1,0,0:0:0:0:
124,118,235200,1,0,0:0:0:0:
142,66,235274,2,0,L|74:71,1,67.5000025749208,4|0,0:0|0:0,0:0:0:0:
7,276,235422,1,0,0:0:0:0:
40,278,235497,1,0,0:0:0:0:
74,281,235571,2,0,L|141:275,1,67.5000025749208,8|0,0:0|0:0,0:0:0:0:
208,117,235719,2,0,L|275:123,1,67.5000025749208
409,314,235868,6,0,P|473:296|510:241,1,135.000005149842,12|0,0:0|0:0,0:0:0:0:
287,28,236165,1,8,0:0:0:0:
267,74,236239,1,0,0:0:0:0:
275,123,236314,1,0,0:0:0:0:
309,160,236388,1,0,0:0:0:0:
357,174,236462,1,8,0:0:0:0:
405,160,236536,1,0,0:0:0:0:
438,122,236611,1,0,0:0:0:0:
445,73,236685,1,0,0:0:0:0:
426,27,236759,1,8,0:0:0:0:
378,41,236833,1,0,0:0:0:0:
345,79,236908,1,0,0:0:0:0:
338,128,236982,1,0,0:0:0:0:
356,174,237056,101,12,0:0:0:0:
316,216,237130,1,0,0:0:0:0:
260,231,237205,1,0,0:0:0:0:
204,216,237279,1,0,0:0:0:0:
164,174,237353,1,8,0:0:0:0:
114,143,237427,1,0,0:0:0:0:
57,148,237502,1,0,0:0:0:0:
14,187,237576,1,0,0:0:0:0:
3,244,237650,1,8,0:0:0:0:
29,296,237724,1,0,0:0:0:0:
81,322,237799,1,0,0:0:0:0:
138,311,237873,1,0,0:0:0:0:
177,268,237947,1,8,0:0:0:0:
124,227,238021,1,0,0:0:0:0:
104,164,238096,1,0,0:0:0:0:
124,101,238170,1,0,0:0:0:0:
176,60,238244,6,0,L|250:46,1,67.5000025749208,4|0,0:0|0:0,0:0:0:0:
495,167,238393,1,0,0:0:0:0:
476,195,238467,1,0,0:0:0:0:
458,224,238541,2,0,L|384:238,1,67.5000025749208,2|0,0:0|0:0,0:0:0:0:
110,281,238690,2,0,L|176:267,1,67.5000025749208,2|0,0:0|0:0,0:0:0:0:
501,71,238838,1,10,0:0:0:0:
434,71,238913,1,0,0:0:0:0:
382,112,238987,1,0,0:0:0:0:
366,176,239061,1,0,0:0:0:0:
392,237,239135,1,10,0:0:0:0:
395,303,239210,1,0,0:0:0:0:
358,357,239284,1,0,0:0:0:0:
296,379,239358,1,0,0:0:0:0:
234,358,239432,22,0,P|196:328|171:272,1,90,4|0,0:0|0:0,0:0:0:0:
320,6,239581,1,0,0:0:0:0:
370,48,239655,1,0,0:0:0:0:
382,112,239729,2,0,P|375:159|339:209,1,90,4|0,0:0|0:0,0:0:0:0:
36,215,239878,1,0,0:0:0:0:
47,150,239952,1,0,0:0:0:0:
97,107,240026,2,0,P|141:89|202:95,1,90,4|0,0:0|0:0,0:0:0:0:
456,195,240175,1,0,0:0:0:0:
445,260,240249,1,0,0:0:0:0:
395,303,240323,2,0,P|350:320|289:314,1,90,4|0,0:0|0:0,0:0:0:0:
16,35,240472,1,0,0:0:0:0:
77,12,240546,1,0,0:0:0:0:
140,33,240620,70,0,P|182:89|178:159,1,144,12|0,0:0|0:0,0:0:0:0:
32,352,240918,1,8,0:0:0:0:
7,306,240992,1,0,0:0:0:0:
31,260,241066,1,0,0:0:0:0:
83,256,241140,1,0,0:0:0:0:
115,297,241215,1,8,0:0:0:0:
160,340,241289,1,0,0:0:0:0:
220,356,241363,1,0,0:0:0:0:
281,343,241437,1,0,0:0:0:0:
328,301,241512,1,8,0:0:0:0:
350,239,241586,1,0,0:0:0:0:
411,218,241660,1,0,0:0:0:0:
466,254,241734,1,0,0:0:0:0:
473,318,241809,5,12,0:0:0:0:
427,365,241883,1,0,0:0:0:0:
361,355,241957,1,0,0:0:0:0:
328,301,242031,1,0,0:0:0:0:
350,239,242106,1,8,0:0:0:0:
316,184,242180,1,0,0:0:0:0:
251,174,242254,1,0,0:0:0:0:
206,220,242328,1,0,0:0:0:0:
211,285,242403,1,8,0:0:0:0:
256,238,242477,1,0,0:0:0:0:
251,173,242551,1,0,0:0:0:0:
216,117,242625,1,0,0:0:0:0:
153,105,242700,1,8,0:0:0:0:
92,137,242774,1,0,0:0:0:0:
37,97,242848,1,0,0:0:0:0:
47,30,242922,1,0,0:0:0:0:
112,9,242997,102,0,L|196:20,1,72,12|0,0:0|0:0,0:0:0:0:
497,101,243145,1,0,0:0:0:0:
468,122,243219,1,0,0:0:0:0:
440,145,243294,2,0,L|356:156,1,72,8|0,0:0|0:0,0:0:0:0:
112,281,243442,2,0,L|196:292,1,72
422,344,243591,1,8,0:0:0:0:
471,309,243665,1,0,0:0:0:0:
465,249,243739,1,0,0:0:0:0:
411,224,243814,1,0,0:0:0:0:
361,259,243888,1,8,0:0:0:0:
306,290,243962,1,0,0:0:0:0:
245,301,244036,1,0,0:0:0:0:
183,290,244111,1,0,0:0:0:0:
129,258,244185,5,12,0:0:0:0:
197,236,244259,1,0,0:0:0:0:
240,177,244333,1,0,0:0:0:0:
240,104,244408,1,0,0:0:0:0:
197,47,244482,1,8,0:0:0:0:
129,25,244556,1,0,0:0:0:0:
60,47,244630,1,0,0:0:0:0:
18,105,244705,1,0,0:0:0:0:
18,177,244779,2,0,L|95:189,1,72,12|8,0:0|0:0,0:0:0:0:
268,35,244927,1,0,0:0:0:0:
268,35,245002,1,8,0:0:0:0:
268,35,245076,2,0,L|191:47,1,72,12|0,0:0|0:0,0:0:0:0:
195,282,245224,2,0,L|272:294,1,72,8|0,0:0|0:0,0:0:0:0:
496,169,245373,101,14,0:0:0:0:
472,101,245447,1,0,0:0:0:0:
409,65,245521,1,10,0:0:0:0:
338,78,245596,1,0,0:0:0:0:
292,133,245670,1,10,0:0:0:0:
292,205,245744,1,0,0:0:0:0:
338,260,245819,1,10,0:0:0:0:
409,273,245893,1,0,0:0:0:0:
472,237,245967,1,10,0:0:0:0:
426,182,246041,1,0,0:0:0:0:
355,169,246116,1,10,0:0:0:0:
292,205,246190,1,0,0:0:0:0:
228,241,246264,2,0,P|194:249|158:251,1,72,2|0,0:0|0:0,0:0:0:0:
0,74,246413,2,0,P|35:75|70:84,1,72
162,340,246561,5,14,0:0:0:0:
96,314,246635,1,0,0:0:0:0:
70,250,246710,1,10,0:0:0:0:
98,186,246784,1,0,0:0:0:0:
164,163,246858,1,10,0:0:0:0:
221,122,246932,1,0,0:0:0:0:
223,52,247007,1,10,0:0:0:0:
169,8,247081,1,0,0:0:0:0:
101,22,247155,1,10,0:0:0:0:
154,66,247229,1,0,0:0:0:0:
222,52,247304,1,10,0:0:0:0:
290,38,247378,1,0,0:0:0:0:
358,24,247452,2,0,L|429:12,1,72,10|0,0:0|0:0,0:0:0:0:
429,300,247601,2,0,L|357:288,1,72
42,120,247749,101,14,0:0:0:0:
100,80,247823,1,0,0:0:0:0:
171,81,247898,1,10,0:0:0:0:
228,123,247972,1,0,0:0:0:0:
250,191,248046,1,10,0:0:0:0:
228,258,248120,1,0,0:0:0:0:
171,301,248195,1,10,0:0:0:0:
101,303,248269,1,0,0:0:0:0:
42,263,248343,1,14,0:0:0:0:
98,220,248418,1,0,0:0:0:0:
169,218,248492,1,10,0:0:0:0:
228,258,248566,1,0,0:0:0:0:
287,298,248640,1,10,0:0:0:0:
358,296,248715,1,0,0:0:0:0:
414,253,248789,1,10,0:0:0:0:
436,186,248863,1,0,0:0:0:0:
414,118,248937,5,14,0:0:0:0:
363,168,249012,1,0,0:0:0:0:
292,149,249086,1,10,0:0:0:0:
274,79,249160,1,0,0:0:0:0:
325,28,249234,101,14,0:0:0:0:
343,98,249309,1,0,0:0:0:0:
292,149,249383,1,10,0:0:0:0:
221,130,249457,1,0,0:0:0:0:
153,91,249531,5,14,0:0:0:0:
75,104,249606,1,0,0:0:0:0:
24,165,249680,1,10,0:0:0:0:
24,244,249754,1,2,0:0:0:0:
75,305,249828,1,10,0:0:0:0:
152,319,249903,1,2,0:0:0:0:
221,279,249977,1,10,0:0:0:0:
248,205,250051,1,2,0:0:0:0:
221,130,250125,102,0,B|230:151|217:183|217:183|229:204|216:235|216:235|227:257|215:289|215:289|225:310|215:340,1,216,6|0,0:0|0:0,0:0:0:0:
400,192,250422,54,0,P|304:229|402:263,1,270
491,64,251017,5,0,0:0:0:0:
491,64,251165,2,0,L|474:157,1,90
491,320,251462,1,0,0:0:0:0:
491,320,251611,2,0,L|474:227,1,90
380,47,251908,5,0,0:0:0:0:
380,47,252056,2,0,L|360:152,1,107.999996704102
380,337,252353,1,0,0:0:0:0:
380,337,252502,2,0,L|360:231,1,107.999996704102
266,24,252799,85,0,0:0:0:0:
266,24,252947,2,0,L|243:147,1,125.999996154785
266,362,253244,1,0,0:0:0:0:
266,362,253393,2,0,L|243:238,1,125.999996154785
35,19,253690,5,0,0:0:0:0:
35,19,253838,2,0,P|101:60|145:132,1,144
35,365,254135,1,0,0:0:0:0:
35,365,254284,2,0,P|101:324|145:252,1,144
492,192,254581,6,0,B|416:176|416:212|332:192,1,161.999995056153
20,192,254878,2,0,B|96:208|96:172|180:192,1,161.999995056153
412,72,255175,86,0,P|359:82|320:118,1,107.999996704102
100,72,255472,2,0,P|152:82|191:118,1,107.999996704102
256,8,255769,6,0,L|256:88,1,72
256,192,256066,12,0,258442,0:0:0:0:
