osu file format v14

[General]
AudioFilename: over the top.mp3
AudioLeadIn: 0
PreviewTime: 25037
Countdown: 0
SampleSet: Normal
StackLeniency: 0.7
Mode: 3
LetterboxInBreaks: 0
SpecialStyle: 0
WidescreenStoryboard: 1

[Editor]
Bookmarks: 96324
DistanceSpacing: 1.3
BeatDivisor: 4
GridSize: 8
TimelineZoom: 1.399999

[Metadata]
Title:over the top
TitleUnicode:over the top
Artist:xi
ArtistUnicode:xi
Creator:ArcherLove
Version:Biasa [NM]
Source:
Tags:AD: Nearly 120 seconds Diverse System eternalie ancul
BeatmapID:904716
BeatmapSetID:416575

[Difficulty]
HPDrainRate:7
CircleSize:7
OverallDifficulty:7.5
ApproachRate:10
SliderMultiplier:1.4
SliderTickRate:1

[Events]
//Background and Video events
0,0,"obaa za toppu.jpg",0,0
//Break Periods
//Storyboard Layer 0 (Background)
//Storyboard Layer 1 (Fail)
//Storyboard Layer 2 (Pass)
//Storyboard Layer 3 (Foreground)
//Storyboard Sound Samples

[TimingPoints]
1291,297.029702970297,4,1,1,40,1,0

[HitObjects]
182,192,1291,128,0,1588:0:0:0:0:
329,192,1588,1,0,0:0:0:0:
329,192,2182,128,0,2479:0:0:0:0:
182,192,2479,1,0,0:0:0:0:
109,192,3667,128,0,3964:0:0:0:0:
402,192,3964,1,0,0:0:0:0:
402,192,4558,128,0,4855:0:0:0:0:
109,192,4855,1,0,0:0:0:0:
256,192,5746,1,0,0:0:0:0:
109,192,6043,128,0,6637:0:0:0:0:
329,192,6340,1,0,0:0:0:0:
182,192,6637,128,0,7231:0:0:0:0:
402,192,6934,1,0,0:0:0:0:
329,192,7231,128,0,7825:0:0:0:0:
36,192,7528,1,0,0:0:0:0:
402,192,7825,128,0,8419:0:0:0:0:
109,192,8122,1,0,0:0:0:0:
36,192,8419,128,0,9013:0:0:0:0:
256,192,8716,1,0,0:0:0:0:
109,192,9013,128,0,9607:0:0:0:0:
329,192,9310,1,0,0:0:0:0:
402,192,9607,128,0,10201:0:0:0:0:
182,192,9904,1,0,0:0:0:0:
475,192,10201,128,0,10795:0:0:0:0:
256,192,10498,1,0,0:0:0:0:
256,192,10647,1,0,0:0:0:0:
182,192,10795,128,0,11390:0:0:0:0:
36,192,10795,1,0,0:0:0:0:
402,192,11092,1,0,0:0:0:0:
256,192,11390,128,0,11984:0:0:0:0:
475,192,11687,1,0,0:0:0:0:
329,192,11984,128,0,12578:0:0:0:0:
182,192,12281,1,0,0:0:0:0:
109,192,12578,128,0,13172:0:0:0:0:
256,192,12875,1,0,0:0:0:0:
402,192,13172,128,0,13766:0:0:0:0:
256,192,13469,1,0,0:0:0:0:
182,192,13766,128,0,14360:0:0:0:0:
402,192,14063,1,0,0:0:0:0:
329,192,14360,128,0,14954:0:0:0:0:
109,192,14657,1,0,0:0:0:0:
475,192,14954,128,0,15548:0:0:0:0:
329,192,15251,1,0,0:0:0:0:
36,192,15548,128,0,16736:0:0:0:0:
182,192,15548,128,0,16736:0:0:0:0:
329,192,16736,1,0,0:0:0:0:
182,192,17924,128,0,19112:0:0:0:0:
329,192,17924,128,0,19112:0:0:0:0:
36,192,19112,1,0,0:0:0:0:
329,192,20300,128,0,21489:0:0:0:0:
182,192,20300,128,0,21489:0:0:0:0:
475,192,21489,1,0,0:0:0:0:
475,192,22677,128,0,23865:0:0:0:0:
329,192,22677,128,0,23865:0:0:0:0:
256,192,23865,128,0,25053:0:0:0:0:
109,192,23865,128,0,25053:0:0:0:0:
329,192,25053,1,0,0:0:0:0:
475,192,25053,128,0,26241:0:0:0:0:
36,192,25350,1,0,0:0:0:0:
109,192,25647,1,0,0:0:0:0:
182,192,25944,1,0,0:0:0:0:
329,192,26241,128,0,27429:0:0:0:0:
256,192,26241,1,0,0:0:0:0:
36,192,26538,1,0,0:0:0:0:
256,192,26835,1,0,0:0:0:0:
109,192,27132,1,0,0:0:0:0:
36,192,27429,128,0,28617:0:0:0:0:
182,192,27429,1,0,0:0:0:0:
256,192,27726,1,0,0:0:0:0:
329,192,28023,1,0,0:0:0:0:
402,192,28320,1,0,0:0:0:0:
475,192,28617,1,0,0:0:0:0:
182,192,28617,128,0,29805:0:0:0:0:
402,192,28914,1,0,0:0:0:0:
329,192,29211,1,0,0:0:0:0:
402,192,29508,1,0,0:0:0:0:
475,192,29805,128,0,30993:0:0:0:0:
36,192,29805,1,0,0:0:0:0:
109,192,30102,1,0,0:0:0:0:
182,192,30399,1,0,0:0:0:0:
329,192,30696,1,0,0:0:0:0:
182,192,30993,128,0,32182:0:0:0:0:
36,192,30993,1,0,0:0:0:0:
475,192,31291,1,0,0:0:0:0:
256,192,31588,1,0,0:0:0:0:
402,192,31885,1,0,0:0:0:0:
36,192,32182,128,0,32776:0:0:0:0:
329,192,32182,1,0,0:0:0:0:
402,192,32479,1,0,0:0:0:0:
109,192,32776,128,0,33370:0:0:0:0:
256,192,32776,1,0,0:0:0:0:
329,192,33073,1,0,0:0:0:0:
475,192,33370,128,0,33964:0:0:0:0:
402,192,33370,1,0,0:0:0:0:
256,192,33667,128,0,33964:0:0:0:0:
402,192,33964,128,0,34558:0:0:0:0:
329,192,33964,1,0,0:0:0:0:
109,192,34261,1,0,0:0:0:0:
182,192,34261,1,0,0:0:0:0:
36,192,34558,128,0,35746:0:0:0:0:
256,192,34558,1,0,0:0:0:0:
402,192,34706,1,0,0:0:0:0:
182,192,34855,1,0,0:0:0:0:
329,192,35003,1,0,0:0:0:0:
109,192,35152,1,0,0:0:0:0:
256,192,35300,1,0,0:0:0:0:
402,192,35449,1,0,0:0:0:0:
182,192,35597,1,0,0:0:0:0:
475,192,35746,128,0,36340:0:0:0:0:
329,192,35746,1,0,0:0:0:0:
182,192,36043,1,0,0:0:0:0:
402,192,36340,128,0,36934:0:0:0:0:
256,192,36340,1,0,0:0:0:0:
109,192,36637,1,0,0:0:0:0:
329,192,36934,128,0,38122:0:0:0:0:
182,192,36934,1,0,0:0:0:0:
36,192,37231,1,0,0:0:0:0:
109,192,37380,1,0,0:0:0:0:
182,192,37528,1,0,0:0:0:0:
475,192,37677,1,0,0:0:0:0:
402,192,37825,1,0,0:0:0:0:
256,192,37974,1,0,0:0:0:0:
36,192,38122,128,0,38716:0:0:0:0:
182,192,38122,1,0,0:0:0:0:
402,192,38419,1,0,0:0:0:0:
109,192,38716,128,0,39310:0:0:0:0:
256,192,38716,1,0,0:0:0:0:
475,192,39013,1,0,0:0:0:0:
182,192,39310,128,0,40498:0:0:0:0:
329,192,39310,1,0,0:0:0:0:
402,192,39607,1,0,0:0:0:0:
109,192,39904,1,0,0:0:0:0:
256,192,40201,1,0,0:0:0:0:
402,192,40498,128,0,40795:0:0:0:0:
475,192,40498,1,0,0:0:0:0:
109,192,40795,128,0,41092:0:0:0:0:
36,192,40795,1,0,0:0:0:0:
475,192,41092,128,0,41390:0:0:0:0:
329,192,41092,1,0,0:0:0:0:
36,192,41390,128,0,41687:0:0:0:0:
182,192,41390,1,0,0:0:0:0:
256,192,41687,128,0,42875:0:0:0:0:
329,192,41687,1,0,0:0:0:0:
475,192,41687,1,0,0:0:0:0:
182,192,41835,1,0,0:0:0:0:
36,192,41984,1,0,0:0:0:0:
475,192,42132,1,0,0:0:0:0:
329,192,42281,1,0,0:0:0:0:
182,192,42429,1,0,0:0:0:0:
36,192,42578,1,0,0:0:0:0:
402,192,42726,1,0,0:0:0:0:
109,192,42875,128,0,44063:0:0:0:0:
329,192,42875,1,0,0:0:0:0:
256,192,43172,1,0,0:0:0:0:
329,192,43320,1,0,0:0:0:0:
402,192,43469,1,0,0:0:0:0:
475,192,43617,1,0,0:0:0:0:
256,192,43766,1,0,0:0:0:0:
182,192,43914,1,0,0:0:0:0:
329,192,44063,128,0,45251:0:0:0:0:
475,192,44063,1,0,0:0:0:0:
256,192,44360,1,0,0:0:0:0:
36,192,44657,1,0,0:0:0:0:
402,192,44954,1,0,0:0:0:0:
182,192,45251,128,0,46439:0:0:0:0:
109,192,45251,1,0,0:0:0:0:
402,192,45548,1,0,0:0:0:0:
329,192,45845,1,0,0:0:0:0:
256,192,46142,1,0,0:0:0:0:
329,192,46439,1,0,0:0:0:0:
475,192,46439,128,0,47627:0:0:0:0:
256,192,46736,1,0,0:0:0:0:
182,192,47033,1,0,0:0:0:0:
109,192,47330,1,0,0:0:0:0:
402,192,47627,1,0,0:0:0:0:
36,192,47627,128,0,48221:0:0:0:0:
182,192,47776,1,0,0:0:0:0:
475,192,47924,1,0,0:0:0:0:
256,192,48073,1,0,0:0:0:0:
109,192,48221,128,0,48815:0:0:0:0:
402,192,48221,1,0,0:0:0:0:
329,192,48370,1,0,0:0:0:0:
256,192,48518,1,0,0:0:0:0:
475,192,48667,1,0,0:0:0:0:
182,192,48815,128,0,49855:0:0:0:0:
402,192,48815,1,0,0:0:0:0:
256,192,48964,1,0,0:0:0:0:
36,192,48964,1,0,0:0:0:0:
36,192,49409,1,0,0:0:0:0:
256,192,49409,1,0,0:0:0:0:
256,192,49855,1,0,0:0:0:0:
36,192,49855,1,0,0:0:0:0:
475,192,50003,128,0,50152:0:0:0:0:
402,192,50152,128,0,50300:0:0:0:0:
329,192,50300,128,0,50449:0:0:0:0:
256,192,50449,128,0,50597:0:0:0:0:
182,192,50597,128,0,51191:0:0:0:0:
36,192,50894,128,0,51191:0:0:0:0:
329,192,50894,128,0,51191:0:0:0:0:
475,192,51191,1,0,0:0:0:0:
256,192,51340,1,0,0:0:0:0:
402,192,51489,1,0,0:0:0:0:
182,192,51637,1,0,0:0:0:0:
329,192,51786,1,0,0:0:0:0:
109,192,52083,1,0,0:0:0:0:
256,192,52231,1,0,0:0:0:0:
402,192,52380,1,0,0:0:0:0:
36,192,52380,128,0,52974:0:0:0:0:
475,192,52974,128,0,53568:0:0:0:0:
256,192,52974,1,0,0:0:0:0:
109,192,53568,128,0,54756:0:0:0:0:
256,192,53568,128,0,54756:0:0:0:0:
329,192,54756,128,0,55944:0:0:0:0:
475,192,54756,128,0,55944:0:0:0:0:
182,192,55647,128,0,55944:0:0:0:0:
256,192,55944,128,0,57132:0:0:0:0:
402,192,55944,128,0,57132:0:0:0:0:
36,192,57132,128,0,58320:0:0:0:0:
182,192,57132,128,0,58320:0:0:0:0:
329,192,58023,128,0,58320:0:0:0:0:
109,192,58320,128,0,60696:0:0:0:0:
402,192,58320,128,0,60696:0:0:0:0:
256,192,58320,1,0,0:0:0:0:
182,192,58617,1,0,0:0:0:0:
329,192,58914,1,0,0:0:0:0:
256,192,59211,1,0,0:0:0:0:
182,192,59508,1,0,0:0:0:0:
329,192,59805,1,0,0:0:0:0:
256,192,60102,1,0,0:0:0:0:
182,192,60399,1,0,0:0:0:0:
329,192,60696,128,0,61291:0:0:0:0:
475,192,60696,128,0,61291:0:0:0:0:
256,192,60993,1,0,0:0:0:0:
182,192,61291,128,0,61885:0:0:0:0:
36,192,61291,128,0,61885:0:0:0:0:
256,192,61588,1,0,0:0:0:0:
475,192,61885,128,0,62182:0:0:0:0:
329,192,61885,128,0,62182:0:0:0:0:
36,192,62182,128,0,62479:0:0:0:0:
182,192,62182,128,0,62479:0:0:0:0:
329,192,62479,128,0,62776:0:0:0:0:
475,192,62479,128,0,62776:0:0:0:0:
182,192,62776,1,0,0:0:0:0:
36,192,62776,1,0,0:0:0:0:
402,192,63073,128,0,63370:0:0:0:0:
109,192,63370,1,0,0:0:0:0:
109,192,63964,128,0,64261:0:0:0:0:
402,192,64261,1,0,0:0:0:0:
182,192,64558,128,0,64855:0:0:0:0:
256,192,64855,128,0,65152:0:0:0:0:
329,192,65152,128,0,65449:0:0:0:0:
182,192,65449,128,0,65746:0:0:0:0:
329,192,65746,1,0,0:0:0:0:
329,192,66340,128,0,66637:0:0:0:0:
182,192,66637,1,0,0:0:0:0:
109,192,66934,128,0,67231:0:0:0:0:
256,192,67231,128,0,67528:0:0:0:0:
402,192,67528,128,0,67825:0:0:0:0:
36,192,67825,128,0,68122:0:0:0:0:
475,192,68122,1,0,0:0:0:0:
475,192,68716,128,0,69013:0:0:0:0:
36,192,69013,1,0,0:0:0:0:
182,192,69310,128,0,69607:0:0:0:0:
329,192,69607,128,0,69904:0:0:0:0:
182,192,69904,128,0,70201:0:0:0:0:
36,192,70201,128,0,70795:0:0:0:0:
256,192,70201,1,0,0:0:0:0:
109,192,70795,128,0,71390:0:0:0:0:
329,192,70795,1,0,0:0:0:0:
402,192,71390,128,0,71984:0:0:0:0:
182,192,71390,1,0,0:0:0:0:
475,192,71984,128,0,72578:0:0:0:0:
256,192,71984,1,0,0:0:0:0:
256,192,72578,128,0,77033:0:0:0:0:
36,192,72578,1,0,0:0:0:0:
109,192,72578,1,0,0:0:0:0:
402,192,72875,1,0,0:0:0:0:
109,192,73172,1,0,0:0:0:0:
475,192,73469,1,0,0:0:0:0:
182,192,73766,1,0,0:0:0:0:
402,192,74063,1,0,0:0:0:0:
109,192,74360,1,0,0:0:0:0:
329,192,74657,1,0,0:0:0:0:
36,192,74954,1,0,0:0:0:0:
109,192,74954,1,0,0:0:0:0:
329,192,75251,1,0,0:0:0:0:
182,192,75548,1,0,0:0:0:0:
402,192,75845,1,0,0:0:0:0:
109,192,76142,1,0,0:0:0:0:
475,192,76439,1,0,0:0:0:0:
36,192,76736,1,0,0:0:0:0:
329,192,77033,1,0,0:0:0:0:
475,192,77033,1,0,0:0:0:0:
36,192,77330,1,0,0:0:0:0:
182,192,77330,1,0,0:0:0:0:
329,192,77330,128,0,79706:0:0:0:0:
475,192,79706,1,0,0:0:0:0:
182,192,79706,1,0,0:0:0:0:
36,192,80003,1,0,0:0:0:0:
109,192,80152,1,0,0:0:0:0:
182,192,80300,128,0,80894:0:0:0:0:
329,192,80597,128,0,80894:0:0:0:0:
475,192,80894,128,0,81489:0:0:0:0:
109,192,81489,128,0,82083:0:0:0:0:
256,192,81786,128,0,82083:0:0:0:0:
402,192,82083,128,0,84459:0:0:0:0:
182,192,82083,1,0,0:0:0:0:
36,192,82083,1,0,0:0:0:0:
256,192,82380,1,0,0:0:0:0:
109,192,82528,1,0,0:0:0:0:
329,192,82677,1,0,0:0:0:0:
182,192,82825,1,0,0:0:0:0:
36,192,82974,1,0,0:0:0:0:
256,192,83122,1,0,0:0:0:0:
109,192,83271,1,0,0:0:0:0:
329,192,83419,1,0,0:0:0:0:
182,192,83568,1,0,0:0:0:0:
36,192,83716,1,0,0:0:0:0:
256,192,83865,1,0,0:0:0:0:
109,192,84013,1,0,0:0:0:0:
329,192,84162,1,0,0:0:0:0:
182,192,84310,1,0,0:0:0:0:
36,192,84459,1,0,0:0:0:0:
475,192,84459,1,0,0:0:0:0:
256,192,84459,1,0,0:0:0:0:
109,192,84756,1,0,0:0:0:0:
256,192,84904,1,0,0:0:0:0:
402,192,85053,1,0,0:0:0:0:
182,192,85201,1,0,0:0:0:0:
329,192,85350,1,0,0:0:0:0:
36,192,85498,1,0,0:0:0:0:
475,192,85647,128,0,85944:0:0:0:0:
182,192,85647,1,0,0:0:0:0:
402,192,85944,128,0,86241:0:0:0:0:
109,192,85944,1,0,0:0:0:0:
256,192,86241,128,0,86538:0:0:0:0:
36,192,86241,1,0,0:0:0:0:
109,192,86538,128,0,86835:0:0:0:0:
402,192,86538,1,0,0:0:0:0:
36,192,86835,128,0,89211:0:0:0:0:
475,192,86835,1,0,0:0:0:0:
256,192,86835,1,0,0:0:0:0:
402,192,87132,1,0,0:0:0:0:
256,192,87281,1,0,0:0:0:0:
329,192,87429,1,0,0:0:0:0:
182,192,87578,1,0,0:0:0:0:
256,192,87726,1,0,0:0:0:0:
109,192,87875,1,0,0:0:0:0:
182,192,88023,1,0,0:0:0:0:
256,192,88172,1,0,0:0:0:0:
475,192,88320,1,0,0:0:0:0:
329,192,88469,1,0,0:0:0:0:
182,192,88617,1,0,0:0:0:0:
402,192,88766,1,0,0:0:0:0:
256,192,88914,1,0,0:0:0:0:
109,192,89063,1,0,0:0:0:0:
329,192,89211,1,0,0:0:0:0:
475,192,89211,128,0,90399:0:0:0:0:
182,192,89508,1,0,0:0:0:0:
109,192,89657,1,0,0:0:0:0:
256,192,89805,1,0,0:0:0:0:
36,192,89954,1,0,0:0:0:0:
182,192,90102,1,0,0:0:0:0:
329,192,90251,1,0,0:0:0:0:
402,192,90399,128,0,90993:0:0:0:0:
109,192,90399,1,0,0:0:0:0:
256,192,90548,1,0,0:0:0:0:
36,192,90696,1,0,0:0:0:0:
182,192,90845,1,0,0:0:0:0:
109,192,90993,128,0,91290:0:0:0:0:
329,192,90993,1,0,0:0:0:0:
36,192,91290,128,0,91588:0:0:0:0:
475,192,91290,1,0,0:0:0:0:
402,192,91588,1,0,0:0:0:0:
256,192,91588,128,0,92776:0:0:0:0:
329,192,91588,1,0,0:0:0:0:
109,192,91885,1,0,0:0:0:0:
182,192,92033,1,0,0:0:0:0:
402,192,92182,1,0,0:0:0:0:
329,192,92330,1,0,0:0:0:0:
36,192,92479,1,0,0:0:0:0:
109,192,92627,1,0,0:0:0:0:
329,192,92776,128,0,93964:0:0:0:0:
182,192,92776,1,0,0:0:0:0:
475,192,92776,1,0,0:0:0:0:
36,192,93073,1,0,0:0:0:0:
109,192,93221,1,0,0:0:0:0:
475,192,93370,1,0,0:0:0:0:
402,192,93518,1,0,0:0:0:0:
36,192,93667,1,0,0:0:0:0:
109,192,93815,1,0,0:0:0:0:
182,192,93964,128,0,94558:0:0:0:0:
402,192,93964,1,0,0:0:0:0:
475,192,93964,1,0,0:0:0:0:
329,192,94261,1,0,0:0:0:0:
256,192,94558,128,0,95152:0:0:0:0:
475,192,94558,1,0,0:0:0:0:
36,192,94558,1,0,0:0:0:0:
109,192,94855,1,0,0:0:0:0:
329,192,95152,128,0,95746:0:0:0:0:
182,192,95152,1,0,0:0:0:0:
475,192,95152,1,0,0:0:0:0:
109,192,95449,1,0,0:0:0:0:
402,192,95449,1,0,0:0:0:0:
256,192,95746,128,0,96340:0:0:0:0:
36,192,95746,1,0,0:0:0:0:
475,192,95746,1,0,0:0:0:0:
36,192,96340,128,0,98716:0:0:0:0:
182,192,96340,1,0,0:0:0:0:
475,192,96340,1,0,0:0:0:0:
329,192,96637,1,0,0:0:0:0:
182,192,96934,1,0,0:0:0:0:
329,192,97083,1,0,0:0:0:0:
475,192,97231,1,0,0:0:0:0:
256,192,97380,1,0,0:0:0:0:
402,192,97528,1,0,0:0:0:0:
182,192,97677,1,0,0:0:0:0:
329,192,97825,1,0,0:0:0:0:
109,192,97974,1,0,0:0:0:0:
256,192,98122,1,0,0:0:0:0:
402,192,98271,1,0,0:0:0:0:
182,192,98419,1,0,0:0:0:0:
329,192,98568,1,0,0:0:0:0:
475,192,98716,1,0,0:0:0:0:
256,192,98716,1,0,0:0:0:0:
109,192,99013,1,0,0:0:0:0:
182,192,99162,1,0,0:0:0:0:
402,192,99310,1,0,0:0:0:0:
329,192,99459,1,0,0:0:0:0:
256,192,99607,1,0,0:0:0:0:
182,192,99756,1,0,0:0:0:0:
109,192,99904,128,0,100498:0:0:0:0:
329,192,99904,1,0,0:0:0:0:
475,192,99904,1,0,0:0:0:0:
256,192,100201,1,0,0:0:0:0:
182,192,100498,128,0,101092:0:0:0:0:
475,192,100498,1,0,0:0:0:0:
36,192,100498,1,0,0:0:0:0:
329,192,100795,1,0,0:0:0:0:
475,192,101092,128,0,102281:0:0:0:0:
402,192,101092,1,0,0:0:0:0:
36,192,101092,1,0,0:0:0:0:
182,192,101390,1,0,0:0:0:0:
256,192,101538,1,0,0:0:0:0:
329,192,101687,1,0,0:0:0:0:
402,192,101835,1,0,0:0:0:0:
109,192,101984,1,0,0:0:0:0:
182,192,102132,1,0,0:0:0:0:
402,192,102281,128,0,103469:0:0:0:0:
256,192,102281,1,0,0:0:0:0:
36,192,102281,1,0,0:0:0:0:
109,192,102578,1,0,0:0:0:0:
36,192,102726,1,0,0:0:0:0:
329,192,102875,1,0,0:0:0:0:
256,192,103023,1,0,0:0:0:0:
182,192,103172,1,0,0:0:0:0:
109,192,103320,1,0,0:0:0:0:
329,192,103469,128,0,104657:0:0:0:0:
36,192,103469,1,0,0:0:0:0:
475,192,103469,1,0,0:0:0:0:
109,192,103766,1,0,0:0:0:0:
182,192,103914,1,0,0:0:0:0:
256,192,104063,1,0,0:0:0:0:
109,192,104211,1,0,0:0:0:0:
182,192,104360,1,0,0:0:0:0:
256,192,104508,1,0,0:0:0:0:
109,192,104657,128,0,104954:0:0:0:0:
475,192,104657,1,0,0:0:0:0:
36,192,104657,1,0,0:0:0:0:
182,192,104954,128,0,105251:0:0:0:0:
256,192,104954,1,0,0:0:0:0:
402,192,104954,1,0,0:0:0:0:
329,192,105251,128,0,105548:0:0:0:0:
475,192,105251,1,0,0:0:0:0:
36,192,105251,1,0,0:0:0:0:
402,192,105548,128,0,105845:0:0:0:0:
256,192,105548,1,0,0:0:0:0:
109,192,105548,1,0,0:0:0:0:
256,192,105845,128,0,108221:0:0:0:0:
36,192,105845,1,0,0:0:0:0:
475,192,105845,1,0,0:0:0:0:
109,192,106142,1,0,0:0:0:0:
182,192,106290,1,0,0:0:0:0:
329,192,106439,1,0,0:0:0:0:
402,192,106588,1,0,0:0:0:0:
182,192,106736,1,0,0:0:0:0:
109,192,106885,1,0,0:0:0:0:
402,192,107033,1,0,0:0:0:0:
329,192,107182,1,0,0:0:0:0:
109,192,107330,1,0,0:0:0:0:
182,192,107479,1,0,0:0:0:0:
402,192,107627,1,0,0:0:0:0:
329,192,107776,1,0,0:0:0:0:
109,192,107924,1,0,0:0:0:0:
182,192,108073,1,0,0:0:0:0:
36,192,108221,128,0,109409:0:0:0:0:
329,192,108221,1,0,0:0:0:0:
475,192,108221,1,0,0:0:0:0:
182,192,108518,1,0,0:0:0:0:
256,192,108667,1,0,0:0:0:0:
329,192,108815,1,0,0:0:0:0:
402,192,108964,1,0,0:0:0:0:
109,192,109112,1,0,0:0:0:0:
182,192,109261,1,0,0:0:0:0:
475,192,109409,128,0,110003:0:0:0:0:
256,192,109409,1,0,0:0:0:0:
329,192,109409,1,0,0:0:0:0:
182,192,109706,1,0,0:0:0:0:
256,192,109855,1,0,0:0:0:0:
109,192,110003,128,0,110300:0:0:0:0:
329,192,110003,1,0,0:0:0:0:
402,192,110300,128,0,110597:0:0:0:0:
182,192,110300,1,0,0:0:0:0:
256,192,110597,128,0,111786:0:0:0:0:
36,192,110597,1,0,0:0:0:0:
475,192,110597,1,0,0:0:0:0:
182,192,111786,128,0,112974:0:0:0:0:
36,192,111786,1,0,0:0:0:0:
475,192,111786,1,0,0:0:0:0:
329,192,112974,128,0,113568:0:0:0:0:
36,192,112974,1,0,0:0:0:0:
475,192,112974,1,0,0:0:0:0:
256,192,113568,128,0,114162:0:0:0:0:
36,192,113568,1,0,0:0:0:0:
475,192,113568,1,0,0:0:0:0:
36,192,114162,128,0,114756:0:0:0:0:
329,192,114162,1,0,0:0:0:0:
475,192,114162,1,0,0:0:0:0:
475,192,114756,128,0,115350:0:0:0:0:
109,192,114756,1,0,0:0:0:0:
256,192,114756,1,0,0:0:0:0:
36,192,115350,1,0,0:0:0:0:
182,192,115350,1,0,0:0:0:0:
329,192,115350,1,0,0:0:0:0:
256,192,115647,128,0,120102:0:0:0:0:
109,192,115647,1,0,0:0:0:0:
402,192,115647,1,0,0:0:0:0:
36,192,116241,1,0,0:0:0:0:
475,192,116390,1,0,0:0:0:0:
475,192,116687,1,0,0:0:0:0:
36,192,116835,1,0,0:0:0:0:
36,192,117132,1,0,0:0:0:0:
475,192,117281,1,0,0:0:0:0:
475,192,117578,1,0,0:0:0:0:
36,192,117726,1,0,0:0:0:0:
36,192,118023,1,0,0:0:0:0:
475,192,118172,1,0,0:0:0:0:
475,192,118469,1,0,0:0:0:0:
36,192,118617,1,0,0:0:0:0:
36,192,118914,1,0,0:0:0:0:
475,192,119063,1,0,0:0:0:0:
475,192,119360,1,0,0:0:0:0:
36,192,119508,1,0,0:0:0:0:
36,192,119805,1,0,0:0:0:0:
475,192,120102,1,0,0:0:0:0:
