osu file format v14

[General]
AudioFilename: audio.mp3
AudioLeadIn: 0
PreviewTime: -1
Countdown: 0
SampleSet: Soft
StackLeniency: 0.2
Mode: 0
LetterboxInBreaks: 0
WidescreenStoryboard: 0

[Editor]
Bookmarks: 29275,31652,34028,38780,41157,63731,64919,66107,92246,102679,118236,155216,160266,169473,179275,181800,200365,202741,231256,250266
DistanceSpacing: 0.4
BeatDivisor: 3
GridSize: 32
TimelineZoom: 2.3

[Metadata]
Title:over the top
TitleUnicode:over the top
Artist:xi
ArtistUnicode:xi
Creator:871
Version:Insert DIMENSION in the diff name
Source:
Tags:
BeatmapID:1732744
BeatmapSetID:826820

[Difficulty]
HPDrainRate:4
CircleSize:4.1
OverallDifficulty:8.6
ApproachRate:10
SliderMultiplier:2.1
SliderTickRate:1

[Events]
//Background and Video events
0,0,"lmao.png",0,0
//Break Periods
2,38980,40707
2,160466,166944
//Storyboard Layer 0 (Background)
//Storyboard Layer 1 (Fail)
//Storyboard Layer 2 (Pass)
//Storyboard Layer 3 (Foreground)
//Storyboard Sound Samples

[TimingPoints]
762,594.059405940594,4,2,1,40,1,0
762,-100,4,2,1,40,0,0
1356,-100,4,2,1,25,0,0
1950,-100,4,2,1,15,0,0
2544,-100,4,2,1,5,0,0
3138,-100,4,2,1,40,0,0
3732,-100,4,2,1,25,0,0
4326,-100,4,2,1,15,0,0
4920,-100,4,2,1,5,0,0
5514,-100,4,2,1,40,0,0
10266,-90.9090909090909,4,2,1,40,0,0
11306,-90.9090909090909,4,2,1,5,0,0
11455,-90.9090909090909,4,2,1,40,0,0
17395,-76.9230769230769,4,2,1,40,0,0
17841,-76.9230769230769,4,2,1,5,0,0
17989,-76.9230769230769,4,2,1,40,0,0
19771,297.029702970297,4,2,1,60,1,0
19771,-66.6666666666667,4,2,1,60,0,0
20959,-100,4,2,1,80,0,0
41454,-1000,4,2,1,80,0,0
41899,-1000,4,2,1,5,0,0
42048,-1000,4,2,1,80,0,0
44275,-1000,4,2,1,5,0,0
44424,-1000,4,2,1,80,0,0
45538,-1000,4,2,1,5,0,0
45612,-1000,4,2,1,80,0,0
45909,-55.5555555555556,4,2,1,80,0,0
50662,-76.9230769230769,4,2,1,80,0,0
55414,-125,4,2,1,80,0,0
56528,-125,4,2,1,5,0,0
56602,-100,4,2,1,80,0,0
57790,-125,4,2,1,80,0,0
58904,-125,4,2,1,5,0,0
58978,-125,4,2,1,80,0,0
61280,-125,4,2,1,5,0,0
61355,-125,4,2,1,80,0,0
63657,-125,4,2,1,5,0,0
63731,-125,4,2,1,80,0,0
64919,-66.6666666666667,4,2,1,80,0,0
65142,-66.6666666666667,4,2,1,5,0,0
65216,-66.6666666666667,4,2,1,80,0,0
65439,-66.6666666666667,4,2,1,5,0,0
65513,-66.6666666666667,4,2,1,80,0,0
65736,-66.6666666666667,4,2,1,5,0,0
65810,-66.6666666666667,4,2,1,80,0,0
66033,-66.6666666666667,4,2,1,5,0,0
66107,-66.6666666666667,4,2,1,80,0,0
67518,-66.6666666666667,4,2,1,5,0,0
67592,-66.6666666666667,4,2,1,80,0,0
67815,-66.6666666666667,4,2,1,5,0,0
67889,-66.6666666666667,4,2,1,80,0,0
68112,-66.6666666666667,4,2,1,5,0,0
68186,-66.6666666666667,4,2,1,80,0,0
68409,-66.6666666666667,4,2,1,5,0,0
68483,-66.6666666666667,4,2,1,80,0,0
69894,-66.6666666666667,4,2,1,5,0,0
69969,-66.6666666666667,4,2,1,80,0,0
70191,-66.6666666666667,4,2,1,5,0,0
70266,-66.6666666666667,4,2,1,80,0,0
70488,-66.6666666666667,4,2,1,5,0,0
70563,-66.6666666666667,4,2,1,80,0,0
70785,-66.6666666666667,4,2,1,5,0,0
70860,-66.6666666666667,4,2,1,80,0,0
94028,-100,4,2,1,80,0,0
95810,-80,4,2,1,80,0,0
98186,-66.6666666666667,4,2,1,80,0,0
103236,-1000,4,2,1,80,0,0
103681,-1000,4,2,1,5,0,0
103830,-1000,4,2,1,80,0,0
104275,-1000,4,2,1,5,0,0
104424,-100,4,2,1,80,0,0
104647,-100,4,2,1,5,0,0
104721,-100,4,2,1,80,0,0
104944,-100,4,2,1,5,0,0
105018,-100,4,2,1,80,0,0
105612,-1000,4,2,1,80,0,0
106058,-1000,4,2,1,5,0,0
106206,-1000,4,2,1,80,0,0
106652,-1000,4,2,1,5,0,0
106800,-75.187969924812,4,2,1,80,0,0
107023,-75.187969924812,4,2,1,5,0,0
107097,-75.187969924812,4,2,1,80,0,0
107320,-75.187969924812,4,2,1,5,0,0
107394,-75.187969924812,4,2,1,80,0,0
107988,-1000,4,2,1,80,0,0
108434,-1000,4,2,1,5,0,0
108582,-1000,4,2,1,80,0,0
109028,-1000,4,2,1,5,0,0
109176,-57.1428571428571,4,2,1,80,0,0
109399,-57.1428571428571,4,2,1,5,0,0
109473,-57.1428571428571,4,2,1,80,0,0
109696,-57.1428571428571,4,2,1,5,0,0
109771,-57.1428571428571,4,2,1,80,0,0
109993,-57.1428571428571,4,2,1,5,0,0
110068,-57.1428571428571,4,2,1,80,0,0
110662,-76.9230769230769,4,2,1,80,0,0
117196,-89.2857142857143,4,2,1,80,0,0
118013,-89.2857142857143,4,2,1,5,0,0
118087,-89.2857142857143,4,2,1,80,0,0
119572,-76.9230769230769,4,2,1,80,0,0
121652,-1000,4,2,1,80,0,0
121949,-66.6666666666667,4,2,1,80,0,0
136206,-50,4,2,1,80,0,0
138879,-66.6666666666667,4,2,1,80,0,0
140662,-1000,4,2,1,80,0,0
140959,-50,4,2,1,80,0,0
142147,-41.6666666666667,4,2,1,80,0,0
143335,-66.6666666666667,4,2,1,80,0,0
144523,-50,4,2,1,80,0,0
145711,-41.6666666666667,4,2,1,80,0,0
151652,-66.6666666666667,4,2,1,80,0,0
152840,-76.9230769230769,4,2,1,80,0,0
155216,-1000,4,2,1,80,0,0
155513,-57.1428571428571,4,2,1,80,0,0
160266,-57.1428571428571,4,2,1,80,0,0
169473,-90.9090909090909,4,2,1,80,0,0
169919,-100,4,2,1,80,0,0
170142,-100,4,2,1,5,0,0
170216,-100,4,2,1,80,0,0
174226,-66.6666666666667,4,2,1,80,0,0
177790,-76.9230769230769,4,2,1,80,0,0
178830,-500,4,2,1,80,0,0
179275,-66.6666666666667,4,2,1,80,0,0
181503,-333.333333333333,4,2,1,80,0,0
181726,-333.333333333333,4,2,1,5,0,0
181800,-66.6666666666667,4,2,1,80,0,0
181800,-66.6666666666667,4,2,1,80,0,0
182394,-100,4,2,1,80,0,0
182840,-66.6666666666667,4,2,1,80,0,0
184028,-1000,4,2,1,80,0,0
184226,-1000,4,2,1,5,0,0
184325,-1000,4,2,1,80,0,0
184820,-1000,4,2,1,5,0,0
184919,-1000,4,2,1,80,0,0
186602,-1000,4,2,1,5,0,0
186701,-1000,4,2,1,80,0,0
187196,-1000,4,2,1,5,0,0
187295,-1000,4,2,1,80,0,0
188780,-1000,4,2,1,80,0,0
188978,-1000,4,2,1,5,0,0
189077,-1000,4,2,1,80,0,0
189572,-1000,4,2,1,5,0,0
189671,-1000,4,2,1,80,0,0
190266,-100,4,2,1,80,0,0
191157,-1000,4,2,1,80,0,0
191355,-1000,4,2,1,5,0,0
191454,-1000,4,2,1,80,0,0
191949,-1000,4,2,1,5,0,0
192048,-1000,4,2,1,80,0,0
192840,-1000,4,2,1,5,0,0
192939,-1000,4,2,1,80,0,0
193137,-1000,4,2,1,5,0,0
193236,-66.6666666666667,4,2,1,80,0,0
193533,-1000,4,2,1,80,0,0
193830,-66.6666666666667,4,2,1,80,0,0
194127,-1000,4,2,1,80,0,0
194424,-66.6666666666667,4,2,1,80,0,0
195909,-1000,4,2,1,80,0,0
196206,-66.6666666666667,4,2,1,80,0,0
196503,-1000,4,2,1,80,0,0
196701,-1000,4,2,1,5,0,0
196800,-66.6666666666667,4,2,1,80,0,0
198285,-1000,4,2,1,80,0,0
198483,-1000,4,2,1,5,0,0
198582,-66.6666666666667,4,2,1,80,0,0
198879,-1000,4,2,1,80,0,0
199077,-1000,4,2,1,5,0,0
199176,-66.6666666666667,4,2,1,80,0,0
202741,-100,4,2,1,80,0,0
203830,-100,4,2,1,5,0,0
203929,-100,4,2,1,80,0,0
205117,-80,4,2,1,80,0,0
206206,-80,4,2,1,5,0,0
206305,-80,4,2,1,80,0,0
212246,-100,4,2,1,80,0,0
214523,-100,4,2,1,5,0,0
214622,-100,4,2,1,80,0,0
216701,-1000,4,2,1,80,0,0
216998,-50,4,2,1,80,0,0
219374,-66.6666666666667,4,2,1,80,0,0
231256,-50,4,2,1,80,0,0
233632,-66.6666666666667,4,2,1,80,0,0
243434,-76.9230769230769,4,2,1,80,0,0
250266,-1000,4,2,1,80,0,0
250464,-1000,4,2,1,5,0,0
250563,-57.1428571428571,4,2,1,80,0,0

[Colours]
Combo1 : 255,255,255
Combo2 : 255,255,204
Combo3 : 185,255,255

[HitObjects]
340,359,762,6,0,B|364:314|420:289|420:289|426:289|426:289|422:284|422:284|427:243|457:192|457:192|442:203|442:203|386:208|360:230|360:230|306:187|310:105|380:64|380:64|373:83|376:105|376:105|344:125|348:182,1,630
172,359,3138,2,0,B|148:314|92:289|92:289|86:289|86:289|90:284|90:284|85:243|55:192|55:192|70:203|70:203|126:208|152:230|152:230|206:187|202:105|132:64|132:64|139:83|136:105|136:105|168:125|164:182,1,630
0,289,5514,6,0,B|46:308|87:289|87:289|139:305|171:358|171:358|203:318|249:310|249:310|296:355|331:345|331:345|306:339|292:317,1,420
349,188,7890,6,0,P|321:229|399:196,2,210
509,154,9672,5,0,0:0:0:0:
347,361,10266,2,0,B|324:358|298:337|298:337|286:342|278:339|278:339|269:342|257:334|257:334|204:391|97:382|81:254|150:227|150:227|135:240|131:270,1,404.250012336731
191,288,11455,2,0,B|236:268|249:181|163:147|163:147|111:122|96:47|132:5|132:5|119:48|123:98|178:122,1,462.000014099122
206,48,12841,5,0,0:0:0:0:
211,53,13039,1,0,0:0:0:0:
245,108,13237,1,0,0:0:0:0:
313,144,13435,1,0,0:0:0:0:
401,148,13633,1,0,0:0:0:0:
454,308,13831,5,0,0:0:0:0:
373,291,14029,1,0,0:0:0:0:
345,216,14227,1,0,0:0:0:0:
485,166,14425,5,0,0:0:0:0:
507,96,14623,1,0,0:0:0:0:
467,33,14821,1,0,0:0:0:0:
387,111,15019,2,0,B|295:99|295:99|252:112|252:112|126:91,1,231.000007049561
164,103,15811,5,0,0:0:0:0:
177,176,16009,1,0,0:0:0:0:
192,254,16207,6,0,B|198:275|198:275|209:286|209:286|210:307|222:333|222:333|91:351|77:183|196:172,1,346.500010574341
292,315,17395,6,0,B|359:295|359:295|424:302|424:302|339:334,1,204.749990627289
221,333,17989,6,0,B|154:353|154:353|89:346|89:346|174:314,1,204.749990627289
278,382,18583,5,0,0:0:0:0:
298,349,18682,1,0,0:0:0:0:
295,309,18781,1,0,0:0:0:0:
275,273,18880,1,0,0:0:0:0:
231,263,18979,5,0,0:0:0:0:
211,230,19078,1,0,0:0:0:0:
214,190,19177,1,0,0:0:0:0:
234,154,19276,1,0,0:0:0:0:
254,121,19375,1,0,0:0:0:0:
251,81,19474,1,0,0:0:0:0:
231,43,19573,1,0,0:0:0:0:
196,29,19672,1,0,0:0:0:0:
176,109,19771,5,0,0:0:0:0:
256,99,19870,1,0,0:0:0:0:
338,89,19969,1,0,0:0:0:0:
402,31,20068,5,0,0:0:0:0:
406,38,20365,1,0,0:0:0:0:
410,44,20662,1,0,0:0:0:0:
195,299,20810,5,0,0:0:0:0:
195,299,20884,1,0,0:0:0:0:
195,299,20959,6,0,L|206:350,3,52.5
264,244,21256,2,0,L|326:284,3,52.5
248,158,21553,2,0,L|321:142,3,52.5
178,95,21850,2,0,L|218:32,3,52.5
70,53,22147,5,0,0:0:0:0:
91,120,22246,1,0,0:0:0:0:
114,188,22345,1,0,0:0:0:0:
92,257,22444,5,0,0:0:0:0:
97,264,22741,1,0,0:0:0:0:
103,272,23038,1,0,0:0:0:0:
265,372,23186,5,0,0:0:0:0:
265,372,23261,1,0,0:0:0:0:
265,372,23335,6,0,P|307:347|337:349,3,52.5
272,226,23632,2,0,P|314:249|327:276,3,52.5
404,176,23929,2,0,P|404:224|387:249,3,52.5
512,271,24226,2,0,P|470:296|440:294,3,52.5
385,316,24523,5,0,0:0:0:0:
402,229,24622,1,0,0:0:0:0:
421,137,24721,1,0,0:0:0:0:
366,51,24820,5,0,0:0:0:0:
367,61,25117,1,0,0:0:0:0:
368,72,25414,1,0,0:0:0:0:
211,363,25563,1,0,0:0:0:0:
211,363,25637,1,0,0:0:0:0:
211,363,25711,6,0,L|199:266,3,52.5
319,255,26008,2,0,L|331:158,3,52.5
185,191,26305,2,0,L|173:94,3,52.5
337,111,26602,2,0,L|349:14,3,52.5
158,19,26899,6,0,L|167:84,1,52.5
325,202,27048,2,0,L|317:263,1,52.5
204,310,27196,2,0,L|213:375,3,52.5
110,326,27493,6,0,P|112:300|124:276,1,52.5
299,333,27642,2,0,P|360:320|379:298,1,52.5
449,213,27790,6,0,P|438:256|416:279,3,52.5
480,98,28087,2,0,P|511:135|516:161,7,52.5
411,68,28681,5,0,0:0:0:0:
384,67,28756,1,0,0:0:0:0:
361,73,28830,1,0,0:0:0:0:
340,88,28904,1,0,0:0:0:0:
311,135,28978,5,0,0:0:0:0:
275,120,29053,1,0,0:0:0:0:
237,110,29127,1,0,0:0:0:0:
197,106,29201,1,0,0:0:0:0:
156,108,29275,5,0,0:0:0:0:
171,190,29374,1,0,0:0:0:0:
191,282,29473,1,0,0:0:0:0:
309,347,29572,5,0,0:0:0:0:
337,280,29870,1,0,0:0:0:0:
399,240,30167,1,0,0:0:0:0:
360,343,30315,5,0,0:0:0:0:
360,343,30389,1,0,0:0:0:0:
360,343,30464,6,0,P|305:348|286:357,3,52.5
209,266,30761,2,0,P|183:260|157:262,3,52.5
297,182,31058,2,0,P|322:176|348:178,3,52.5
212,72,31355,2,0,P|186:66|160:68,3,52.5
274,25,31652,6,0,P|287:72|268:101,1,52.5
368,95,31800,2,0,P|343:137|310:144,1,52.5
380,209,31949,2,0,P|333:222|304:203,1,52.5
327,310,32097,1,0,0:0:0:0:
60,261,32246,5,0,0:0:0:0:
65,269,32543,1,0,0:0:0:0:
165,341,32691,1,0,0:0:0:0:
165,341,32766,1,0,0:0:0:0:
165,341,32840,6,0,L|216:329,3,52.5
327,310,33137,2,0,L|378:298,3,52.5
65,269,33434,6,0,L|116:257,3,52.5
381,208,33731,6,0,L|433:197,3,52.5
318,360,34028,6,0,P|325:305|311:281,1,52.5
216,329,34176,2,0,P|192:295|187:277,1,52.5
360,233,34325,6,0,P|364:185|356:162,1,52.5
144,219,34473,2,0,P|133:173|137:154,1,52.5
302,0,34622,6,0,P|295:55|309:79,1,52.5
404,31,34770,2,0,P|428:65|433:83,1,52.5
260,127,34919,6,0,P|256:175|264:198,1,52.5
476,141,35068,2,0,P|487:187|483:206,1,52.5
478,270,35216,5,0,0:0:0:0:
457,313,35290,1,0,0:0:0:0:
419,343,35365,1,0,0:0:0:0:
366,354,35439,1,0,0:0:0:0:
314,343,35513,1,0,0:0:0:0:
279,304,35587,1,0,0:0:0:0:
234,280,35662,1,0,0:0:0:0:
179,282,35736,1,0,0:0:0:0:
130,309,35810,5,0,0:0:0:0:
108,358,35884,1,0,0:0:0:0:
140,328,35959,1,0,0:0:0:0:
153,277,36033,1,0,0:0:0:0:
124,230,36107,1,0,0:0:0:0:
79,195,36181,1,0,0:0:0:0:
68,140,36256,1,0,0:0:0:0:
99,94,36330,1,0,0:0:0:0:
174,127,36404,5,0,0:0:0:0:
186,127,36478,1,0,0:0:0:0:
198,127,36552,1,0,0:0:0:0:
210,125,36626,1,0,0:0:0:0:
221,122,36701,1,0,0:0:0:0:
233,118,36775,1,0,0:0:0:0:
244,113,36849,1,0,0:0:0:0:
254,107,36923,1,0,0:0:0:0:
298,137,36998,5,0,0:0:0:0:
308,130,37072,1,0,0:0:0:0:
319,125,37146,1,0,0:0:0:0:
330,121,37220,1,0,0:0:0:0:
342,118,37295,1,0,0:0:0:0:
354,117,37369,1,0,0:0:0:0:
366,116,37443,1,0,0:0:0:0:
378,117,37517,1,0,0:0:0:0:
389,119,37592,6,0,L|380:42,3,52.5
474,193,37889,2,0,L|467:140,3,52.5
417,296,38186,2,0,L|410:243,3,52.5
498,369,38483,5,0,0:0:0:0:
441,364,38558,1,0,0:0:0:0:
389,358,38632,1,0,0:0:0:0:
337,352,38706,1,0,0:0:0:0:
280,343,38780,1,0,0:0:0:0:
27,216,41157,5,0,0:0:0:0:
142,188,41256,1,0,0:0:0:0:
258,164,41355,1,0,0:0:0:0:
374,140,41454,6,0,L|411:130,1,35
379,36,42048,5,0,0:0:0:0:
374,140,42147,1,0,0:0:0:0:
363,242,42246,1,0,0:0:0:0:
355,350,42345,1,0,0:0:0:0:
157,350,43533,5,0,0:0:0:0:
149,242,43632,1,0,0:0:0:0:
138,140,43731,1,0,0:0:0:0:
133,36,43830,6,0,L|129:-4,1,35
22,116,44424,1,0,0:0:0:0:
141,133,44523,1,0,0:0:0:0:
256,155,44622,1,0,0:0:0:0:
365,168,44721,6,0,L|425:155,1,57.75
500,125,45612,6,0,L|499:142,1,15.75
496,227,45909,6,0,B|449:237|449:237|440:235|440:235|377:250|377:250|372:256|372:256|274:282,1,188.999994232178
29,310,46132,1,0,0:0:0:0:
29,310,46206,2,0,B|76:320|76:320|85:318|85:318|148:333|148:333|153:339|153:339|251:365,1,188.999994232178
333,163,46429,5,0,0:0:0:0:
333,163,46503,2,0,P|257:173|202:265,1,188.999994232178
302,384,46726,1,0,0:0:0:0:
302,384,46800,2,0,P|376:367|423:270,1,188.999994232178
219,353,47023,5,0,0:0:0:0:
219,353,47097,1,0,0:0:0:0:
404,205,47246,1,0,0:0:0:0:
404,205,47320,1,0,0:0:0:0:
404,205,47394,1,0,0:0:0:0:
62,99,47543,1,0,0:0:0:0:
62,99,47617,1,0,0:0:0:0:
62,99,47691,1,0,0:0:0:0:
125,260,47766,5,0,0:0:0:0:
150,247,47840,1,0,0:0:0:0:
177,242,47914,1,0,0:0:0:0:
205,241,47988,1,0,0:0:0:0:
232,248,48063,1,0,0:0:0:0:
256,261,48137,1,0,0:0:0:0:
276,280,48211,1,0,0:0:0:0:
291,303,48285,5,0,0:0:0:0:
337,336,48360,1,0,0:0:0:0:
393,336,48434,1,0,0:0:0:0:
434,297,48508,1,0,0:0:0:0:
441,240,48582,1,0,0:0:0:0:
408,192,48657,1,0,0:0:0:0:
354,174,48731,5,0,0:0:0:0:
311,137,48805,1,0,0:0:0:0:
301,81,48879,1,0,0:0:0:0:
325,29,48954,1,0,0:0:0:0:
379,12,49028,1,0,0:0:0:0:
433,27,49102,1,0,0:0:0:0:
460,76,49176,1,0,0:0:0:0:
453,135,49251,1,0,0:0:0:0:
408,173,49325,1,0,0:0:0:0:
353,158,49399,5,0,0:0:0:0:
408,158,49473,1,0,0:0:0:0:
447,120,49548,1,0,0:0:0:0:
450,70,49622,1,0,0:0:0:0:
424,32,49696,1,0,0:0:0:0:
376,23,49771,1,0,0:0:0:0:
329,39,49845,1,0,0:0:0:0:
312,91,49919,1,0,0:0:0:0:
326,137,49993,1,0,0:0:0:0:
364,168,50068,5,0,0:0:0:0:
336,139,50142,1,0,0:0:0:0:
283,128,50216,1,0,0:0:0:0:
231,144,50290,1,0,0:0:0:0:
188,181,50365,1,0,0:0:0:0:
136,203,50439,1,0,0:0:0:0:
79,197,50513,1,0,0:0:0:0:
39,157,50587,1,0,0:0:0:0:
38,99,50662,6,0,P|52:68|99:44,1,68.2499968757631
120,128,50810,5,0,0:0:0:0:
117,182,50884,1,0,0:0:0:0:
116,225,50959,1,0,0:0:0:0:
115,260,51033,1,0,0:0:0:0:
114,284,51107,1,0,0:0:0:0:
113,302,51181,1,0,0:0:0:0:
112,318,51256,5,0,0:0:0:0:
171,285,51330,1,0,0:0:0:0:
232,293,51404,1,0,0:0:0:0:
278,338,51478,1,0,0:0:0:0:
341,355,51553,1,0,0:0:0:0:
400,338,51627,1,0,0:0:0:0:
435,288,51701,1,0,0:0:0:0:
421,227,51775,1,0,0:0:0:0:
374,189,51850,6,0,P|348:160|341:122,1,68.2499968757631
381,71,51998,2,0,P|413:102|415:140,1,68.2499968757631
284,166,52147,6,0,P|285:118|305:85,1,68.2499968757631
478,116,52295,2,0,P|461:167|438:182,1,68.2499968757631
341,266,52444,5,0,0:0:0:0:
281,255,52518,1,0,0:0:0:0:
228,247,52592,1,0,0:0:0:0:
181,238,52667,1,0,0:0:0:0:
141,230,52741,1,0,0:0:0:0:
110,223,52815,1,0,0:0:0:0:
86,218,52889,1,0,0:0:0:0:
68,214,52964,1,0,0:0:0:0:
54,211,53038,5,0,0:0:0:0:
66,262,53112,1,0,0:0:0:0:
104,302,53186,1,0,0:0:0:0:
161,323,53261,1,0,0:0:0:0:
224,329,53335,1,0,0:0:0:0:
284,313,53409,1,0,0:0:0:0:
336,277,53483,1,0,0:0:0:0:
396,276,53558,5,0,0:0:0:0:
441,343,53632,1,0,0:0:0:0:
383,353,53706,1,0,0:0:0:0:
334,319,53780,1,0,0:0:0:0:
325,265,53855,1,0,0:0:0:0:
357,212,53929,1,0,0:0:0:0:
409,179,54003,1,0,0:0:0:0:
422,116,54077,1,0,0:0:0:0:
393,64,54152,5,0,0:0:0:0:
334,124,54226,1,0,0:0:0:0:
299,140,54300,1,0,0:0:0:0:
263,143,54374,1,0,0:0:0:0:
227,135,54449,1,0,0:0:0:0:
199,115,54523,6,0,P|178:90|167:50,3,68.2499968757631
121,174,54820,2,0,P|88:179|48:169,3,68.2499968757631
128,275,55117,2,0,P|116:305|87:335,3,68.2499968757631
232,299,55414,6,0,B|253:297|270:288|270:288|279:295|315:286|353:278|388:227|387:208|387:208|400:199|406:191|406:191|401:199|404:215|404:215|388:223|364:283|390:338|409:354|409:354|405:363|410:378|410:378|402:364|393:364|393:364|388:339|353:291|279:296|267:308|267:308|254:300|230:301,1,630
160,364,56602,6,0,P|140:333|136:298,3,52.5
137,271,56899,5,0,0:0:0:0:
155,230,56973,1,0,0:0:0:0:
192,204,57048,1,0,0:0:0:0:
239,201,57122,1,0,0:0:0:0:
286,210,57196,1,0,0:0:0:0:
331,198,57271,1,0,0:0:0:0:
358,160,57345,1,0,0:0:0:0:
352,115,57419,1,0,0:0:0:0:
305,87,57493,6,0,L|280:148,3,52.5
200,145,57790,6,0,B|204:61|258:1|258:1|217:54|170:59|170:59|214:149|206:273|206:273|138:224|138:224|120:251|79:261,1,630
65,183,58978,2,0,P|55:159|18:128,3,42
89,260,59275,1,0,0:0:0:0:
89,299,59350,1,0,0:0:0:0:
76,340,59424,1,0,0:0:0:0:
45,368,59498,1,0,0:0:0:0:
7,383,59572,5,0,0:0:0:0:
39,348,59647,1,0,0:0:0:0:
88,343,59721,1,0,0:0:0:0:
134,356,59795,1,0,0:0:0:0:
181,372,59870,1,0,0:0:0:0:
236,372,59944,1,0,0:0:0:0:
286,348,60018,1,0,0:0:0:0:
304,297,60092,1,0,0:0:0:0:
291,246,60167,6,0,B|280:193|226:170|226:170|303:205|350:175|350:175|414:256|388:346|388:346|417:309|470:302|470:302|493:345|527:352|527:352|497:332|510:295,1,630
494,231,61355,2,0,P|503:193|525:175,3,42
441,141,61652,5,0,0:0:0:0:
433,103,61726,1,0,0:0:0:0:
409,67,61800,1,0,0:0:0:0:
375,46,61874,1,0,0:0:0:0:
327,42,61949,1,0,0:0:0:0:
281,55,62023,1,0,0:0:0:0:
246,90,62097,5,0,0:0:0:0:
211,121,62171,1,0,0:0:0:0:
162,127,62246,1,0,0:0:0:0:
114,115,62320,1,0,0:0:0:0:
84,77,62394,1,0,0:0:0:0:
84,28,62469,1,0,0:0:0:0:
172,42,62543,6,0,B|171:92|171:92|180:109|180:109|177:174|177:174|177:185|177:185|166:204|166:204|164:265|164:265|174:287|174:287|173:375|173:375|133:339|133:339|97:329|97:329|81:296|81:296|57:295|33:279|33:279|48:305|45:333|45:333|57:304|92:296,1,630
168,283,63731,6,0,P|206:269|221:251,3,42
266,214,64028,1,0,0:0:0:0:
295,180,64102,1,0,0:0:0:0:
312,139,64176,1,0,0:0:0:0:
318,96,64251,1,0,0:0:0:0:
310,54,64325,5,0,0:0:0:0:
299,96,64399,1,0,0:0:0:0:
299,136,64473,1,0,0:0:0:0:
313,175,64548,1,0,0:0:0:0:
344,205,64622,1,0,0:0:0:0:
382,233,64696,1,0,0:0:0:0:
397,273,64771,1,0,0:0:0:0:
395,319,64845,1,0,0:0:0:0:
370,360,64919,6,0,B|301:376|264:338|264:338|206:287|137:328,1,236.250009012223
83,320,65216,6,0,B|152:336|189:298|189:298|247:247|316:288,1,236.250009012223
434,318,65513,6,0,B|365:334|328:296|328:296|270:245|201:286,1,236.250009012223
121,242,65810,2,0,P|55:192|169:181,1,236.250009012223
216,277,66107,5,0,0:0:0:0:
258,258,66181,1,0,0:0:0:0:
308,257,66255,1,0,0:0:0:0:
355,273,66329,1,0,0:0:0:0:
384,310,66404,5,0,0:0:0:0:
412,335,66478,1,0,0:0:0:0:
454,343,66553,1,0,0:0:0:0:
499,326,66627,1,0,0:0:0:0:
512,288,66701,1,0,0:0:0:0:
508,247,66775,1,0,0:0:0:0:
475,218,66850,1,0,0:0:0:0:
429,212,66924,1,0,0:0:0:0:
396,193,66998,5,0,0:0:0:0:
381,175,67072,1,0,0:0:0:0:
377,148,67147,1,0,0:0:0:0:
384,124,67221,1,0,0:0:0:0:
399,108,67295,6,0,B|433:80|489:82|529:122|529:122|450:122|433:171,1,236.250009012223
283,98,67592,2,0,B|241:82|215:33|230:-21|230:-21|269:46|320:37,1,236.250009012223
325,207,67889,2,0,B|332:250|302:297|247:312|247:312|287:244|253:204,1,236.250009012223
399,108,68186,6,0,B|433:80|489:82|529:122|529:122|450:122|433:171,1,236.250009012223
324,209,68483,5,0,0:0:0:0:
285,225,68558,1,0,0:0:0:0:
237,228,68632,1,0,0:0:0:0:
193,215,68706,1,0,0:0:0:0:
159,182,68780,5,0,0:0:0:0:
126,153,68855,1,0,0:0:0:0:
81,145,68929,1,0,0:0:0:0:
41,162,69003,1,0,0:0:0:0:
26,202,69077,1,0,0:0:0:0:
37,240,69152,1,0,0:0:0:0:
72,265,69226,1,0,0:0:0:0:
98,298,69300,1,0,0:0:0:0:
93,343,69374,6,0,P|123:293|166:282,1,78.7500030040742
254,331,69523,5,0,0:0:0:0:
297,345,69597,1,0,0:0:0:0:
343,341,69671,6,0,P|402:311|376:137,1,236.250009012223
217,95,69969,2,0,P|213:161|377:225,1,236.250009012223
503,112,70266,2,0,P|447:75|309:185,1,236.250009012223
266,228,70563,2,0,P|183:304|78:267,1,236.250009012223
8,117,70860,5,0,0:0:0:0:
50,124,70934,1,0,0:0:0:0:
91,133,71008,1,0,0:0:0:0:
138,142,71082,1,0,0:0:0:0:
172,189,71157,5,0,0:0:0:0:
211,179,71231,1,0,0:0:0:0:
254,167,71305,1,0,0:0:0:0:
291,154,71379,1,0,0:0:0:0:
341,175,71454,1,0,0:0:0:0:
366,172,71528,1,0,0:0:0:0:
394,178,71602,1,0,0:0:0:0:
411,193,71677,1,0,0:0:0:0:
421,212,71751,1,0,0:0:0:0:
425,236,71825,1,0,0:0:0:0:
421,256,71899,1,0,0:0:0:0:
411,277,71973,1,0,0:0:0:0:
401,351,72048,5,0,0:0:0:0:
361,330,72122,1,0,0:0:0:0:
316,319,72196,1,0,0:0:0:0:
266,324,72271,1,0,0:0:0:0:
217,340,72345,1,0,0:0:0:0:
174,356,72419,1,0,0:0:0:0:
125,358,72493,1,0,0:0:0:0:
83,334,72568,1,0,0:0:0:0:
68,289,72642,5,0,0:0:0:0:
90,235,72716,1,0,0:0:0:0:
139,212,72790,1,0,0:0:0:0:
192,225,72865,1,0,0:0:0:0:
245,203,72939,1,0,0:0:0:0:
265,149,73013,1,0,0:0:0:0:
242,95,73087,1,0,0:0:0:0:
186,78,73162,1,0,0:0:0:0:
130,108,73236,5,0,0:0:0:0:
174,66,73310,1,0,0:0:0:0:
232,66,73384,1,0,0:0:0:0:
281,93,73459,1,0,0:0:0:0:
307,142,73533,1,0,0:0:0:0:
349,178,73607,1,0,0:0:0:0:
404,192,73681,1,0,0:0:0:0:
460,187,73756,1,0,0:0:0:0:
505,150,73830,5,0,0:0:0:0:
449,133,73904,1,0,0:0:0:0:
396,141,73978,1,0,0:0:0:0:
349,178,74053,1,0,0:0:0:0:
336,233,74127,1,0,0:0:0:0:
346,289,74201,1,0,0:0:0:0:
382,332,74275,1,0,0:0:0:0:
433,348,74350,1,0,0:0:0:0:
507,334,74424,6,0,P|448:338|416:362,1,78.7500030040742
298,378,74572,1,0,0:0:0:0:
245,363,74647,1,0,0:0:0:0:
215,323,74721,1,0,0:0:0:0:
284,53,74870,1,0,0:0:0:0:
267,106,74945,1,0,0:0:0:0:
228,135,75019,1,0,0:0:0:0:
0,300,75167,5,0,0:0:0:0:
49,274,75242,1,0,0:0:0:0:
98,281,75316,1,0,0:0:0:0:
380,211,75464,1,0,0:0:0:0:
331,237,75539,1,0,0:0:0:0:
282,230,75613,1,0,0:0:0:0:
91,54,75761,5,0,0:0:0:0:
116,103,75836,1,0,0:0:0:0:
109,151,75910,1,0,0:0:0:0:
79,188,75983,1,0,0:0:0:0:
43,226,76058,1,0,0:0:0:0:
33,275,76132,1,0,0:0:0:0:
49,325,76206,1,0,0:0:0:0:
95,351,76280,1,0,0:0:0:0:
140,311,76355,5,0,0:0:0:0:
194,299,76429,1,0,0:0:0:0:
238,330,76503,1,0,0:0:0:0:
295,347,76577,1,0,0:0:0:0:
353,337,76652,1,0,0:0:0:0:
388,289,76726,1,0,0:0:0:0:
386,232,76800,6,0,P|367:194|318:169,1,78.7500030040742
363,83,76949,2,0,P|320:80|274:110,1,78.7500030040742
226,17,77097,1,0,0:0:0:0:
193,53,77171,1,0,0:0:0:0:
183,94,77246,1,0,0:0:0:0:
191,140,77320,1,0,0:0:0:0:
219,175,77394,1,0,0:0:0:0:
256,196,77469,1,0,0:0:0:0:
300,195,77543,1,0,0:0:0:0:
337,174,77617,1,0,0:0:0:0:
381,173,77691,1,0,0:0:0:0:
418,194,77766,1,0,0:0:0:0:
446,229,77840,1,0,0:0:0:0:
454,275,77914,1,0,0:0:0:0:
447,321,77989,5,0,0:0:0:0:
418,332,78063,1,0,0:0:0:0:
384,327,78137,1,0,0:0:0:0:
342,301,78211,1,0,0:0:0:0:
316,252,78285,1,0,0:0:0:0:
318,197,78360,1,0,0:0:0:0:
350,152,78434,1,0,0:0:0:0:
407,138,78508,5,0,0:0:0:0:
374,179,78582,1,0,0:0:0:0:
318,197,78657,1,0,0:0:0:0:
259,195,78731,1,0,0:0:0:0:
208,166,78805,1,0,0:0:0:0:
153,142,78879,1,0,0:0:0:0:
97,142,78954,1,0,0:0:0:0:
48,169,79028,1,0,0:0:0:0:
27,218,79102,1,0,0:0:0:0:
35,271,79176,6,0,L|141:243,1,78.7500030040742
183,329,79325,2,0,L|289:301,1,78.7500030040742
373,346,79473,5,0,0:0:0:0:
373,293,79548,1,0,0:0:0:0:
382,238,79622,1,0,0:0:0:0:
403,183,79697,1,0,0:0:0:0:
437,137,79771,6,0,P|490:96|537:82,1,78.7500030040742
382,238,79919,1,0,0:0:0:0:
337,269,79993,1,0,0:0:0:0:
283,286,80068,1,0,0:0:0:0:
226,279,80142,1,0,0:0:0:0:
179,248,80216,1,0,0:0:0:0:
125,228,80290,1,0,0:0:0:0:
73,230,80365,6,0,P|37:234|-11:262,1,78.7500030040742
177,197,80513,1,0,0:0:0:0:
215,158,80587,1,0,0:0:0:0:
232,106,80662,6,0,P|241:55|230:14,1,78.7500030040742
185,250,80810,1,0,0:0:0:0:
211,296,80884,1,0,0:0:0:0:
253,326,80959,2,0,P|302:350|341:348,1,78.7500030040742
491,286,81107,5,0,0:0:0:0:
489,272,81181,1,0,0:0:0:0:
487,256,81256,1,0,0:0:0:0:
485,243,81330,1,0,0:0:0:0:
482,228,81404,1,0,0:0:0:0:
480,215,81478,1,0,0:0:0:0:
477,200,81553,5,0,0:0:0:0:
430,172,81627,1,0,0:0:0:0:
374,170,81701,1,0,0:0:0:0:
325,199,81775,1,0,0:0:0:0:
298,244,81850,1,0,0:0:0:0:
251,273,81924,1,0,0:0:0:0:
197,281,81998,1,0,0:0:0:0:
144,268,82072,1,0,0:0:0:0:
106,223,82147,1,0,0:0:0:0:
106,167,82221,5,0,0:0:0:0:
130,131,82295,1,0,0:0:0:0:
139,104,82370,1,0,0:0:0:0:
138,83,82444,1,0,0:0:0:0:
133,65,82518,1,0,0:0:0:0:
125,52,82592,1,0,0:0:0:0:
114,42,82667,1,0,0:0:0:0:
101,39,82741,5,0,0:0:0:0:
73,83,82815,1,0,0:0:0:0:
64,134,82889,1,0,0:0:0:0:
81,181,82964,1,0,0:0:0:0:
120,216,83038,1,0,0:0:0:0:
173,230,83112,1,0,0:0:0:0:
233,223,83186,1,0,0:0:0:0:
276,187,83261,1,0,0:0:0:0:
334,175,83335,5,0,0:0:0:0:
387,189,83409,1,0,0:0:0:0:
426,224,83483,1,0,0:0:0:0:
443,271,83558,1,0,0:0:0:0:
434,322,83632,1,0,0:0:0:0:
406,366,83706,1,0,0:0:0:0:
349,383,83780,1,0,0:0:0:0:
294,355,83855,1,0,0:0:0:0:
281,297,83929,6,0,P|319:288|375:315,1,78.7500030040742
200,338,84077,1,0,0:0:0:0:
146,358,84152,1,0,0:0:0:0:
92,351,84226,1,0,0:0:0:0:
184,152,84374,1,0,0:0:0:0:
174,208,84449,1,0,0:0:0:0:
141,252,84523,1,0,0:0:0:0:
2,81,84671,1,0,0:0:0:0:
45,117,84746,1,0,0:0:0:0:
67,168,84820,1,0,0:0:0:0:
92,351,84968,5,0,0:0:0:0:
47,314,85043,1,0,0:0:0:0:
26,263,85117,1,0,0:0:0:0:
250,102,85266,1,0,0:0:0:0:
273,147,85341,1,0,0:0:0:0:
271,202,85415,1,0,0:0:0:0:
242,253,85488,1,0,0:0:0:0:
189,276,85563,1,0,0:0:0:0:
130,273,85637,1,0,0:0:0:0:
82,242,85711,5,0,0:0:0:0:
127,207,85785,1,0,0:0:0:0:
184,190,85860,1,0,0:0:0:0:
242,184,85934,1,0,0:0:0:0:
300,190,86008,1,0,0:0:0:0:
357,209,86082,1,0,0:0:0:0:
399,242,86157,2,0,P|432:279|448:336,1,78.7500030040742
449,382,86305,6,0,P|438:333|453:276,1,78.7500030040742
494,230,86454,1,0,0:0:0:0:
494,230,86528,1,0,0:0:0:0:
494,230,86602,1,0,0:0:0:0:
494,230,86676,1,0,0:0:0:0:
494,230,86751,5,0,0:0:0:0:
482,274,86825,1,0,0:0:0:0:
444,306,86899,1,0,0:0:0:0:
391,319,86973,1,0,0:0:0:0:
336,306,87048,1,0,0:0:0:0:
302,266,87122,1,0,0:0:0:0:
268,226,87196,1,0,0:0:0:0:
213,213,87271,1,0,0:0:0:0:
160,226,87345,1,0,0:0:0:0:
122,258,87419,1,0,0:0:0:0:
110,302,87493,5,0,0:0:0:0:
118,310,87568,1,0,0:0:0:0:
126,318,87642,1,0,0:0:0:0:
136,328,87716,1,0,0:0:0:0:
144,336,87790,5,0,0:0:0:0:
188,302,87865,1,0,0:0:0:0:
213,248,87939,1,0,0:0:0:0:
220,192,88013,1,0,0:0:0:0:
204,138,88087,6,0,P|175:84|134:62,1,78.7500030040742
0,137,88236,2,0,P|61:138|100:114,1,78.7500030040742
221,46,88384,6,0,P|187:19|136:17,1,78.7500030040742
103,193,88533,2,0,P|134:152|131:122,1,78.7500030040742
75,48,88681,5,0,0:0:0:0:
311,156,88830,1,0,0:0:0:0:
510,101,88978,5,0,0:0:0:0:
456,101,89053,1,0,0:0:0:0:
402,108,89127,1,0,0:0:0:0:
354,127,89201,1,0,0:0:0:0:
311,156,89275,2,0,P|270:202|253:250,1,78.7500030040742
39,258,89424,5,0,0:0:0:0:
93,258,89499,1,0,0:0:0:0:
147,265,89573,1,0,0:0:0:0:
195,284,89647,1,0,0:0:0:0:
238,313,89721,6,0,P|279:359|296:407,1,78.7500030040742
311,156,89870,6,0,P|323:216|314:266,1,78.7500030040742
211,73,90018,2,0,P|198:133|207:183,1,78.7500030040742
456,101,90167,2,0,P|436:159|403:198,1,78.7500030040742
66,18,90315,2,0,P|85:76|118:115,1,78.7500030040742
199,150,90464,5,0,0:0:0:0:
256,165,90538,1,0,0:0:0:0:
315,162,90612,1,0,0:0:0:0:
371,147,90687,1,0,0:0:0:0:
413,109,90761,5,0,0:0:0:0:
428,83,90835,1,0,0:0:0:0:
435,55,90909,1,0,0:0:0:0:
435,30,90983,1,0,0:0:0:0:
428,9,91058,6,0,P|376:23|344:62,1,78.7500030040742
269,4,91206,2,0,P|242:50|247:100,1,78.7500030040742
147,95,91355,2,0,P|161:147|200:179,1,78.7500030040742
137,252,91503,2,0,P|183:278|233:273,1,78.7500030040742
284,372,91652,5,0,0:0:0:0:
301,358,91726,1,0,0:0:0:0:
322,348,91800,1,0,0:0:0:0:
345,342,91874,1,0,0:0:0:0:
369,340,91949,1,0,0:0:0:0:
389,343,92023,1,0,0:0:0:0:
408,348,92097,1,0,0:0:0:0:
424,355,92171,1,0,0:0:0:0:
482,332,92246,5,0,0:0:0:0:
435,296,92320,1,0,0:0:0:0:
380,282,92394,1,0,0:0:0:0:
326,283,92469,1,0,0:0:0:0:
273,303,92543,1,0,0:0:0:0:
227,345,92617,1,0,0:0:0:0:
170,364,92691,5,0,0:0:0:0:
108,361,92766,1,0,0:0:0:0:
61,323,92840,1,0,0:0:0:0:
47,262,92914,1,0,0:0:0:0:
71,203,92988,1,0,0:0:0:0:
124,174,93063,1,0,0:0:0:0:
165,128,93137,1,0,0:0:0:0:
172,70,93211,1,0,0:0:0:0:
136,23,93285,1,0,0:0:0:0:
81,9,93360,5,0,0:0:0:0:
94,91,93434,1,0,0:0:0:0:
197,351,93978,5,0,0:0:0:0:
225,297,94077,5,0,0:0:0:0:
285,281,94176,5,0,0:0:0:0:
341,296,94275,5,0,0:0:0:0:
375,345,94374,5,0,0:0:0:0:
424,366,94473,5,0,0:0:0:0:
483,360,94572,5,0,0:0:0:0:
439,275,94622,6,0,P|437:245|457:210,3,52.5
381,166,94919,2,0,P|399:152|452:142,3,52.5
432,67,95216,2,0,P|457:73|494:108,3,52.5
360,115,95513,1,0,0:0:0:0:
355,130,95587,1,0,0:0:0:0:
353,146,95661,1,0,0:0:0:0:
355,161,95735,1,0,0:0:0:0:
361,174,95810,6,0,P|430:217|468:79,1,262.5
95,52,96256,1,0,0:0:0:0:
154,131,96404,5,0,0:0:0:0:
158,147,96478,1,0,0:0:0:0:
161,164,96553,1,0,0:0:0:0:
164,179,96627,1,0,0:0:0:0:
208,197,96701,5,0,0:0:0:0:
204,213,96775,1,0,0:0:0:0:
201,230,96850,1,0,0:0:0:0:
198,245,96924,1,0,0:0:0:0:
195,258,96998,5,0,0:0:0:0:
241,248,97072,1,0,0:0:0:0:
290,254,97147,1,0,0:0:0:0:
335,275,97221,1,0,0:0:0:0:
381,292,97295,1,0,0:0:0:0:
432,294,97370,1,0,0:0:0:0:
479,277,97444,5,0,0:0:0:0:
504,242,97518,1,0,0:0:0:0:
504,197,97592,1,0,0:0:0:0:
486,159,97667,1,0,0:0:0:0:
453,140,97741,1,0,0:0:0:0:
432,134,97815,1,0,0:0:0:0:
414,133,97889,5,0,0:0:0:0:
415,149,97963,1,0,0:0:0:0:
418,168,98038,1,0,0:0:0:0:
421,187,98112,1,0,0:0:0:0:
423,202,98186,6,0,P|369:121|386:25,1,157.500006008148
134,292,98483,2,0,P|188:211|171:115,1,157.500006008148
512,216,98780,6,0,P|416:196|360:117,1,157.500006008148
39,307,99077,2,0,P|134:287|190:208,1,157.500006008148
160,80,99300,1,0,0:0:0:0:
160,80,99374,1,0,0:0:0:0:
405,5,99523,1,0,0:0:0:0:
217,155,99671,5,0,0:0:0:0:
409,93,99820,1,0,0:0:0:0:
235,244,99969,5,0,0:0:0:0:
457,176,100117,1,0,0:0:0:0:
229,337,100266,1,0,0:0:0:0:
512,245,100414,1,0,0:0:0:0:
282,362,100563,5,0,0:0:0:0:
229,337,100637,1,0,0:0:0:0:
167,345,100711,1,0,0:0:0:0:
108,367,100785,1,0,0:0:0:0:
48,359,100860,1,0,0:0:0:0:
8,318,100934,1,0,0:0:0:0:
0,261,101008,1,0,0:0:0:0:
30,212,101082,5,0,0:0:0:0:
95,249,101157,1,0,0:0:0:0:
158,249,101231,1,0,0:0:0:0:
214,218,101305,1,0,0:0:0:0:
243,167,101379,1,0,0:0:0:0:
292,123,101454,1,0,0:0:0:0:
350,108,101528,1,0,0:0:0:0:
411,131,101602,1,0,0:0:0:0:
443,186,101676,1,0,0:0:0:0:
432,247,101751,2,0,P|419:283|393:304,6,39.3750015020371
359,332,102048,2,0,P|324:348|291:344,6,39.3750015020371
242,352,102345,6,0,L|228:302,1,39.3750015020371
258,289,102419,2,0,L|272:235,1,39.3750015020371
250,215,102493,2,0,L|238:162,1,39.3750015020371
266,145,102568,2,0,L|279:96,1,39.3750015020371
260,65,102679,5,0,0:0:0:0:
163,370,102939,5,0,0:0:0:0:
142,268,103038,1,0,0:0:0:0:
123,162,103137,1,0,0:0:0:0:
104,57,103236,2,0,L|136:74,1,35
349,370,103830,5,0,0:0:0:0:
370,268,103929,1,0,0:0:0:0:
389,162,104028,1,0,0:0:0:0:
408,57,104127,2,0,L|391:63,1,14
308,12,104424,6,0,B|306:50|306:50|291:62|291:62|288:98|288:98|297:118|297:118|293:181,1,157.5
206,162,104721,2,0,B|208:200|208:200|223:212|223:212|226:248|226:248|217:268|217:268|221:331,1,157.5
227,384,105018,1,0,0:0:0:0:
436,333,105315,5,0,0:0:0:0:
436,333,105414,1,0,0:0:0:0:
436,333,105513,1,0,0:0:0:0:
114,241,105612,2,0,L|149:253,1,35
76,333,106206,5,0,0:0:0:0:
76,333,106305,1,0,0:0:0:0:
76,333,106404,1,0,0:0:0:0:
398,241,106503,2,0,L|382:246,1,14
401,138,106800,6,0,B|388:186|388:186|392:209|392:209|379:258|379:258|360:278|360:278|344:338,1,210.000008010865
111,138,107097,2,0,B|123:186|123:186|119:209|119:209|132:258|132:258|151:278|151:278|167:338,1,210.000008010865
261,379,107394,1,0,0:0:0:0:
83,39,107691,5,0,0:0:0:0:
83,39,107790,1,0,0:0:0:0:
83,39,107889,1,0,0:0:0:0:
183,221,107988,2,0,L|217:210,1,35
429,39,108582,5,0,0:0:0:0:
429,39,108681,1,0,0:0:0:0:
429,39,108780,1,0,0:0:0:0:
309,217,108879,2,0,L|290:212,1,14
347,306,109176,6,0,B|397:284|405:240|405:240|412:242|412:242|405:238|405:238|412:192|376:154|376:154|340:113|351:69,1,275.625002628565
348,84,109473,2,0,P|378:20|400:128,1,275.625002628565
311,218,109771,2,0,B|273:192|245:195|245:195|244:190|244:190|242:194|242:194|217:199|185:218|185:218|150:241|119:248|119:248|118:252|118:252|116:247|116:247|71:254|21:216,1,275.625002628565
105,157,110068,5,0,0:0:0:0:
105,157,110142,1,0,0:0:0:0:
105,157,110216,1,0,0:0:0:0:
105,157,110290,1,0,0:0:0:0:
105,157,110365,1,0,0:0:0:0:
105,157,110439,1,0,0:0:0:0:
105,157,110513,1,0,0:0:0:0:
105,157,110587,1,0,0:0:0:0:
105,157,110662,2,0,P|169:126|231:132,1,68.2499968757631
251,120,110810,5,0,0:0:0:0:
277,122,110884,1,0,0:0:0:0:
304,129,110958,1,0,0:0:0:0:
328,140,111032,1,0,0:0:0:0:
352,154,111107,1,0,0:0:0:0:
373,170,111181,1,0,0:0:0:0:
392,191,111255,5,0,0:0:0:0:
359,179,111330,1,0,0:0:0:0:
314,170,111404,1,0,0:0:0:0:
266,171,111478,1,0,0:0:0:0:
221,180,111553,1,0,0:0:0:0:
177,199,111627,1,0,0:0:0:0:
147,232,111701,1,0,0:0:0:0:
125,272,111775,1,0,0:0:0:0:
114,313,111850,5,0,0:0:0:0:
157,289,111924,1,0,0:0:0:0:
210,284,111998,1,0,0:0:0:0:
263,298,112072,1,0,0:0:0:0:
304,330,112147,1,0,0:0:0:0:
355,352,112221,1,0,0:0:0:0:
414,356,112295,1,0,0:0:0:0:
472,334,112370,1,0,0:0:0:0:
502,275,112444,5,0,0:0:0:0:
496,264,112741,1,0,0:0:0:0:
488,252,113038,1,0,0:0:0:0:
478,238,113335,1,0,0:0:0:0:
66,358,113632,5,0,0:0:0:0:
72,347,113929,1,0,0:0:0:0:
80,335,114226,1,0,0:0:0:0:
90,321,114523,1,0,0:0:0:0:
426,177,114820,5,0,0:0:0:0:
445,224,114894,1,0,0:0:0:0:
435,274,114969,1,0,0:0:0:0:
398,315,115043,1,0,0:0:0:0:
348,337,115117,1,0,0:0:0:0:
298,332,115191,1,0,0:0:0:0:
253,306,115266,1,0,0:0:0:0:
226,260,115340,1,0,0:0:0:0:
224,206,115414,5,0,0:0:0:0:
252,158,115488,1,0,0:0:0:0:
285,112,115563,1,0,0:0:0:0:
288,59,115637,1,0,0:0:0:0:
264,20,115711,1,0,0:0:0:0:
213,4,115785,1,0,0:0:0:0:
166,25,115860,1,0,0:0:0:0:
152,71,115934,1,0,0:0:0:0:
169,114,116008,5,0,0:0:0:0:
183,110,116082,1,0,0:0:0:0:
199,104,116157,1,0,0:0:0:0:
214,99,116231,1,0,0:0:0:0:
249,119,116305,5,0,0:0:0:0:
263,123,116379,1,0,0:0:0:0:
279,129,116454,1,0,0:0:0:0:
294,134,116528,1,0,0:0:0:0:
328,117,116602,5,0,0:0:0:0:
342,113,116676,1,0,0:0:0:0:
358,107,116751,1,0,0:0:0:0:
373,102,116825,1,0,0:0:0:0:
387,97,116899,5,0,0:0:0:0:
364,142,116973,1,0,0:0:0:0:
351,196,117048,1,0,0:0:0:0:
359,247,117122,1,0,0:0:0:0:
384,293,117196,6,0,B|412:269|454:272|454:272|400:220|302:262|329:317|356:356|238:465|155:414|100:358|116:257|190:223|245:263|245:263|226:283|224:313,1,648.374970319749
162,350,118087,6,0,P|116:368|91:364,5,58.8000007177734
226,301,118533,5,0,0:0:0:0:
241,283,118607,1,0,0:0:0:0:
253,263,118681,1,0,0:0:0:0:
262,241,118755,1,0,0:0:0:0:
267,218,118830,1,0,0:0:0:0:
268,194,118904,1,0,0:0:0:0:
265,171,118978,1,0,0:0:0:0:
258,149,119052,1,0,0:0:0:0:
251,126,119127,5,0,0:0:0:0:
238,106,119202,1,0,0:0:0:0:
222,89,119276,1,0,0:0:0:0:
204,74,119350,1,0,0:0:0:0:
183,63,119424,1,0,0:0:0:0:
161,52,119498,1,0,0:0:0:0:
139,45,119572,6,0,P|224:71|366:23,1,204.749990627289
398,7,119870,6,0,P|421:51|425:89,1,68.2499968757631
422,146,120018,2,0,P|407:193|383:223,1,68.2499968757631
339,257,120167,1,0,0:0:0:0:
296,277,120241,1,0,0:0:0:0:
248,283,120315,1,0,0:0:0:0:
199,279,120389,1,0,0:0:0:0:
153,254,120464,1,0,0:0:0:0:
108,227,120538,1,0,0:0:0:0:
52,227,120612,1,0,0:0:0:0:
13,261,120687,1,0,0:0:0:0:
4,315,120761,5,0,0:0:0:0:
27,356,120835,1,0,0:0:0:0:
80,371,120909,1,0,0:0:0:0:
134,357,120983,1,0,0:0:0:0:
162,303,121058,1,0,0:0:0:0:
153,254,121132,1,0,0:0:0:0:
108,227,121206,1,0,0:0:0:0:
65,190,121280,1,0,0:0:0:0:
55,132,121355,5,0,0:0:0:0:
103,144,121429,1,0,0:0:0:0:
151,154,121503,1,0,0:0:0:0:
200,165,121577,1,0,0:0:0:0:
263,138,121652,2,0,L|281:136,1,15.75
361,99,121949,6,0,B|406:59|406:59|376:128|376:128|376:147|376:147|364:158|364:158|317:259,1,236.250009012223
234,229,122246,2,0,B|177:209|177:209|251:200|251:200|268:191|268:191|283:195|283:195|394:186,1,236.250009012223
403,275,122543,2,0,B|414:334|414:334|369:273|369:273|353:264|353:264|349:248|349:248|286:157,1,236.250009012223
361,99,122840,6,0,B|389:83|406:59|406:59|376:128|376:128|376:147|376:147|364:158|364:158|317:259,1,236.250009012223
285,318,123137,5,0,0:0:0:0:
263,303,123211,1,0,0:0:0:0:
232,293,123285,1,0,0:0:0:0:
202,288,123360,1,0,0:0:0:0:
173,287,123434,5,0,0:0:0:0:
125,298,123508,1,0,0:0:0:0:
84,319,123582,1,0,0:0:0:0:
35,315,123657,1,0,0:0:0:0:
8,271,123731,1,0,0:0:0:0:
22,224,123805,1,0,0:0:0:0:
69,205,123879,5,0,0:0:0:0:
113,221,123954,1,0,0:0:0:0:
131,269,124028,1,0,0:0:0:0:
161,305,124102,1,0,0:0:0:0:
204,331,124176,1,0,0:0:0:0:
255,333,124251,1,0,0:0:0:0:
319,368,124325,5,0,0:0:0:0:
350,323,124399,1,0,0:0:0:0:
393,288,124473,2,0,P|443:261|496:248,1,78.7500030040742
325,101,124622,1,0,0:0:0:0:
325,101,124696,1,0,0:0:0:0:
325,101,124771,2,0,P|355:169|354:216,1,78.7500030040742
478,178,124919,6,0,P|468:245|447:276,1,78.7500030040742
374,340,125068,1,0,0:0:0:0:
318,358,125142,1,0,0:0:0:0:
259,359,125216,1,0,0:0:0:0:
207,335,125290,1,0,0:0:0:0:
171,290,125365,1,0,0:0:0:0:
162,236,125439,1,0,0:0:0:0:
186,185,125513,6,0,P|221:145|278:132,1,78.7500030040742
171,290,125662,1,0,0:0:0:0:
124,301,125736,1,0,0:0:0:0:
72,299,125810,6,0,P|19:288|-19:245,1,78.7500030040742
187,185,125959,1,0,0:0:0:0:
241,205,126033,1,0,0:0:0:0:
269,251,126107,6,0,P|286:301|268:357,1,78.7500030040742
74,298,126256,1,0,0:0:0:0:
28,257,126330,1,0,0:0:0:0:
7,198,126404,1,0,0:0:0:0:
7,140,126478,1,0,0:0:0:0:
29,90,126553,1,0,0:0:0:0:
76,55,126627,1,0,0:0:0:0:
139,98,126701,5,0,0:0:0:0:
192,122,126775,1,0,0:0:0:0:
254,127,126850,1,0,0:0:0:0:
314,112,126924,1,0,0:0:0:0:
362,74,126998,5,0,0:0:0:0:
313,96,127072,1,0,0:0:0:0:
266,134,127146,1,0,0:0:0:0:
246,183,127220,1,0,0:0:0:0:
247,243,127295,1,0,0:0:0:0:
278,297,127369,1,0,0:0:0:0:
328,330,127443,5,0,0:0:0:0:
393,329,127517,1,0,0:0:0:0:
436,281,127592,1,0,0:0:0:0:
436,217,127666,1,0,0:0:0:0:
388,179,127740,1,0,0:0:0:0:
331,183,127814,1,0,0:0:0:0:
289,232,127889,5,0,0:0:0:0:
292,290,127963,1,0,0:0:0:0:
258,335,128038,1,0,0:0:0:0:
201,350,128112,1,0,0:0:0:0:
146,331,128186,1,0,0:0:0:0:
121,281,128261,1,0,0:0:0:0:
131,228,128335,1,0,0:0:0:0:
177,193,128409,1,0,0:0:0:0:
213,144,128484,5,0,0:0:0:0:
211,83,128558,1,0,0:0:0:0:
184,33,128632,1,0,0:0:0:0:
130,12,128706,1,0,0:0:0:0:
69,19,128781,1,0,0:0:0:0:
24,64,128855,1,0,0:0:0:0:
17,123,128929,1,0,0:0:0:0:
38,180,129003,1,0,0:0:0:0:
92,207,129077,5,0,0:0:0:0:
134,165,129152,1,0,0:0:0:0:
196,148,129226,1,0,0:0:0:0:
257,163,129300,1,0,0:0:0:0:
308,199,129374,1,0,0:0:0:0:
368,219,129449,1,0,0:0:0:0:
429,215,129523,1,0,0:0:0:0:
481,176,129597,1,0,0:0:0:0:
493,117,129671,5,0,0:0:0:0:
468,63,129746,1,0,0:0:0:0:
409,40,129820,1,0,0:0:0:0:
349,58,129894,1,0,0:0:0:0:
319,113,129969,1,0,0:0:0:0:
324,169,130043,1,0,0:0:0:0:
362,214,130117,1,0,0:0:0:0:
379,273,130191,1,0,0:0:0:0:
357,329,130266,5,0,0:0:0:0:
365,279,130340,1,0,0:0:0:0:
349,222,130414,1,0,0:0:0:0:
313,177,130488,1,0,0:0:0:0:
256,164,130563,1,0,0:0:0:0:
198,174,130637,1,0,0:0:0:0:
150,209,130711,1,0,0:0:0:0:
95,218,130785,1,0,0:0:0:0:
42,202,130860,2,0,P|-3:162|-14:124,1,78.7500030040742
128,40,131008,5,0,0:0:0:0:
128,40,131082,1,0,0:0:0:0:
128,40,131157,2,0,P|95:114|69:127,1,78.7500030040742
31,44,131305,1,0,0:0:0:0:
32,25,131379,1,0,0:0:0:0:
33,8,131454,5,0,0:0:0:0:
84,6,131528,1,0,0:0:0:0:
130,26,131603,1,0,0:0:0:0:
160,72,131677,1,0,0:0:0:0:
151,125,131751,1,0,0:0:0:0:
118,169,131825,1,0,0:0:0:0:
122,225,131900,1,0,0:0:0:0:
160,270,131974,1,0,0:0:0:0:
218,285,132048,1,0,0:0:0:0:
271,263,132122,1,0,0:0:0:0:
310,223,132197,1,0,0:0:0:0:
367,218,132271,1,0,0:0:0:0:
414,248,132345,1,0,0:0:0:0:
424,307,132420,1,0,0:0:0:0:
393,354,132494,1,0,0:0:0:0:
338,366,132568,1,0,0:0:0:0:
291,333,132642,5,0,0:0:0:0:
345,355,132716,1,0,0:0:0:0:
393,342,132790,1,0,0:0:0:0:
415,298,132865,1,0,0:0:0:0:
396,249,132939,1,0,0:0:0:0:
348,220,133013,5,0,0:0:0:0:
306,184,133087,1,0,0:0:0:0:
287,129,133162,1,0,0:0:0:0:
305,75,133236,1,0,0:0:0:0:
355,47,133310,1,0,0:0:0:0:
411,61,133384,1,0,0:0:0:0:
440,110,133459,5,0,0:0:0:0:
423,165,133533,1,0,0:0:0:0:
369,187,133607,1,0,0:0:0:0:
321,163,133681,1,0,0:0:0:0:
311,107,133756,1,0,0:0:0:0:
345,82,133830,6,0,P|380:128|338:89,1,157.500006008148
49,76,134127,5,0,0:0:0:0:
55,83,134275,1,0,0:0:0:0:
0,237,134424,5,0,0:0:0:0:
46,204,134498,1,0,0:0:0:0:
104,190,134572,1,0,0:0:0:0:
162,193,134647,1,0,0:0:0:0:
215,217,134721,1,0,0:0:0:0:
260,255,134795,1,0,0:0:0:0:
307,292,134870,1,0,0:0:0:0:
363,314,134944,1,0,0:0:0:0:
422,316,135018,5,0,0:0:0:0:
487,293,135092,1,0,0:0:0:0:
512,228,135167,1,0,0:0:0:0:
502,160,135241,1,0,0:0:0:0:
457,106,135315,1,0,0:0:0:0:
388,92,135389,1,0,0:0:0:0:
319,113,135464,1,0,0:0:0:0:
286,176,135538,1,0,0:0:0:0:
285,245,135612,5,0,0:0:0:0:
352,214,135686,1,0,0:0:0:0:
362,142,135761,1,0,0:0:0:0:
308,87,135835,1,0,0:0:0:0:
235,96,135909,1,0,0:0:0:0:
193,157,135983,1,0,0:0:0:0:
140,207,136058,1,0,0:0:0:0:
68,212,136132,1,0,0:0:0:0:
16,162,136206,6,0,P|11:74|191:100,1,315
286,176,136503,2,0,P|415:228|456:94,1,315
329,296,136800,2,0,B|352:327|357:377|357:377|367:296|367:296|374:280|374:280|380:212|380:212|376:199|376:199|384:112,1,315
183,296,137097,2,0,B|160:327|155:377|155:377|145:296|145:296|138:280|138:280|132:212|132:212|136:199|136:199|128:112,1,315
0,346,137394,6,0,B|50:325|102:347|102:347|134:296|211:296,1,210
353,370,137617,1,0,0:0:0:0:
353,370,137692,1,0,0:0:0:0:
353,370,137766,2,0,P|317:379|241:321,1,105
367,208,137914,5,0,0:0:0:0:
367,208,137988,1,0,0:0:0:0:
367,208,138063,2,0,P|366:244|289:297,1,105
264,72,138211,5,0,0:0:0:0:
264,72,138285,1,0,0:0:0:0:
264,72,138360,2,0,P|238:97|255:190,1,105
413,20,138508,5,0,0:0:0:0:
413,20,138582,1,0,0:0:0:0:
413,20,138657,2,0,P|395:73|249:3,1,210
126,53,138879,6,0,P|157:102|161:143,1,78.7500030040742
161,199,139028,2,0,P|148:255|122:287,1,78.7500030040742
65,324,139176,1,0,0:0:0:0:
53,330,139251,1,0,0:0:0:0:
37,336,139325,1,0,0:0:0:0:
21,338,139399,1,0,0:0:0:0:
3,338,139473,5,0,0:0:0:0:
29,299,139548,1,0,0:0:0:0:
75,286,139622,1,0,0:0:0:0:
123,295,139696,1,0,0:0:0:0:
154,325,139771,5,0,0:0:0:0:
181,358,139845,1,0,0:0:0:0:
238,368,139920,1,0,0:0:0:0:
293,342,139994,1,0,0:0:0:0:
333,298,140068,1,0,0:0:0:0:
326,239,140142,1,0,0:0:0:0:
287,193,140217,1,0,0:0:0:0:
269,138,140291,1,0,0:0:0:0:
288,82,140365,5,0,0:0:0:0:
285,133,140439,1,0,0:0:0:0:
262,185,140513,1,0,0:0:0:0:
212,219,140587,1,0,0:0:0:0:
155,224,140662,6,0,P|148:226|138:224,1,15.75
0,161,140959,2,0,B|-22:153|-17:107|24:96|66:124|59:216|59:216|62:257|80:283|80:283|76:290|76:290|82:286|82:286|101:314|146:334|198:327,1,315
199,378,141256,6,0,B|241:373|241:373|259:355|259:355|274:366|274:366|340:358|340:358|364:367|364:367|411:360|411:360|424:348|424:348|532:331,1,315
310,101,141553,2,0,B|293:139|293:139|299:164|299:164|282:171|282:171|256:233|256:233|237:249|237:249|218:293|218:293|223:310|223:310|184:412,1,315
493,336,141850,2,0,B|467:302|467:302|443:295|443:295|445:277|445:277|404:223|404:223|400:198|400:198|371:160|371:160|354:156|354:156|285:71,1,315
94,184,142147,6,0,B|135:232|123:298|123:298|151:237|219:221|219:221|145:221|82:176,1,377.999988464356
359,51,142444,6,0,B|299:73|239:42|239:42|290:87|288:157|288:157|307:86|367:46,1,377.999988464356
335,366,142741,6,0,B|358:306|421:281|421:281|353:290|301:244|301:244|344:305|336:372,1,377.999988464356,0|0,0:0|0:0,2:0:0:0:
349,298,143038,2,0,P|193:186|249:115,1,251.999992309571
295,91,143261,1,0,0:0:0:0:
295,91,143335,1,0,0:0:0:0:
34,259,143483,1,0,0:0:0:0:
34,259,143558,1,0,0:0:0:0:
34,259,143632,6,0,P|36:194|59:153,1,78.7500030040742
144,240,143780,2,0,P|191:195|236:182,1,78.7500030040742
252,304,143929,1,0,0:0:0:0:
304,312,144003,1,0,0:0:0:0:
355,320,144077,1,0,0:0:0:0:
401,328,144152,5,0,0:0:0:0:
461,370,144226,1,0,0:0:0:0:
496,318,144300,1,0,0:0:0:0:
485,253,144374,1,0,0:0:0:0:
432,227,144449,1,0,0:0:0:0:
397,178,144523,6,0,B|364:111|406:41|478:32|478:32|416:82|428:187,1,315
288,213,144820,2,0,B|263:142|184:122|127:167|127:167|206:158|272:241,1,315.000012016297
496,318,145117,2,0,B|545:248|535:167|535:167|516:254|442:292,1,315
286,374,145414,2,0,B|201:359|151:294|151:294|226:342|305:317,1,315
447,289,145711,6,0,P|428:151|325:334,1,503.999984619141
361,229,146157,1,0,0:0:0:0:
62,156,146305,5,0,0:0:0:0:
69,169,146379,1,0,0:0:0:0:
77,182,146454,1,0,0:0:0:0:
83,198,146528,1,0,0:0:0:0:
87,213,146602,1,0,0:0:0:0:
90,228,146676,1,0,0:0:0:0:
126,263,146751,5,0,0:0:0:0:
119,276,146825,1,0,0:0:0:0:
111,289,146900,1,0,0:0:0:0:
105,305,146974,1,0,0:0:0:0:
101,320,147048,1,0,0:0:0:0:
98,335,147122,1,0,0:0:0:0:
97,351,147196,5,0,0:0:0:0:
128,332,147271,1,0,0:0:0:0:
169,322,147345,1,0,0:0:0:0:
206,330,147419,1,0,0:0:0:0:
244,351,147493,1,0,0:0:0:0:
282,372,147568,1,0,0:0:0:0:
319,380,147642,1,0,0:0:0:0:
360,370,147716,1,0,0:0:0:0:
393,346,147790,5,0,0:0:0:0:
415,304,147865,1,0,0:0:0:0:
411,255,147939,1,0,0:0:0:0:
377,222,148013,1,0,0:0:0:0:
329,209,148087,5,0,0:0:0:0:
277,231,148162,1,0,0:0:0:0:
249,280,148236,1,0,0:0:0:0:
209,323,148310,1,0,0:0:0:0:
151,322,148384,1,0,0:0:0:0:
107,288,148459,1,0,0:0:0:0:
103,228,148533,1,0,0:0:0:0:
137,178,148607,1,0,0:0:0:0:
194,175,148682,5,0,0:0:0:0:
231,214,148756,1,0,0:0:0:0:
216,275,148830,1,0,0:0:0:0:
161,289,148904,1,0,0:0:0:0:
121,242,148978,1,0,0:0:0:0:
134,186,149053,1,0,0:0:0:0:
199,166,149127,1,0,0:0:0:0:
244,208,149201,1,0,0:0:0:0:
290,248,149275,5,0,0:0:0:0:
356,251,149350,1,0,0:0:0:0:
414,222,149424,1,0,0:0:0:0:
439,164,149498,1,0,0:0:0:0:
436,100,149572,1,0,0:0:0:0:
405,41,149647,1,0,0:0:0:0:
346,22,149721,1,0,0:0:0:0:
278,30,149795,1,0,0:0:0:0:
229,73,149870,5,0,0:0:0:0:
236,132,149944,1,0,0:0:0:0:
245,193,150018,1,0,0:0:0:0:
255,255,150092,1,0,0:0:0:0:
216,303,150167,5,0,0:0:0:0:
203,248,150241,1,0,0:0:0:0:
191,191,150315,1,0,0:0:0:0:
178,132,150389,1,0,0:0:0:0:
170,77,150464,5,0,0:0:0:0:
232,78,150538,1,0,0:0:0:0:
289,108,150612,1,0,0:0:0:0:
326,163,150686,1,0,0:0:0:0:
336,229,150761,1,0,0:0:0:0:
316,290,150835,1,0,0:0:0:0:
279,343,150909,1,0,0:0:0:0:
226,367,150983,1,0,0:0:0:0:
160,365,151058,1,0,0:0:0:0:
107,333,151132,1,0,0:0:0:0:
50,326,151206,1,0,0:0:0:0:
1,360,151280,5,0,0:0:0:0:
51,382,151355,1,0,0:0:0:0:
111,383,151429,1,0,0:0:0:0:
169,359,151503,1,0,0:0:0:0:
211,318,151577,1,0,0:0:0:0:
267,289,151652,2,0,P|336:280|368:294,1,78.7500030040742
475,142,151800,5,0,0:0:0:0:
471,157,151874,1,0,0:0:0:0:
466,174,151949,1,0,0:0:0:0:
463,190,152023,1,0,0:0:0:0:
458,208,152097,5,0,0:0:0:0:
412,224,152171,1,0,0:0:0:0:
359,226,152246,1,0,0:0:0:0:
305,217,152320,1,0,0:0:0:0:
257,197,152394,1,0,0:0:0:0:
215,166,152469,1,0,0:0:0:0:
187,119,152543,1,0,0:0:0:0:
176,65,152617,1,0,0:0:0:0:
179,12,152691,5,0,0:0:0:0:
235,22,152766,1,0,0:0:0:0:
274,58,152840,6,0,P|289:93|290:136,1,68.2499968757631
382,138,152988,2,0,P|367:173|338:204,1,68.2499968757631
401,270,153137,1,0,0:0:0:0:
375,328,153211,1,0,0:0:0:0:
327,367,153285,1,0,0:0:0:0:
269,376,153360,1,0,0:0:0:0:
210,353,153434,1,0,0:0:0:0:
172,304,153508,1,0,0:0:0:0:
170,243,153582,5,0,0:0:0:0:
204,194,153657,1,0,0:0:0:0:
246,147,153731,1,0,0:0:0:0:
254,84,153805,1,0,0:0:0:0:
220,30,153879,1,0,0:0:0:0:
160,14,153954,1,0,0:0:0:0:
102,44,154028,5,0,0:0:0:0:
91,113,154102,1,0,0:0:0:0:
136,168,154176,1,0,0:0:0:0:
207,179,154251,1,0,0:0:0:0:
277,153,154325,1,0,0:0:0:0:
330,102,154399,1,0,0:0:0:0:
402,91,154473,1,0,0:0:0:0:
467,121,154548,1,0,0:0:0:0:
499,184,154622,1,0,0:0:0:0:
491,254,154696,5,0,0:0:0:0:
419,249,154771,1,0,0:0:0:0:
350,243,154845,1,0,0:0:0:0:
280,237,154919,1,0,0:0:0:0:
210,228,154993,1,0,0:0:0:0:
140,217,155068,1,0,0:0:0:0:
70,207,155142,1,0,0:0:0:0:
0,198,155216,6,0,L|4:213,1,15.75
4,108,155513,6,0,L|51:317,1,183.750001752377
251,384,156107,1,0,0:0:0:0:
251,384,156256,1,0,0:0:0:0:
335,372,156553,5,0,0:0:0:0:
335,372,156702,1,0,0:0:0:0:
412,353,156998,5,0,0:0:0:0:
412,353,157147,1,0,0:0:0:0:
493,336,157444,5,0,0:0:0:0:
493,336,157593,1,0,0:0:0:0:
395,86,157889,5,0,0:0:0:0:
395,86,158038,1,0,0:0:0:0:
318,151,158335,5,0,0:0:0:0:
318,151,158484,1,0,0:0:0:0:
341,251,158780,5,0,0:0:0:0:
341,251,158929,1,0,0:0:0:0:
432,275,159226,5,0,0:0:0:0:
432,275,159375,1,0,0:0:0:0:
324,251,159671,1,0,0:0:0:0:
222,226,159969,1,0,0:0:0:0:
253,365,160266,1,0,0:0:0:0:
256,192,167394,12,0,169473,0:0:0:0:
481,220,169771,5,0,0:0:0:0:
481,220,169919,2,0,P|369:235|313:285,1,157.5
251,208,170216,6,0,P|223:266|221:310,1,105
220,128,170513,2,0,P|183:74|146:51,1,105
314,148,170810,1,0,0:0:0:0:
314,148,170884,1,0,0:0:0:0:
314,148,170959,1,0,0:0:0:0:
166,195,171256,5,0,0:0:0:0:
242,384,171553,1,0,0:0:0:0:
251,367,171627,1,0,0:0:0:0:
263,355,171701,1,0,0:0:0:0:
280,345,171775,1,0,0:0:0:0:
297,341,171850,6,0,P|346:354|446:288,1,157.5
377,132,172147,6,0,P|341:167|348:287,1,157.5
512,311,172444,6,0,P|498:262|391:208,1,157.5
246,240,172741,6,0,P|176:207|146:136,1,157.5
232,33,173038,6,0,P|227:59|212:81,3,52.5
146,138,173335,5,0,0:0:0:0:
126,147,173410,1,0,0:0:0:0:
106,151,173484,1,0,0:0:0:0:
87,154,173558,1,0,0:0:0:0:
69,152,173632,2,0,P|32:141|6:122,1,52.5
87,56,173780,5,0,0:0:0:0:
121,36,173855,1,0,0:0:0:0:
167,30,173929,1,0,0:0:0:0:
220,43,174003,1,0,0:0:0:0:
256,82,174077,1,0,0:0:0:0:
271,134,174152,1,0,0:0:0:0:
258,190,174226,6,0,B|248:220|226:250|182:261|182:261|275:279|329:210,1,236.250009012223
441,101,174523,2,0,B|451:71|472:41|517:30|517:30|424:11|370:81,1,236.250009012223
346,256,174820,6,0,B|366:279|381:313|369:357|369:357|431:285|398:204,1,236.250009012223
346,45,175117,2,0,B|325:21|310:-12|322:-56|322:-56|260:15|293:96,1,236.250009012223
442,210,175414,6,0,B|472:203|509:207|541:240|541:240|510:150|423:138,1,236.250009012223
255,99,175711,2,0,B|224:105|187:101|155:68|155:68|186:158|273:170,1,236.250009012223
228,264,176008,5,0,0:0:0:0:
344,161,176157,1,0,0:0:0:0:
229,355,176305,1,0,0:0:0:0:
208,344,176379,1,0,0:0:0:0:
187,338,176454,1,0,0:0:0:0:
166,337,176528,1,0,0:0:0:0:
149,340,176602,5,0,0:0:0:0:
112,339,176676,1,0,0:0:0:0:
73,322,176751,1,0,0:0:0:0:
53,283,176825,1,0,0:0:0:0:
59,238,176899,1,0,0:0:0:0:
95,209,176973,1,0,0:0:0:0:
143,209,177048,1,0,0:0:0:0:
181,238,177122,1,0,0:0:0:0:
216,272,177196,5,0,0:0:0:0:
269,293,177271,1,0,0:0:0:0:
329,289,177345,1,0,0:0:0:0:
377,253,177419,1,0,0:0:0:0:
396,196,177493,5,0,0:0:0:0:
343,175,177568,1,0,0:0:0:0:
283,179,177642,1,0,0:0:0:0:
235,215,177716,1,0,0:0:0:0:
216,272,177790,6,0,P|218:342|232:371,1,68.2499968757631
328,228,177939,2,0,P|376:278|386:309,1,68.2499968757631
124,192,178087,6,0,P|116:257|124:285,1,68.2499968757631
349,98,178236,2,0,P|378:115|402:140,1,68.2499968757631
68,104,178384,6,0,P|37:154|32:171,1,68.2499968757631
195,41,178533,2,0,P|222:92|235:105,1,68.2499968757631
348,12,178681,2,0,P|406:13|424:9,1,68.2499968757631
300,146,178830,6,0,P|335:161|353:164,1,52.5
193,356,179275,6,0,P|198:314|241:261,1,78.7500030040742
72,42,179424,2,0,P|108:56|135:84,1,78.7500030040742
79,315,179572,6,0,P|102:284|137:266,1,78.7500030040742
32,187,179721,2,0,P|69:174|108:179,1,78.7500030040742
274,367,179870,6,0,P|279:324|251:262,1,78.7500030040742
472,95,180019,2,0,P|433:99|399:119,1,78.7500030040742
395,357,180167,2,0,P|379:320|351:294,1,78.7500030040742
473,245,180316,2,0,P|440:223|401:218,1,78.7500030040742
333,0,180464,5,0,0:0:0:0:
315,20,180538,1,0,0:0:0:0:
304,43,180612,1,0,0:0:0:0:
301,78,180686,1,0,0:0:0:0:
310,120,180761,5,0,0:0:0:0:
338,150,180835,1,0,0:0:0:0:
366,199,180909,1,0,0:0:0:0:
364,249,180983,1,0,0:0:0:0:
331,291,181058,5,0,0:0:0:0:
273,320,181132,1,0,0:0:0:0:
208,310,181206,1,0,0:0:0:0:
164,261,181280,1,0,0:0:0:0:
95,248,181355,6,0,P|43:245|5:262,1,78.7500030040742
366,199,181503,6,0,L|419:188,1,47.2499985580445
371,120,181800,6,0,L|361:256,1,78.7500030040742
158,182,182097,6,0,L|168:318,1,78.7500030040742
351,307,182394,6,0,L|341:392,1,52.5
360,239,182543,2,0,L|353:298,1,52.5
158,182,182691,6,0,L|165:278,1,52.5
172,96,182840,6,0,B|175:144|175:144|180:150|180:150|189:258|189:258|183:269|183:269|191:352,1,236.250009012223
296,357,183137,5,0,0:0:0:0:
344,374,183211,1,0,0:0:0:0:
395,368,183285,1,0,0:0:0:0:
434,337,183360,1,0,0:0:0:0:
447,287,183434,1,0,0:0:0:0:
434,236,183508,1,0,0:0:0:0:
396,206,183582,1,0,0:0:0:0:
347,199,183657,1,0,0:0:0:0:
278,267,183731,5,0,0:0:0:0:
191,263,183830,5,0,0:0:0:0:
105,255,183929,5,0,0:0:0:0:
25,247,184028,2,0,L|29:262,1,14
225,352,184325,5,0,0:0:0:0:
312,348,184424,5,0,0:0:0:0:
398,340,184523,5,0,0:0:0:0:
478,332,184622,2,0,L|480:316,1,14
225,352,184919,5,0,0:0:0:0:
177,277,185018,1,0,0:0:0:0:
210,189,185117,1,0,0:0:0:0:
344,95,185216,1,0,0:0:0:0:
303,174,185315,5,0,0:0:0:0:
210,189,185414,1,0,0:0:0:0:
62,120,185513,1,0,0:0:0:0:
150,116,185612,5,0,0:0:0:0:
210,189,185711,1,0,0:0:0:0:
357,261,185810,1,0,0:0:0:0:
403,176,185909,1,0,0:0:0:0:
350,93,186008,1,0,0:0:0:0:
264,265,186107,5,0,0:0:0:0:
264,265,186206,1,0,0:0:0:0:
264,265,186305,1,0,0:0:0:0:
492,162,186404,2,0,L|491:178,1,14
377,370,186701,5,0,0:0:0:0:
377,370,186800,1,0,0:0:0:0:
377,370,186899,1,0,0:0:0:0:
96,273,186998,2,0,L|99:286,1,14
73,202,187295,5,0,0:0:0:0:
174,193,187394,1,0,0:0:0:0:
273,184,187493,1,0,0:0:0:0:
406,296,187592,5,0,0:0:0:0:
472,227,187691,1,0,0:0:0:0:
388,205,187790,1,0,0:0:0:0:
488,304,187889,1,0,0:0:0:0:
450,151,187988,1,0,0:0:0:0:
327,264,188087,1,0,0:0:0:0:
440,380,188186,5,0,0:0:0:0:
476,242,188285,1,0,0:0:0:0:
512,116,188384,1,0,0:0:0:0:
426,22,188483,5,0,0:0:0:0:
426,22,188582,1,0,0:0:0:0:
426,22,188681,1,0,0:0:0:0:
191,138,188780,2,0,L|177:136,1,14
86,22,189077,5,0,0:0:0:0:
86,22,189176,1,0,0:0:0:0:
86,22,189275,1,0,0:0:0:0:
321,138,189374,2,0,L|335:136,1,14
190,36,189671,5,0,0:0:0:0:
203,148,189770,1,0,0:0:0:0:
216,255,189870,1,0,0:0:0:0:
295,357,189969,5,0,0:0:0:0:
308,250,190068,1,0,0:0:0:0:
321,138,190168,1,0,0:0:0:0:
134,134,190266,6,0,L|243:156,1,70
376,236,190464,6,0,L|258:260,1,70
149,337,190662,6,0,L|266:358,1,70
423,372,190860,5,0,0:0:0:0:
454,269,190959,1,0,0:0:0:0:
489,167,191058,1,0,0:0:0:0:
307,249,191157,2,0,L|292:248,1,14
89,372,191454,5,0,0:0:0:0:
58,269,191553,1,0,0:0:0:0:
23,167,191652,1,0,0:0:0:0:
205,249,191751,2,0,L|220:248,1,14
333,336,192048,5,0,0:0:0:0:
380,247,192147,1,0,0:0:0:0:
329,172,192246,1,0,0:0:0:0:
134,237,192345,5,0,0:0:0:0:
87,148,192444,1,0,0:0:0:0:
138,73,192543,1,0,0:0:0:0:
233,78,192642,6,0,L|248:76,1,14
336,57,192939,2,0,L|319:61,1,14
178,184,193236,6,0,L|236:170,1,52.5000020027161
302,153,193335,6,0,L|360:139,1,52.5000020027161
426,118,193434,6,0,L|489:102,1,52.5000020027161
489,19,193533,2,0,L|487:35,1,14
476,108,193830,6,0,L|466:186,1,52.5000020027161
399,190,193929,2,0,L|390:257,1,52.5000020027161
322,272,194028,2,0,L|313:339,1,52.5000020027161
210,264,194127,6,0,L|208:280,1,14
119,319,194424,5,0,0:0:0:0:
131,215,194523,1,0,0:0:0:0:
139,351,194622,5,0,0:0:0:0:
110,175,194721,1,0,0:0:0:0:
176,369,194820,5,0,0:0:0:0:
72,151,194919,1,0,0:0:0:0:
218,373,195018,5,0,0:0:0:0:
31,147,195117,1,0,0:0:0:0:
139,351,195216,5,0,0:0:0:0:
110,175,195315,1,0,0:0:0:0:
84,273,195414,5,0,0:0:0:0:
199,147,195513,1,0,0:0:0:0:
139,351,195612,5,0,0:0:0:0:
139,351,195711,1,0,0:0:0:0:
139,351,195810,1,0,0:0:0:0:
348,302,195909,2,0,L|346:321,1,14
426,368,196206,6,0,P|451:304|448:290,1,52.5000020027161
441,241,196305,2,0,P|421:202|396:187,1,52.5000020027161
343,155,196404,2,0,P|311:128|298:96,1,52.5000020027161
276,47,196503,6,0,P|275:39|274:32,1,14
412,59,196800,5,0,0:0:0:0:
410,199,196899,1,0,0:0:0:0:
416,50,196998,5,0,0:0:0:0:
347,213,197097,1,0,0:0:0:0:
422,39,197196,5,0,0:0:0:0:
470,227,197295,1,0,0:0:0:0:
427,30,197394,5,0,0:0:0:0:
285,206,197493,1,0,0:0:0:0:
434,21,197592,5,0,0:0:0:0:
487,285,197691,1,0,0:0:0:0:
456,358,197790,1,0,0:0:0:0:
385,381,197889,1,0,0:0:0:0:
191,273,197988,1,0,0:0:0:0:
191,273,198087,5,0,0:0:0:0:
191,273,198186,1,0,0:0:0:0:
391,293,198285,2,0,L|407:291,1,14
329,137,198582,5,0,0:0:0:0:
329,137,198681,1,0,0:0:0:0:
329,137,198780,1,0,0:0:0:0:
91,178,198879,2,0,L|73:177,1,14
151,101,199176,6,0,P|178:137|182:169,1,52.5000020027161
229,118,199275,6,0,P|213:173|203:184,1,52.5000020027161
282,203,199374,6,0,P|243:223|216:225,1,52.5000020027161
271,301,199473,6,0,P|221:277|214:265,1,52.5000020027161
188,371,199572,6,0,P|176:323|181:307,1,52.5000020027161
77,363,199671,6,0,P|133:323|147:320,1,52.5000020027161
153,234,199771,6,0,P|200:232|268:202,1,105.000004005432
261,213,199969,6,0,P|326:149|336:127,1,105.000004005432
339,137,200167,6,0,P|347:46|339:12,1,105.000004005432
220,14,200365,5,0,0:0:0:0:
216,24,200439,1,0,0:0:0:0:
212,40,200513,1,0,0:0:0:0:
211,54,200587,1,0,0:0:0:0:
213,70,200662,1,0,0:0:0:0:
217,84,200736,1,0,0:0:0:0:
224,98,200810,1,0,0:0:0:0:
233,108,200884,1,0,0:0:0:0:
245,117,200959,6,0,L|342:108,1,78.7500030040742
431,95,201107,5,0,0:0:0:0:
435,105,201181,1,0,0:0:0:0:
439,121,201255,1,0,0:0:0:0:
440,135,201329,1,0,0:0:0:0:
438,151,201404,1,0,0:0:0:0:
434,165,201478,1,0,0:0:0:0:
427,179,201552,1,0,0:0:0:0:
418,189,201626,1,0,0:0:0:0:
408,198,201701,6,0,L|329:205,1,78.7500030040742
222,302,201850,1,0,0:0:0:0:
184,283,201924,1,0,0:0:0:0:
145,275,201998,2,0,P|102:274|51:288,1,78.7500030040742
214,190,202147,2,0,P|188:109|167:93,1,78.7500030040742
121,57,202295,5,0,0:0:0:0:
102,113,202370,1,0,0:0:0:0:
100,169,202444,1,0,0:0:0:0:
112,227,202518,1,0,0:0:0:0:
144,276,202592,1,0,0:0:0:0:
205,306,202667,1,0,0:0:0:0:
272,302,202741,6,0,B|351:280|405:318|405:318|458:346|458:346|457:354|457:354|461:348|461:348|490:360|542:334|542:334|464:353|420:291|420:291|403:250|412:206|445:156|508:162|536:200|536:200|546:199|546:199|537:203|537:203|518:243|481:267|412:233,1,787.5
366,205,203929,6,0,P|338:163|334:142,3,52.5
319,88,204226,5,0,0:0:0:0:
316,72,204300,1,0,0:0:0:0:
315,57,204374,1,0,0:0:0:0:
317,39,204449,1,0,0:0:0:0:
322,23,204523,5,0,0:0:0:0:
362,54,204597,1,0,0:0:0:0:
365,104,204671,1,0,0:0:0:0:
330,143,204746,1,0,0:0:0:0:
276,147,204820,1,0,0:0:0:0:
231,123,204894,1,0,0:0:0:0:
184,113,204969,1,0,0:0:0:0:
133,124,205043,1,0,0:0:0:0:
102,159,205117,6,0,B|26:220|55:342|136:372|136:372|185:387|226:374|226:374|286:351|278:257|208:244|123:261|140:391|231:372|231:372|283:355|329:277|329:277|358:285|400:267|400:267|398:339|343:383,1,984.375
398,270,206305,6,0,P|393:212|377:179,3,65.625
348,140,206602,5,0,0:0:0:0:
336,123,206676,1,0,0:0:0:0:
324,115,206751,1,0,0:0:0:0:
310,107,206825,1,0,0:0:0:0:
294,102,206899,5,0,0:0:0:0:
297,150,206973,1,0,0:0:0:0:
342,176,207048,1,0,0:0:0:0:
392,170,207122,1,0,0:0:0:0:
425,134,207196,1,0,0:0:0:0:
431,89,207271,1,0,0:0:0:0:
407,45,207345,1,0,0:0:0:0:
362,25,207419,1,0,0:0:0:0:
315,31,207493,6,0,P|281:47|240:51,1,65.625
181,54,207642,1,0,0:0:0:0:
227,192,207790,6,0,P|191:179|159:153,1,65.625
110,39,207939,1,0,0:0:0:0:
72,225,208087,6,0,P|56:190|51:150,1,65.625
52,1,208236,2,0,P|39:57|43:89,1,65.625
206,243,208384,6,0,P|182:206|178:151,1,65.625
157,25,208533,2,0,P|150:68|170:120,1,65.625
374,249,208681,6,0,P|338:222|316:172,1,65.625
319,97,208830,1,0,0:0:0:0:
289,70,208904,1,0,0:0:0:0:
253,60,208978,6,0,P|257:92|273:121,1,65.625
326,204,209127,1,0,0:0:0:0:
356,231,209201,1,0,0:0:0:0:
392,240,209275,6,0,P|387:207|371:178,1,65.625
493,151,209424,2,0,P|462:139|429:137,1,65.625
465,19,209572,2,0,P|439:39|421:66,1,65.625
394,137,209721,5,0,0:0:0:0:
380,190,209795,1,0,0:0:0:0:
407,267,209870,5,0,0:0:0:0:
407,267,209944,1,0,0:0:0:0:
407,267,210018,1,0,0:0:0:0:
407,267,210092,1,0,0:0:0:0:
448,292,210167,5,0,0:0:0:0:
448,292,210241,1,0,0:0:0:0:
448,292,210315,1,0,0:0:0:0:
448,292,210389,1,0,0:0:0:0:
470,308,210464,5,0,0:0:0:0:
448,292,210538,1,0,0:0:0:0:
408,278,210612,1,0,0:0:0:0:
366,277,210686,1,0,0:0:0:0:
323,288,210761,1,0,0:0:0:0:
285,311,210835,1,0,0:0:0:0:
249,339,210909,1,0,0:0:0:0:
209,352,210983,1,0,0:0:0:0:
162,352,211058,6,0,P|121:339|95:308,1,65.625
28,278,211206,2,0,P|18:235|32:197,1,65.625
8,125,211355,2,0,P|39:95|79:88,1,65.625
110,18,211503,2,0,P|150:31|176:62,1,65.625
161,208,211652,5,0,0:0:0:0:
123,205,211726,1,0,0:0:0:0:
114,170,211800,1,0,0:0:0:0:
146,148,211874,1,0,0:0:0:0:
177,174,211949,5,0,0:0:0:0:
180,223,212023,1,0,0:0:0:0:
119,228,212097,1,0,0:0:0:0:
95,166,212171,1,0,0:0:0:0:
140,129,212246,6,0,B|181:113|206:121|206:121|211:114|211:114|209:121|209:121|230:124|271:163|271:163|353:220|423:173|423:173|432:176|432:176|427:168|427:168|498:93|448:-32|336:-5|316:73|328:148|419:149|450:115|445:66|445:66|479:72|512:41|512:41|546:117|503:190|503:190|505:246|505:246|449:279|476:353|544:354|587:325|576:255|551:244|519:243|511:245|511:245|462:270|448:255|448:255|436:262|422:258|422:258|391:270|391:270|387:281|387:281|369:275|369:275|336:288|336:288|324:322|283:353|283:353|354:308|428:337,1,1627.5
383,334,214622,6,0,P|326:342|259:393,1,105
23,154,214919,6,0,P|56:197|76:211,1,52.5
127,230,215068,2,0,P|181:236|205:232,1,52.5
265,218,215216,5,0,0:0:0:0:
307,193,215290,1,0,0:0:0:0:
334,154,215365,1,0,0:0:0:0:
346,105,215439,1,0,0:0:0:0:
341,54,215513,5,0,0:0:0:0:
302,6,215587,1,0,0:0:0:0:
241,6,215662,1,0,0:0:0:0:
205,53,215736,1,0,0:0:0:0:
218,108,215810,1,0,0:0:0:0:
264,144,215884,1,0,0:0:0:0:
322,144,215959,1,0,0:0:0:0:
377,167,216033,1,0,0:0:0:0:
409,222,216107,5,0,0:0:0:0:
411,283,216182,1,0,0:0:0:0:
384,334,216256,1,0,0:0:0:0:
327,357,216330,1,0,0:0:0:0:
264,354,216404,1,0,0:0:0:0:
219,316,216479,5,0,0:0:0:0:
237,292,216553,1,0,0:0:0:0:
264,278,216627,1,0,0:0:0:0:
296,269,216701,2,0,P|303:268|311:269,1,15.75
385,340,216998,6,0,P|418:239|250:174,1,315
199,225,217295,6,0,P|58:197|73:54,1,315
236,79,217592,6,0,P|207:219|68:207,1,210
146,140,217815,1,0,0:0:0:0:
146,140,217889,2,0,P|241:77|293:88,1,105
260,8,218038,2,0,P|362:58|378:109,1,105
390,132,218186,5,0,0:0:0:0:
393,152,218261,1,0,0:0:0:0:
391,172,218335,1,0,0:0:0:0:
388,189,218409,1,0,0:0:0:0:
380,207,218483,1,0,0:0:0:0:
368,224,218557,1,0,0:0:0:0:
357,237,218631,1,0,0:0:0:0:
343,247,218706,1,0,0:0:0:0:
329,254,218780,5,0,0:0:0:0:
289,226,218855,1,0,0:0:0:0:
234,211,218929,1,0,0:0:0:0:
180,219,219003,1,0,0:0:0:0:
135,248,219077,1,0,0:0:0:0:
86,258,219152,1,0,0:0:0:0:
34,237,219226,1,0,0:0:0:0:
15,183,219300,1,0,0:0:0:0:
37,136,219374,6,0,P|75:113|134:133,1,78.7500030040742
207,204,219523,1,0,0:0:0:0:
251,215,219597,1,0,0:0:0:0:
299,216,219671,2,0,P|346:198|371:167,1,78.7500030040742
449,166,219820,2,0,P|480:126|486:87,1,78.7500030040742
407,5,219969,5,0,0:0:0:0:
348,16,220043,1,0,0:0:0:0:
299,50,220117,1,0,0:0:0:0:
273,101,220191,1,0,0:0:0:0:
264,156,220266,1,0,0:0:0:0:
272,213,220340,1,0,0:0:0:0:
301,263,220414,1,0,0:0:0:0:
349,294,220488,1,0,0:0:0:0:
406,309,220563,6,0,L|501:290,1,78.7500030040742
366,178,220711,1,0,0:0:0:0:
312,187,220785,1,0,0:0:0:0:
260,197,220860,6,0,L|168:216,1,78.7500030040742
132,364,221008,1,0,0:0:0:0:
186,355,221082,1,0,0:0:0:0:
238,345,221157,2,0,L|330:326,1,78.7500030040742
435,190,221305,1,0,0:0:0:0:
434,204,221379,1,0,0:0:0:0:
436,215,221454,1,0,0:0:0:0:
440,226,221528,1,0,0:0:0:0:
447,235,221602,1,0,0:0:0:0:
454,242,221676,1,0,0:0:0:0:
472,212,221751,5,0,0:0:0:0:
486,153,221825,1,0,0:0:0:0:
473,92,221900,1,0,0:0:0:0:
432,48,221974,1,0,0:0:0:0:
375,31,222048,1,0,0:0:0:0:
315,38,222122,1,0,0:0:0:0:
271,79,222197,1,0,0:0:0:0:
239,130,222271,1,0,0:0:0:0:
191,167,222345,5,0,0:0:0:0:
133,178,222419,1,0,0:0:0:0:
76,160,222494,1,0,0:0:0:0:
43,110,222568,1,0,0:0:0:0:
51,51,222642,1,0,0:0:0:0:
98,13,222717,1,0,0:0:0:0:
157,17,222791,1,0,0:0:0:0:
190,67,222865,1,0,0:0:0:0:
181,123,222939,5,0,0:0:0:0:
133,153,223014,1,0,0:0:0:0:
78,141,223088,1,0,0:0:0:0:
54,94,223162,1,0,0:0:0:0:
71,42,223236,1,0,0:0:0:0:
125,26,223311,1,0,0:0:0:0:
173,54,223385,1,0,0:0:0:0:
195,105,223459,1,0,0:0:0:0:
239,139,223533,1,0,0:0:0:0:
295,155,223608,1,0,0:0:0:0:
351,147,223681,1,0,0:0:0:0:
390,108,223756,1,0,0:0:0:0:
394,46,223830,5,0,0:0:0:0:
356,102,223904,1,0,0:0:0:0:
345,167,223978,1,0,0:0:0:0:
357,231,224053,1,0,0:0:0:0:
385,289,224127,5,0,0:0:0:0:
392,296,224201,1,0,0:0:0:0:
402,306,224275,1,0,0:0:0:0:
411,313,224350,1,0,0:0:0:0:
455,324,224424,5,0,0:0:0:0:
448,331,224498,1,0,0:0:0:0:
438,341,224572,1,0,0:0:0:0:
429,348,224647,1,0,0:0:0:0:
419,358,224721,5,0,0:0:0:0:
379,346,224795,1,0,0:0:0:0:
328,338,224870,1,0,0:0:0:0:
275,341,224944,1,0,0:0:0:0:
227,356,225018,5,0,0:0:0:0:
168,372,225092,1,0,0:0:0:0:
108,365,225167,1,0,0:0:0:0:
56,340,225241,1,0,0:0:0:0:
106,277,225315,5,0,0:0:0:0:
113,266,225389,1,0,0:0:0:0:
121,253,225464,1,0,0:0:0:0:
127,235,225538,1,0,0:0:0:0:
131,215,225612,1,0,0:0:0:0:
129,190,225686,1,0,0:0:0:0:
122,165,225761,1,0,0:0:0:0:
105,135,225835,1,0,0:0:0:0:
73,114,225909,5,0,0:0:0:0:
94,161,225983,1,0,0:0:0:0:
140,190,226058,1,0,0:0:0:0:
193,199,226132,1,0,0:0:0:0:
246,185,226206,1,0,0:0:0:0:
289,149,226280,1,0,0:0:0:0:
344,133,226355,1,0,0:0:0:0:
401,148,226429,1,0,0:0:0:0:
435,193,226503,6,0,P|444:238|416:289,1,78.7500030040742
326,298,226652,2,0,P|329:329|364:387,1,78.7500030040742
418,110,226800,6,0,P|443:150|440:208,1,78.7500030040742
327,215,226949,2,0,P|313:260|331:315,1,78.7500030040742
446,180,227097,1,0,0:0:0:0:
432,126,227171,1,0,0:0:0:0:
398,88,227246,1,0,0:0:0:0:
342,72,227320,1,0,0:0:0:0:
285,71,227394,5,0,0:0:0:0:
224,98,227469,1,0,0:0:0:0:
173,150,227543,1,0,0:0:0:0:
103,161,227617,1,0,0:0:0:0:
37,122,227691,2,0,P|18:97|10:45,1,78.7500030040742
116,58,227840,5,0,0:0:0:0:
125,66,227914,1,0,0:0:0:0:
133,78,227988,1,0,0:0:0:0:
171,118,228063,5,0,0:0:0:0:
159,140,228137,1,0,0:0:0:0:
152,170,228211,1,0,0:0:0:0:
153,199,228285,5,0,0:0:0:0:
167,244,228360,1,0,0:0:0:0:
201,287,228434,1,0,0:0:0:0:
254,313,228508,1,0,0:0:0:0:
312,320,228583,5,0,0:0:0:0:
377,304,228657,1,0,0:0:0:0:
427,255,228731,1,0,0:0:0:0:
444,188,228805,1,0,0:0:0:0:
434,119,228879,6,0,L|329:141,1,78.7500030040742
277,228,229028,5,0,0:0:0:0:
222,220,229102,1,0,0:0:0:0:
167,210,229176,1,0,0:0:0:0:
126,202,229251,1,0,0:0:0:0:
89,195,229325,1,0,0:0:0:0:
65,191,229399,1,0,0:0:0:0:
46,187,229473,5,0,0:0:0:0:
94,156,229548,1,0,0:0:0:0:
154,153,229622,1,0,0:0:0:0:
208,178,229696,1,0,0:0:0:0:
236,230,229771,1,0,0:0:0:0:
275,281,229845,1,0,0:0:0:0:
334,302,229919,1,0,0:0:0:0:
395,297,229993,1,0,0:0:0:0:
445,256,230068,5,0,0:0:0:0:
385,260,230142,1,0,0:0:0:0:
338,297,230216,1,0,0:0:0:0:
288,334,230290,1,0,0:0:0:0:
228,346,230365,1,0,0:0:0:0:
167,332,230439,1,0,0:0:0:0:
129,285,230513,1,0,0:0:0:0:
72,268,230587,1,0,0:0:0:0:
13,282,230662,5,0,0:0:0:0:
18,296,230736,1,0,0:0:0:0:
27,309,230810,1,0,0:0:0:0:
39,319,230884,1,0,0:0:0:0:
54,326,230959,1,0,0:0:0:0:
69,328,231033,1,0,0:0:0:0:
85,327,231107,1,0,0:0:0:0:
100,322,231181,1,0,0:0:0:0:
114,315,231256,6,0,P|172:268|326:405,1,315
256,268,231553,6,0,P|211:181|369:73,1,315
416,249,231850,6,0,P|329:294|220:136,1,315
445,0,232147,6,0,P|458:131|357:172,1,210
328,172,232370,1,0,0:0:0:0:
328,172,232444,2,0,L|105:158,1,210
96,339,232667,1,0,0:0:0:0:
96,339,232741,2,0,L|219:152,1,210
65,55,232964,1,0,0:0:0:0:
65,55,233038,2,0,L|164:255,1,210
279,310,233261,5,0,0:0:0:0:
335,316,233335,1,0,0:0:0:0:
387,301,233409,1,0,0:0:0:0:
429,269,233484,1,0,0:0:0:0:
454,219,233558,1,0,0:0:0:0:
451,163,233632,2,0,P|432:106|378:82,1,78.7500030040742
267,150,233780,5,0,0:0:0:0:
267,150,233855,1,0,0:0:0:0:
267,150,233929,2,0,P|343:164|365:148,1,78.7500030040742
178,201,234077,2,0,P|182:268|193:287,1,78.7500030040742
241,340,234226,5,0,0:0:0:0:
289,362,234300,1,0,0:0:0:0:
341,371,234374,1,0,0:0:0:0:
385,372,234449,1,0,0:0:0:0:
418,366,234523,1,0,0:0:0:0:
450,356,234597,1,0,0:0:0:0:
473,344,234671,1,0,0:0:0:0:
489,333,234746,1,0,0:0:0:0:
502,321,234820,5,0,0:0:0:0:
459,281,234894,1,0,0:0:0:0:
403,265,234969,1,0,0:0:0:0:
341,271,235043,1,0,0:0:0:0:
290,308,235117,1,0,0:0:0:0:
236,333,235191,1,0,0:0:0:0:
177,325,235266,1,0,0:0:0:0:
128,281,235340,1,0,0:0:0:0:
123,218,235414,5,0,0:0:0:0:
156,167,235488,1,0,0:0:0:0:
188,114,235563,1,0,0:0:0:0:
187,55,235637,1,0,0:0:0:0:
155,8,235711,1,0,0:0:0:0:
93,0,235785,1,0,0:0:0:0:
38,25,235860,1,0,0:0:0:0:
11,77,235934,1,0,0:0:0:0:
15,129,236008,5,0,0:0:0:0:
74,117,236082,1,0,0:0:0:0:
132,116,236157,1,0,0:0:0:0:
187,137,236231,1,0,0:0:0:0:
236,168,236305,1,0,0:0:0:0:
289,187,236379,1,0,0:0:0:0:
347,188,236454,1,0,0:0:0:0:
402,163,236528,1,0,0:0:0:0:
436,111,236602,5,0,0:0:0:0:
433,52,236676,1,0,0:0:0:0:
389,8,236751,1,0,0:0:0:0:
326,4,236825,1,0,0:0:0:0:
274,37,236899,1,0,0:0:0:0:
260,98,236973,1,0,0:0:0:0:
282,151,237048,1,0,0:0:0:0:
320,199,237122,1,0,0:0:0:0:
320,259,237196,2,0,P|305:311|282:333,1,78.7500030040742
201,118,237345,5,0,0:0:0:0:
259,138,237419,1,0,0:0:0:0:
302,184,237493,1,0,0:0:0:0:
318,244,237567,1,0,0:0:0:0:
304,305,237642,1,0,0:0:0:0:
264,353,237716,1,0,0:0:0:0:
206,376,237790,1,0,0:0:0:0:
144,370,237864,1,0,0:0:0:0:
92,335,237939,1,0,0:0:0:0:
62,280,238013,1,0,0:0:0:0:
61,218,238087,1,0,0:0:0:0:
84,162,238162,1,0,0:0:0:0:
130,126,238236,1,0,0:0:0:0:
190,115,238310,1,0,0:0:0:0:
246,129,238384,6,0,L|351:155,1,78.7500030040742
447,183,238533,5,0,0:0:0:0:
503,150,238607,1,0,0:0:0:0:
511,89,238681,1,0,0:0:0:0:
473,38,238756,1,0,0:0:0:0:
411,34,238830,1,0,0:0:0:0:
366,73,238904,1,0,0:0:0:0:
346,133,238978,1,0,0:0:0:0:
364,191,239053,1,0,0:0:0:0:
400,225,239127,5,0,0:0:0:0:
418,258,239201,1,0,0:0:0:0:
423,298,239275,1,0,0:0:0:0:
417,324,239350,1,0,0:0:0:0:
406,342,239424,1,0,0:0:0:0:
396,352,239498,1,0,0:0:0:0:
384,359,239572,5,0,0:0:0:0:
324,347,239647,1,0,0:0:0:0:
261,333,239721,1,0,0:0:0:0:
197,319,239795,5,0,0:0:0:0:
127,350,239870,1,0,0:0:0:0:
109,305,239944,1,0,0:0:0:0:
94,257,240018,1,0,0:0:0:0:
77,208,240092,1,0,0:0:0:0:
0,177,240167,5,0,0:0:0:0:
12,138,240241,1,0,0:0:0:0:
21,103,240315,1,0,0:0:0:0:
32,70,240389,1,0,0:0:0:0:
100,20,240464,5,0,0:0:0:0:
108,40,240538,1,0,0:0:0:0:
111,62,240612,1,0,0:0:0:0:
110,82,240686,1,0,0:0:0:0:
103,97,240761,5,0,0:0:0:0:
133,83,240835,1,0,0:0:0:0:
172,80,240910,1,0,0:0:0:0:
210,84,240984,1,0,0:0:0:0:
243,95,241058,1,0,0:0:0:0:
276,106,241132,1,0,0:0:0:0:
314,110,241206,1,0,0:0:0:0:
353,107,241281,1,0,0:0:0:0:
386,94,241355,1,0,0:0:0:0:
416,69,241429,1,0,0:0:0:0:
431,32,241503,1,0,0:0:0:0:
407,63,241577,5,0,0:0:0:0:
399,102,241652,1,0,0:0:0:0:
409,141,241726,1,0,0:0:0:0:
428,177,241800,5,0,0:0:0:0:
444,231,241874,1,0,0:0:0:0:
437,289,241949,1,0,0:0:0:0:
395,339,242023,1,0,0:0:0:0:
331,352,242097,1,0,0:0:0:0:
270,324,242171,1,0,0:0:0:0:
210,295,242246,1,0,0:0:0:0:
144,285,242320,1,0,0:0:0:0:
80,294,242394,1,0,0:0:0:0:
26,329,242469,1,0,0:0:0:0:
0,384,242543,5,0,0:0:0:0:
64,380,242617,1,0,0:0:0:0:
123,358,242692,1,0,0:0:0:0:
172,316,242766,1,0,0:0:0:0:
210,263,242840,1,0,0:0:0:0:
214,198,242914,1,0,0:0:0:0:
196,140,242988,1,0,0:0:0:0:
156,94,243063,1,0,0:0:0:0:
147,34,243137,6,0,P|186:75|223:88,1,78.7500030040742
325,145,243285,1,0,0:0:0:0:
370,139,243360,1,0,0:0:0:0:
411,126,243434,6,0,P|454:97|476:57,1,68.2499968757631
342,0,243582,1,0,0:0:0:0:
323,40,243657,1,0,0:0:0:0:
315,83,243731,2,0,P|318:134|342:173,1,68.2499968757631
421,207,243879,1,0,0:0:0:0:
441,261,243954,1,0,0:0:0:0:
431,311,244028,1,0,0:0:0:0:
385,351,244102,1,0,0:0:0:0:
327,361,244176,5,0,0:0:0:0:
265,344,244251,1,0,0:0:0:0:
222,290,244325,1,0,0:0:0:0:
164,256,244399,1,0,0:0:0:0:
97,257,244473,1,0,0:0:0:0:
42,295,244548,1,0,0:0:0:0:
32,362,244622,5,0,0:0:0:0:
29,295,244696,1,0,0:0:0:0:
69,240,244771,1,0,0:0:0:0:
135,221,244845,1,0,0:0:0:0:
202,235,244919,6,0,P|262:224|274:211,1,68.2499968757631
316,94,245068,1,0,0:0:0:0:
286,36,245142,1,0,0:0:0:0:
218,23,245216,1,0,0:0:0:0:
160,57,245290,1,0,0:0:0:0:
145,121,245365,1,0,0:0:0:0:
174,178,245439,1,0,0:0:0:0:
238,202,245513,1,0,0:0:0:0:
305,187,245587,5,0,0:0:0:0:
373,181,245661,1,0,0:0:0:0:
428,222,245735,1,0,0:0:0:0:
440,291,245809,1,0,0:0:0:0:
397,348,245884,1,0,0:0:0:0:
329,364,245959,1,0,0:0:0:0:
268,326,246033,1,0,0:0:0:0:
255,256,246107,5,0,0:0:0:0:
278,318,246181,1,0,0:0:0:0:
336,352,246256,1,0,0:0:0:0:
402,340,246330,1,0,0:0:0:0:
437,282,246404,1,0,0:0:0:0:
419,218,246478,1,0,0:0:0:0:
361,190,246553,1,0,0:0:0:0:
320,134,246627,1,0,0:0:0:0:
319,66,246701,6,0,P|331:20|366:-10,1,68.2499968757631
450,95,246850,5,0,0:0:0:0:
435,112,246924,1,0,0:0:0:0:
410,130,246998,1,0,0:0:0:0:
373,142,247072,1,0,0:0:0:0:
324,143,247147,1,0,0:0:0:0:
267,132,247221,1,0,0:0:0:0:
216,105,247295,1,0,0:0:0:0:
156,96,247370,1,0,0:0:0:0:
96,106,247444,5,0,0:0:0:0:
52,154,247518,1,0,0:0:0:0:
41,215,247592,1,0,0:0:0:0:
62,274,247667,1,0,0:0:0:0:
115,308,247741,1,0,0:0:0:0:
172,310,247815,1,0,0:0:0:0:
224,278,247889,5,0,0:0:0:0:
161,303,247964,1,0,0:0:0:0:
95,290,248038,1,0,0:0:0:0:
55,233,248112,1,0,0:0:0:0:
65,165,248186,1,0,0:0:0:0:
112,119,248261,1,0,0:0:0:0:
182,118,248335,1,0,0:0:0:0:
236,161,248409,1,0,0:0:0:0:
285,206,248483,5,0,0:0:0:0:
354,234,248558,1,0,0:0:0:0:
425,223,248632,1,0,0:0:0:0:
477,168,248706,1,0,0:0:0:0:
480,95,248780,1,0,0:0:0:0:
432,39,248855,1,0,0:0:0:0:
360,34,248929,1,0,0:0:0:0:
300,76,249003,1,0,0:0:0:0:
285,146,249077,5,0,0:0:0:0:
305,190,249152,1,0,0:0:0:0:
324,227,249226,1,0,0:0:0:0:
342,264,249300,1,0,0:0:0:0:
356,291,249374,1,0,0:0:0:0:
366,310,249449,1,0,0:0:0:0:
375,327,249523,1,0,0:0:0:0:
383,341,249597,1,0,0:0:0:0:
391,355,249671,5,0,0:0:0:0:
329,313,249746,1,0,0:0:0:0:
257,301,249820,1,0,0:0:0:0:
187,319,249894,1,0,0:0:0:0:
119,348,249969,1,0,0:0:0:0:
50,330,250043,1,0,0:0:0:0:
14,265,250117,1,0,0:0:0:0:
27,196,250191,1,0,0:0:0:0:
90,157,250266,6,0,L|94:172,1,15.75
106,68,250563,6,0,L|152:253,1,183.750001752377
271,380,251157,5,0,0:0:0:0:
271,380,251305,1,0,0:0:0:0:
291,298,251602,5,0,0:0:0:0:
291,298,251751,1,0,0:0:0:0:
314,216,252048,5,0,0:0:0:0:
314,216,252196,1,0,0:0:0:0:
337,135,252493,5,0,0:0:0:0:
337,135,252642,1,0,0:0:0:0:
363,57,252939,5,0,0:0:0:0:
363,57,253087,1,0,0:0:0:0:
149,57,253384,5,0,0:0:0:0:
149,57,253532,1,0,0:0:0:0:
175,135,253829,5,0,0:0:0:0:
175,135,253978,1,0,0:0:0:0:
198,216,254275,5,0,0:0:0:0:
198,216,254423,1,0,0:0:0:0:
221,298,254720,5,0,0:0:0:0:
344,282,255018,1,0,0:0:0:0:
476,265,255315,1,0,0:0:0:0:
