osu file format v14

[General]
AudioFilename: audio.mp3
AudioLeadIn: 0
PreviewTime: 77072
Countdown: 1
SampleSet: Normal
StackLeniency: 0.7
Mode: 0
LetterboxInBreaks: 0
WidescreenStoryboard: 0

[Editor]
DistanceSpacing: 0.9
BeatDivisor: 4
GridSize: 4
TimelineZoom: 2.7

[Metadata]
Title:over the top
TitleUnicode:over the top
Artist:xi
ArtistUnicode:xi
Creator:-GriM-
Version:Heaven or Hell
Source:
Tags:
BeatmapID:1818144
BeatmapSetID:869986

[Difficulty]
HPDrainRate:5
CircleSize:4
OverallDifficulty:9.4
ApproachRate:9.9
SliderMultiplier:1.9
SliderTickRate:1

[Events]
//Background and Video events
0,0,"0634880f6e38253722a75aea41e22370.jpg",0,0
//Break Periods
//Storyboard Layer 0 (Background)
//Storyboard Layer 1 (Fail)
//Storyboard Layer 2 (Pass)
//Storyboard Layer 3 (Foreground)
//Storyboard Sound Samples

[TimingPoints]
1330,297.029702970297,4,1,0,30,1,0
13211,-80,4,1,0,30,0,0
15587,-200,4,1,0,30,0,0
25092,-80,4,1,0,30,0,0
34597,-100,4,1,0,30,0,0
71429,-80,4,1,0,30,0,0
77369,-200,4,1,0,30,0,0
80933,-100,4,1,0,30,0,0
82122,-80,4,1,0,30,0,1
95933,-80,4,1,0,30,0,0
96379,-80,4,1,0,30,0,1
113013,-74.0740740740741,4,1,0,30,0,1
113607,-66.6666666666667,4,1,0,30,0,1
115686,-200,4,1,0,30,0,0

[HitObjects]
67,100,1330,5,0,0:0:0:0:
120,158,1429,1,0,0:0:0:0:
141,234,1528,1,0,0:0:0:0:
129,312,1627,1,0,0:0:0:0:
445,100,2221,5,0,0:0:0:0:
392,158,2320,1,0,0:0:0:0:
371,234,2419,1,0,0:0:0:0:
383,312,2518,1,0,0:0:0:0:
395,312,3706,5,0,0:0:0:0:
383,234,3805,1,0,0:0:0:0:
404,158,3904,1,0,0:0:0:0:
457,100,4003,1,0,0:0:0:0:
112,309,4597,5,0,0:0:0:0:
124,231,4696,1,0,0:0:0:0:
103,155,4795,1,0,0:0:0:0:
50,97,4894,1,0,0:0:0:0:
255,10,5785,1,0,0:0:0:0:
79,291,6082,5,0,0:0:0:0:
57,259,6156,1,0,0:0:0:0:
47,222,6230,1,0,0:0:0:0:
49,183,6305,1,0,0:0:0:0:
57,146,6379,1,0,0:0:0:0:
83,118,6453,1,0,0:0:0:0:
120,110,6528,1,0,0:0:0:0:
157,106,6602,1,0,0:0:0:0:
191,121,6676,1,0,0:0:0:0:
224,138,6750,1,0,0:0:0:0:
262,142,6825,1,0,0:0:0:0:
299,135,6899,1,0,0:0:0:0:
334,120,6973,1,0,0:0:0:0:
371,113,7047,1,0,0:0:0:0:
409,117,7122,1,0,0:0:0:0:
439,139,7196,1,0,0:0:0:0:
450,175,7270,1,0,0:0:0:0:
443,217,7344,1,0,0:0:0:0:
415,243,7419,1,0,0:0:0:0:
373,251,7493,1,0,0:0:0:0:
331,240,7567,1,0,0:0:0:0:
290,225,7641,1,0,0:0:0:0:
247,220,7716,1,0,0:0:0:0:
207,234,7790,1,0,0:0:0:0:
169,253,7864,2,0,L|122:245,3,47.5
208,334,8161,2,0,L|268:331,3,47.5
386,369,8458,5,0,0:0:0:0:
418,340,8533,1,0,0:0:0:0:
438,302,8607,1,0,0:0:0:0:
441,259,8681,1,0,0:0:0:0:
428,217,8756,1,0,0:0:0:0:
398,185,8830,1,0,0:0:0:0:
356,176,8904,1,0,0:0:0:0:
315,190,8978,1,0,0:0:0:0:
275,206,9053,1,0,0:0:0:0:
233,214,9127,1,0,0:0:0:0:
190,213,9201,1,0,0:0:0:0:
152,192,9275,1,0,0:0:0:0:
139,150,9350,1,0,0:0:0:0:
153,110,9424,1,0,0:0:0:0:
190,90,9498,1,0,0:0:0:0:
232,89,9572,1,0,0:0:0:0:
267,114,9647,5,0,0:0:0:0:
279,154,9721,1,0,0:0:0:0:
275,196,9795,1,0,0:0:0:0:
254,233,9869,1,0,0:0:0:0:
239,273,9944,1,0,0:0:0:0:
247,314,10018,1,0,0:0:0:0:
277,344,10092,1,0,0:0:0:0:
319,350,10166,1,0,0:0:0:0:
360,338,10240,2,0,L|432:316,3,47.5
241,271,10537,2,0,L|195:258,3,47.5
397,184,10834,5,0,0:0:0:0:
368,145,10909,1,0,0:0:0:0:
323,130,10983,1,0,0:0:0:0:
275,132,11057,1,0,0:0:0:0:
229,144,11131,1,0,0:0:0:0:
182,156,11206,1,0,0:0:0:0:
135,163,11280,1,0,0:0:0:0:
87,166,11354,1,0,0:0:0:0:
49,135,11429,1,0,0:0:0:0:
39,88,11503,1,0,0:0:0:0:
62,46,11577,1,0,0:0:0:0:
107,32,11651,1,0,0:0:0:0:
154,41,11726,1,0,0:0:0:0:
200,51,11800,1,0,0:0:0:0:
246,57,11874,1,0,0:0:0:0:
290,40,11948,1,0,0:0:0:0:
337,30,12023,5,0,0:0:0:0:
383,36,12097,1,0,0:0:0:0:
417,67,12171,1,0,0:0:0:0:
426,113,12245,1,0,0:0:0:0:
425,160,12320,1,0,0:0:0:0:
403,201,12394,1,0,0:0:0:0:
393,247,12468,1,0,0:0:0:0:
398,294,12542,1,0,0:0:0:0:
406,333,12617,2,0,L|400:380,3,47.5
229,378,12914,2,0,L|223:302,3,47.5
135,96,13211,6,0,L|124:188,1,59.375
347,28,13359,2,0,L|360:107,1,59.375
199,250,13508,2,0,L|119:270,1,59.375
401,321,13656,2,0,L|470:339,1,59.375
286,96,13805,2,0,L|278:175,1,59.375
147,323,13953,2,0,L|139:244,1,59.375
69,63,14102,2,0,L|3:75,1,59.375
280,155,14250,2,0,L|346:167,1,59.375
16,323,14399,5,0,0:0:0:0:
26,270,14473,1,0,0:0:0:0:
69,239,14547,1,0,0:0:0:0:
122,232,14622,1,0,0:0:0:0:
173,245,14696,1,0,0:0:0:0:
217,274,14770,1,0,0:0:0:0:
266,294,14844,1,0,0:0:0:0:
319,300,14919,1,0,0:0:0:0:
287,243,14993,5,0,0:0:0:0:
280,178,15067,1,0,0:0:0:0:
303,117,15141,1,0,0:0:0:0:
366,83,15216,1,0,0:0:0:0:
362,153,15290,1,0,0:0:0:0:
307,198,15364,1,0,0:0:0:0:
236,205,15438,1,0,0:0:0:0:
172,171,15513,1,0,0:0:0:0:
124,122,15587,6,0,P|91:121|171:169,1,356.25
178,67,16775,5,0,0:0:0:0:
199,68,16849,1,0,0:0:0:0:
220,69,16924,1,0,0:0:0:0:
240,73,16998,1,0,0:0:0:0:
238,94,17072,5,0,0:0:0:0:
259,94,17146,1,0,0:0:0:0:
280,94,17221,1,0,0:0:0:0:
301,94,17295,1,0,0:0:0:0:
299,115,17369,5,0,0:0:0:0:
319,119,17443,1,0,0:0:0:0:
340,122,17518,1,0,0:0:0:0:
361,125,17592,1,0,0:0:0:0:
368,149,17666,5,0,0:0:0:0:
389,149,17740,1,0,0:0:0:0:
410,149,17815,1,0,0:0:0:0:
431,150,17889,1,0,0:0:0:0:
448,152,17963,6,0,B|473:180|487:214|466:260|434:281|369:264|355:225|355:225|301:239|301:239|301:239|281:206|232:198,1,356.25
278,117,19151,5,0,0:0:0:0:
259,113,19226,1,0,0:0:0:0:
240,109,19300,1,0,0:0:0:0:
221,107,19374,1,0,0:0:0:0:
225,125,19448,5,0,0:0:0:0:
206,129,19523,1,0,0:0:0:0:
187,131,19597,1,0,0:0:0:0:
168,133,19671,1,0,0:0:0:0:
177,149,19745,5,0,0:0:0:0:
163,162,19820,1,0,0:0:0:0:
147,173,19894,1,0,0:0:0:0:
131,183,19968,1,0,0:0:0:0:
149,187,20042,5,0,0:0:0:0:
147,206,20117,1,0,0:0:0:0:
147,224,20191,1,0,0:0:0:0:
146,242,20265,1,0,0:0:0:0:
146,260,20339,6,0,P|151:322|339:257,1,356.25
243,297,21528,5,0,0:0:0:0:
238,278,21602,1,0,0:0:0:0:
234,259,21676,1,0,0:0:0:0:
230,240,21750,1,0,0:0:0:0:
249,240,21825,5,0,0:0:0:0:
251,221,21899,1,0,0:0:0:0:
253,202,21973,1,0,0:0:0:0:
255,183,22047,1,0,0:0:0:0:
236,187,22122,5,0,0:0:0:0:
232,168,22196,1,0,0:0:0:0:
230,149,22270,1,0,0:0:0:0:
228,130,22344,1,0,0:0:0:0:
247,131,22419,5,0,0:0:0:0:
250,112,22493,1,0,0:0:0:0:
253,93,22567,1,0,0:0:0:0:
256,74,22641,1,0,0:0:0:0:
256,52,22716,6,0,B|326:71|326:71|371:62|371:62|345:108|353:178|407:214|469:187|504:147,1,356.25
433,109,23904,6,0,B|407:177|446:245|446:245|391:257|354:321|354:321|323:278|276:269,1,356.25
213,202,25092,6,0,L|126:209,3,59.375
257,77,25389,2,0,L|344:84,3,59.375
378,243,25686,2,0,L|291:250,3,59.375
422,118,25983,2,0,L|509:125,3,59.375
332,345,26280,5,0,0:0:0:0:
281,326,26354,1,0,0:0:0:0:
227,318,26429,1,0,0:0:0:0:
175,331,26503,1,0,0:0:0:0:
125,350,26577,1,0,0:0:0:0:
73,337,26651,1,0,0:0:0:0:
43,291,26726,1,0,0:0:0:0:
36,238,26800,1,0,0:0:0:0:
62,191,26874,1,0,0:0:0:0:
114,183,26948,1,0,0:0:0:0:
164,201,27023,1,0,0:0:0:0:
216,207,27097,1,0,0:0:0:0:
252,168,27171,1,0,0:0:0:0:
257,115,27245,1,0,0:0:0:0:
214,81,27320,1,0,0:0:0:0:
161,73,27394,1,0,0:0:0:0:
108,81,27468,6,0,L|31:84,3,59.375
257,115,27765,2,0,L|315:123,3,59.375
102,224,28062,2,0,L|44:233,3,59.375
281,307,28359,2,0,L|340:316,3,59.375
410,235,28656,5,0,0:0:0:0:
364,220,28730,1,0,0:0:0:0:
316,220,28805,1,0,0:0:0:0:
271,233,28879,1,0,0:0:0:0:
224,243,28953,1,0,0:0:0:0:
184,219,29028,1,0,0:0:0:0:
161,177,29102,1,0,0:0:0:0:
167,130,29176,1,0,0:0:0:0:
200,96,29250,1,0,0:0:0:0:
246,86,29325,1,0,0:0:0:0:
292,94,29399,1,0,0:0:0:0:
320,132,29473,1,0,0:0:0:0:
327,178,29547,1,0,0:0:0:0:
316,220,29622,1,0,0:0:0:0:
306,266,29696,1,0,0:0:0:0:
312,312,29770,1,0,0:0:0:0:
330,355,29844,6,0,L|399:363,3,59.375
222,232,30141,2,0,L|153:240,3,59.375
437,130,30438,2,0,L|506:138,3,59.375
221,34,30735,2,0,L|152:42,3,59.375
237,280,31032,5,0,0:0:0:0:
319,49,31181,1,0,0:0:0:0:
413,223,31330,5,0,0:0:0:0:
118,170,31478,1,0,0:0:0:0:
299,375,31627,5,0,0:0:0:0:
199,37,31775,1,0,0:0:0:0:
75,306,31924,5,0,0:0:0:0:
414,192,32072,1,0,0:0:0:0:
43,136,32221,5,0,0:0:0:0:
28,187,32295,1,0,0:0:0:0:
47,236,32369,1,0,0:0:0:0:
98,248,32443,1,0,0:0:0:0:
143,218,32518,1,0,0:0:0:0:
184,185,32592,1,0,0:0:0:0:
237,185,32666,1,0,0:0:0:0:
286,204,32740,1,0,0:0:0:0:
334,228,32815,1,0,0:0:0:0:
386,236,32889,1,0,0:0:0:0:
432,210,32963,1,0,0:0:0:0:
443,157,33037,1,0,0:0:0:0:
413,111,33112,1,0,0:0:0:0:
364,92,33186,1,0,0:0:0:0:
312,107,33260,1,0,0:0:0:0:
274,140,33334,1,0,0:0:0:0:
252,143,33409,5,0,0:0:0:0:
228,146,33483,1,0,0:0:0:0:
204,150,33557,1,0,0:0:0:0:
180,154,33631,1,0,0:0:0:0:
156,158,33706,1,0,0:0:0:0:
132,163,33780,1,0,0:0:0:0:
108,168,33854,1,0,0:0:0:0:
84,174,33929,1,0,0:0:0:0:
104,198,34003,5,0,0:0:0:0:
121,202,34077,1,0,0:0:0:0:
138,206,34151,1,0,0:0:0:0:
155,210,34226,1,0,0:0:0:0:
172,215,34300,2,0,L|163:286,1,59.375
270,308,34448,2,0,L|277:372,1,59.375
393,234,34597,5,0,0:0:0:0:
295,51,34745,1,0,0:0:0:0:
295,51,34820,1,0,0:0:0:0:
295,51,34894,2,0,L|302:136,1,47.5
173,217,35042,1,0,0:0:0:0:
173,217,35117,1,0,0:0:0:0:
173,217,35191,2,0,P|168:289|182:346,1,95
393,234,35488,1,0,0:0:0:0:
393,234,35562,1,0,0:0:0:0:
393,234,35636,2,0,P|401:194|395:169,1,47.5
393,98,35785,5,0,0:0:0:0:
357,111,35859,1,0,0:0:0:0:
319,116,35933,1,0,0:0:0:0:
280,117,36008,1,0,0:0:0:0:
243,106,36082,1,0,0:0:0:0:
208,89,36156,1,0,0:0:0:0:
170,81,36230,1,0,0:0:0:0:
131,84,36305,1,0,0:0:0:0:
93,91,36379,2,0,L|105:243,2,142.5
265,204,36973,6,0,L|256:337,1,95
401,375,37270,1,0,0:0:0:0:
404,337,37344,1,0,0:0:0:0:
406,298,37419,1,0,0:0:0:0:
408,260,37493,1,0,0:0:0:0:
372,247,37567,5,0,0:0:0:0:
366,209,37641,1,0,0:0:0:0:
361,170,37716,1,0,0:0:0:0:
355,132,37790,1,0,0:0:0:0:
385,87,37864,5,0,0:0:0:0:
347,87,37938,1,0,0:0:0:0:
308,84,38013,1,0,0:0:0:0:
270,82,38087,1,0,0:0:0:0:
232,77,38161,6,0,P|195:78|175:84,1,47.5
104,185,38310,2,0,P|67:184|47:178,1,47.5
231,240,38458,2,0,L|224:307,1,47.5
366,209,38607,2,0,L|361:152,1,47.5
309,350,38755,1,0,0:0:0:0:
347,348,38830,1,0,0:0:0:0:
384,346,38904,2,0,L|449:344,1,47.5
231,239,39052,1,0,0:0:0:0:
192,236,39127,1,0,0:0:0:0:
154,233,39201,1,0,0:0:0:0:
116,228,39275,1,0,0:0:0:0:
78,223,39349,6,0,L|72:167,1,47.5
167,46,39498,1,0,0:0:0:0:
167,46,39572,1,0,0:0:0:0:
167,46,39646,2,0,L|163:111,1,47.5
296,163,39795,1,0,0:0:0:0:
296,163,39869,1,0,0:0:0:0:
296,163,39943,2,0,L|363:157,1,47.5
238,303,40092,1,0,0:0:0:0:
238,303,40166,1,0,0:0:0:0:
238,303,40240,2,0,L|164:296,1,47.5
384,350,40389,1,0,0:0:0:0:
421,353,40463,1,0,0:0:0:0:
454,335,40537,6,0,L|463:268,3,47.5
368,144,40834,2,0,L|377:211,3,47.5
474,348,41131,6,0,L|483:281,3,47.5
343,125,41429,2,0,L|352:192,3,47.5
267,319,41726,5,0,0:0:0:0:
204,77,41874,1,0,0:0:0:0:
204,77,41948,1,0,0:0:0:0:
204,77,42023,2,0,L|200:145,1,47.5
53,301,42171,1,0,0:0:0:0:
22,277,42245,1,0,0:0:0:0:
7,241,42320,1,0,0:0:0:0:
12,203,42394,1,0,0:0:0:0:
29,167,42468,1,0,0:0:0:0:
65,156,42542,1,0,0:0:0:0:
103,153,42617,1,0,0:0:0:0:
139,162,42691,1,0,0:0:0:0:
176,168,42765,1,0,0:0:0:0:
213,167,42839,1,0,0:0:0:0:
250,158,42914,5,0,0:0:0:0:
287,156,42988,1,0,0:0:0:0:
324,163,43062,1,0,0:0:0:0:
355,183,43136,1,0,0:0:0:0:
365,219,43211,1,0,0:0:0:0:
358,256,43285,1,0,0:0:0:0:
329,280,43359,1,0,0:0:0:0:
291,287,43433,1,0,0:0:0:0:
254,275,43508,1,0,0:0:0:0:
216,270,43582,1,0,0:0:0:0:
179,278,43656,1,0,0:0:0:0:
149,301,43730,1,0,0:0:0:0:
135,336,43805,2,0,L|134:400,1,47.5
43,184,43953,2,0,L|16:269,1,47.5
190,46,44102,5,0,0:0:0:0:
349,81,44250,1,0,0:0:0:0:
387,85,44325,1,0,0:0:0:0:
424,82,44399,2,0,L|480:78,1,47.5
305,163,44547,1,0,0:0:0:0:
271,165,44622,1,0,0:0:0:0:
237,162,44696,2,0,L|169:152,1,47.5
409,236,44844,1,0,0:0:0:0:
442,241,44919,1,0,0:0:0:0:
475,243,44993,2,0,L|526:239,1,47.5
323,361,45141,1,0,0:0:0:0:
235,161,45290,5,0,0:0:0:0:
251,132,45364,1,0,0:0:0:0:
243,95,45438,1,0,0:0:0:0:
215,75,45513,1,0,0:0:0:0:
183,65,45587,1,0,0:0:0:0:
150,70,45661,1,0,0:0:0:0:
125,92,45735,1,0,0:0:0:0:
114,123,45810,1,0,0:0:0:0:
119,155,45884,2,0,L|105:336,2,142.5
234,346,46478,5,0,0:0:0:0:
385,235,46627,1,0,0:0:0:0:
385,235,46701,1,0,0:0:0:0:
385,235,46775,2,0,L|377:348,1,95
206,117,47072,2,0,L|198:4,1,95
79,180,47369,1,0,0:0:0:0:
71,212,47443,1,0,0:0:0:0:
72,245,47518,2,0,L|77:322,1,47.5
178,362,47666,6,0,B|246:334|312:348|312:348|294:306|307:255,1,190
300,222,48037,1,0,0:0:0:0:
299,183,48112,1,0,0:0:0:0:
313,148,48186,1,0,0:0:0:0:
336,118,48260,1,0,0:0:0:0:
121,15,48409,1,0,0:0:0:0:
204,296,48557,1,0,0:0:0:0:
286,23,48706,1,0,0:0:0:0:
286,23,48780,1,0,0:0:0:0:
286,23,48854,6,0,L|290:105,1,47.5
127,143,49003,1,0,0:0:0:0:
127,143,49077,1,0,0:0:0:0:
127,143,49151,2,0,L|48:142,1,47.5
23,274,49300,1,0,0:0:0:0:
27,306,49374,1,0,0:0:0:0:
31,338,49448,2,0,L|44:403,1,47.5
226,199,49597,1,0,0:0:0:0:
225,232,49671,1,0,0:0:0:0:
223,265,49745,2,0,L|220:328,3,47.5
419,112,50042,5,0,0:0:0:0:
382,88,50117,1,0,0:0:0:0:
340,77,50191,1,0,0:0:0:0:
297,75,50265,1,0,0:0:0:0:
255,82,50339,1,0,0:0:0:0:
214,95,50414,1,0,0:0:0:0:
172,104,50488,1,0,0:0:0:0:
129,108,50562,1,0,0:0:0:0:
89,90,50636,1,0,0:0:0:0:
102,131,50711,1,0,0:0:0:0:
110,172,50785,1,0,0:0:0:0:
109,214,50859,1,0,0:0:0:0:
101,255,50933,2,0,L|111:318,3,47.5
244,231,51230,5,0,0:0:0:0:
284,197,51305,1,0,0:0:0:0:
335,193,51379,1,0,0:0:0:0:
379,220,51453,1,0,0:0:0:0:
357,171,51528,5,0,0:0:0:0:
364,119,51602,1,0,0:0:0:0:
402,84,51676,1,0,0:0:0:0:
454,81,51750,1,0,0:0:0:0:
486,128,51825,5,0,0:0:0:0:
429,130,51899,1,0,0:0:0:0:
372,137,51973,1,0,0:0:0:0:
315,146,52047,1,0,0:0:0:0:
302,84,52122,5,0,0:0:0:0:
240,85,52196,1,0,0:0:0:0:
178,87,52270,1,0,0:0:0:0:
116,88,52344,1,0,0:0:0:0:
71,137,52419,5,0,0:0:0:0:
68,203,52493,1,0,0:0:0:0:
104,258,52567,1,0,0:0:0:0:
167,276,52641,1,0,0:0:0:0:
202,213,52716,5,0,0:0:0:0:
272,217,52790,1,0,0:0:0:0:
342,225,52864,1,0,0:0:0:0:
412,233,52938,1,0,0:0:0:0:
466,185,53013,5,0,0:0:0:0:
475,114,53087,1,0,0:0:0:0:
432,57,53161,1,0,0:0:0:0:
360,56,53235,1,0,0:0:0:0:
287,81,53310,5,0,0:0:0:0:
211,90,53384,1,0,0:0:0:0:
135,93,53458,1,0,0:0:0:0:
65,63,53532,1,0,0:0:0:0:
58,139,53607,5,0,0:0:0:0:
469,61,54795,6,0,P|409:77|315:198,1,190
270,350,55389,1,0,0:0:0:0:
270,350,55686,1,0,0:0:0:0:
502,195,55983,5,0,0:0:0:0:
43,61,57171,6,0,P|103:77|197:198,1,190
242,350,57765,1,0,0:0:0:0:
242,350,58062,1,0,0:0:0:0:
375,120,58359,5,0,0:0:0:0:
422,274,58508,1,0,0:0:0:0:
476,122,58656,5,0,0:0:0:0:
310,213,58805,1,0,0:0:0:0:
312,39,58953,5,0,0:0:0:0:
425,187,59102,1,0,0:0:0:0:
475,19,59250,5,0,0:0:0:0:
267,131,59399,1,0,0:0:0:0:
505,210,59547,5,0,0:0:0:0:
256,262,59696,1,0,0:0:0:0:
497,315,59844,5,0,0:0:0:0:
222,369,59993,1,0,0:0:0:0:
369,91,60141,5,0,0:0:0:0:
410,361,60290,1,0,0:0:0:0:
383,73,60438,5,0,0:0:0:0:
323,384,60587,1,0,0:0:0:0:
215,27,60735,5,0,0:0:0:0:
173,66,60810,1,0,0:0:0:0:
163,122,60884,1,0,0:0:0:0:
187,173,60958,1,0,0:0:0:0:
208,225,61032,1,0,0:0:0:0:
209,282,61107,1,0,0:0:0:0:
185,333,61181,1,0,0:0:0:0:
134,358,61255,1,0,0:0:0:0:
79,340,61330,1,0,0:0:0:0:
69,284,61404,1,0,0:0:0:0:
105,240,61478,1,0,0:0:0:0:
161,244,61552,1,0,0:0:0:0:
209,282,61627,1,0,0:0:0:0:
253,317,61701,1,0,0:0:0:0:
308,329,61775,1,0,0:0:0:0:
364,324,61849,1,0,0:0:0:0:
330,271,61924,5,0,0:0:0:0:
307,213,61998,1,0,0:0:0:0:
319,152,62072,1,0,0:0:0:0:
371,120,62146,1,0,0:0:0:0:
433,121,62221,1,0,0:0:0:0:
472,167,62295,1,0,0:0:0:0:
480,227,62369,1,0,0:0:0:0:
457,284,62443,1,0,0:0:0:0:
399,318,62518,5,0,0:0:0:0:
333,330,62592,1,0,0:0:0:0:
253,317,62666,1,0,0:0:0:0:
181,261,62740,1,0,0:0:0:0:
169,163,62815,1,0,0:0:0:0:
392,19,63112,6,0,L|384:81,3,63.3333333333333
120,19,64003,6,0,L|127:81,3,63.3333333333333
256,376,64597,6,0,L|255:186,2,190
426,179,65488,6,0,L|499:162,3,63.3333333333333
86,179,66379,6,0,L|13:162,3,63.3333333333333
256,8,66973,6,0,L|255:198,2,190
144,113,67864,5,0,0:0:0:0:
115,184,67963,1,0,0:0:0:0:
118,260,68062,1,0,0:0:0:0:
141,333,68161,1,0,0:0:0:0:
368,113,68755,5,0,0:0:0:0:
397,184,68854,1,0,0:0:0:0:
394,260,68953,1,0,0:0:0:0:
371,333,69052,1,0,0:0:0:0:
249,22,69349,6,0,B|228:90|228:90|248:149|248:149|248:149|281:96,2,190
412,180,70240,6,0,L|416:244,7,47.5
305,281,70834,2,0,L|301:345,7,47.5
231,168,71429,6,0,L|133:162,7,59.375
336,86,72023,2,0,L|434:80,7,59.375
165,30,72617,5,0,0:0:0:0:
132,265,72765,1,0,0:0:0:0:
20,57,72914,5,0,0:0:0:0:
277,134,73062,1,0,0:0:0:0:
76,343,73211,5,0,0:0:0:0:
11,39,73359,1,0,0:0:0:0:
192,324,73508,5,0,0:0:0:0:
241,34,73656,1,0,0:0:0:0:
46,182,73805,5,0,0:0:0:0:
326,130,73953,1,0,0:0:0:0:
31,174,74102,5,0,0:0:0:0:
340,233,74250,1,0,0:0:0:0:
133,12,74399,2,0,L|121:88,1,59.375
326,130,74547,2,0,L|314:54,1,59.375
31,174,74696,2,0,L|19:250,1,59.375
349,291,74844,2,0,L|337:215,1,59.375
236,15,74993,1,0,0:0:0:0:
236,15,75067,5,0,0:0:0:0:
236,15,75141,1,0,0:0:0:0:
216,65,75216,1,0,0:0:0:0:
238,113,75290,1,0,0:0:0:0:
287,133,75364,1,0,0:0:0:0:
334,108,75438,1,0,0:0:0:0:
384,89,75513,1,0,0:0:0:0:
436,97,75587,1,0,0:0:0:0:
477,129,75661,1,0,0:0:0:0:
488,180,75735,1,0,0:0:0:0:
478,233,75810,1,0,0:0:0:0:
431,258,75884,1,0,0:0:0:0:
378,264,75958,1,0,0:0:0:0:
325,257,76032,1,0,0:0:0:0:
272,244,76107,1,0,0:0:0:0:
218,248,76181,6,0,L|134:266,3,59.375
61,158,76478,2,0,L|2:145,3,59.375
204,83,76775,2,0,L|262:70,3,59.375
469,147,77072,1,0,0:0:0:0:
469,147,77146,1,0,0:0:0:0:
469,147,77221,1,0,0:0:0:0:
469,147,77295,1,0,0:0:0:0:
469,147,77369,6,0,B|502:173|517:210|503:253|440:272|393:246|379:214|402:147|414:81|414:81|377:99|334:72|334:72|332:140|286:210|286:210|253:149|205:166|205:166|165:193|196:253,1,736.25
201,264,79745,5,0,0:0:0:0:
90,22,80042,1,0,0:0:0:0:
100,206,80191,1,0,0:0:0:0:
140,109,80339,1,0,0:0:0:0:
176,267,80488,1,0,0:0:0:0:
201,264,80562,1,0,0:0:0:0:
227,263,80636,1,0,0:0:0:0:
253,264,80711,1,0,0:0:0:0:
278,266,80785,1,0,0:0:0:0:
303,270,80859,1,0,0:0:0:0:
328,274,80933,6,0,L|333:321,7,47.5
414,199,81528,2,0,L|408:274,4,47.5
376,45,82122,5,0,0:0:0:0:
322,69,82196,1,0,0:0:0:0:
265,86,82270,1,0,0:0:0:0:
205,81,82344,1,0,0:0:0:0:
151,54,82419,1,0,0:0:0:0:
92,59,82493,1,0,0:0:0:0:
57,107,82567,1,0,0:0:0:0:
59,166,82641,1,0,0:0:0:0:
96,212,82716,1,0,0:0:0:0:
154,218,82790,1,0,0:0:0:0:
207,193,82864,1,0,0:0:0:0:
266,189,82938,1,0,0:0:0:0:
325,198,83013,1,0,0:0:0:0:
365,241,83087,1,0,0:0:0:0:
370,299,83161,1,0,0:0:0:0:
325,337,83235,1,0,0:0:0:0:
266,347,83310,5,0,0:0:0:0:
216,316,83384,1,0,0:0:0:0:
196,260,83458,1,0,0:0:0:0:
198,200,83532,1,0,0:0:0:0:
231,150,83607,1,0,0:0:0:0:
285,126,83681,1,0,0:0:0:0:
341,144,83755,1,0,0:0:0:0:
397,161,83829,1,0,0:0:0:0:
456,159,83904,1,0,0:0:0:0:
496,115,83978,1,0,0:0:0:0:
494,55,84052,1,0,0:0:0:0:
446,17,84127,1,0,0:0:0:0:
386,18,84201,1,0,0:0:0:0:
329,35,84275,1,0,0:0:0:0:
269,38,84349,1,0,0:0:0:0:
210,24,84424,1,0,0:0:0:0:
150,19,84498,6,0,L|21:30,1,118.75
176,140,84795,1,0,0:0:0:0:
48,197,84943,1,0,0:0:0:0:
211,266,85092,1,0,0:0:0:0:
228,265,85166,1,0,0:0:0:0:
245,264,85240,1,0,0:0:0:0:
262,264,85315,1,0,0:0:0:0:
279,264,85389,2,0,L|362:263,3,59.375
467,159,85686,6,0,B|348:138|348:138|198:176,1,237.5
70,222,86131,1,0,0:0:0:0:
191,9,86280,1,0,0:0:0:0:
191,26,86354,1,0,0:0:0:0:
192,43,86429,1,0,0:0:0:0:
193,60,86503,1,0,0:0:0:0:
192,77,86577,1,0,0:0:0:0:
201,292,86726,1,0,0:0:0:0:
334,39,86874,5,0,0:0:0:0:
392,33,86948,1,0,0:0:0:0:
449,49,87023,1,0,0:0:0:0:
480,99,87097,1,0,0:0:0:0:
480,158,87171,1,0,0:0:0:0:
455,211,87245,1,0,0:0:0:0:
399,234,87320,1,0,0:0:0:0:
339,232,87394,1,0,0:0:0:0:
290,198,87468,1,0,0:0:0:0:
241,164,87542,1,0,0:0:0:0:
182,151,87617,1,0,0:0:0:0:
123,159,87691,1,0,0:0:0:0:
77,197,87765,1,0,0:0:0:0:
59,253,87839,1,0,0:0:0:0:
79,309,87914,1,0,0:0:0:0:
128,341,87988,1,0,0:0:0:0:
186,350,88062,5,0,0:0:0:0:
240,326,88136,1,0,0:0:0:0:
268,273,88211,1,0,0:0:0:0:
268,213,88285,1,0,0:0:0:0:
241,164,88359,1,0,0:0:0:0:
187,138,88433,1,0,0:0:0:0:
127,140,88508,1,0,0:0:0:0:
83,180,88582,1,0,0:0:0:0:
92,238,88656,1,0,0:0:0:0:
139,272,88730,1,0,0:0:0:0:
198,264,88805,1,0,0:0:0:0:
234,217,88879,1,0,0:0:0:0:
243,158,88953,1,0,0:0:0:0:
258,100,89028,1,0,0:0:0:0:
306,66,89102,1,0,0:0:0:0:
364,57,89176,1,0,0:0:0:0:
421,68,89250,6,0,L|415:186,1,118.75
383,348,89547,1,0,0:0:0:0:
426,54,89696,1,0,0:0:0:0:
219,161,89844,1,0,0:0:0:0:
497,246,89993,1,0,0:0:0:0:
205,162,90141,1,0,0:0:0:0:
205,162,90216,1,0,0:0:0:0:
205,162,90290,1,0,0:0:0:0:
205,162,90364,1,0,0:0:0:0:
205,162,90438,5,0,0:0:0:0:
245,117,90513,1,0,0:0:0:0:
252,58,90587,1,0,0:0:0:0:
214,12,90661,1,0,0:0:0:0:
155,3,90735,1,0,0:0:0:0:
96,14,90810,1,0,0:0:0:0:
70,67,90884,1,0,0:0:0:0:
77,125,90958,1,0,0:0:0:0:
108,175,91032,2,0,L|100:293,1,118.75
404,185,91329,2,0,L|396:66,1,118.75
253,348,91627,5,0,0:0:0:0:
289,301,91701,1,0,0:0:0:0:
303,243,91775,1,0,0:0:0:0:
291,184,91849,1,0,0:0:0:0:
254,136,91924,1,0,0:0:0:0:
229,81,91998,1,0,0:0:0:0:
246,24,92072,1,0,0:0:0:0:
302,5,92146,1,0,0:0:0:0:
355,32,92221,1,0,0:0:0:0:
375,87,92295,1,0,0:0:0:0:
346,138,92369,1,0,0:0:0:0:
290,157,92443,1,0,0:0:0:0:
230,153,92518,1,0,0:0:0:0:
179,121,92592,1,0,0:0:0:0:
120,109,92666,1,0,0:0:0:0:
63,127,92740,1,0,0:0:0:0:
26,174,92815,6,0,L|31:260,3,59.375
144,334,93112,2,0,L|149:248,3,59.375
230,153,93409,2,0,L|235:239,3,59.375
348,313,93706,2,0,L|353:227,3,59.375
449,94,94003,5,0,0:0:0:0:
400,59,94077,1,0,0:0:0:0:
341,47,94151,1,0,0:0:0:0:
281,44,94226,1,0,0:0:0:0:
221,45,94300,1,0,0:0:0:0:
165,66,94374,1,0,0:0:0:0:
116,100,94448,1,0,0:0:0:0:
92,155,94523,1,0,0:0:0:0:
129,116,94597,5,0,0:0:0:0:
176,91,94671,1,0,0:0:0:0:
228,82,94745,1,0,0:0:0:0:
281,82,94820,1,0,0:0:0:0:
334,86,94894,1,0,0:0:0:0:
385,99,94968,1,0,0:0:0:0:
434,119,95042,1,0,0:0:0:0:
471,157,95117,1,0,0:0:0:0:
425,142,95191,5,0,0:0:0:0:
379,128,95265,1,0,0:0:0:0:
332,122,95339,1,0,0:0:0:0:
284,124,95414,1,0,0:0:0:0:
265,161,95488,5,0,0:0:0:0:
305,151,95562,1,0,0:0:0:0:
346,151,95636,1,0,0:0:0:0:
385,164,95711,1,0,0:0:0:0:
369,192,95785,5,0,0:0:0:0:
333,186,95859,1,0,0:0:0:0:
297,187,95933,1,0,0:0:0:0:
271,206,96008,1,0,0:0:0:0:
271,206,96082,1,0,0:0:0:0:
271,206,96156,1,0,0:0:0:0:
271,206,96230,2,0,L|277:280,1,59.375
161,197,96379,5,0,0:0:0:0:
194,148,96453,1,0,0:0:0:0:
182,89,96528,1,0,0:0:0:0:
126,68,96602,1,0,0:0:0:0:
71,91,96676,1,0,0:0:0:0:
58,148,96750,1,0,0:0:0:0:
86,200,96825,1,0,0:0:0:0:
145,200,96899,1,0,0:0:0:0:
201,181,96973,1,0,0:0:0:0:
259,171,97047,1,0,0:0:0:0:
317,182,97122,1,0,0:0:0:0:
370,208,97196,1,0,0:0:0:0:
428,217,97270,1,0,0:0:0:0:
478,185,97344,1,0,0:0:0:0:
490,126,97419,1,0,0:0:0:0:
450,82,97493,1,0,0:0:0:0:
392,66,97567,5,0,0:0:0:0:
333,73,97641,1,0,0:0:0:0:
276,91,97716,1,0,0:0:0:0:
217,96,97790,1,0,0:0:0:0:
160,78,97864,1,0,0:0:0:0:
104,58,97938,1,0,0:0:0:0:
44,67,98013,1,0,0:0:0:0:
14,118,98087,1,0,0:0:0:0:
26,175,98161,1,0,0:0:0:0:
67,216,98235,1,0,0:0:0:0:
126,218,98310,1,0,0:0:0:0:
182,200,98384,1,0,0:0:0:0:
241,200,98458,1,0,0:0:0:0:
296,220,98532,1,0,0:0:0:0:
351,239,98606,1,0,0:0:0:0:
410,233,98681,1,0,0:0:0:0:
462,222,98755,6,0,L|455:347,1,118.75
293,88,99052,1,0,0:0:0:0:
240,332,99201,1,0,0:0:0:0:
131,118,99349,1,0,0:0:0:0:
108,145,99424,1,0,0:0:0:0:
108,180,99498,1,0,0:0:0:0:
131,206,99572,1,0,0:0:0:0:
166,206,99646,1,0,0:0:0:0:
189,178,99721,1,0,0:0:0:0:
166,206,99795,1,0,0:0:0:0:
158,240,99869,1,0,0:0:0:0:
163,275,99943,6,0,L|170:397,1,118.75
328,148,100240,2,0,L|313:309,1,118.75
144,43,100537,1,0,0:0:0:0:
344,26,100686,1,0,0:0:0:0:
344,26,100760,1,0,0:0:0:0:
344,26,100834,1,0,0:0:0:0:
231,219,100983,1,0,0:0:0:0:
125,22,101131,5,0,0:0:0:0:
75,55,101206,1,0,0:0:0:0:
60,112,101280,1,0,0:0:0:0:
79,167,101354,1,0,0:0:0:0:
132,194,101429,1,0,0:0:0:0:
189,178,101503,1,0,0:0:0:0:
247,166,101577,1,0,0:0:0:0:
305,175,101651,1,0,0:0:0:0:
357,203,101726,1,0,0:0:0:0:
413,219,101800,1,0,0:0:0:0:
470,204,101874,1,0,0:0:0:0:
496,151,101948,1,0,0:0:0:0:
482,92,102023,1,0,0:0:0:0:
426,71,102097,1,0,0:0:0:0:
370,91,102171,1,0,0:0:0:0:
347,145,102245,1,0,0:0:0:0:
357,203,102320,6,0,L|365:277,3,59.375
251,370,102617,2,0,L|259:296,3,59.375
132,194,102914,2,0,L|140:268,3,59.375
30,361,103211,2,0,L|38:287,3,59.375
20,60,103508,6,0,P|92:41|267:55,1,237.5
342,165,103953,1,0,0:0:0:0:
469,48,104102,2,0,L|470:132,3,59.375
417,267,104399,1,0,0:0:0:0:
365,238,104473,1,0,0:0:0:0:
305,232,104547,1,0,0:0:0:0:
248,252,104622,1,0,0:0:0:0:
203,290,104696,6,0,L|211:366,1,59.375
188,293,104844,2,0,L|196:369,1,59.375
68,171,104993,6,0,L|76:95,1,59.375
53,168,105141,2,0,L|61:92,1,59.375
227,18,105290,6,0,L|235:94,1,59.375
212,21,105438,2,0,L|220:97,1,59.375
380,241,105587,6,0,L|388:165,1,59.375
365,238,105735,2,0,L|373:162,1,59.375
95,251,105884,5,0,0:0:0:0:
414,316,106032,1,0,0:0:0:0:
102,359,106181,5,0,0:0:0:0:
449,220,106329,1,0,0:0:0:0:
159,17,106478,5,0,0:0:0:0:
133,57,106552,1,0,0:0:0:0:
129,104,106627,1,0,0:0:0:0:
152,144,106701,1,0,0:0:0:0:
176,184,106775,1,0,0:0:0:0:
178,231,106849,1,0,0:0:0:0:
154,273,106924,1,0,0:0:0:0:
127,312,106998,1,0,0:0:0:0:
80,320,107072,6,0,L|18:316,1,59.375
274,172,107221,2,0,L|263:252,1,59.375
40,91,107369,2,0,L|53:172,1,59.375
243,19,107518,2,0,L|303:24,1,59.375
468,87,107666,1,0,0:0:0:0:
483,138,107740,1,0,0:0:0:0:
458,185,107814,1,0,0:0:0:0:
411,212,107889,1,0,0:0:0:0:
362,215,107963,1,0,0:0:0:0:
313,200,108037,1,0,0:0:0:0:
261,184,108112,1,0,0:0:0:0:
207,185,108186,1,0,0:0:0:0:
154,190,108260,6,0,L|61:195,1,59.375
312,308,108409,2,0,L|219:303,1,59.375
328,111,108557,2,0,L|336:33,1,59.375
109,290,108706,2,0,L|120:372,1,59.375
98,37,108854,1,0,0:0:0:0:
155,52,108929,1,0,0:0:0:0:
213,62,109003,1,0,0:0:0:0:
271,51,109077,1,0,0:0:0:0:
325,27,109151,1,0,0:0:0:0:
384,32,109226,1,0,0:0:0:0:
418,80,109300,1,0,0:0:0:0:
413,138,109374,1,0,0:0:0:0:
378,186,109448,6,0,L|386:267,1,59.375
250,324,109597,2,0,L|246:400,1,59.375
140,166,109745,2,0,L|210:169,1,59.375
59,333,109894,2,0,L|-21:330,1,59.375
250,324,110042,6,0,L|256:255,1,59.375
258,325,110191,2,0,L|265:253,1,59.375
285,109,110339,6,0,L|279:49,1,59.375
276,110,110488,2,0,L|270:50,1,59.375
84,48,110636,5,0,0:0:0:0:
46,102,110711,1,0,0:0:0:0:
49,166,110785,1,0,0:0:0:0:
87,218,110859,1,0,0:0:0:0:
148,238,110933,1,0,0:0:0:0:
212,223,111008,1,0,0:0:0:0:
258,177,111082,1,0,0:0:0:0:
320,160,111156,1,0,0:0:0:0:
384,163,111230,1,0,0:0:0:0:
431,209,111305,1,0,0:0:0:0:
443,272,111379,1,0,0:0:0:0:
407,326,111453,1,0,0:0:0:0:
343,343,111528,1,0,0:0:0:0:
280,326,111602,1,0,0:0:0:0:
250,268,111676,1,0,0:0:0:0:
242,203,111750,1,0,0:0:0:0:
253,138,111825,5,0,0:0:0:0:
193,176,111899,1,0,0:0:0:0:
124,196,111973,1,0,0:0:0:0:
53,185,112047,1,0,0:0:0:0:
21,120,112122,1,0,0:0:0:0:
39,51,112196,1,0,0:0:0:0:
102,18,112270,1,0,0:0:0:0:
172,29,112344,1,0,0:0:0:0:
237,58,112419,1,0,0:0:0:0:
307,61,112493,1,0,0:0:0:0:
374,38,112567,1,0,0:0:0:0:
444,28,112641,1,0,0:0:0:0:
499,74,112716,1,0,0:0:0:0:
502,144,112790,1,0,0:0:0:0:
449,192,112864,1,0,0:0:0:0:
378,201,112938,1,0,0:0:0:0:
309,180,113013,6,0,L|223:183,7,64.1250002446175
51,273,113607,2,0,L|189:279,7,71.2500027179719
184,23,114201,5,0,0:0:0:0:
233,83,114275,1,0,0:0:0:0:
248,159,114349,1,0,0:0:0:0:
226,235,114424,1,0,0:0:0:0:
167,286,114498,1,0,0:0:0:0:
89,281,114572,1,0,0:0:0:0:
41,218,114646,1,0,0:0:0:0:
73,145,114721,1,0,0:0:0:0:
146,118,114795,1,0,0:0:0:0:
216,152,114869,1,0,0:0:0:0:
291,171,114943,1,0,0:0:0:0:
370,173,115018,1,0,0:0:0:0:
443,147,115092,1,0,0:0:0:0:
482,214,115166,1,0,0:0:0:0:
462,289,115240,1,0,0:0:0:0:
376,278,115315,1,0,0:0:0:0:
295,306,115389,5,0,0:0:0:0:
255,13,115686,1,0,0:0:0:0:
84,213,116280,6,0,L|85:268,1,47.5
189,213,116726,6,0,L|190:268,1,47.5
293,213,117171,6,0,L|294:268,1,47.5
397,212,117617,6,0,L|398:267,1,47.5
185,128,118062,6,0,L|186:73,1,47.5
290,128,118508,6,0,L|291:73,1,47.5
394,128,118953,6,0,L|395:73,1,47.5
289,293,119399,5,0,0:0:0:0:
289,293,119547,1,0,0:0:0:0:
228,102,119844,1,0,0:0:0:0:
417,32,120141,5,0,0:0:0:0:
