osu file format v14

[General]
AudioFilename: audio.mp3
AudioLeadIn: 0
PreviewTime: 44766
Countdown: 0
SampleSet: Soft
StackLeniency: 0.6
Mode: 0
LetterboxInBreaks: 0
WidescreenStoryboard: 1

[Editor]
Bookmarks: 16149,57883,85413,148906
DistanceSpacing: 1.9
BeatDivisor: 4
GridSize: 4
TimelineZoom: 1.6

[Metadata]
Title:d e a t h p i a n o ~for four pianos~
TitleUnicode:d e a t h p i a n o ~for four pianos~
Artist:xi
ArtistUnicode:xi
Creator:Riana
Version:Hard
Source:
Tags:deathpiano death piano for pianos crazy quartet instrumental classical down
BeatmapID:2528346
BeatmapSetID:950606

[Difficulty]
HPDrainRate:5
CircleSize:4
OverallDifficulty:6
ApproachRate:8
SliderMultiplier:1.4
SliderTickRate:1

[Events]
//Background and Video events
0,0,"color.jpg",0,0
//Break Periods
2,41977,44075
2,121252,125852
//Storyboard Layer 0 (Background)
//Storyboard Layer 1 (Fail)
//Storyboard Layer 2 (Pass)
//Storyboard Layer 3 (Foreground)
//Storyboard Layer 4 (Overlay)
//Storyboard Sound Samples

[TimingPoints]
620,352.941176470588,4,2,1,60,1,0
620,-100,4,2,1,60,0,0
11914,-125,4,2,1,60,0,0
14737,-100,4,2,1,60,0,0
34502,-83.3333333333333,4,2,1,80,0,1
37325,468.75,4,2,1,70,1,0
37325,-75.187969924812,4,2,1,70,0,0
44825,352.941176470588,4,2,1,80,1,1
44825,-90.9090909090909,4,2,1,80,0,1
56119,-111.111111111111,4,2,1,60,0,0
90001,-111.111111111111,4,2,1,60,0,0
92119,-133.333333333333,4,2,1,40,0,0
92824,352.941176470588,5,2,1,40,1,0
92824,-133.333333333333,4,2,1,40,0,0
94588,352.941176470588,3,2,1,40,1,0
94588,-133.333333333333,4,2,1,40,0,0
100940,352.941176470588,5,2,1,40,1,0
100940,-133.333333333333,4,2,1,40,0,0
102704,352.941176470588,3,2,1,40,1,0
102704,-133.333333333333,4,2,1,40,0,0
109056,352.941176470588,5,2,1,40,1,0
109056,-133.333333333333,4,2,1,40,0,0
110820,352.941176470588,3,2,1,40,1,0
110820,-133.333333333333,4,2,1,40,0,0
117172,352.941176470588,5,2,1,40,1,0
117172,-133.333333333333,4,2,1,40,0,0
118936,352.941176470588,3,2,1,40,1,0
118936,-133.333333333333,4,2,1,40,0,0
121053,346.820809248555,4,2,1,40,1,0
121053,-133.333333333333,4,2,1,40,0,0
122902,-133.333333333333,4,2,1,35,0,0
126602,428.571428571429,4,2,1,60,1,0
126602,-82.6446280991736,4,2,1,60,0,0
130030,413.793103448276,4,2,1,60,1,0
130030,-85.4700854700855,4,2,1,60,0,0
133340,400,4,2,1,60,1,0
133340,-88.4955752212389,4,2,1,60,0,0
134940,387.096774193548,4,2,1,60,1,0
134940,-90.9090909090909,4,2,1,60,0,0
136488,375,4,2,1,60,1,0
136488,-90.9090909090909,4,2,1,60,0,0
137238,363.636363636364,4,2,1,60,1,0
137238,-97.0873786407767,4,2,1,60,0,0
137965,352.941176470588,4,2,1,60,1,0
137965,-100,4,2,1,60,0,0
141494,-100,4,2,1,50,0,0
141847,-100,4,2,1,40,0,0
142200,-90.9090909090909,4,2,1,80,0,1
154906,342.857142857143,4,2,1,80,1,1
154906,-103.092783505155,4,2,1,80,0,1
156277,333.333333333333,4,2,1,80,1,1
156277,-106.382978723404,4,2,1,80,0,1
157277,324.324324324324,4,2,1,80,1,1
157277,-108.695652173913,4,2,1,80,0,1
158574,333.333333333333,4,2,1,80,1,1
158907,315.789473684211,4,2,1,80,1,1
158907,-112.359550561798,4,2,1,80,0,1
161433,307.692307692308,4,2,1,80,1,1
161433,-114.942528735632,4,2,1,80,0,1
163279,389.61038961039,4,2,1,60,1,0
163279,-66.6666666666667,4,2,1,60,0,0
163668,-83.3333333333333,4,2,1,60,0,0
163864,359.281437125748,4,2,1,80,1,1
166763,375,4,2,1,80,1,0
167507,-100,4,2,1,50,0,0
167513,-100,4,2,1,50,0,0

[Colours]
Combo1 : 128,128,128
Combo2 : 215,215,215

[HitObjects]
178,95,620,6,0,P|289:62|302:23,1,140,2|0,0:0|0:0,0:0:0:0:
296,52,1325,2,0,L|308:100,3,35
332,116,1678,2,0,L|320:164,3,35
344,192,2031,1,2,0:0:0:0:
113,372,2737,6,0,P|97:326|9:189,1,210,2|0,0:0|0:0,0:0:0:0:
121,155,3443,2,0,P|181:107|172:52,1,140,2|0,0:0|0:0,0:0:0:0:
241,0,3972,1,0,0:0:0:0:
316,60,4149,2,0,P|371:97|430:67,1,140,2|2,0:0|0:0,0:0:0:0:
512,110,4678,1,2,0:0:0:0:
458,197,4855,6,0,P|419:198|363:255,1,70,2|0,0:0|0:0,0:0:0:0:
325,286,5208,2,0,L|255:271,2,46.6666666666667,2|2|2,0:0|0:0|0:0,0:0:0:0:
366,349,5561,2,0,L|453:340,1,70,2|0,0:0|0:0,0:0:0:0:
490,259,5914,2,0,L|507:218,3,35,2|2|2|2,0:0|0:0|0:0|0:0,0:0:0:0:
441,261,6267,6,0,P|394:238|359:169,1,105,2|0,0:0|0:0,0:0:0:0:
358,149,6619,2,0,L|373:56,1,70,2|0,0:0|0:0,0:0:0:0:
275,3,6972,2,0,L|228:8,2,46.6666666666667,2|2|2,0:0|0:0|0:0,0:0:0:0:
253,80,7325,2,0,L|206:85,2,46.6666666666667,2|2|2,0:0|0:0|0:0,0:0:0:0:
278,157,7678,6,0,P|245:231|196:255,1,70,2|0,0:0|0:0,0:0:0:0:
167,251,8031,1,2,0:0:0:0:
103,186,8208,1,2,0:0:0:0:
24,232,8384,2,0,L|6:167,2,46.6666666666667,2|2|2,0:0|0:0|0:0,0:0:0:0:
7,302,8737,2,0,L|25:367,2,46.6666666666667,2|2|2,0:0|0:0|0:0,0:0:0:0:
78,285,9090,5,2,0:0:0:0:
161,327,9267,1,2,0:0:0:0:
228,263,9443,2,0,L|239:175,1,70,2|2,0:0|0:0,0:0:0:0:
326,141,9796,1,2,0:0:0:0:
409,99,9973,1,2,0:0:0:0:
476,163,10149,2,0,L|487:251,1,70,2|2,0:0|0:0,0:0:0:0:
445,336,10502,6,0,P|367:349|318:267,1,140,2|2,0:0|0:0,0:0:0:0:
323,220,11031,1,2,0:0:0:0:
236,193,11208,2,0,P|158:180|109:262,1,140,2|2,0:0|0:0,0:0:0:0:
38,267,11737,1,2,0:0:0:0:
28,167,11914,5,2,0:0:0:0:
256,192,12002,12,2,14384,0:0:0:0:
193,359,14737,5,2,0:0:0:0:
192,330,14855,1,0,0:0:0:0:
207,306,14972,1,0,0:0:0:0:
232,292,15090,2,0,L|238:223,2,46.6666666666667,2|0|0,0:0|0:0|0:0,0:0:0:0:
311,300,15443,6,0,L|317:369,5,46.6666666666667,2|0|0|0|0|0,0:0|0:0|0:0|0:0|0:0|0:0,0:0:0:0:
389,303,16149,5,2,0:0:0:0:
389,270,16267,1,0,0:0:0:0:
373,243,16384,1,0,0:0:0:0:
345,230,16502,2,0,L|339:161,2,46.6666666666667,2|0|0,0:0|0:0|0:0,0:0:0:0:
262,212,16855,6,0,L|268:143,5,46.6666666666667,2|0|0|0|0|0,0:0|0:0|0:0|0:0|0:0|0:0,0:0:0:0:
256,192,17561,12,0,18619,0:0:0:0:
104,162,18972,5,2,0:0:0:0:
128,143,19090,2,0,P|184:142|204:165,1,46.6666666666667,2|0,0:0|0:0,0:0:0:0:
218,210,19325,2,0,P|190:258|102:253,2,140,2|2|0,0:0|0:0|0:0,0:0:0:0:
253,138,20149,1,0,0:0:0:0:
285,139,20267,1,0,0:0:0:0:
305,161,20384,6,0,L|374:167,5,46.6666666666667,2|0|0|0|0|0,0:0|0:0|0:0|0:0|0:0|0:0,0:0:0:0:
391,227,21090,5,2,0:0:0:0:
402,255,21208,1,0,0:0:0:0:
394,285,21325,1,0,0:0:0:0:
370,308,21443,2,0,L|430:313,2,46.6666666666667,2|0|0,0:0|0:0|0:0,0:0:0:0:
297,348,21796,6,0,L|228:342,5,46.6666666666667,2|0|0|0|0|0,0:0|0:0|0:0|0:0|0:0|0:0,0:0:0:0:
181,301,22502,6,0,L|112:307,5,46.6666666666667,2|0|0|0|0|0,0:0|0:0|0:0|0:0|0:0|0:0,0:0:0:0:
256,192,23208,12,0,24267,0:0:0:0:
512,306,24619,5,2,0:0:0:0:
512,306,24737,2,0,P|464:277|435:287,1,46.6666666666667,2|0,0:0|0:0,0:0:0:0:
429,222,24972,2,0,P|428:165|507:126,1,140,2|2,0:0|0:0,0:0:0:0:
291,78,25678,2,0,P|283:43|284:20,2,46.6666666666667,2|0|0,0:0|0:0|0:0,0:0:0:0:
250,147,26031,5,2,0:0:0:0:
231,169,26149,1,0,0:0:0:0:
203,180,26267,1,0,0:0:0:0:
171,169,26384,2,0,L|94:175,2,46.6666666666667,2|0|0,0:0|0:0|0:0,0:0:0:0:
179,254,26737,6,0,L|256:260,5,46.6666666666667,2|0|0|0|0|0,0:0|0:0|0:0|0:0|0:0|0:0,0:0:0:0:
275,326,27443,5,2,0:0:0:0:
296,345,27561,2,0,L|369:335,1,46.6666666666667,2|0,0:0|0:0,0:0:0:0:
400,288,27796,5,2,0:0:0:0:
382,265,27914,2,0,L|309:255,1,46.6666666666667,2|0,0:0|0:0,0:0:0:0:
350,175,28149,6,0,L|305:184,5,46.6666666666667,2|0|0|0|0|0,0:0|0:0|0:0|0:0|0:0|0:0,0:0:0:0:
226,144,28855,5,2,0:0:0:0:
203,125,28973,1,0,0:0:0:0:
192,96,29091,1,0,0:0:0:0:
193,67,29208,2,0,L|187:-10,2,46.6666666666667,2|0|0,0:0|0:0|0:0,0:0:0:0:
106,84,29561,6,0,L|100:161,5,46.6666666666667,2|0|0|0|0|0,0:0|0:0|0:0|0:0|0:0|0:0,0:0:0:0:
34,180,30267,5,2,0:0:0:0:
17,207,30385,2,0,L|27:280,1,46.6666666666667,2|0,0:0|0:0,0:0:0:0:
73,325,30620,5,2,0:0:0:0:
95,297,30738,2,0,L|105:224,1,46.6666666666667,2|0,0:0|0:0,0:0:0:0:
182,226,30973,6,0,L|196:300,5,46.6666666666667,2|0|0|0|0|0,0:0|0:0|0:0|0:0|0:0|0:0,0:0:0:0:
263,216,31678,6,0,P|177:194|157:133,1,140,2|2,0:0|0:0,0:0:0:0:
118,78,32208,1,0,0:0:0:0:
33,62,32384,2,0,P|119:40|139:-21,1,140,2|2,0:0|0:0,0:0:0:0:
369,82,33090,6,0,P|283:104|263:165,1,140,2|2,0:0|0:0,0:0:0:0:
248,235,33619,1,0,0:0:0:0:
160,263,33796,2,0,P|246:285|266:346,1,140,2|2,0:0|0:0,0:0:0:0:
405,337,34502,2,0,L|410:284,7,41.9999987182618,2|0|2|0|2|0|2|0,0:0|0:0|0:0|0:0|0:0|0:0|0:0|0:0,0:0:0:0:
371,263,35208,2,0,L|366:210,7,41.9999987182618,2|0|2|0|2|0|2|0,0:0|0:0|0:0|0:0|0:0|0:0|0:0|0:0,0:0:0:0:
404,179,35914,2,0,L|409:126,7,41.9999987182618,2|0|2|0|2|0|2|0,0:0|0:0|0:0|0:0|0:0|0:0|0:0|0:0,0:0:0:0:
370,105,36620,2,0,L|365:52,3,41.9999987182618,2|0|2|0,0:0|0:0|0:0|0:0,0:0:0:0:
331,49,36972,5,2,0:0:0:0:
331,49,37061,1,0,0:0:0:0:
331,49,37149,1,2,0:0:0:0:
233,17,37325,6,0,L|214:90,2,46.5499980821992,2|0|0,0:0|0:0|0:0,0:0:0:0:
123,75,37793,1,2,0:0:0:0:
123,75,37910,1,0,0:0:0:0:
123,75,38028,1,0,0:0:0:0:
101,197,38262,1,2,0:0:0:0:
101,197,38379,1,0,0:0:0:0:
101,197,38496,1,0,0:0:0:0:
172,306,38731,6,0,P|275:277|289:268,1,93.0999961643983,2|0,0:0|0:0,0:0:0:0:
399,309,39200,2,0,P|426:205|426:188,1,93.0999961643983,2|0,0:0|0:0,0:0:0:0:
512,116,39668,2,0,P|437:42|422:35,1,93.0999961643983,2|0,0:0|0:0,0:0:0:0:
305,38,40137,1,2,0:0:0:0:
156,384,41543,6,0,L|162:350,4,23.2749990410996,2|2|2|2|2,0:0|0:0|0:0|0:0|0:0,0:0:0:0:
91,252,44825,6,0,P|146:232|171:231,1,77.0000023498536,2|2,0:0|0:0,0:0:0:0:
186,205,45089,1,2,0:0:0:0:
186,205,45177,2,0,L|169:102,1,77.0000023498536,2|0,0:0|0:0,0:0:0:0:
133,34,45530,1,2,0:0:0:0:
133,34,45619,1,2,0:0:0:0:
133,34,45707,1,2,0:0:0:0:
133,34,45795,1,2,0:0:0:0:
133,34,45883,2,0,P|179:49|238:37,1,77.0000023498536,2|2,0:0|0:0,0:0:0:0:
344,0,46236,6,0,L|329:173,1,154.000004699707,2|2,0:0|0:0,0:0:0:0:
181,256,46942,2,0,P|130:218|84:218,1,77.0000023498536,2|0,0:0|0:0,0:0:0:0:
41,274,47295,1,2,0:0:0:0:
41,274,47383,1,2,0:0:0:0:
41,274,47472,1,2,0:0:0:0:
118,215,47648,6,0,L|133:116,1,77.0000023498536,2|0,0:0|0:0,0:0:0:0:
166,123,47913,1,2,0:0:0:0:
166,123,48001,2,0,P|208:112|240:124,2,51.3333348999024,2|2|2,0:0|0:0|0:0,0:0:0:0:
232,42,48354,2,0,P|271:61|288:91,2,51.3333348999024,2|2|2,0:0|0:0|0:0,0:0:0:0:
345,41,48707,2,0,P|347:84|330:114,2,51.3333348999024,2|2|2,0:0|0:0|0:0,0:0:0:0:
412,131,49060,6,0,L|422:243,1,77.0000023498536,2|0,0:0|0:0,0:0:0:0:
397,243,49325,1,2,0:0:0:0:
397,243,49413,1,2,0:0:0:0:
512,380,49766,2,0,P|445:348|340:356,1,154.000004699707,2|2,0:0|0:0,0:0:0:0:
222,260,50472,6,0,P|199:213|198:163,1,77.0000023498536,2|0,0:0|0:0,0:0:0:0:
216,143,50736,1,2,0:0:0:0:
216,143,50825,1,2,0:0:0:0:
427,129,51177,5,2,0:0:0:0:
471,49,51354,1,2,0:0:0:0:
390,6,51530,1,2,0:0:0:0:
345,84,51707,1,2,0:0:0:0:
264,42,51883,6,0,L|97:19,1,154.000004699707,2|2,0:0|0:0,0:0:0:0:
51,234,52589,1,2,0:0:0:0:
136,324,52766,1,2,0:0:0:0:
136,324,52854,1,2,0:0:0:0:
136,324,52942,2,0,L|204:329,3,38.5000011749268,2|2|2|2,0:0|0:0|0:0|0:0,0:0:0:0:
212,352,53295,5,2,0:0:0:0:
312,337,53472,1,2,0:0:0:0:
383,246,53648,5,2,0:0:0:0:
288,211,53824,1,2,0:0:0:0:
253,112,54001,5,2,0:0:0:0:
428,14,54354,6,0,L|478:29,3,38.5000011749268,2|0|2|2,0:0|0:0|0:0|0:0,0:0:0:0:
503,7,54707,6,0,P|482:89|484:181,1,154.000004699707,2|2,0:0|0:0,0:0:0:0:
288,211,55413,2,0,P|342:265|382:330,1,154.000004699707,2|2,0:0|0:0,0:0:0:0:
185,374,56119,6,0,L|108:362,2,41.9999987182618,2|0|0,0:0|0:0|0:0,0:0:0:0:
225,315,56472,2,0,P|219:271|176:220,1,83.9999974365235
151,186,56824,1,2,0:0:0:0:
202,86,57177,1,0,0:0:0:0:
376,126,57530,6,0,P|409:98|434:58,1,83.9999974365235,2|0,0:0|0:0,0:0:0:0:
487,115,57883,2,0,P|494:157|516:199,1,83.9999974365235,2|0,0:0|0:0,0:0:0:0:
445,228,58236,2,0,P|418:241|405:261,1,41.9999987182618,2|2,0:0|0:0,0:0:0:0:
409,326,58472,1,0,0:0:0:0:
409,326,58589,1,0,0:0:0:0:
229,358,58942,6,0,L|83:335,1,125.999996154785,2|2,0:0|0:0,0:0:0:0:
15,170,59648,2,0,P|2:142|-3:111,2,41.9999987182618,2|2|0,0:0|0:0|0:0,0:0:0:0:
86,185,60001,1,0,0:0:0:0:
269,124,60354,6,0,P|261:77|260:21,1,83.9999974365235,2|0,0:0|0:0,0:0:0:0:
333,49,60707,2,0,P|369:18|417:-10,1,83.9999974365235,2|0,0:0|0:0,0:0:0:0:
462,42,61060,2,0,P|470:22|476:2,2,41.9999987182618,2|2|0,0:0|0:0|0:0,0:0:0:0:
453,115,61413,1,0,0:0:0:0:
349,273,61766,6,0,P|332:317|305:366,1,83.9999974365235,2|0,0:0|0:0,0:0:0:0:
256,306,62119,2,0,P|209:314|153:315,1,83.9999974365235,2|0,0:0|0:0,0:0:0:0:
132,252,62472,2,0,P|112:244|91:238,2,41.9999987182618,2|2|0,0:0|0:0|0:0,0:0:0:0:
189,205,62825,1,0,0:0:0:0:
376,201,63177,6,0,P|409:229|434:269,1,83.9999974365235,2|0,0:0|0:0,0:0:0:0:
487,212,63530,2,0,P|494:170|516:128,1,83.9999974365235,2|0,0:0|0:0,0:0:0:0:
445,99,63883,2,0,P|418:86|405:66,1,41.9999987182618,2|2,0:0|0:0,0:0:0:0:
409,1,64119,1,0,0:0:0:0:
409,1,64236,1,0,0:0:0:0:
246,70,64589,6,0,L|100:93,1,125.999996154785,2|2,0:0|0:0,0:0:0:0:
47,146,65119,1,2,0:0:0:0:
49,156,65207,1,2,0:0:0:0:
51,166,65295,2,0,L|197:189,1,125.999996154785,2|0,0:0|0:0,0:0:0:0:
337,271,66001,6,0,P|338:205|351:183,1,83.9999974365235,2|0,0:0|0:0,0:0:0:0:
406,150,66354,2,0,L|474:138,2,41.9999987182618,2|2|0,0:0|0:0|0:0,0:0:0:0:
346,114,66707,2,0,P|288:82|262:82,1,83.9999974365235,2|0,0:0|0:0,0:0:0:0:
208,115,67060,1,2,0:0:0:0:
56,217,67413,6,0,P|23:189|10:166,2,41.9999987182618,2|2|0,0:0|0:0|0:0,0:0:0:0:
31,290,67766,2,0,P|-2:318|-15:341,2,41.9999987182618,2|2|0,0:0|0:0|0:0,0:0:0:0:
110,271,68119,2,0,P|137:284|186:375,1,125.999996154785,2|0,0:0|0:0,0:0:0:0:
254,187,68825,6,0,L|400:164,1,125.999996154785,2|2,0:0|0:0,0:0:0:0:
487,316,69531,2,0,P|500:344|505:375,2,41.9999987182618,2|2|0,0:0|0:0|0:0,0:0:0:0:
416,301,69884,1,0,0:0:0:0:
230,325,70237,6,0,P|183:333|127:334,1,83.9999974365235,2|0,0:0|0:0,0:0:0:0:
155,261,70590,2,0,P|124:225|96:177,1,83.9999974365235,2|0,0:0|0:0,0:0:0:0:
148,132,70943,2,0,P|128:124|108:118,2,41.9999987182618,2|2|0,0:0|0:0|0:0,0:0:0:0:
221,141,71296,1,0,0:0:0:0:
307,304,71649,6,0,P|343:334|391:363,1,83.9999974365235,2|0,0:0|0:0,0:0:0:0:
404,287,72002,2,0,P|448:271|497:243,1,83.9999974365235,2|0,0:0|0:0,0:0:0:0:
484,179,72355,2,0,P|487:157|491:137,2,41.9999987182618,2|2|0,0:0|0:0|0:0,0:0:0:0:
411,166,72708,1,0,0:0:0:0:
219,148,73060,6,0,P|168:146|93:75,1,125.999996154785,2|2,0:0|0:0,0:0:0:0:
44,146,73530,1,2,0:0:0:0:
44,146,73648,1,2,0:0:0:0:
44,146,73766,2,0,P|67:191|43:291,1,125.999996154785,2|2,0:0|0:0,0:0:0:0:
260,243,74472,6,0,P|311:241|386:170,1,125.999996154785,2|2,0:0|0:0,0:0:0:0:
445,240,74942,1,2,0:0:0:0:
445,240,75060,1,0,0:0:0:0:
445,240,75178,2,0,P|421:285|445:385,1,125.999996154785,2|0,0:0|0:0,0:0:0:0:
224,340,75883,6,0,L|156:352,2,41.9999987182618,2|2|0,0:0|0:0|0:0,0:0:0:0:
184,271,76237,2,0,L|116:259,2,41.9999987182618,2|2|0,0:0|0:0|0:0,0:0:0:0:
226,207,76590,2,0,P|283:175|354:200,1,125.999996154785,2|0,0:0|0:0,0:0:0:0:
452,68,77295,5,2,0:0:0:0:
452,68,77413,2,0,L|406:62,1,41.9999987182618,2|2,0:0|0:0,0:0:0:0:
358,12,77648,2,0,L|312:18,2,41.9999987182618,2|2|2,0:0|0:0|0:0,0:0:0:0:
327,95,78001,1,2,0:0:0:0:
327,95,78119,2,0,L|281:89,1,41.9999987182618,2|2,0:0|0:0,0:0:0:0:
233,39,78354,2,0,L|187:45,2,41.9999987182618,2|2|2,0:0|0:0|0:0,0:0:0:0:
192,120,78707,6,0,P|235:155|249:240,2,125.999996154785,2|2|2,0:0|0:0|0:0,0:0:0:0:
78,197,79766,2,0,L|72:151,3,31.4999990386963,2|2|2|2,0:0|0:0|0:0|0:0,0:0:0:0:
49,229,80119,2,0,P|93:249|150:315,1,125.999996154785,2|2,0:0|0:0,0:0:0:0:
226,328,80589,1,0,0:0:0:0:
226,328,80707,1,0,0:0:0:0:
226,328,80824,1,2,0:0:0:0:
314,166,81177,1,2,0:0:0:0:
488,201,81530,2,0,L|504:59,1,125.999996154785,2|2,0:0|0:0,0:0:0:0:
329,28,82236,2,0,L|274:20,3,31.4999990386963,2|2|2|2,0:0|0:0|0:0|0:0,0:0:0:0:
266,57,82589,2,0,L|211:65,3,31.4999990386963,2|2|2|2,0:0|0:0|0:0|0:0,0:0:0:0:
192,38,82942,6,0,P|146:42|89:112,1,125.999996154785,2|2,0:0|0:0,0:0:0:0:
102,177,83413,1,0,0:0:0:0:
102,177,83530,1,0,0:0:0:0:
102,177,83648,1,2,0:0:0:0:
194,321,84001,1,2,0:0:0:0:
355,251,84354,6,0,P|418:222|495:231,1,125.999996154785,2|2,0:0|0:0,0:0:0:0:
360,357,85060,2,0,L|323:352,3,31.4999990386963,2|2|2|2,0:0|0:0|0:0|0:0,0:0:0:0:
293,380,85413,2,0,L|256:385,3,31.4999990386963,2|2|2|2,0:0|0:0|0:0|0:0,0:0:0:0:
226,356,85766,6,0,L|210:230,1,125.999996154785,2|2,0:0|0:0,0:0:0:0:
253,171,86236,1,0,0:0:0:0:
253,171,86354,1,0,0:0:0:0:
253,171,86472,1,2,0:0:0:0:
149,8,86824,1,2,0:0:0:0:
58,180,87177,6,0,P|124:193|170:247,2,125.999996154785,2|2|2,0:0|0:0|0:0,0:0:0:0:
1,236,88001,1,0,0:0:0:0:
1,236,88119,1,0,0:0:0:0:
1,236,88236,1,2,0:0:0:0:
61,346,88589,6,0,L|191:331,1,125.999996154785,2|2,0:0|0:0,0:0:0:0:
238,267,89060,1,0,0:0:0:0:
238,267,89177,1,0,0:0:0:0:
238,267,89295,2,0,L|399:289,1,125.999996154785,2|2,0:0|0:0,0:0:0:0:
421,347,89766,1,2,0:0:0:0:
421,347,89883,1,2,0:0:0:0:
421,347,90001,1,2,0:0:0:0:
256,192,90119,12,0,91413,0:0:0:0:
168,113,92119,6,0,P|230:93|277:101,2,105.000004005432,2|0|2,0:0|0:0|0:0,0:0:0:0:
25,242,93176,2,0,L|30:300,2,35.0000013351441,2|0|0,0:0|0:0|0:0,0:0:0:0:
59,211,93529,2,0,L|163:225,1,105.000004005432
257,325,94235,2,0,P|282:315|312:314,1,52.5000020027161
361,369,94588,5,2,0:0:0:0:
466,284,94940,1,0,0:0:0:0:
414,164,95293,2,0,P|387:165|363:175,1,52.5000020027161
294,133,95646,2,0,L|305:40,2,78.7500030040742,2|0|0,0:0|0:0|0:0,0:0:0:0:
175,287,96705,6,0,P|107:257|10:264,2,157.500006008148,2|0|2,0:0|0:0|0:0,0:0:0:0:
314,344,98117,2,0,L|324:273,1,52.5000020027161
290,221,98470,1,0,0:0:0:0:
290,221,98823,6,0,L|284:153,1,52.5000020027161,2|0,0:0|0:0,0:0:0:0:
205,142,99176,2,0,L|199:210,1,52.5000020027161
123,232,99529,2,0,L|117:164,1,52.5000020027161,2|0,0:0|0:0,0:0:0:0:
43,158,99882,1,2,0:0:0:0:
132,48,100235,1,0,0:0:0:0:
197,14,100411,2,0,L|267:28,2,52.5000020027161,2|0|0,0:0|0:0|0:0,0:0:0:0:
132,48,100940,5,2,0:0:0:0:
284,135,101292,2,0,L|342:140,2,35.0000013351441
253,169,101645,2,0,P|267:226|274:275,1,105.000004005432,2|0,0:0|0:0,0:0:0:0:
452,198,102351,2,0,L|452:233,1,35.0000013351441,2|2,0:0|0:0,0:0:0:0:
466,276,102587,1,2,0:0:0:0:
466,276,102704,6,0,P|393:280|373:291,2,70.0000026702882,2|0|0,0:0|0:0|0:0,0:0:0:0:
506,353,103409,2,0,L|440:364,1,52.5000020027161
374,375,103762,1,2,0:0:0:0:
233,293,104115,2,0,L|226:231,2,52.5000020027161,2|2|0,0:0|0:0|0:0,0:0:0:0:
164,348,104645,2,0,L|158:388,2,26.2500010013581,2|2|2,0:0|0:0|0:0,0:0:0:0:
83,162,105292,5,0,0:0:0:0:
215,73,105762,2,0,L|219:20,1,35.0000013351441,0|2,0:0|0:0,0:0:0:0:
379,19,106233,2,0,L|449:10,2,52.5000020027161
317,137,106939,6,0,L|249:143,1,52.5000020027161,2|2,0:0|0:0,0:0:0:0:
238,222,107292,2,0,L|306:228,1,52.5000020027161,2|0,0:0|0:0,0:0:0:0:
260,308,107645,2,0,L|142:316,1,105.000004005432,2|2,0:0|0:0,0:0:0:0:
7,250,108351,1,0,0:0:0:0:
72,216,108527,2,0,L|142:230,2,52.5000020027161,2|0|0,0:0|0:0|0:0,0:0:0:0:
7,250,109056,5,2,0:0:0:0:
156,307,109408,2,0,L|119:306,3,26.2500010013581
187,273,109761,2,0,P|173:216|166:167,1,105.000004005432
330,208,110467,2,0,L|327:243,1,35.0000013351441,2|2,0:0|0:0,0:0:0:0:
363,277,110703,1,2,0:0:0:0:
363,277,110820,6,0,P|420:263|452:257,2,70.0000026702882,2|0|0,0:0|0:0|0:0,0:0:0:0:
321,357,111525,2,0,P|351:359|380:364,2,52.5000020027161,2|0|2,0:0|0:0|0:0,0:0:0:0:
257,224,112231,2,0,L|251:164,1,52.5000020027161,2|2,0:0|0:0,0:0:0:0:
291,103,112584,1,2,0:0:0:0:
512,71,112937,6,0,P|477:72|443:80,1,70.0000026702882,2|0,0:0|0:0,0:0:0:0:
339,180,113408,2,0,P|373:181|407:189,1,70.0000026702882,2|0,0:0|0:0,0:0:0:0:
507,281,113878,2,0,L|515:334,1,35.0000013351441,2|0,0:0|0:0,0:0:0:0:
327,354,114349,2,0,L|337:283,1,52.5000020027161,2|0,0:0|0:0,0:0:0:0:
264,261,114702,1,0,0:0:0:0:
264,261,115055,6,0,L|258:193,1,52.5000020027161,2|2,0:0|0:0,0:0:0:0:
181,255,115408,2,0,L|175:323,1,52.5000020027161,2|0,0:0|0:0,0:0:0:0:
101,355,115761,2,0,L|95:287,1,52.5000020027161,2|0,0:0|0:0,0:0:0:0:
22,264,116114,1,2,0:0:0:0:
154,167,116467,1,0,0:0:0:0:
188,102,116643,2,0,L|174:31,2,52.5000020027161,2|0|0,0:0|0:0|0:0,0:0:0:0:
154,167,117172,5,2,0:0:0:0:
455,306,117524,2,0,L|504:310,3,26.2500010013581
295,276,117877,2,0,P|309:333|316:382,1,105.000004005432,2|0,0:0|0:0,0:0:0:0:
448,258,118583,2,0,L|448:223,1,35.0000013351441,2|2,0:0|0:0,0:0:0:0:
462,180,118819,1,2,0:0:0:0:
462,180,118936,6,0,P|389:176|370:166,2,70.0000026702882,2|0|0,0:0|0:0|0:0,0:0:0:0:
504,95,119641,2,0,L|515:29,1,52.5000020027161
436,0,119994,1,2,0:0:0:0:
306,81,120347,2,0,L|299:143,1,52.5000020027161,2|2,0:0|0:0,0:0:0:0:
246,218,120700,2,0,L|240:178,4,26.2500010013581,2|2|2|2|2,0:0|0:0|0:0|0:0|0:0,0:0:0:0:
256,192,126602,12,0,129602,0:0:0:0:
256,192,130030,12,0,132926,0:0:0:0:
256,192,133340,12,0,134540,0:0:0:0:
256,192,134940,12,0,136101,0:0:0:0:
111,141,136488,5,2,0:0:0:0:
404,241,137238,1,2,0:0:0:0:
111,141,137965,5,2,0:0:0:0:
223,210,138200,1,2,0:0:0:0:
234,77,138435,1,2,0:0:0:0:
111,141,138670,6,0,L|120:228,1,70,2|2,0:0|0:0,0:0:0:0:
96,325,139023,6,0,L|174:334,1,46.6666666666667,2|2,0:0|0:0,0:0:0:0:
166,374,139259,1,2,0:0:0:0:
166,374,139376,2,0,P|211:309|398:263,1,280,2|2,0:0|0:0,0:0:0:0:
396,262,140788,5,2,0:0:0:0:
396,262,140876,1,2,0:0:0:0:
396,262,140965,1,2,0:0:0:0:
396,262,141053,1,2,0:0:0:0:
396,262,141141,2,0,L|388:206,3,35,2|2|2|2,0:0|0:0|0:0|0:0,0:0:0:0:
410,190,141494,6,0,P|362:203|267:146,1,140,2|2,0:0|0:0,0:0:0:0:
91,252,142200,6,0,P|146:232|171:231,1,77.0000023498536,2|2,0:0|0:0,0:0:0:0:
186,205,142464,1,2,0:0:0:0:
186,205,142553,2,0,L|169:102,1,77.0000023498536,2|0,0:0|0:0,0:0:0:0:
278,79,142905,1,2,0:0:0:0:
278,79,142994,1,2,0:0:0:0:
278,79,143082,1,2,0:0:0:0:
278,79,143170,1,2,0:0:0:0:
278,79,143258,2,0,P|324:94|383:82,1,77.0000023498536,2|2,0:0|0:0,0:0:0:0:
442,171,143612,6,0,L|427:344,1,154.000004699707,2|2,0:0|0:0,0:0:0:0:
221,384,144317,2,0,P|259:333|259:287,1,77.0000023498536,2|0,0:0|0:0,0:0:0:0:
224,239,144670,1,2,0:0:0:0:
224,239,144758,1,2,0:0:0:0:
224,239,144847,1,2,0:0:0:0:
120,239,145023,6,0,L|135:140,1,77.0000023498536,2|0,0:0|0:0,0:0:0:0:
168,147,145288,1,2,0:0:0:0:
168,147,145376,2,0,P|210:136|242:148,2,51.3333348999024,2|2|2,0:0|0:0|0:0,0:0:0:0:
170,68,145729,2,0,P|150:51|126:43,2,51.3333348999024,2|2|2,0:0|0:0|0:0,0:0:0:0:
247,43,146082,2,0,P|286:26|320:32,2,51.3333348999024,2|2|2,0:0|0:0|0:0,0:0:0:0:
298,105,146435,6,0,L|308:217,1,77.0000023498536,2|0,0:0|0:0,0:0:0:0:
283,217,146700,1,2,0:0:0:0:
283,217,146788,1,2,0:0:0:0:
429,361,147141,2,0,P|362:329|257:337,1,154.000004699707,2|2,0:0|0:0,0:0:0:0:
100,384,147847,6,0,P|77:337|76:287,1,77.0000023498536,2|0,0:0|0:0,0:0:0:0:
94,267,148111,1,2,0:0:0:0:
94,267,148200,1,2,0:0:0:0:
291,204,148552,5,2,0:0:0:0:
335,124,148729,1,2,0:0:0:0:
278,53,148905,1,2,0:0:0:0:
193,90,149082,1,2,0:0:0:0:
196,183,149259,6,0,L|29:160,1,154.000004699707,2|2,0:0|0:0,0:0:0:0:
167,315,149964,1,2,0:0:0:0:
264,277,150141,1,2,0:0:0:0:
264,277,150229,1,2,0:0:0:0:
264,277,150317,2,0,L|332:282,3,38.5000011749268,2|2|2|2,0:0|0:0|0:0|0:0,0:0:0:0:
340,305,150670,5,2,0:0:0:0:
321,201,150847,1,2,0:0:0:0:
399,155,151023,5,2,0:0:0:0:
417,73,151199,1,2,0:0:0:0:
358,16,151376,5,2,0:0:0:0:
358,16,151729,6,0,L|308:31,3,38.5000011749268,2|2|2|2,0:0|0:0|0:0|0:0,0:0:0:0:
299,66,152082,2,0,P|237:47|181:61,1,102.666669799805,2|2,0:0|0:0,0:0:0:0:
127,39,152435,2,0,P|79:83|63:138,1,102.666669799805,2|2,0:0|0:0,0:0:0:0:
16,176,152788,2,0,P|30:239|70:280,1,102.666669799805,2|2,0:0|0:0,0:0:0:0:
80,339,153141,2,0,P|142:358|198:344,1,102.666669799805,2|2,0:0|0:0,0:0:0:0:
259,370,153494,6,0,L|271:266,1,77.0000023498536,2|2,0:0|0:0,0:0:0:0:
334,227,153847,2,0,L|326:160,3,38.5000011749268,2|2|2|2,0:0|0:0|0:0|0:0,0:0:0:0:
303,152,154200,2,0,L|311:85,3,38.5000011749268,2|2|2|2,0:0|0:0|0:0|0:0,0:0:0:0:
285,75,154553,2,0,P|227:92|184:66,1,77.0000023498536,2|2,0:0|0:0,0:0:0:0:
136,35,154906,5,2,0:0:0:0:
61,108,155077,1,2,0:0:0:0:
61,108,155163,1,2,0:0:0:0:
61,108,155248,2,0,L|63:164,3,33.9500008029557,2|2|2|2,0:0|0:0|0:0|0:0,0:0:0:0:
91,177,155591,2,0,L|89:233,3,33.9500008029557,2|2|2|2,0:0|0:0|0:0|0:0,0:0:0:0:
63,253,155934,2,0,P|133:253|198:304,1,135.800003211823,2|2,0:0|0:0,0:0:0:0:
353,205,156610,6,0,L|347:141,2,43.8666659973145,2|2|2,0:0|0:0|0:0,0:0:0:0:
432,197,156943,2,0,L|426:133,2,43.8666659973145,2|2|2,0:0|0:0|0:0,0:0:0:0:
396,270,157277,6,0,L|390:313,2,42.9333318920899,2|2|2,0:0|0:0|0:0,0:0:0:0:
318,279,157601,2,0,L|311:325,2,42.9333318920899,2|2|2,0:0|0:0|0:0,0:0:0:0:
250,240,157925,6,0,L|244:197,2,42.9333318920899,2|2|2,0:0|0:0|0:0,0:0:0:0:
172,231,158249,2,0,L|165:185,2,42.9333318920899,2|2|2,0:0|0:0|0:0,0:0:0:0:
111,280,158574,6,0,L|101:334,3,35,2|2|2|2,0:0|0:0|0:0|0:0,0:0:0:0:
125,353,158907,6,0,P|177:337|210:335,1,62.3000000475311,2|2,0:0|0:0,0:0:0:0:
282,348,159222,2,0,L|286:308,3,31.1500000237656,2|2|2|2,0:0|0:0|0:0|0:0,0:0:0:0:
305,278,159538,2,0,L|301:238,3,31.1500000237656,2|2|2|2,0:0|0:0|0:0|0:0,0:0:0:0:
281,207,159854,2,0,P|225:217|200:214,1,62.3000000475311,2|2,0:0|0:0,0:0:0:0:
146,286,160170,6,0,P|94:270|61:268,1,62.3000000475311,2|2,0:0|0:0,0:0:0:0:
23,196,160485,2,0,L|19:156,3,31.1500000237656,2|2|2|2,0:0|0:0|0:0|0:0,0:0:0:0:
0,126,160801,2,0,L|4:86,3,31.1500000237656,2|2|2|2,0:0|0:0|0:0|0:0,0:0:0:0:
24,55,161117,2,0,P|79:65|104:62,1,62.3000000475311,2|2,0:0|0:0,0:0:0:0:
178,101,161433,6,0,L|187:56,3,30.4500002555466,2|0|2|0,0:0|0:0|0:0|0:0,0:0:0:0:
219,48,161740,1,2,0:0:0:0:
219,48,161817,1,2,0:0:0:0:
219,48,161894,1,2,0:0:0:0:
286,96,162048,6,0,L|295:141,3,30.4500002555466,2|0|2|0,0:0|0:0|0:0|0:0,0:0:0:0:
336,161,162355,1,2,0:0:0:0:
336,161,162432,1,2,0:0:0:0:
336,161,162509,1,2,0:0:0:0:
407,121,162663,6,0,L|416:76,3,30.4500002555466,2|0|2|0,0:0|0:0|0:0|0:0,0:0:0:0:
443,59,162971,2,0,P|501:72|517:69,1,60.9000005110931,2|0,0:0|0:0,0:0:0:0:
483,173,163279,2,0,L|475:295,2,105.000004005432,2|2|2,0:0|0:0|0:0,0:0:0:0:
369,235,163864,5,2,0:2:0:0:
256,192,163954,12,0,166763,0:2:0:0:
256,192,167513,5,2,0:0:0:0:
