osu file format v14

[General]
AudioFilename: Zephyros.mp3
AudioLeadIn: 0
PreviewTime: 107706
Countdown: 0
SampleSet: Normal
StackLeniency: 0.7
Mode: 3
LetterboxInBreaks: 0
SpecialStyle: 0
WidescreenStoryboard: 1

[Editor]
DistanceSpacing: 0.8
BeatDivisor: 2
GridSize: 8
TimelineZoom: 1.1

[Metadata]
Title:Zephyros
TitleUnicode:Zephyros
Artist:xi
ArtistUnicode:xi
Creator:JamesHappy
Version:4K Advance
Source:
Tags:diverse system classical ad nearly 180
BeatmapID:1063211
BeatmapSetID:499560

[Difficulty]
HPDrainRate:7.6
CircleSize:4
OverallDifficulty:7.7
ApproachRate:5
SliderMultiplier:1.4
SliderTickRate:1

[Events]
//Background and Video events
0,0,"Norm.jpg",0,0
//Break Periods
//Storyboard Layer 0 (Background)
//Storyboard Layer 1 (Fail)
//Storyboard Layer 2 (Pass)
//Storyboard Layer 3 (Foreground)
//Storyboard Sound Samples

[TimingPoints]
40,333.333333333333,4,1,1,30,1,0
40,-117.647058823529,4,1,1,30,0,0
21039,-100,4,1,1,30,0,0
30706,-50,4,1,1,30,0,0
30789,-133.333333333333,4,1,1,30,0,0
30956,-50,4,1,1,30,0,0
31039,-133.333333333333,4,1,1,30,0,0
31206,-50,4,1,1,30,0,0
31289,-133.333333333333,4,1,1,30,0,0
31456,-50,4,1,1,30,0,0
31539,-133.333333333333,4,1,1,30,0,0
31706,-100,4,1,1,30,0,0
42706,-500,4,1,1,30,0,0
43373,-333.333333333333,4,1,1,30,0,0
43456,-200,4,1,1,30,0,0
43539,-142.857142857143,4,1,1,30,0,0
43623,-111.111111111111,4,1,1,30,0,0
43706,-100,4,1,1,30,0,0
44039,-100,4,1,1,30,0,1
64039,-50,4,1,1,30,0,1
64123,-133.333333333333,4,1,1,30,0,1
64289,-50,4,1,1,30,0,1
64373,-133.333333333333,4,1,1,30,0,1
64539,-50,4,1,1,30,0,1
64623,-133.333333333333,4,1,1,30,0,1
64789,-100,4,1,1,30,0,1
86706,-117.647058823529,4,1,1,30,0,0
106039,-100,4,1,1,30,0,0
129373,-100,4,1,1,30,0,1
150706,-100,4,1,1,30,0,0
160039,-50,4,1,1,30,0,0
160123,-133.333333333333,4,1,1,30,0,0
160289,-50,4,1,1,30,0,0
160373,-133.333333333333,4,1,1,30,0,0
160539,-50,4,1,1,30,0,0
160623,-133.333333333333,4,1,1,30,0,0
160789,-100,4,1,1,30,0,0
172039,-500,4,1,1,30,0,0
174039,-333.333333333333,4,1,1,30,0,0
174123,-200,4,1,1,30,0,0
174206,-142.857142857143,4,1,1,30,0,0
174289,-111.111111111111,4,1,1,30,0,0
174373,-100,4,1,1,30,0,0
174706,-100,4,1,1,30,0,1
194706,-50,4,1,1,30,0,1
194789,-133.333333333333,4,1,1,30,0,1
194956,-50,4,1,1,30,0,1
195039,-133.333333333333,4,1,1,30,0,1
195206,-50,4,1,1,30,0,1
195289,-133.333333333333,4,1,1,30,0,1
195456,-100,4,1,1,30,0,1
217373,-117.647058823529,4,1,1,30,0,0
236873,-111.111111111111,4,1,1,30,0,0
236956,-105.263157894737,4,1,1,30,0,0
237039,-100,4,1,1,30,0,0

[HitObjects]
64,192,40,128,0,2706:0:0:0:0:
320,192,40,1,0,0:0:0:0:
448,192,1373,1,0,0:0:0:0:
320,192,1373,1,0,0:0:0:0:
448,192,2706,128,0,5373:0:0:0:0:
64,192,4039,1,0,0:0:0:0:
192,192,4039,1,0,0:0:0:0:
192,192,5373,128,0,8039:0:0:0:0:
320,192,6706,1,0,0:0:0:0:
448,192,6706,1,0,0:0:0:0:
320,192,8039,128,0,10706:0:0:0:0:
448,192,9373,128,0,10706:0:0:0:0:
64,192,9373,1,0,0:0:0:0:
64,192,10706,128,0,13373:0:0:0:0:
192,192,12039,1,0,0:0:0:0:
448,192,12039,1,0,0:0:0:0:
320,192,13373,128,0,16039:0:0:0:0:
64,192,14706,1,0,0:0:0:0:
192,192,16039,128,0,18706:0:0:0:0:
448,192,17373,1,0,0:0:0:0:
448,192,18706,128,0,21373:0:0:0:0:
64,192,20039,1,0,0:0:0:0:
64,192,21039,128,0,21373:0:0:0:0:
192,192,21373,1,0,0:0:0:0:
320,192,21373,1,0,0:0:0:0:
64,192,21706,1,0,0:0:0:0:
320,192,21706,1,0,0:0:0:0:
192,192,22039,128,0,22373:0:0:0:0:
448,192,22039,1,0,0:0:0:0:
448,192,22206,1,0,0:0:0:0:
64,192,22373,1,0,0:0:0:0:
320,192,22373,1,0,0:0:0:0:
64,192,22539,1,0,0:0:0:0:
320,192,22539,1,0,0:0:0:0:
448,192,22706,1,0,0:0:0:0:
192,192,23039,128,0,23373:0:0:0:0:
320,192,23039,1,0,0:0:0:0:
64,192,23373,1,0,0:0:0:0:
320,192,23539,1,0,0:0:0:0:
320,192,23706,1,0,0:0:0:0:
192,192,23706,1,0,0:0:0:0:
448,192,23873,128,0,24039:0:0:0:0:
64,192,24039,1,0,0:0:0:0:
192,192,24039,1,0,0:0:0:0:
320,192,24373,128,0,24706:0:0:0:0:
448,192,24373,1,0,0:0:0:0:
64,192,24706,1,0,0:0:0:0:
192,192,24873,128,0,25039:0:0:0:0:
64,192,25039,1,0,0:0:0:0:
320,192,25206,1,0,0:0:0:0:
192,192,25206,1,0,0:0:0:0:
320,192,25373,1,0,0:0:0:0:
448,192,25373,1,0,0:0:0:0:
64,192,25539,1,0,0:0:0:0:
64,192,25706,1,0,0:0:0:0:
320,192,25873,1,0,0:0:0:0:
448,192,25956,1,0,0:0:0:0:
64,192,26123,1,0,0:0:0:0:
192,192,26206,128,0,26373:0:0:0:0:
448,192,26373,1,0,0:0:0:0:
64,192,26539,1,0,0:0:0:0:
448,192,26623,1,0,0:0:0:0:
320,192,26706,1,0,0:0:0:0:
192,192,26706,1,0,0:0:0:0:
64,192,26706,1,0,0:0:0:0:
64,192,27039,1,0,0:0:0:0:
192,192,27039,1,0,0:0:0:0:
320,192,27206,1,0,0:0:0:0:
192,192,27373,128,0,27706:0:0:0:0:
64,192,27373,1,0,0:0:0:0:
448,192,27539,1,0,0:0:0:0:
448,192,27706,1,0,0:0:0:0:
320,192,27706,1,0,0:0:0:0:
320,192,27873,1,0,0:0:0:0:
64,192,27873,128,0,28039:0:0:0:0:
448,192,28039,1,0,0:0:0:0:
192,192,28206,1,0,0:0:0:0:
448,192,28373,128,0,28706:0:0:0:0:
320,192,28373,1,0,0:0:0:0:
320,192,28539,1,0,0:0:0:0:
64,192,28706,1,0,0:0:0:0:
320,192,28873,1,0,0:0:0:0:
448,192,28873,1,0,0:0:0:0:
320,192,29206,128,0,29373:0:0:0:0:
448,192,29206,1,0,0:0:0:0:
64,192,29373,1,0,0:0:0:0:
192,192,29539,1,0,0:0:0:0:
448,192,29706,128,0,30039:0:0:0:0:
320,192,29706,1,0,0:0:0:0:
192,192,29873,1,0,0:0:0:0:
64,192,30039,1,0,0:0:0:0:
320,192,30206,128,0,30373:0:0:0:0:
192,192,30373,1,0,0:0:0:0:
64,192,30539,1,0,0:0:0:0:
192,192,30539,1,0,0:0:0:0:
320,192,30706,1,0,0:0:0:0:
448,192,30706,1,0,0:0:0:0:
320,192,30956,1,0,0:0:0:0:
448,192,30956,1,0,0:0:0:0:
64,192,31206,1,0,0:0:0:0:
192,192,31206,1,0,0:0:0:0:
64,192,31456,1,0,0:0:0:0:
192,192,31456,1,0,0:0:0:0:
320,192,31706,1,0,0:0:0:0:
448,192,31706,1,0,0:0:0:0:
64,192,31873,1,0,0:0:0:0:
192,192,31873,1,0,0:0:0:0:
320,192,32039,1,0,0:0:0:0:
448,192,32039,1,0,0:0:0:0:
192,192,32373,1,0,0:0:0:0:
448,192,32373,1,0,0:0:0:0:
64,192,32706,1,0,0:0:0:0:
320,192,32706,128,0,33039:0:0:0:0:
64,192,32873,1,0,0:0:0:0:
192,192,33039,1,0,0:0:0:0:
448,192,33039,1,0,0:0:0:0:
192,192,33206,1,0,0:0:0:0:
448,192,33206,1,0,0:0:0:0:
64,192,33373,1,0,0:0:0:0:
192,192,33706,1,0,0:0:0:0:
320,192,33706,128,0,34039:0:0:0:0:
448,192,34039,1,0,0:0:0:0:
192,192,34206,1,0,0:0:0:0:
320,192,34373,1,0,0:0:0:0:
192,192,34373,1,0,0:0:0:0:
64,192,34539,128,0,34706:0:0:0:0:
448,192,34706,1,0,0:0:0:0:
320,192,34706,1,0,0:0:0:0:
192,192,35039,128,0,35373:0:0:0:0:
64,192,35039,1,0,0:0:0:0:
448,192,35373,1,0,0:0:0:0:
320,192,35539,128,0,35706:0:0:0:0:
448,192,35706,1,0,0:0:0:0:
320,192,35873,1,0,0:0:0:0:
192,192,35873,1,0,0:0:0:0:
64,192,36039,1,0,0:0:0:0:
192,192,36039,1,0,0:0:0:0:
448,192,36206,1,0,0:0:0:0:
448,192,36373,1,0,0:0:0:0:
192,192,36539,1,0,0:0:0:0:
64,192,36623,1,0,0:0:0:0:
448,192,36789,1,0,0:0:0:0:
320,192,36873,128,0,37039:0:0:0:0:
192,192,37039,1,0,0:0:0:0:
64,192,37039,1,0,0:0:0:0:
448,192,37206,1,0,0:0:0:0:
64,192,37289,1,0,0:0:0:0:
192,192,37373,1,0,0:0:0:0:
320,192,37373,1,0,0:0:0:0:
448,192,37706,1,0,0:0:0:0:
320,192,37706,1,0,0:0:0:0:
192,192,37873,1,0,0:0:0:0:
320,192,38039,128,0,38373:0:0:0:0:
448,192,38039,1,0,0:0:0:0:
64,192,38206,1,0,0:0:0:0:
64,192,38373,1,0,0:0:0:0:
192,192,38373,1,0,0:0:0:0:
320,192,38539,1,0,0:0:0:0:
448,192,38539,1,0,0:0:0:0:
448,192,38706,1,0,0:0:0:0:
320,192,38706,1,0,0:0:0:0:
192,192,38873,1,0,0:0:0:0:
448,192,39039,1,0,0:0:0:0:
64,192,39039,128,0,39373:0:0:0:0:
448,192,39206,1,0,0:0:0:0:
320,192,39373,1,0,0:0:0:0:
64,192,39539,1,0,0:0:0:0:
192,192,39539,1,0,0:0:0:0:
64,192,39873,1,0,0:0:0:0:
192,192,39873,128,0,40039:0:0:0:0:
448,192,40039,1,0,0:0:0:0:
192,192,40206,1,0,0:0:0:0:
320,192,40373,1,0,0:0:0:0:
64,192,40539,1,0,0:0:0:0:
448,192,40706,1,0,0:0:0:0:
192,192,40873,1,0,0:0:0:0:
320,192,41039,1,0,0:0:0:0:
64,192,41206,1,0,0:0:0:0:
448,192,41373,1,0,0:0:0:0:
320,192,41373,128,0,41623:0:0:0:0:
64,192,41623,1,0,0:0:0:0:
192,192,41623,128,0,41873:0:0:0:0:
320,192,41873,1,0,0:0:0:0:
448,192,41873,128,0,42123:0:0:0:0:
192,192,42123,1,0,0:0:0:0:
64,192,42123,128,0,42373:0:0:0:0:
448,192,42373,1,0,0:0:0:0:
320,192,42539,1,0,0:0:0:0:
192,192,42539,128,0,42706:0:0:0:0:
320,192,42706,1,0,0:0:0:0:
448,192,42706,1,0,0:0:0:0:
64,192,42706,1,0,0:0:0:0:
320,192,43706,128,0,44039:0:0:0:0:
64,192,44039,128,0,45039:0:0:0:0:
448,192,44039,1,0,0:0:0:0:
192,192,44373,1,0,0:0:0:0:
320,192,44373,1,0,0:0:0:0:
448,192,44706,1,0,0:0:0:0:
448,192,44873,1,0,0:0:0:0:
320,192,45039,1,0,0:0:0:0:
192,192,45039,1,0,0:0:0:0:
448,192,45373,128,0,46373:0:0:0:0:
64,192,45373,1,0,0:0:0:0:
192,192,45706,1,0,0:0:0:0:
320,192,45706,1,0,0:0:0:0:
64,192,46039,1,0,0:0:0:0:
64,192,46206,1,0,0:0:0:0:
192,192,46373,1,0,0:0:0:0:
320,192,46373,1,0,0:0:0:0:
64,192,46539,128,0,46706:0:0:0:0:
192,192,46706,1,0,0:0:0:0:
448,192,46706,1,0,0:0:0:0:
320,192,46873,128,0,47706:0:0:0:0:
64,192,47039,1,0,0:0:0:0:
192,192,47039,1,0,0:0:0:0:
448,192,47373,1,0,0:0:0:0:
448,192,47539,1,0,0:0:0:0:
192,192,47706,1,0,0:0:0:0:
64,192,47706,128,0,48039:0:0:0:0:
192,192,48039,128,0,48706:0:0:0:0:
448,192,48039,1,0,0:0:0:0:
320,192,48373,1,0,0:0:0:0:
448,192,48373,1,0,0:0:0:0:
320,192,48539,1,0,0:0:0:0:
64,192,48706,1,0,0:0:0:0:
448,192,48706,128,0,48956:0:0:0:0:
64,192,48956,128,0,49206:0:0:0:0:
320,192,48956,1,0,0:0:0:0:
192,192,49206,128,0,49373:0:0:0:0:
320,192,49373,128,0,50373:0:0:0:0:
448,192,49373,1,0,0:0:0:0:
64,192,49706,1,0,0:0:0:0:
192,192,49706,1,0,0:0:0:0:
448,192,50039,1,0,0:0:0:0:
448,192,50206,1,0,0:0:0:0:
64,192,50373,1,0,0:0:0:0:
192,192,50373,128,0,50706:0:0:0:0:
320,192,50706,1,0,0:0:0:0:
64,192,50706,128,0,51706:0:0:0:0:
320,192,51039,1,0,0:0:0:0:
448,192,51039,1,0,0:0:0:0:
192,192,51373,1,0,0:0:0:0:
192,192,51539,1,0,0:0:0:0:
320,192,51706,1,0,0:0:0:0:
448,192,51706,1,0,0:0:0:0:
192,192,51873,128,0,52039:0:0:0:0:
448,192,52039,128,0,53373:0:0:0:0:
64,192,52039,1,0,0:0:0:0:
192,192,52373,1,0,0:0:0:0:
320,192,52373,1,0,0:0:0:0:
64,192,52706,1,0,0:0:0:0:
64,192,52873,1,0,0:0:0:0:
192,192,53039,1,0,0:0:0:0:
320,192,53039,1,0,0:0:0:0:
64,192,53373,1,0,0:0:0:0:
192,192,53373,128,0,53706:0:0:0:0:
320,192,53623,1,0,0:0:0:0:
448,192,53706,128,0,54039:0:0:0:0:
64,192,53873,1,0,0:0:0:0:
192,192,54039,128,0,54373:0:0:0:0:
320,192,54123,1,0,0:0:0:0:
448,192,54373,128,0,54706:0:0:0:0:
64,192,54706,128,0,55706:0:0:0:0:
320,192,54706,1,0,0:0:0:0:
192,192,55039,1,0,0:0:0:0:
320,192,55039,1,0,0:0:0:0:
448,192,55373,1,0,0:0:0:0:
448,192,55539,1,0,0:0:0:0:
320,192,55706,1,0,0:0:0:0:
192,192,55706,1,0,0:0:0:0:
192,192,55873,1,0,0:0:0:0:
320,192,55873,1,0,0:0:0:0:
448,192,56039,128,0,57039:0:0:0:0:
64,192,56039,1,0,0:0:0:0:
192,192,56373,1,0,0:0:0:0:
320,192,56373,1,0,0:0:0:0:
64,192,56706,1,0,0:0:0:0:
320,192,56873,1,0,0:0:0:0:
192,192,57039,1,0,0:0:0:0:
320,192,57039,1,0,0:0:0:0:
64,192,57039,128,0,57206:0:0:0:0:
320,192,57206,128,0,57373:0:0:0:0:
192,192,57373,1,0,0:0:0:0:
448,192,57539,128,0,57873:0:0:0:0:
64,192,57539,1,0,0:0:0:0:
192,192,57706,1,0,0:0:0:0:
320,192,57706,1,0,0:0:0:0:
64,192,57873,128,0,58039:0:0:0:0:
192,192,58039,1,0,0:0:0:0:
320,192,58206,128,0,58373:0:0:0:0:
448,192,58373,1,0,0:0:0:0:
192,192,58539,128,0,58706:0:0:0:0:
64,192,58706,1,0,0:0:0:0:
448,192,58706,128,0,59373:0:0:0:0:
320,192,59039,1,0,0:0:0:0:
192,192,59039,1,0,0:0:0:0:
192,192,59206,1,0,0:0:0:0:
320,192,59373,128,0,59706:0:0:0:0:
64,192,59373,1,0,0:0:0:0:
192,192,59706,128,0,60039:0:0:0:0:
448,192,59706,1,0,0:0:0:0:
64,192,60039,128,0,61373:0:0:0:0:
448,192,60039,1,0,0:0:0:0:
192,192,60373,1,0,0:0:0:0:
320,192,60373,1,0,0:0:0:0:
448,192,60873,1,0,0:0:0:0:
320,192,61039,1,0,0:0:0:0:
192,192,61039,1,0,0:0:0:0:
448,192,61373,128,0,62373:0:0:0:0:
320,192,61373,1,0,0:0:0:0:
64,192,61706,1,0,0:0:0:0:
192,192,61706,1,0,0:0:0:0:
64,192,62206,1,0,0:0:0:0:
320,192,62373,1,0,0:0:0:0:
192,192,62373,128,0,62706:0:0:0:0:
64,192,62539,128,0,62706:0:0:0:0:
448,192,62706,128,0,64039:0:0:0:0:
320,192,62706,1,0,0:0:0:0:
64,192,63039,1,0,0:0:0:0:
192,192,63039,1,0,0:0:0:0:
192,192,63539,1,0,0:0:0:0:
192,192,63706,1,0,0:0:0:0:
320,192,63706,1,0,0:0:0:0:
64,192,64039,1,0,0:0:0:0:
192,192,64039,1,0,0:0:0:0:
64,192,64289,1,0,0:0:0:0:
192,192,64289,1,0,0:0:0:0:
320,192,64539,1,0,0:0:0:0:
448,192,64539,1,0,0:0:0:0:
448,192,64789,1,0,0:0:0:0:
320,192,64789,128,0,65039:0:0:0:0:
192,192,65039,128,0,65373:0:0:0:0:
448,192,65373,128,0,66373:0:0:0:0:
64,192,65373,1,0,0:0:0:0:
192,192,65706,1,0,0:0:0:0:
320,192,65706,1,0,0:0:0:0:
64,192,66039,1,0,0:0:0:0:
64,192,66206,1,0,0:0:0:0:
192,192,66373,1,0,0:0:0:0:
320,192,66373,1,0,0:0:0:0:
448,192,66706,1,0,0:0:0:0:
64,192,66706,128,0,67706:0:0:0:0:
320,192,67039,1,0,0:0:0:0:
192,192,67039,1,0,0:0:0:0:
448,192,67373,1,0,0:0:0:0:
448,192,67539,1,0,0:0:0:0:
192,192,67706,1,0,0:0:0:0:
320,192,67706,1,0,0:0:0:0:
448,192,67873,128,0,68039:0:0:0:0:
64,192,68039,1,0,0:0:0:0:
320,192,68039,1,0,0:0:0:0:
192,192,68206,128,0,69039:0:0:0:0:
320,192,68373,1,0,0:0:0:0:
448,192,68373,1,0,0:0:0:0:
64,192,68706,1,0,0:0:0:0:
64,192,68873,1,0,0:0:0:0:
320,192,69039,1,0,0:0:0:0:
448,192,69039,128,0,69373:0:0:0:0:
320,192,69373,128,0,70039:0:0:0:0:
64,192,69373,1,0,0:0:0:0:
64,192,69706,1,0,0:0:0:0:
192,192,69706,1,0,0:0:0:0:
192,192,69873,1,0,0:0:0:0:
448,192,70039,1,0,0:0:0:0:
64,192,70039,128,0,70289:0:0:0:0:
448,192,70289,128,0,70539:0:0:0:0:
320,192,70539,128,0,70706:0:0:0:0:
64,192,70706,1,0,0:0:0:0:
192,192,70706,128,0,71706:0:0:0:0:
320,192,71039,1,0,0:0:0:0:
448,192,71039,1,0,0:0:0:0:
64,192,71373,1,0,0:0:0:0:
64,192,71539,1,0,0:0:0:0:
320,192,71706,128,0,72039:0:0:0:0:
448,192,71706,1,0,0:0:0:0:
448,192,72039,128,0,73039:0:0:0:0:
192,192,72039,1,0,0:0:0:0:
64,192,72373,1,0,0:0:0:0:
192,192,72373,1,0,0:0:0:0:
320,192,72706,1,0,0:0:0:0:
320,192,72873,1,0,0:0:0:0:
192,192,73039,1,0,0:0:0:0:
64,192,73039,1,0,0:0:0:0:
320,192,73206,128,0,73373:0:0:0:0:
64,192,73373,128,0,74706:0:0:0:0:
448,192,73373,1,0,0:0:0:0:
320,192,73706,1,0,0:0:0:0:
192,192,73706,1,0,0:0:0:0:
448,192,74039,1,0,0:0:0:0:
448,192,74206,1,0,0:0:0:0:
320,192,74373,1,0,0:0:0:0:
192,192,74373,1,0,0:0:0:0:
448,192,74706,1,0,0:0:0:0:
320,192,74706,128,0,75039:0:0:0:0:
192,192,74956,1,0,0:0:0:0:
64,192,75039,128,0,75373:0:0:0:0:
448,192,75206,1,0,0:0:0:0:
320,192,75373,128,0,75706:0:0:0:0:
192,192,75456,1,0,0:0:0:0:
64,192,75706,128,0,76039:0:0:0:0:
192,192,76039,1,0,0:0:0:0:
448,192,76039,128,0,77039:0:0:0:0:
192,192,76373,1,0,0:0:0:0:
320,192,76373,1,0,0:0:0:0:
64,192,76706,1,0,0:0:0:0:
64,192,76873,1,0,0:0:0:0:
192,192,77039,1,0,0:0:0:0:
320,192,77039,1,0,0:0:0:0:
320,192,77206,1,0,0:0:0:0:
192,192,77206,1,0,0:0:0:0:
64,192,77373,128,0,78373:0:0:0:0:
448,192,77373,1,0,0:0:0:0:
192,192,77706,1,0,0:0:0:0:
320,192,77706,1,0,0:0:0:0:
448,192,78039,1,0,0:0:0:0:
192,192,78206,1,0,0:0:0:0:
448,192,78373,128,0,78539:0:0:0:0:
320,192,78373,1,0,0:0:0:0:
192,192,78373,1,0,0:0:0:0:
192,192,78539,128,0,78706:0:0:0:0:
320,192,78706,1,0,0:0:0:0:
64,192,78873,128,0,79206:0:0:0:0:
448,192,78873,1,0,0:0:0:0:
320,192,79039,1,0,0:0:0:0:
192,192,79039,1,0,0:0:0:0:
448,192,79206,128,0,79373:0:0:0:0:
320,192,79373,1,0,0:0:0:0:
192,192,79539,128,0,79706:0:0:0:0:
64,192,79706,1,0,0:0:0:0:
320,192,79873,128,0,80039:0:0:0:0:
448,192,80039,1,0,0:0:0:0:
64,192,80039,128,0,80289:0:0:0:0:
192,192,80289,128,0,80539:0:0:0:0:
448,192,80373,1,0,0:0:0:0:
320,192,80539,1,0,0:0:0:0:
64,192,80539,1,0,0:0:0:0:
448,192,80706,1,0,0:0:0:0:
192,192,80873,128,0,81039:0:0:0:0:
64,192,81039,128,0,81206:0:0:0:0:
320,192,81206,128,0,81373:0:0:0:0:
448,192,81373,128,0,82706:0:0:0:0:
64,192,81373,1,0,0:0:0:0:
192,192,81706,1,0,0:0:0:0:
320,192,81706,1,0,0:0:0:0:
64,192,82206,1,0,0:0:0:0:
320,192,82373,1,0,0:0:0:0:
192,192,82373,1,0,0:0:0:0:
192,192,82706,1,0,0:0:0:0:
64,192,82706,128,0,83706:0:0:0:0:
320,192,83039,1,0,0:0:0:0:
448,192,83039,1,0,0:0:0:0:
448,192,83539,1,0,0:0:0:0:
320,192,83706,128,0,84039:0:0:0:0:
192,192,83706,1,0,0:0:0:0:
448,192,83873,128,0,84039:0:0:0:0:
64,192,84039,128,0,85373:0:0:0:0:
192,192,84039,1,0,0:0:0:0:
320,192,84206,1,0,0:0:0:0:
448,192,84373,1,0,0:0:0:0:
192,192,84539,1,0,0:0:0:0:
320,192,84706,1,0,0:0:0:0:
448,192,84873,1,0,0:0:0:0:
192,192,85039,1,0,0:0:0:0:
320,192,85206,1,0,0:0:0:0:
448,192,85373,1,0,0:0:0:0:
192,192,85373,1,0,0:0:0:0:
448,192,85623,1,0,0:0:0:0:
320,192,85623,1,0,0:0:0:0:
64,192,85873,1,0,0:0:0:0:
192,192,85873,1,0,0:0:0:0:
64,192,86123,1,0,0:0:0:0:
192,192,86123,1,0,0:0:0:0:
320,192,86373,128,0,86539:0:0:0:0:
192,192,86539,128,0,86706:0:0:0:0:
448,192,86539,1,0,0:0:0:0:
320,192,86706,1,0,0:0:0:0:
64,192,86706,128,0,89373:0:0:0:0:
320,192,88039,1,0,0:0:0:0:
448,192,89373,128,0,92039:0:0:0:0:
64,192,90706,128,0,92039:0:0:0:0:
192,192,92039,128,0,94706:0:0:0:0:
320,192,93373,1,0,0:0:0:0:
320,192,94706,128,0,97373:0:0:0:0:
448,192,96039,128,0,97373:0:0:0:0:
64,192,97373,128,0,100039:0:0:0:0:
192,192,98706,1,0,0:0:0:0:
320,192,100039,128,0,102706:0:0:0:0:
64,192,101373,128,0,102706:0:0:0:0:
192,192,102706,128,0,105373:0:0:0:0:
448,192,104039,1,0,0:0:0:0:
320,192,104706,128,0,105373:0:0:0:0:
448,192,105373,128,0,106706:0:0:0:0:
192,192,106039,128,0,106706:0:0:0:0:
64,192,106706,1,0,0:0:0:0:
320,192,106706,1,0,0:0:0:0:
64,192,106956,1,0,0:0:0:0:
320,192,106956,1,0,0:0:0:0:
192,192,107206,1,0,0:0:0:0:
448,192,107206,1,0,0:0:0:0:
192,192,107456,1,0,0:0:0:0:
448,192,107456,1,0,0:0:0:0:
64,192,107706,1,0,0:0:0:0:
320,192,107706,128,0,108039:0:0:0:0:
64,192,108039,128,0,109039:0:0:0:0:
192,192,108039,1,0,0:0:0:0:
448,192,108373,1,0,0:0:0:0:
320,192,108706,128,0,109039:0:0:0:0:
192,192,109039,128,0,109373:0:0:0:0:
448,192,109373,128,0,110039:0:0:0:0:
320,192,109373,1,0,0:0:0:0:
64,192,109706,1,0,0:0:0:0:
320,192,110039,128,0,110706:0:0:0:0:
192,192,110039,1,0,0:0:0:0:
64,192,110373,1,0,0:0:0:0:
192,192,110706,128,0,111706:0:0:0:0:
448,192,111039,128,0,111373:0:0:0:0:
320,192,111373,1,0,0:0:0:0:
64,192,111539,128,0,111706:0:0:0:0:
448,192,111706,128,0,112039:0:0:0:0:
192,192,112039,128,0,112706:0:0:0:0:
64,192,112039,1,0,0:0:0:0:
320,192,112706,128,0,113373:0:0:0:0:
448,192,112873,128,0,113039:0:0:0:0:
192,192,113039,1,0,0:0:0:0:
64,192,113373,128,0,114373:0:0:0:0:
448,192,113373,1,0,0:0:0:0:
192,192,113373,1,0,0:0:0:0:
320,192,113706,1,0,0:0:0:0:
320,192,114039,1,0,0:0:0:0:
192,192,114039,128,0,114373:0:0:0:0:
448,192,114373,128,0,114706:0:0:0:0:
192,192,114706,128,0,115373:0:0:0:0:
320,192,114706,1,0,0:0:0:0:
64,192,114873,1,0,0:0:0:0:
64,192,115039,1,0,0:0:0:0:
320,192,115373,128,0,116039:0:0:0:0:
448,192,115373,1,0,0:0:0:0:
64,192,115706,1,0,0:0:0:0:
192,192,115873,1,0,0:0:0:0:
64,192,116039,1,0,0:0:0:0:
448,192,116039,128,0,117039:0:0:0:0:
192,192,116373,128,0,116706:0:0:0:0:
64,192,116706,1,0,0:0:0:0:
320,192,116873,128,0,117039:0:0:0:0:
192,192,117206,1,0,0:0:0:0:
320,192,117373,128,0,118039:0:0:0:0:
448,192,117373,1,0,0:0:0:0:
64,192,117539,1,0,0:0:0:0:
448,192,117706,1,0,0:0:0:0:
64,192,117873,1,0,0:0:0:0:
192,192,118039,128,0,118706:0:0:0:0:
64,192,118039,1,0,0:0:0:0:
448,192,118206,1,0,0:0:0:0:
320,192,118373,1,0,0:0:0:0:
448,192,118539,1,0,0:0:0:0:
64,192,118706,128,0,119706:0:0:0:0:
320,192,118706,1,0,0:0:0:0:
448,192,119039,1,0,0:0:0:0:
192,192,119373,128,0,119706:0:0:0:0:
320,192,119706,128,0,120039:0:0:0:0:
192,192,120039,128,0,121039:0:0:0:0:
448,192,120039,1,0,0:0:0:0:
64,192,120206,1,0,0:0:0:0:
64,192,120373,1,0,0:0:0:0:
320,192,120706,1,0,0:0:0:0:
448,192,120706,1,0,0:0:0:0:
64,192,121039,128,0,121373:0:0:0:0:
448,192,121373,128,0,122706:0:0:0:0:
320,192,121373,1,0,0:0:0:0:
192,192,121706,128,0,122039:0:0:0:0:
64,192,122039,1,0,0:0:0:0:
320,192,122206,128,0,122373:0:0:0:0:
64,192,122539,1,0,0:0:0:0:
192,192,122706,128,0,123039:0:0:0:0:
64,192,122706,1,0,0:0:0:0:
320,192,123039,128,0,123373:0:0:0:0:
64,192,123373,128,0,123706:0:0:0:0:
320,192,123706,128,0,124039:0:0:0:0:
448,192,123873,1,0,0:0:0:0:
192,192,124039,128,0,125039:0:0:0:0:
448,192,124039,1,0,0:0:0:0:
64,192,124706,128,0,125039:0:0:0:0:
448,192,125039,1,0,0:0:0:0:
448,192,125206,1,0,0:0:0:0:
320,192,125373,128,0,126373:0:0:0:0:
192,192,125373,1,0,0:0:0:0:
64,192,125706,1,0,0:0:0:0:
192,192,126039,1,0,0:0:0:0:
192,192,126206,1,0,0:0:0:0:
64,192,126373,128,0,126706:0:0:0:0:
448,192,126706,128,0,128039:0:0:0:0:
320,192,126706,1,0,0:0:0:0:
192,192,127039,128,0,127373:0:0:0:0:
64,192,127373,1,0,0:0:0:0:
320,192,127539,128,0,127706:0:0:0:0:
64,192,127873,1,0,0:0:0:0:
192,192,127873,1,0,0:0:0:0:
320,192,128039,1,0,0:0:0:0:
192,192,128123,1,0,0:0:0:0:
320,192,128206,1,0,0:0:0:0:
192,192,128289,1,0,0:0:0:0:
448,192,128373,1,0,0:0:0:0:
64,192,128456,1,0,0:0:0:0:
448,192,128539,1,0,0:0:0:0:
64,192,128623,1,0,0:0:0:0:
320,192,128706,1,0,0:0:0:0:
192,192,128789,1,0,0:0:0:0:
320,192,128873,1,0,0:0:0:0:
192,192,128956,1,0,0:0:0:0:
64,192,129039,128,0,129373:0:0:0:0:
448,192,129373,1,0,0:0:0:0:
192,192,129373,1,0,0:0:0:0:
320,192,129373,1,0,0:0:0:0:
320,192,129706,1,0,0:0:0:0:
448,192,129706,1,0,0:0:0:0:
64,192,129706,128,0,130039:0:0:0:0:
320,192,129873,1,0,0:0:0:0:
192,192,130039,128,0,130373:0:0:0:0:
448,192,130039,1,0,0:0:0:0:
448,192,130206,1,0,0:0:0:0:
320,192,130373,128,0,130706:0:0:0:0:
64,192,130373,1,0,0:0:0:0:
64,192,130539,1,0,0:0:0:0:
448,192,130706,1,0,0:0:0:0:
192,192,130706,1,0,0:0:0:0:
320,192,130873,1,0,0:0:0:0:
448,192,130873,1,0,0:0:0:0:
192,192,131039,128,0,131373:0:0:0:0:
64,192,131039,1,0,0:0:0:0:
64,192,131206,1,0,0:0:0:0:
320,192,131373,128,0,131706:0:0:0:0:
448,192,131373,1,0,0:0:0:0:
64,192,131539,1,0,0:0:0:0:
448,192,131706,128,0,132039:0:0:0:0:
192,192,131706,1,0,0:0:0:0:
192,192,131873,1,0,0:0:0:0:
64,192,132039,1,0,0:0:0:0:
320,192,132039,1,0,0:0:0:0:
64,192,132206,1,0,0:0:0:0:
320,192,132373,128,0,132706:0:0:0:0:
192,192,132373,1,0,0:0:0:0:
64,192,132539,1,0,0:0:0:0:
448,192,132706,128,0,133039:0:0:0:0:
192,192,132706,1,0,0:0:0:0:
64,192,132873,1,0,0:0:0:0:
192,192,133039,128,0,133373:0:0:0:0:
320,192,133039,1,0,0:0:0:0:
320,192,133206,1,0,0:0:0:0:
448,192,133373,1,0,0:0:0:0:
64,192,133373,1,0,0:0:0:0:
192,192,133539,1,0,0:0:0:0:
320,192,133539,1,0,0:0:0:0:
448,192,133706,128,0,134039:0:0:0:0:
64,192,133706,1,0,0:0:0:0:
64,192,133873,1,0,0:0:0:0:
320,192,134039,128,0,134373:0:0:0:0:
192,192,134039,1,0,0:0:0:0:
192,192,134206,1,0,0:0:0:0:
64,192,134373,128,0,134706:0:0:0:0:
448,192,134373,1,0,0:0:0:0:
448,192,134539,128,0,134706:0:0:0:0:
192,192,134706,1,0,0:0:0:0:
320,192,134706,1,0,0:0:0:0:
64,192,135039,1,0,0:0:0:0:
192,192,135039,128,0,135373:0:0:0:0:
64,192,135206,1,0,0:0:0:0:
320,192,135373,128,0,135706:0:0:0:0:
448,192,135373,1,0,0:0:0:0:
192,192,135539,1,0,0:0:0:0:
64,192,135706,128,0,136039:0:0:0:0:
192,192,135706,1,0,0:0:0:0:
320,192,135873,1,0,0:0:0:0:
448,192,136039,1,0,0:0:0:0:
192,192,136039,1,0,0:0:0:0:
448,192,136206,1,0,0:0:0:0:
320,192,136206,1,0,0:0:0:0:
64,192,136373,128,0,136706:0:0:0:0:
192,192,136373,1,0,0:0:0:0:
192,192,136539,1,0,0:0:0:0:
448,192,136706,128,0,137039:0:0:0:0:
320,192,136706,1,0,0:0:0:0:
192,192,137039,128,0,137373:0:0:0:0:
64,192,137039,1,0,0:0:0:0:
64,192,137206,1,0,0:0:0:0:
320,192,137373,1,0,0:0:0:0:
448,192,137373,1,0,0:0:0:0:
64,192,137706,128,0,138039:0:0:0:0:
320,192,137706,1,0,0:0:0:0:
320,192,137873,1,0,0:0:0:0:
192,192,138039,128,0,138373:0:0:0:0:
448,192,138039,1,0,0:0:0:0:
64,192,138206,1,0,0:0:0:0:
448,192,138373,128,0,138706:0:0:0:0:
64,192,138373,1,0,0:0:0:0:
320,192,138539,128,0,138706:0:0:0:0:
192,192,138706,1,0,0:0:0:0:
64,192,138706,1,0,0:0:0:0:
192,192,139039,128,0,139373:0:0:0:0:
448,192,139039,1,0,0:0:0:0:
448,192,139206,1,0,0:0:0:0:
320,192,139373,128,0,139706:0:0:0:0:
64,192,139373,1,0,0:0:0:0:
192,192,139539,1,0,0:0:0:0:
64,192,139706,128,0,140039:0:0:0:0:
448,192,139706,128,0,140039:0:0:0:0:
192,192,140039,1,0,0:0:0:0:
320,192,140039,1,0,0:0:0:0:
320,192,140206,1,0,0:0:0:0:
64,192,140373,1,0,0:0:0:0:
192,192,140456,1,0,0:0:0:0:
448,192,140539,1,0,0:0:0:0:
320,192,140623,1,0,0:0:0:0:
192,192,140706,1,0,0:0:0:0:
64,192,140789,1,0,0:0:0:0:
320,192,140873,1,0,0:0:0:0:
448,192,140956,1,0,0:0:0:0:
192,192,141039,1,0,0:0:0:0:
320,192,141123,1,0,0:0:0:0:
64,192,141206,1,0,0:0:0:0:
192,192,141289,1,0,0:0:0:0:
320,192,141373,1,0,0:0:0:0:
448,192,141373,1,0,0:0:0:0:
64,192,141539,1,0,0:0:0:0:
448,192,141539,1,0,0:0:0:0:
192,192,141706,1,0,0:0:0:0:
64,192,141789,1,0,0:0:0:0:
320,192,141873,1,0,0:0:0:0:
192,192,141956,1,0,0:0:0:0:
448,192,142039,1,0,0:0:0:0:
320,192,142123,1,0,0:0:0:0:
64,192,142206,1,0,0:0:0:0:
192,192,142289,1,0,0:0:0:0:
320,192,142373,1,0,0:0:0:0:
448,192,142456,1,0,0:0:0:0:
192,192,142539,1,0,0:0:0:0:
64,192,142623,1,0,0:0:0:0:
320,192,142706,1,0,0:0:0:0:
448,192,142706,1,0,0:0:0:0:
192,192,142873,1,0,0:0:0:0:
320,192,142873,1,0,0:0:0:0:
64,192,143039,1,0,0:0:0:0:
192,192,143123,1,0,0:0:0:0:
448,192,143206,1,0,0:0:0:0:
320,192,143289,1,0,0:0:0:0:
192,192,143373,1,0,0:0:0:0:
64,192,143456,1,0,0:0:0:0:
320,192,143539,1,0,0:0:0:0:
448,192,143623,1,0,0:0:0:0:
192,192,143706,1,0,0:0:0:0:
64,192,143789,1,0,0:0:0:0:
448,192,143873,1,0,0:0:0:0:
320,192,143956,1,0,0:0:0:0:
192,192,144039,1,0,0:0:0:0:
64,192,144039,1,0,0:0:0:0:
64,192,144206,1,0,0:0:0:0:
320,192,144206,1,0,0:0:0:0:
192,192,144373,1,0,0:0:0:0:
64,192,144456,1,0,0:0:0:0:
320,192,144539,1,0,0:0:0:0:
448,192,144623,1,0,0:0:0:0:
192,192,144706,1,0,0:0:0:0:
320,192,144789,1,0,0:0:0:0:
64,192,144873,1,0,0:0:0:0:
192,192,144956,1,0,0:0:0:0:
448,192,145039,1,0,0:0:0:0:
320,192,145123,1,0,0:0:0:0:
64,192,145206,128,0,145373:0:0:0:0:
192,192,145206,128,0,145373:0:0:0:0:
448,192,145373,1,0,0:0:0:0:
320,192,145373,1,0,0:0:0:0:
64,192,145539,1,0,0:0:0:0:
192,192,145539,1,0,0:0:0:0:
448,192,145706,1,0,0:0:0:0:
320,192,145789,1,0,0:0:0:0:
64,192,145873,1,0,0:0:0:0:
192,192,145956,1,0,0:0:0:0:
320,192,146039,1,0,0:0:0:0:
448,192,146123,1,0,0:0:0:0:
192,192,146206,1,0,0:0:0:0:
64,192,146289,1,0,0:0:0:0:
320,192,146373,1,0,0:0:0:0:
192,192,146456,1,0,0:0:0:0:
448,192,146539,1,0,0:0:0:0:
320,192,146623,1,0,0:0:0:0:
192,192,146706,1,0,0:0:0:0:
64,192,146706,1,0,0:0:0:0:
448,192,146873,1,0,0:0:0:0:
64,192,146873,1,0,0:0:0:0:
320,192,147039,1,0,0:0:0:0:
448,192,147123,1,0,0:0:0:0:
192,192,147206,1,0,0:0:0:0:
320,192,147289,1,0,0:0:0:0:
64,192,147373,1,0,0:0:0:0:
192,192,147456,1,0,0:0:0:0:
448,192,147539,1,0,0:0:0:0:
320,192,147623,1,0,0:0:0:0:
192,192,147706,1,0,0:0:0:0:
64,192,147789,1,0,0:0:0:0:
320,192,147873,1,0,0:0:0:0:
448,192,147956,1,0,0:0:0:0:
64,192,148039,1,0,0:0:0:0:
192,192,148039,1,0,0:0:0:0:
320,192,148206,1,0,0:0:0:0:
192,192,148206,1,0,0:0:0:0:
448,192,148373,1,0,0:0:0:0:
320,192,148456,1,0,0:0:0:0:
64,192,148539,1,0,0:0:0:0:
192,192,148623,1,0,0:0:0:0:
320,192,148706,1,0,0:0:0:0:
448,192,148789,1,0,0:0:0:0:
192,192,148873,1,0,0:0:0:0:
64,192,148956,1,0,0:0:0:0:
320,192,149039,1,0,0:0:0:0:
448,192,149123,1,0,0:0:0:0:
64,192,149206,1,0,0:0:0:0:
192,192,149289,1,0,0:0:0:0:
320,192,149373,1,0,0:0:0:0:
448,192,149373,1,0,0:0:0:0:
192,192,149539,1,0,0:0:0:0:
448,192,149539,1,0,0:0:0:0:
320,192,149706,1,0,0:0:0:0:
448,192,149789,1,0,0:0:0:0:
192,192,149873,1,0,0:0:0:0:
64,192,149956,1,0,0:0:0:0:
320,192,150039,1,0,0:0:0:0:
192,192,150123,1,0,0:0:0:0:
448,192,150206,1,0,0:0:0:0:
320,192,150289,1,0,0:0:0:0:
192,192,150373,1,0,0:0:0:0:
64,192,150456,1,0,0:0:0:0:
448,192,150539,128,0,150706:0:0:0:0:
64,192,150706,1,0,0:0:0:0:
320,192,150706,128,0,151206:0:0:0:0:
192,192,150873,1,0,0:0:0:0:
64,192,151039,1,0,0:0:0:0:
192,192,151039,1,0,0:0:0:0:
448,192,151206,128,0,151539:0:0:0:0:
192,192,151373,1,0,0:0:0:0:
64,192,151539,128,0,151706:0:0:0:0:
320,192,151706,128,0,151873:0:0:0:0:
448,192,151706,1,0,0:0:0:0:
192,192,151873,128,0,153039:0:0:0:0:
64,192,151873,1,0,0:0:0:0:
448,192,152039,1,0,0:0:0:0:
448,192,152206,1,0,0:0:0:0:
320,192,152373,1,0,0:0:0:0:
64,192,152373,1,0,0:0:0:0:
64,192,152539,1,0,0:0:0:0:
448,192,152706,1,0,0:0:0:0:
448,192,152873,1,0,0:0:0:0:
64,192,153039,1,0,0:0:0:0:
320,192,153039,1,0,0:0:0:0:
320,192,153206,128,0,153373:0:0:0:0:
64,192,153373,128,0,153873:0:0:0:0:
192,192,153373,1,0,0:0:0:0:
320,192,153706,1,0,0:0:0:0:
448,192,153873,128,0,154206:0:0:0:0:
192,192,153873,1,0,0:0:0:0:
192,192,154206,128,0,154373:0:0:0:0:
64,192,154373,1,0,0:0:0:0:
320,192,154373,128,0,154539:0:0:0:0:
448,192,154539,128,0,155706:0:0:0:0:
192,192,154539,1,0,0:0:0:0:
192,192,154706,1,0,0:0:0:0:
320,192,154706,1,0,0:0:0:0:
64,192,155039,1,0,0:0:0:0:
192,192,155039,1,0,0:0:0:0:
64,192,155206,1,0,0:0:0:0:
192,192,155373,1,0,0:0:0:0:
192,192,155706,128,0,155873:0:0:0:0:
64,192,155706,1,0,0:0:0:0:
320,192,155873,128,0,156039:0:0:0:0:
448,192,155873,1,0,0:0:0:0:
64,192,156039,128,0,156539:0:0:0:0:
192,192,156039,1,0,0:0:0:0:
192,192,156373,1,0,0:0:0:0:
448,192,156373,1,0,0:0:0:0:
320,192,156539,128,0,156873:0:0:0:0:
448,192,156706,1,0,0:0:0:0:
192,192,156873,128,0,157039:0:0:0:0:
448,192,156873,1,0,0:0:0:0:
64,192,157039,128,0,157206:0:0:0:0:
320,192,157039,1,0,0:0:0:0:
192,192,157206,1,0,0:0:0:0:
448,192,157206,128,0,157873:0:0:0:0:
64,192,157373,1,0,0:0:0:0:
320,192,157539,1,0,0:0:0:0:
192,192,157706,1,0,0:0:0:0:
320,192,157706,1,0,0:0:0:0:
64,192,157873,128,0,158206:0:0:0:0:
192,192,157873,1,0,0:0:0:0:
192,192,158206,128,0,158539:0:0:0:0:
448,192,158206,1,0,0:0:0:0:
448,192,158373,1,0,0:0:0:0:
320,192,158539,128,0,159539:0:0:0:0:
64,192,158706,1,0,0:0:0:0:
192,192,158706,1,0,0:0:0:0:
64,192,159039,1,0,0:0:0:0:
448,192,159039,1,0,0:0:0:0:
64,192,159539,128,0,159706:0:0:0:0:
448,192,159539,1,0,0:0:0:0:
192,192,159706,128,0,159873:0:0:0:0:
448,192,159706,1,0,0:0:0:0:
320,192,159873,128,0,160039:0:0:0:0:
64,192,159873,1,0,0:0:0:0:
192,192,160039,1,0,0:0:0:0:
448,192,160039,1,0,0:0:0:0:
192,192,160289,1,0,0:0:0:0:
448,192,160289,1,0,0:0:0:0:
64,192,160539,1,0,0:0:0:0:
320,192,160539,1,0,0:0:0:0:
64,192,160789,1,0,0:0:0:0:
320,192,160789,1,0,0:0:0:0:
64,192,160956,1,0,0:0:0:0:
192,192,160956,1,0,0:0:0:0:
320,192,161039,1,0,0:0:0:0:
64,192,161123,1,0,0:0:0:0:
448,192,161206,1,0,0:0:0:0:
192,192,161206,1,0,0:0:0:0:
192,192,161373,128,0,161873:0:0:0:0:
320,192,161373,1,0,0:0:0:0:
448,192,161539,1,0,0:0:0:0:
448,192,161706,1,0,0:0:0:0:
320,192,161706,1,0,0:0:0:0:
64,192,161873,128,0,162206:0:0:0:0:
320,192,162039,1,0,0:0:0:0:
448,192,162206,128,0,162373:0:0:0:0:
64,192,162373,1,0,0:0:0:0:
192,192,162373,128,0,162539:0:0:0:0:
320,192,162539,128,0,163706:0:0:0:0:
448,192,162539,1,0,0:0:0:0:
64,192,162706,1,0,0:0:0:0:
64,192,162873,1,0,0:0:0:0:
192,192,163039,1,0,0:0:0:0:
448,192,163039,1,0,0:0:0:0:
448,192,163206,1,0,0:0:0:0:
64,192,163373,1,0,0:0:0:0:
64,192,163539,1,0,0:0:0:0:
448,192,163706,1,0,0:0:0:0:
192,192,163706,1,0,0:0:0:0:
192,192,163873,128,0,164039:0:0:0:0:
64,192,164039,1,0,0:0:0:0:
448,192,164039,128,0,164539:0:0:0:0:
192,192,164373,1,0,0:0:0:0:
64,192,164539,128,0,164873:0:0:0:0:
320,192,164539,1,0,0:0:0:0:
320,192,164873,128,0,165039:0:0:0:0:
448,192,165039,1,0,0:0:0:0:
192,192,165039,128,0,165206:0:0:0:0:
64,192,165206,128,0,166373:0:0:0:0:
320,192,165206,1,0,0:0:0:0:
320,192,165373,1,0,0:0:0:0:
192,192,165373,1,0,0:0:0:0:
448,192,165706,1,0,0:0:0:0:
320,192,165706,1,0,0:0:0:0:
448,192,165873,1,0,0:0:0:0:
320,192,166039,1,0,0:0:0:0:
448,192,166373,1,0,0:0:0:0:
320,192,166373,128,0,166539:0:0:0:0:
64,192,166539,1,0,0:0:0:0:
192,192,166539,128,0,166706:0:0:0:0:
448,192,166706,128,0,167206:0:0:0:0:
320,192,166706,1,0,0:0:0:0:
320,192,167039,1,0,0:0:0:0:
64,192,167039,1,0,0:0:0:0:
192,192,167206,128,0,167539:0:0:0:0:
64,192,167373,1,0,0:0:0:0:
320,192,167539,128,0,167706:0:0:0:0:
64,192,167539,1,0,0:0:0:0:
192,192,167706,1,0,0:0:0:0:
448,192,167706,128,0,167873:0:0:0:0:
320,192,167873,1,0,0:0:0:0:
64,192,167873,128,0,168539:0:0:0:0:
448,192,168039,1,0,0:0:0:0:
192,192,168039,1,0,0:0:0:0:
320,192,168373,1,0,0:0:0:0:
192,192,168373,1,0,0:0:0:0:
448,192,168539,128,0,168873:0:0:0:0:
320,192,168539,1,0,0:0:0:0:
320,192,168873,128,0,169206:0:0:0:0:
64,192,168873,1,0,0:0:0:0:
64,192,169039,1,0,0:0:0:0:
192,192,169206,128,0,170039:0:0:0:0:
448,192,169373,1,0,0:0:0:0:
320,192,169373,1,0,0:0:0:0:
448,192,169539,1,0,0:0:0:0:
64,192,169706,1,0,0:0:0:0:
320,192,169706,1,0,0:0:0:0:
320,192,169873,1,0,0:0:0:0:
64,192,170039,1,0,0:0:0:0:
448,192,170039,128,0,170206:0:0:0:0:
192,192,170206,1,0,0:0:0:0:
320,192,170206,128,0,170539:0:0:0:0:
64,192,170373,1,0,0:0:0:0:
192,192,170539,128,0,170706:0:0:0:0:
448,192,170539,1,0,0:0:0:0:
320,192,170706,1,0,0:0:0:0:
64,192,170706,1,0,0:0:0:0:
64,192,170956,1,0,0:0:0:0:
320,192,170956,1,0,0:0:0:0:
192,192,171206,1,0,0:0:0:0:
448,192,171206,1,0,0:0:0:0:
192,192,171456,1,0,0:0:0:0:
448,192,171456,1,0,0:0:0:0:
320,192,171623,1,0,0:0:0:0:
448,192,171623,1,0,0:0:0:0:
192,192,171706,1,0,0:0:0:0:
320,192,171789,1,0,0:0:0:0:
192,192,171873,1,0,0:0:0:0:
64,192,171873,1,0,0:0:0:0:
448,192,171956,1,0,0:0:0:0:
64,192,172039,1,0,0:0:0:0:
320,192,172039,128,0,174706:0:0:0:0:
64,192,174373,5,0,0:0:0:0:
192,192,174456,1,0,0:0:0:0:
64,192,174539,1,0,0:0:0:0:
192,192,174623,1,0,0:0:0:0:
64,192,174706,5,0,0:0:0:0:
448,192,174706,128,0,175706:0:0:0:0:
320,192,175039,1,0,0:0:0:0:
192,192,175039,1,0,0:0:0:0:
64,192,175373,1,0,0:0:0:0:
64,192,175539,1,0,0:0:0:0:
320,192,175706,1,0,0:0:0:0:
192,192,175706,1,0,0:0:0:0:
64,192,176039,128,0,177039:0:0:0:0:
448,192,176039,1,0,0:0:0:0:
192,192,176373,1,0,0:0:0:0:
320,192,176373,1,0,0:0:0:0:
448,192,176706,1,0,0:0:0:0:
448,192,176873,1,0,0:0:0:0:
320,192,177039,1,0,0:0:0:0:
192,192,177039,1,0,0:0:0:0:
448,192,177206,128,0,177373:0:0:0:0:
320,192,177373,1,0,0:0:0:0:
64,192,177373,1,0,0:0:0:0:
192,192,177539,128,0,178373:0:0:0:0:
448,192,177706,1,0,0:0:0:0:
320,192,177706,1,0,0:0:0:0:
64,192,178039,1,0,0:0:0:0:
64,192,178206,1,0,0:0:0:0:
448,192,178373,128,0,178706:0:0:0:0:
320,192,178373,1,0,0:0:0:0:
64,192,178706,1,0,0:0:0:0:
320,192,178706,128,0,179373:0:0:0:0:
192,192,179039,1,0,0:0:0:0:
64,192,179039,1,0,0:0:0:0:
192,192,179206,1,0,0:0:0:0:
64,192,179373,128,0,179623:0:0:0:0:
448,192,179373,1,0,0:0:0:0:
448,192,179623,128,0,179873:0:0:0:0:
320,192,179873,128,0,180039:0:0:0:0:
192,192,180039,128,0,181039:0:0:0:0:
64,192,180039,1,0,0:0:0:0:
448,192,180373,1,0,0:0:0:0:
320,192,180373,1,0,0:0:0:0:
64,192,180706,1,0,0:0:0:0:
64,192,180873,1,0,0:0:0:0:
448,192,181039,1,0,0:0:0:0:
320,192,181039,128,0,181373:0:0:0:0:
192,192,181373,1,0,0:0:0:0:
448,192,181373,128,0,182373:0:0:0:0:
192,192,181706,1,0,0:0:0:0:
64,192,181706,1,0,0:0:0:0:
320,192,182039,1,0,0:0:0:0:
320,192,182206,1,0,0:0:0:0:
64,192,182373,1,0,0:0:0:0:
192,192,182373,1,0,0:0:0:0:
320,192,182539,128,0,182706:0:0:0:0:
448,192,182706,1,0,0:0:0:0:
64,192,182706,128,0,184039:0:0:0:0:
192,192,183039,1,0,0:0:0:0:
320,192,183039,1,0,0:0:0:0:
448,192,183373,1,0,0:0:0:0:
448,192,183539,1,0,0:0:0:0:
192,192,183706,1,0,0:0:0:0:
320,192,183706,1,0,0:0:0:0:
320,192,184039,128,0,184373:0:0:0:0:
448,192,184039,1,0,0:0:0:0:
192,192,184289,1,0,0:0:0:0:
64,192,184373,128,0,184706:0:0:0:0:
448,192,184539,1,0,0:0:0:0:
320,192,184706,128,0,185039:0:0:0:0:
192,192,184789,1,0,0:0:0:0:
64,192,185039,128,0,185373:0:0:0:0:
448,192,185373,128,0,186373:0:0:0:0:
192,192,185373,1,0,0:0:0:0:
320,192,185706,1,0,0:0:0:0:
192,192,185706,1,0,0:0:0:0:
64,192,186039,1,0,0:0:0:0:
64,192,186206,1,0,0:0:0:0:
320,192,186373,1,0,0:0:0:0:
192,192,186373,1,0,0:0:0:0:
192,192,186539,1,0,0:0:0:0:
320,192,186539,1,0,0:0:0:0:
448,192,186706,1,0,0:0:0:0:
64,192,186706,128,0,187706:0:0:0:0:
320,192,187039,1,0,0:0:0:0:
192,192,187039,1,0,0:0:0:0:
448,192,187373,1,0,0:0:0:0:
192,192,187539,1,0,0:0:0:0:
192,192,187706,1,0,0:0:0:0:
320,192,187706,1,0,0:0:0:0:
448,192,187706,128,0,187873:0:0:0:0:
192,192,187873,128,0,188039:0:0:0:0:
320,192,188039,1,0,0:0:0:0:
448,192,188206,1,0,0:0:0:0:
64,192,188206,128,0,188539:0:0:0:0:
192,192,188373,1,0,0:0:0:0:
320,192,188373,1,0,0:0:0:0:
448,192,188539,128,0,188706:0:0:0:0:
320,192,188706,1,0,0:0:0:0:
192,192,188873,128,0,189039:0:0:0:0:
64,192,189039,1,0,0:0:0:0:
320,192,189206,128,0,189373:0:0:0:0:
64,192,189373,128,0,190039:0:0:0:0:
448,192,189373,1,0,0:0:0:0:
320,192,189706,1,0,0:0:0:0:
192,192,189706,1,0,0:0:0:0:
320,192,189873,1,0,0:0:0:0:
192,192,190039,128,0,190373:0:0:0:0:
448,192,190039,1,0,0:0:0:0:
320,192,190373,128,0,190706:0:0:0:0:
64,192,190373,1,0,0:0:0:0:
64,192,190706,1,0,0:0:0:0:
448,192,190706,128,0,192039:0:0:0:0:
320,192,191039,1,0,0:0:0:0:
192,192,191039,1,0,0:0:0:0:
64,192,191539,1,0,0:0:0:0:
192,192,191706,1,0,0:0:0:0:
320,192,191706,1,0,0:0:0:0:
64,192,192039,128,0,193039:0:0:0:0:
192,192,192039,1,0,0:0:0:0:
448,192,192373,1,0,0:0:0:0:
320,192,192373,1,0,0:0:0:0:
448,192,192873,1,0,0:0:0:0:
192,192,193039,1,0,0:0:0:0:
320,192,193039,128,0,193373:0:0:0:0:
448,192,193206,128,0,193373:0:0:0:0:
192,192,193373,1,0,0:0:0:0:
64,192,193373,128,0,194706:0:0:0:0:
448,192,193706,1,0,0:0:0:0:
320,192,193706,1,0,0:0:0:0:
320,192,194206,1,0,0:0:0:0:
320,192,194373,1,0,0:0:0:0:
192,192,194373,1,0,0:0:0:0:
320,192,194706,1,0,0:0:0:0:
448,192,194706,1,0,0:0:0:0:
320,192,194956,1,0,0:0:0:0:
448,192,194956,1,0,0:0:0:0:
192,192,195206,1,0,0:0:0:0:
64,192,195206,1,0,0:0:0:0:
192,192,195456,128,0,195706:0:0:0:0:
64,192,195456,1,0,0:0:0:0:
320,192,195706,128,0,196039:0:0:0:0:
64,192,195873,1,0,0:0:0:0:
448,192,196039,128,0,197039:0:0:0:0:
192,192,196039,1,0,0:0:0:0:
192,192,196373,1,0,0:0:0:0:
320,192,196373,1,0,0:0:0:0:
64,192,196706,1,0,0:0:0:0:
64,192,196873,1,0,0:0:0:0:
192,192,197039,1,0,0:0:0:0:
320,192,197039,1,0,0:0:0:0:
64,192,197373,128,0,198373:0:0:0:0:
448,192,197373,1,0,0:0:0:0:
320,192,197706,1,0,0:0:0:0:
192,192,197706,1,0,0:0:0:0:
448,192,198039,1,0,0:0:0:0:
448,192,198206,1,0,0:0:0:0:
192,192,198373,1,0,0:0:0:0:
320,192,198373,1,0,0:0:0:0:
448,192,198539,128,0,198706:0:0:0:0:
64,192,198706,1,0,0:0:0:0:
320,192,198706,1,0,0:0:0:0:
192,192,198873,128,0,199706:0:0:0:0:
320,192,199039,1,0,0:0:0:0:
448,192,199039,1,0,0:0:0:0:
64,192,199373,1,0,0:0:0:0:
64,192,199539,1,0,0:0:0:0:
448,192,199706,128,0,200039:0:0:0:0:
320,192,199706,1,0,0:0:0:0:
64,192,200039,1,0,0:0:0:0:
320,192,200039,128,0,200706:0:0:0:0:
192,192,200373,1,0,0:0:0:0:
64,192,200373,1,0,0:0:0:0:
192,192,200539,1,0,0:0:0:0:
64,192,200706,128,0,200956:0:0:0:0:
448,192,200706,1,0,0:0:0:0:
448,192,200956,128,0,201206:0:0:0:0:
320,192,201206,128,0,201373:0:0:0:0:
64,192,201373,1,0,0:0:0:0:
192,192,201373,128,0,202373:0:0:0:0:
320,192,201706,1,0,0:0:0:0:
448,192,201706,1,0,0:0:0:0:
64,192,202039,1,0,0:0:0:0:
64,192,202206,1,0,0:0:0:0:
448,192,202373,1,0,0:0:0:0:
320,192,202373,128,0,202706:0:0:0:0:
192,192,202706,1,0,0:0:0:0:
448,192,202706,128,0,203706:0:0:0:0:
192,192,203039,1,0,0:0:0:0:
64,192,203039,1,0,0:0:0:0:
320,192,203373,1,0,0:0:0:0:
320,192,203539,1,0,0:0:0:0:
64,192,203706,1,0,0:0:0:0:
192,192,203706,1,0,0:0:0:0:
320,192,203873,128,0,204039:0:0:0:0:
448,192,204039,1,0,0:0:0:0:
64,192,204039,128,0,205373:0:0:0:0:
320,192,204373,1,0,0:0:0:0:
192,192,204373,1,0,0:0:0:0:
448,192,204706,1,0,0:0:0:0:
448,192,204873,1,0,0:0:0:0:
192,192,205039,1,0,0:0:0:0:
320,192,205039,1,0,0:0:0:0:
320,192,205373,128,0,205706:0:0:0:0:
448,192,205373,1,0,0:0:0:0:
192,192,205623,1,0,0:0:0:0:
64,192,205706,128,0,206039:0:0:0:0:
448,192,205873,1,0,0:0:0:0:
320,192,206039,128,0,206373:0:0:0:0:
192,192,206123,1,0,0:0:0:0:
64,192,206373,128,0,206706:0:0:0:0:
192,192,206706,1,0,0:0:0:0:
448,192,206706,128,0,207706:0:0:0:0:
320,192,207039,1,0,0:0:0:0:
192,192,207039,1,0,0:0:0:0:
64,192,207373,1,0,0:0:0:0:
64,192,207539,1,0,0:0:0:0:
320,192,207706,1,0,0:0:0:0:
192,192,207706,1,0,0:0:0:0:
320,192,207873,1,0,0:0:0:0:
192,192,207873,1,0,0:0:0:0:
448,192,208039,1,0,0:0:0:0:
64,192,208039,128,0,209039:0:0:0:0:
320,192,208373,1,0,0:0:0:0:
192,192,208373,1,0,0:0:0:0:
448,192,208706,1,0,0:0:0:0:
192,192,208873,1,0,0:0:0:0:
320,192,209039,1,0,0:0:0:0:
448,192,209039,128,0,209206:0:0:0:0:
192,192,209039,1,0,0:0:0:0:
192,192,209206,128,0,209373:0:0:0:0:
320,192,209373,1,0,0:0:0:0:
64,192,209539,128,0,209873:0:0:0:0:
448,192,209539,1,0,0:0:0:0:
192,192,209706,1,0,0:0:0:0:
320,192,209706,1,0,0:0:0:0:
448,192,209873,128,0,210039:0:0:0:0:
320,192,210039,1,0,0:0:0:0:
192,192,210206,128,0,210373:0:0:0:0:
64,192,210373,1,0,0:0:0:0:
320,192,210539,128,0,210706:0:0:0:0:
64,192,210706,128,0,210956:0:0:0:0:
448,192,210706,1,0,0:0:0:0:
192,192,210956,128,0,211206:0:0:0:0:
448,192,211039,1,0,0:0:0:0:
320,192,211206,1,0,0:0:0:0:
64,192,211206,1,0,0:0:0:0:
448,192,211373,1,0,0:0:0:0:
192,192,211539,128,0,211706:0:0:0:0:
64,192,211706,128,0,211873:0:0:0:0:
320,192,211873,128,0,212039:0:0:0:0:
64,192,212039,1,0,0:0:0:0:
448,192,212039,128,0,213373:0:0:0:0:
192,192,212373,1,0,0:0:0:0:
320,192,212373,1,0,0:0:0:0:
64,192,212873,1,0,0:0:0:0:
192,192,213039,1,0,0:0:0:0:
320,192,213039,1,0,0:0:0:0:
64,192,213373,128,0,214373:0:0:0:0:
192,192,213373,1,0,0:0:0:0:
320,192,213706,1,0,0:0:0:0:
448,192,213706,1,0,0:0:0:0:
448,192,214206,1,0,0:0:0:0:
192,192,214373,1,0,0:0:0:0:
320,192,214373,128,0,214706:0:0:0:0:
448,192,214539,128,0,214706:0:0:0:0:
64,192,214706,128,0,216039:0:0:0:0:
192,192,214706,1,0,0:0:0:0:
320,192,214873,1,0,0:0:0:0:
448,192,215039,1,0,0:0:0:0:
192,192,215206,1,0,0:0:0:0:
320,192,215373,1,0,0:0:0:0:
448,192,215539,1,0,0:0:0:0:
192,192,215706,1,0,0:0:0:0:
320,192,215873,1,0,0:0:0:0:
448,192,216039,1,0,0:0:0:0:
192,192,216039,1,0,0:0:0:0:
448,192,216289,1,0,0:0:0:0:
320,192,216289,1,0,0:0:0:0:
64,192,216539,1,0,0:0:0:0:
192,192,216539,1,0,0:0:0:0:
192,192,216789,1,0,0:0:0:0:
64,192,216789,1,0,0:0:0:0:
320,192,217039,128,0,217206:0:0:0:0:
192,192,217206,128,0,217373:0:0:0:0:
448,192,217206,1,0,0:0:0:0:
320,192,217373,1,0,0:0:0:0:
64,192,217373,128,0,220039:0:0:0:0:
320,192,218706,1,0,0:0:0:0:
448,192,220039,128,0,222706:0:0:0:0:
192,192,220039,1,0,0:0:0:0:
64,192,221373,128,0,222706:0:0:0:0:
320,192,221373,1,0,0:0:0:0:
192,192,222706,128,0,225373:0:0:0:0:
320,192,222706,1,0,0:0:0:0:
320,192,225373,128,0,228039:0:0:0:0:
64,192,225373,1,0,0:0:0:0:
448,192,226706,128,0,228039:0:0:0:0:
192,192,226706,1,0,0:0:0:0:
64,192,228039,128,0,230706:0:0:0:0:
192,192,228039,1,0,0:0:0:0:
192,192,230706,128,0,233373:0:0:0:0:
320,192,230706,1,0,0:0:0:0:
320,192,233373,128,0,236039:0:0:0:0:
448,192,233373,1,0,0:0:0:0:
192,192,236039,1,0,0:0:0:0:
448,192,236039,128,0,237373:0:0:0:0:
64,192,237039,128,0,237373:0:0:0:0:
192,192,237373,1,0,0:0:0:0:
320,192,237373,1,0,0:0:0:0:
192,192,237623,1,0,0:0:0:0:
320,192,237623,1,0,0:0:0:0:
64,192,237873,1,0,0:0:0:0:
448,192,237873,1,0,0:0:0:0:
64,192,238123,1,0,0:0:0:0:
448,192,238123,1,0,0:0:0:0:
192,192,238373,128,0,238706:0:0:0:0:
320,192,238373,128,0,238706:0:0:0:0:
64,192,238706,1,0,0:0:0:0:
448,192,238706,1,0,0:0:0:0:
