osu file format v14

[General]
AudioFilename: audio.mp3
AudioLeadIn: 0
PreviewTime: 21289
Countdown: 1
SampleSet: Soft
StackLeniency: 0.7
Mode: 0
LetterboxInBreaks: 0
WidescreenStoryboard: 1

[Editor]
DistanceSpacing: 1
BeatDivisor: 4
GridSize: 32
TimelineZoom: 3

[Metadata]
Title:Zauberkugel
TitleUnicode:Zauberkugel
Artist:xi
ArtistUnicode:xi
Creator:pishifat
Version:Normal
Source:Cytus
Tags:magic bullet Agartha Progressive Jazz Electronic
BeatmapID:1296763
BeatmapSetID:554892

[Difficulty]
HPDrainRate:4
CircleSize:3.5
OverallDifficulty:4
ApproachRate:5
SliderMultiplier:0.999999999999999
SliderTickRate:1

[Events]
//Background and Video events
0,0,"bg6.jpg",0,0
//Break Periods
2,1408,4698
//Storyboard Layer 0 (Background)
//Storyboard Layer 1 (Fail)
//Storyboard Layer 2 (Pass)
//Storyboard Layer 3 (Foreground)
//Storyboard Sound Samples

[TimingPoints]
428,390.879478827362,4,2,0,60,1,0
818,-83.3333333333333,4,2,0,60,0,0
1112,-83.3333333333333,4,2,0,5,0,0
1208,390.879478827362,4,2,0,60,1,0
1208,-83.3333333333333,4,2,0,60,0,0
1501,-83.3333333333333,4,2,0,60,0,0
1794,-83.3333333333333,4,2,0,60,0,0
5507,-83.3333333333333,4,2,0,75,0,0
5605,-83.3333333333333,4,2,0,44,0,0
5996,-83.3333333333333,4,2,0,75,0,0
9123,-83.3333333333333,4,2,0,44,0,0
9514,-83.3333333333333,4,2,0,75,0,0
10589,-83.3333333333333,4,2,0,75,0,0
19579,-83.3333333333333,4,2,0,44,0,0
19774,-83.3333333333333,4,2,0,75,0,0
19872,-83.3333333333333,4,2,0,44,0,0
19970,-83.3333333333333,4,2,0,75,0,0
21142,-83.3333333333333,4,2,0,75,0,0
21338,-83.3333333333333,4,2,0,75,0,0
22706,-83.3333333333333,4,2,0,75,0,0
23097,-83.3333333333333,4,2,0,75,0,0
28569,-83.3333333333333,4,2,0,75,0,0
28862,-83.3333333333333,4,2,0,75,0,0
29155,-83.3333333333333,4,2,0,75,0,0
29546,-83.3333333333333,4,2,0,75,0,0
30133,-83.3333333333333,4,2,0,75,0,0
30817,-83.3333333333333,4,2,0,75,0,0
31208,-83.3333333333333,4,2,0,75,0,0
31892,-83.3333333333333,4,2,0,75,0,0
32478,-83.3333333333333,4,2,0,75,0,0
34139,-83.3333333333333,4,2,0,75,0,0
35214,-83.3333333333333,4,2,0,75,0,0
35605,-83.3333333333333,4,2,0,75,0,0
39905,-83.3333333333333,4,2,0,75,0,0
40100,-83.3333333333333,4,2,0,75,0,0
43422,-83.3333333333333,4,2,0,75,0,0
44986,-83.3333333333333,4,2,0,75,0,0
45768,-83.3333333333333,4,2,0,75,0,0
46550,-83.3333333333333,4,2,0,75,0,0
47818,-83.3333333333333,4,2,0,75,0,0
48111,-83.3333333333333,4,2,0,75,0,0
49577,-83.3333333333333,4,2,0,5,0,0
49675,-83.3333333333333,4,2,0,75,0,0
50359,-83.3333333333333,4,2,0,5,0,0
50457,-83.3333333333333,4,2,0,80,0,0
50750,-83.3333333333333,4,2,0,5,0,0
50848,-83.3333333333333,4,2,0,85,0,0
50994,-83.3333333333333,4,2,0,5,0,0
51043,-83.3333333333333,4,2,0,100,0,0
51092,-83.3333333333333,4,2,0,5,0,0
51141,-83.3333333333333,4,2,0,100,0,0
51190,-83.3333333333333,4,2,0,5,0,0
51240,-83.3333333333333,4,2,0,85,0,1
52020,-83.3333333333333,4,2,0,85,0,1
52607,-83.3333333333333,4,2,0,85,0,1
52802,-83.3333333333333,4,2,0,85,0,1
53584,-83.3333333333333,4,2,0,85,0,1
56711,-83.3333333333333,4,2,0,85,0,1
57004,-83.3333333333333,4,2,0,85,0,1
57297,-83.3333333333333,4,2,0,85,0,1
57688,-83.3333333333333,4,2,0,85,0,1
58274,-83.3333333333333,4,2,0,85,0,1
58470,-83.3333333333333,4,2,0,85,0,1
60033,-83.3333333333333,4,2,0,85,0,1
60229,-83.3333333333333,4,2,0,85,0,1
60620,-83.3333333333333,4,2,0,85,0,1
61597,-83.3333333333333,4,2,0,85,0,1
62185,-83.3333333333333,4,2,0,75,0,0
63356,-83.3333333333333,4,2,0,75,0,0
63748,-83.3333333333333,4,2,0,85,0,1
64528,-83.3333333333333,4,2,0,85,0,1
64919,-83.3333333333333,4,2,0,85,0,1
65310,-83.3333333333333,4,2,0,85,0,1
66092,-83.3333333333333,4,2,0,85,0,1
69219,-83.3333333333333,4,2,0,85,0,1
69512,-83.3333333333333,4,2,0,85,0,1
69805,-83.3333333333333,4,2,0,85,0,1
70196,-83.3333333333333,4,2,0,85,0,1
70392,-83.3333333333333,4,2,0,85,0,1
70587,-83.3333333333333,4,2,0,85,0,1
70782,-83.3333333333333,4,2,0,85,0,1
71076,-83.3333333333333,4,2,0,85,0,1
71467,-83.3333333333333,4,2,0,85,0,1
72541,-83.3333333333333,4,2,0,85,0,1
73128,-83.3333333333333,4,2,0,85,0,1
74693,-83.3333333333333,4,2,0,75,0,0
75473,-83.3333333333333,4,2,0,75,0,0
75864,-83.3333333333333,4,2,0,75,0,0
76256,-83.3333333333333,4,2,0,90,0,1
77037,-83.3333333333333,4,2,0,90,0,1
77427,-83.3333333333333,4,2,0,90,0,1
77818,-83.3333333333333,4,2,0,90,0,1
78600,-83.3333333333333,4,2,0,90,0,1
81727,-83.3333333333333,4,2,0,90,0,1
82020,-83.3333333333333,4,2,0,90,0,1
82313,-83.3333333333333,4,2,0,90,0,1
82704,-83.3333333333333,4,2,0,90,0,1
83291,-83.3333333333333,4,2,0,90,0,1
83584,-83.3333333333333,4,2,0,90,0,1
83975,-83.3333333333333,4,2,0,90,0,1
85050,-83.3333333333333,4,2,0,90,0,1
85245,-83.3333333333333,4,2,0,90,0,1
85636,-83.3333333333333,4,2,0,90,0,1
87201,-83.3333333333333,4,2,0,75,0,0
88372,-83.3333333333333,4,2,0,75,0,0
88765,-83.3333333333333,4,2,0,90,0,1
91108,-83.3333333333333,4,2,0,90,0,1
91695,-83.3333333333333,4,2,0,90,0,1
93258,-83.3333333333333,4,2,0,90,0,1
94235,-83.3333333333333,4,2,0,90,0,1
94528,-83.3333333333333,4,2,0,90,0,1
94822,-83.3333333333333,4,2,0,90,0,1
95212,-83.3333333333333,4,2,0,90,0,1
95408,-83.3333333333333,4,2,0,90,0,1
95603,-83.3333333333333,4,2,0,90,0,1
95799,-83.3333333333333,4,2,0,90,0,1
97558,-83.3333333333333,4,2,0,90,0,1
97755,-83.3333333333333,4,2,0,90,0,1
98144,-83.3333333333333,4,2,0,90,0,1
99709,-83.3333333333333,4,2,0,75,0,0
101273,-83.3333333333333,4,2,0,75,0,0
102053,-83.3333333333333,4,2,0,75,0,0
102444,-83.3333333333333,4,2,0,75,0,0
102835,-83.3333333333333,4,2,0,75,0,0
105180,-83.3333333333333,4,2,0,75,0,0
105473,-83.3333333333333,4,2,0,75,0,0
105766,-83.3333333333333,4,2,0,75,0,0
106157,-83.3333333333333,4,2,0,75,0,0
106743,-83.3333333333333,4,2,0,75,0,0
107037,-83.3333333333333,4,2,0,75,0,0
107330,-83.3333333333333,4,2,0,75,0,0

[Colours]
Combo1 : 98,221,62
Combo2 : 255,152,13
Combo3 : 183,239,52
Combo4 : 242,255,85

[HitObjects]
96,32,818,5,8,1:0:0:0:
192,128,1208,1,4,0:3:0:0:
416,64,5898,5,4,0:3:0:0:
416,320,6680,1,4,0:3:0:0:
416,192,7071,1,4,0:3:0:0:
192,192,7852,6,0,L|128:192,1,59.9999981689453,4|4,0:3|0:3,0:0:0:0:
71,192,8243,1,4,0:3:0:0:
320,192,9025,6,0,L|384:192,1,59.9999981689453,4|4,0:3|0:3,0:0:0:0:
441,192,9416,1,4,0:3:0:0:
494,84,9807,1,0,1:0:0:0:
402,6,10198,1,0,3:0:0:0:
301,71,10589,6,0,P|242:65|173:44,1,119.999996337891,4|0,0:0|1:0,0:0:0:0:
135,23,11175,1,0,0:0:0:0:
135,23,11370,2,0,L|123:160,1,119.999996337891,4|0,0:3|1:0,0:0:0:0:
119,262,12152,2,0,P|176:245|236:239,1,119.999996337891,4|0,0:3|1:0,0:0:0:0:
299,257,12738,1,0,0:0:0:0:
299,257,12934,1,4,0:3:0:0:
383,342,13325,1,0,1:0:0:0:
472,262,13716,6,0,P|486:207|487:123,1,119.999996337891,4|0,0:3|1:0,0:0:0:0:
475,90,14302,1,0,0:0:0:0:
475,90,14497,2,0,L|468:19,2,59.9999981689453,4|0|0,0:3|0:0|1:0,0:0:0:0:
380,164,15279,2,0,P|303:147|251:123,1,119.999996337891,4|0,0:3|1:0,0:0:0:0:
219,92,15865,2,0,P|154:104|136:115,1,59.9999981689453,0|4,0:0|0:3,0:0:0:0:
110,134,16256,2,0,L|102:278,1,119.999996337891,0|0,0:0|0:0,0:0:0:0:
100,314,16843,5,4,0:3:0:0:
211,357,17234,2,0,L|281:348,2,59.9999981689453,0|0|4,1:0|0:0|0:3,0:0:0:0:
327,80,18602,1,0,3:0:0:0:
327,80,18797,2,0,P|342:115|339:156,1,59.9999981689453,4|4,0:3|0:3,0:0:0:0:
395,165,19188,2,0,P|377:198|344:223,1,59.9999981689453,4|4,0:3|0:3,0:0:0:0:
347,271,19579,1,4,0:3:0:0:
231,238,19970,6,0,B|194:223|194:223|95:243|95:243|39:223,2,179.999994506836,2|2|2,0:0|0:0|0:0,0:0:0:0:
289,133,21533,2,0,L|275:0,2,119.999996337891,2|0|4,0:0|0:0|0:3,0:0:0:0:
318,192,22510,1,2,0:0:0:0:
318,192,22706,1,0,1:0:0:0:
207,239,23097,6,0,P|192:297|191:366,1,119.999996337891,4|0,0:1|1:0,0:0:0:0:
308,377,23879,2,0,P|363:362|432:358,1,119.999996337891,4|0,0:3|1:0,0:0:0:0:
483,372,24465,2,0,P|468:314|467:245,1,119.999996337891,0|0,0:0|0:0,0:0:0:0:
484,196,25051,1,0,1:0:0:0:
400,110,25442,2,0,P|326:122|272:151,1,119.999996337891,4|0,0:3|1:0,0:0:0:0:
245,186,26028,6,0,P|154:176|110:155,1,119.999996337891,0|0,0:0|0:0,0:0:0:0:
82,126,26615,1,0,1:0:0:0:
11,222,27006,2,0,P|12:281|27:339,1,119.999996337891,4|0,0:3|1:0,0:0:0:0:
73,379,27592,2,0,P|128:364|197:360,1,119.999996337891,0|2,0:0|0:0,0:0:0:0:
249,372,28178,1,0,1:0:0:0:
317,273,28569,6,0,B|272:281|272:281|227:245,2,89.999997253418,4|4|4,0:0|0:0|1:0,0:0:0:0:
419,210,29546,2,0,L|478:217,2,59.9999981689453,4|4|4,0:3|0:3|0:3,0:0:0:0:
369,175,30133,2,0,L|357:64,1,89.999997253418,0|0,1:0|1:0,0:0:0:0:
308,53,30621,1,0,1:0:0:0:
256,24,30817,1,4,0:0:0:0:
152,85,31208,2,0,L|143:175,1,89.999997253418,4|4,0:0|0:0,0:0:0:0:
237,253,31892,6,0,L|308:241,2,59.9999981689453,2|0|0,3:2|1:3|1:0,0:0:0:0:
184,282,32478,1,4,0:0:0:0:
73,236,32869,2,0,P|42:148|46:103,1,119.999996337891,0|4,1:3|0:3,0:0:0:0:
67,67,33455,1,0,3:0:0:0:
67,67,33650,2,0,L|147:54,1,59.9999981689453,0|0,1:0|0:0,0:0:0:0:
185,47,34041,6,0,B|261:98|261:98|385:63,1,209.999993591309,0|0,1:0|1:0,0:0:0:0:
259,184,35214,1,0,1:0:0:0:
377,197,35605,6,0,P|390:261|387:316,1,119.999996337891,4|0,0:3|1:0,0:0:0:0:
368,372,36191,2,0,P|267:352|232:352,1,119.999996337891,0|0,0:0|0:0,0:0:0:0:
193,371,36778,1,0,1:0:0:0:
193,371,36973,2,0,P|133:365|3:324,1,179.999994506836,0|0,0:0|1:0,0:0:0:0:
0,274,37755,2,0,P|4:228|28:151,1,119.999996337891,0|0,0:0|0:0,0:0:0:0:
114,77,38536,6,0,P|132:176|150:220,1,119.999996337891,0|0,0:0|0:0,0:0:0:0:
175,241,39123,1,0,1:0:0:0:
224,277,39318,2,0,P|228:231|252:154,1,119.999996337891,0|0,0:0|0:0,0:0:0:0:
287,113,39905,2,0,P|333:91|364:87,1,59.9999981689453,2|0,1:2|0:0,0:0:0:0:
401,84,40295,6,0,P|486:103|547:103,1,119.999996337891,4|0,0:3|1:0,0:0:0:0:
511,224,41077,2,0,P|451:228|393:244,1,119.999996337891,4|0,0:3|1:0,0:0:0:0:
347,356,41859,5,4,0:3:0:0:
228,338,42250,1,0,1:0:0:0:
209,223,42641,2,0,L|195:133,2,89.999997253418,4|4|4,0:0|0:0|0:0,0:0:0:0:
165,263,43422,5,4,0:3:0:0:
46,283,43813,1,0,1:0:0:0:
5,170,44204,2,0,L|16:67,2,89.999997253418,4|4|4,0:0|0:0|0:0,0:0:0:0:
57,199,44986,5,4,0:3:0:0:
161,140,45377,1,4,1:3:0:0:
177,21,45768,2,0,L|67:10,2,89.999997253418,4|4|4,0:0|0:0|0:0,0:0:0:0:
236,30,46550,6,0,B|277:26|277:26|360:81|360:81|414:74,2,179.999994506836,2|2|2,0:0|0:0|0:0,0:0:0:0:
167,127,48113,1,2,0:3:0:0:
256,192,48211,12,2,50458,0:0:0:0:
267,48,51240,6,0,P|192:68|153:98,1,119.999996337891,4|0,1:0|1:0,0:0:0:0:
254,164,52022,2,0,P|329:184|368:214,1,119.999996337891,4|0,0:3|1:0,0:0:0:0:
379,266,52608,2,0,L|243:285,1,119.999996337891,0|0,0:0|0:0,0:0:0:0:
200,290,53194,1,0,1:0:0:0:
116,203,53585,2,0,P|127:130|162:75,1,119.999996337891,4|0,0:3|1:0,0:0:0:0:
203,63,54172,6,0,P|325:74|341:71,1,119.999996337891,0|0,0:0|0:0,0:0:0:0:
378,55,54758,1,0,1:0:0:0:
482,114,55149,2,0,P|498:179|498:238,1,119.999996337891,4|0,0:3|1:0,0:0:0:0:
478,288,55735,2,0,P|373:306|346:320,1,119.999996337891,0|2,0:0|0:0,0:0:0:0:
314,349,56322,1,0,1:0:0:0:
216,279,56712,6,0,B|225:234|225:234|194:171,2,89.999997253418,4|4|4,0:0|0:0|1:0,0:0:0:0:
99,310,57690,2,0,L|106:376,2,59.9999981689453,4|4|4,0:3|0:3|0:3,0:0:0:0:
57,266,58276,2,0,L|44:166,1,89.999997253418,4|0,0:0|1:0,0:0:0:0:
85,132,58765,1,0,1:0:0:0:
124,86,58960,1,4,1:2:0:0:
236,126,59351,2,0,L|336:109,1,89.999997253418,4|4,1:2|1:2,0:0:0:0:
443,90,60035,2,0,L|452:16,2,59.9999981689453,2|0|0,3:2|1:0|1:0,0:0:0:0:
467,145,60621,6,0,P|485:221|483:267,1,119.999996337891,4|0,0:3|1:0,0:0:0:0:
462,319,61208,1,0,0:0:0:0:
462,319,61403,2,0,P|386:295|336:297,1,119.999996337891,4|0,0:3|1:0,0:0:0:0:
234,340,62185,6,0,B|146:364|146:364|37:290,1,209.999993591309,0|0,1:0|1:0,0:0:0:0:
169,188,63357,1,0,1:0:0:0:
63,131,63748,6,0,P|62:56|71:11,1,119.999996337891,4|0,1:0|1:0,0:0:0:0:
168,82,64530,2,0,P|253:69|307:51,1,119.999996337891,4|0,0:3|1:0,0:0:0:0:
340,34,65116,2,0,P|425:47|479:65,1,119.999996337891,0|0,0:0|0:0,0:0:0:0:
507,91,65703,1,0,1:0:0:0:
415,167,66093,2,0,P|404:226|407:285,1,119.999996337891,4|0,0:3|1:0,0:0:0:0:
425,343,66680,6,0,P|330:328|286:331,1,119.999996337891,0|0,0:0|0:0,0:0:0:0:
247,342,67266,1,0,1:0:0:0:
131,367,67657,2,0,P|106:274|105:231,1,119.999996337891,4|0,0:3|1:0,0:0:0:0:
145,206,68243,2,0,P|159:124|159:77,1,119.999996337891,0|0,0:0|0:0,0:0:0:0:
119,42,68830,1,0,1:0:0:0:
238,51,69221,6,0,B|283:62|283:62|336:24,2,89.999997253418,4|4|4,0:0|0:0|1:0,0:0:0:0:
275,165,70198,2,0,L|350:150,2,59.9999981689453,4|4|4,0:3|0:3|0:3,0:0:0:0:
216,178,70784,2,0,L|204:282,1,89.999997253418,4|0,0:0|1:0,0:0:0:0:
252,305,71273,1,0,1:0:0:0:
299,341,71468,1,4,1:2:0:0:
409,295,71859,2,0,L|419:205,1,89.999997253418,4|4,1:2|1:2,0:0:0:0:
433,86,72543,2,0,L|508:76,2,59.9999981689453,2|0|0,3:2|1:0|1:0,0:0:0:0:
380,57,73129,6,0,P|279:33|250:40,1,119.999996337891,4|0,0:3|1:0,0:0:0:0:
214,68,73716,1,0,0:0:0:0:
214,68,73911,2,0,P|137:62|89:46,1,119.999996337891,4|0,0:3|1:0,0:0:0:0:
24,145,74693,6,0,B|114:153|114:153|192:267,1,209.999993591309,0|0,1:0|1:0,0:0:0:0:
340,175,75865,1,0,1:0:0:0:
307,290,76256,6,0,P|397:276|435:258,1,119.999996337891,4|0,0:3|1:0,0:0:0:0:
340,175,77038,2,0,P|250:161|212:143,1,119.999996337891,4|0,0:3|1:0,0:0:0:0:
172,118,77624,2,0,P|112:123|56:143,1,119.999996337891,0|0,0:0|0:0,0:0:0:0:
15,188,78211,1,0,1:0:0:0:
108,263,78602,2,0,P|182:276|241:303,1,119.999996337891,4|0,0:3|1:0,0:0:0:0:
275,323,79188,6,0,P|293:227|290:183,1,119.999996337891,0|0,0:0|0:0,0:0:0:0:
269,149,79774,1,0,1:0:0:0:
363,74,80165,2,0,P|465:95|501:113,1,119.999996337891,4|0,0:3|1:0,0:0:0:0:
511,151,80751,2,0,P|498:252|503:288,1,119.999996337891,0|2,0:0|0:0,0:0:0:0:
511,322,81338,1,0,1:0:0:0:
400,368,81729,6,0,B|354:372|354:372|302:339,2,89.999997253418,4|4|4,0:0|0:0|1:0,0:0:0:0:
360,254,82706,2,0,L|293:260,2,59.9999981689453,4|4|4,0:3|0:3|0:3,0:0:0:0:
401,210,83292,2,0,L|412:109,1,89.999997253418,4|0,0:0|1:0,0:0:0:0:
375,71,83781,1,0,1:0:0:0:
337,25,83976,1,4,0:0:0:0:
234,86,84367,2,0,L|133:97,1,89.999997253418,4|4,1:2|1:2,0:0:0:0:
25,108,85051,2,0,L|16:33,2,59.9999981689453,2|0|0,3:2|1:0|1:0,0:0:0:0:
60,156,85637,6,0,P|73:221|72:277,1,119.999996337891,4|0,0:3|1:0,0:0:0:0:
55,332,86224,1,0,0:0:0:0:
55,332,86419,2,0,P|157:311|198:316,1,119.999996337891,4|0,0:3|1:0,0:0:0:0:
290,334,87201,6,0,B|379:349|379:349|494:269,1,209.999993591309,0|0,1:0|1:0,0:0:0:0:
317,166,88374,1,0,1:0:0:0:
201,187,88765,6,0,P|167:182|123:159,1,59.9999981689453,4|2,1:0|0:0,0:0:0:0:
106,125,89155,1,0,1:0:0:0:
206,59,89546,2,0,P|239:54|284:31,1,59.9999981689453,4|2,0:3|0:0,0:0:0:0:
301,0,89936,1,0,1:0:0:0:
407,55,90328,2,0,P|393:142|400:195,1,119.999996337891,4|0,0:3|1:0,0:0:0:0:
414,230,90914,1,2,0:0:0:0:
414,230,91110,2,0,P|329:253|289:275,1,119.999996337891,4|0,0:3|1:0,0:0:0:0:
252,303,91696,6,0,P|154:286|117:264,1,119.999996337891,0|0,0:0|0:0,0:0:0:0:
107,224,92282,1,0,1:0:0:0:
220,185,92673,2,0,P|231:133|234:59,1,119.999996337891,4|0,0:3|1:0,0:0:0:0:
190,24,93260,2,0,P|106:36|61:58,1,119.999996337891,0|0,0:0|0:0,0:0:0:0:
34,94,93846,1,0,1:0:0:0:
93,195,94237,6,0,B|51:187|51:187|12:212,2,89.999997253418,4|4|4,0:0|0:0|1:0,0:0:0:0:
103,315,95214,2,0,L|31:330,2,59.9999981689453,4|4|4,0:3|0:3|0:3,0:0:0:0:
162,306,95800,2,0,L|262:318,1,89.999997253418,4|0,0:0|1:0,0:0:0:0:
307,293,96289,1,0,1:0:0:0:
362,271,96484,1,4,0:0:0:0:
268,195,96875,2,0,L|178:184,1,89.999997253418,4|4,1:2|1:2,0:0:0:0:
99,94,97559,2,0,L|23:86,2,59.9999981689453,2|0|0,3:2|1:0|1:0,0:0:0:0:
151,64,98146,6,0,P|205:47|291:43,1,119.999996337891,4|0,0:3|1:0,0:0:0:0:
319,72,98732,1,0,0:0:0:0:
319,72,98927,2,0,P|403:88|451:84,1,119.999996337891,4|0,0:3|1:0,0:0:0:0:
510,181,99709,6,0,B|444:242|444:242|470:370,1,209.999993591309,0|0,1:0|1:0,0:0:0:0:
354,240,100882,1,0,1:0:0:0:
256,310,101273,6,0,P|198:325|129:326,1,119.999996337891,4|0,0:3|1:0,0:0:0:0:
40,256,102055,2,0,P|25:201|21:132,1,119.999996337891,4|0,0:3|1:0,0:0:0:0:
46,83,102641,2,0,P|104:68|173:67,1,119.999996337891,0|0,0:0|0:0,0:0:0:0:
219,90,103227,1,0,1:0:0:0:
327,140,103618,2,0,P|386:138|444:123,1,119.999996337891,4|0,0:3|1:0,0:0:0:0:
491,84,104204,6,0,P|509:140|511:200,1,119.999996337891,0|0,0:0|0:0,0:0:0:0:
496,259,104791,1,0,1:0:0:0:
378,283,105181,2,0,L|392:381,2,89.999997253418,4|4|4,0:0|0:0|1:0,0:0:0:0:
306,186,106159,2,0,L|241:181,2,59.9999981689453,2|2|2,0:0|0:0|0:0,0:0:0:0:
357,154,106745,2,0,L|344:64,2,89.999997253418,4|4|12,0:0|0:0|1:0,0:0:0:0:
256,192,107429,12,0,110458,0:0:0:0:
