osu file format v14

[General]
AudioFilename: audio.mp3
AudioLeadIn: 0
PreviewTime: 21289
Countdown: 1
SampleSet: Soft
StackLeniency: 0.6
Mode: 0
LetterboxInBreaks: 0
WidescreenStoryboard: 1

[Editor]
DistanceSpacing: 0.5
BeatDivisor: 4
GridSize: 32
TimelineZoom: 3.799999

[Metadata]
Title:Zauberkugel
TitleUnicode:Zauberkugel
Artist:xi
ArtistUnicode:xi
Creator:pishifat
Version:Insane
Source:Cytus
Tags:magic bullet Agartha Progressive Jazz Electronic
BeatmapID:1296762
BeatmapSetID:554892

[Difficulty]
HPDrainRate:5
CircleSize:4.2
OverallDifficulty:7.5
ApproachRate:9
SliderMultiplier:2
SliderTickRate:1

[Events]
//Background and Video events
0,0,"bg6.jpg",0,0
//Break Periods
//Storyboard Layer 0 (Background)
//Storyboard Layer 1 (Fail)
//Storyboard Layer 2 (Pass)
//Storyboard Layer 3 (Foreground)
//Storyboard Sound Samples

[TimingPoints]
428,390.879478827362,4,2,0,60,1,0
818,-66.6666666666667,4,2,0,60,0,0
1112,-100,4,2,0,5,0,0
1208,390.879478827362,4,2,0,60,1,0
1208,-200,4,2,0,60,0,0
1501,-200,4,2,0,60,0,0
1794,-200,4,2,0,60,0,0
5507,-100,4,2,0,75,0,0
5605,-133.333333333333,4,2,0,44,0,0
5996,-200,4,2,0,75,0,0
9123,-133.333333333333,4,2,0,44,0,0
9514,-133.333333333333,4,2,0,75,0,0
10589,-100,4,2,0,75,0,0
19579,-100,4,2,0,44,0,0
19774,-100,4,2,0,75,0,0
19872,-100,4,2,0,44,0,0
19970,-100,4,2,0,75,0,0
21142,-80,4,2,0,75,0,0
21338,-133.333333333333,4,2,0,75,0,0
22706,-66.6666666666667,4,2,0,75,0,0
23097,-90.9090909090909,4,2,0,75,0,0
28569,-133.333333333333,4,2,0,75,0,0
28862,-100,4,2,0,75,0,0
29155,-80,4,2,0,75,0,0
29546,-83.3333333333333,4,2,0,75,0,0
30133,-83.3333333333333,4,2,0,75,0,0
30817,-83.3333333333333,4,2,0,75,0,0
31208,-83.3333333333333,4,2,0,75,0,0
31892,-83.3333333333333,4,2,0,75,0,0
32478,-83.3333333333333,4,2,0,75,0,0
34139,-100,4,2,0,75,0,0
35214,-66.6666666666667,4,2,0,75,0,0
35605,-100,4,2,0,75,0,0
39905,-100,4,2,0,75,0,0
40100,-100,4,2,0,75,0,0
43422,-100,4,2,0,75,0,0
44986,-100,4,2,0,75,0,0
45768,-90.9090909090909,4,2,0,75,0,0
46550,-100,4,2,0,75,0,0
47818,-100,4,2,0,75,0,0
48111,-100,4,2,0,75,0,0
49577,-100,4,2,0,5,0,0
49675,-100,4,2,0,75,0,0
50359,-100,4,2,0,5,0,0
50457,-100,4,2,0,80,0,0
50750,-100,4,2,0,5,0,0
50848,-50,4,2,0,85,0,0
50994,-100,4,2,0,5,0,0
51043,-100,4,2,0,100,0,0
51092,-100,4,2,0,5,0,0
51141,-100,4,2,0,66,0,0
51190,-100,4,2,0,5,0,0
51240,-76.9230769230769,4,2,0,85,0,1
52020,-76.9230769230769,4,2,0,85,0,1
52607,-76.9230769230769,4,2,0,85,0,1
52802,-76.9230769230769,4,2,0,85,0,1
53584,-76.9230769230769,4,2,0,85,0,1
56711,-100,4,2,0,85,0,1
57004,-76.9230769230769,4,2,0,85,0,1
57297,-66.6666666666667,4,2,0,85,0,1
57688,-71.4285714285714,4,2,0,85,0,1
58274,-71.4285714285714,4,2,0,85,0,1
58470,-71.4285714285714,4,2,0,85,0,1
60033,-71.4285714285714,4,2,0,85,0,1
60229,-71.4285714285714,4,2,0,85,0,1
60620,-71.4285714285714,4,2,0,85,0,1
61597,-71.4285714285714,4,2,0,85,0,1
62185,-90.9090909090909,4,2,0,75,0,0
63356,-50,4,2,0,75,0,0
63748,-76.9230769230769,4,2,0,85,0,1
64528,-76.9230769230769,4,2,0,85,0,1
64919,-76.9230769230769,4,2,0,85,0,1
65310,-76.9230769230769,4,2,0,85,0,1
66092,-76.9230769230769,4,2,0,85,0,1
69219,-50,4,2,0,85,0,1
69512,-62.5,4,2,0,85,0,1
69805,-71.4285714285714,4,2,0,85,0,1
70196,-71.4285714285714,4,2,0,85,0,1
70392,-71.4285714285714,4,2,0,85,0,1
70587,-71.4285714285714,4,2,0,85,0,1
70782,-71.4285714285714,4,2,0,85,0,1
71076,-71.4285714285714,4,2,0,85,0,1
71467,-71.4285714285714,4,2,0,85,0,1
72541,-71.4285714285714,4,2,0,85,0,1
73128,-71.4285714285714,4,2,0,85,0,1
74693,-90.9090909090909,4,2,0,75,0,0
75473,-100,4,2,0,75,0,0
75864,-50,4,2,0,75,0,0
76256,-66.6666666666667,4,2,0,90,0,1
77037,-66.6666666666667,4,2,0,90,0,1
77427,-66.6666666666667,4,2,0,90,0,1
77818,-66.6666666666667,4,2,0,90,0,1
78600,-66.6666666666667,4,2,0,90,0,1
81727,-83.3333333333333,4,2,0,90,0,1
82020,-66.6666666666667,4,2,0,90,0,1
82313,-55.5555555555556,4,2,0,90,0,1
82704,-62.5,4,2,0,90,0,1
83291,-62.5,4,2,0,90,0,1
83584,-62.5,4,2,0,90,0,1
83975,-62.5,4,2,0,90,0,1
85050,-62.5,4,2,0,90,0,1
85245,-62.5,4,2,0,90,0,1
85636,-62.5,4,2,0,90,0,1
87201,-90.9090909090909,4,2,0,75,0,0
88372,-50,4,2,0,75,0,0
88765,-62.5,4,2,0,90,0,1
91108,-62.5,4,2,0,90,0,1
91695,-62.5,4,2,0,90,0,1
93258,-62.5,4,2,0,90,0,1
94235,-71.4285714285714,4,2,0,90,0,1
94528,-55.5555555555556,4,2,0,90,0,1
94822,-45.4545454545455,4,2,0,90,0,1
95212,-58.8235294117647,4,2,0,90,0,1
95408,-58.8235294117647,4,2,0,90,0,1
95603,-58.8235294117647,4,2,0,90,0,1
95799,-58.8235294117647,4,2,0,90,0,1
97558,-58.8235294117647,4,2,0,90,0,1
97755,-58.8235294117647,4,2,0,90,0,1
98144,-58.8235294117647,4,2,0,90,0,1
99709,-90.9090909090909,4,2,0,75,0,0
100882,-40,4,2,0,75,0,1
101273,-76.9230769230769,4,2,0,75,0,0
102053,-76.9230769230769,4,2,0,75,0,0
102444,-76.9230769230769,4,2,0,75,0,0
102835,-76.9230769230769,4,2,0,75,0,0
105180,-76.9230769230769,4,2,0,75,0,0
105473,-76.9230769230769,4,2,0,75,0,0
105766,-76.9230769230769,4,2,0,75,0,0
106157,-76.9230769230769,4,2,0,75,0,0
106743,-76.9230769230769,4,2,0,75,0,0
107037,-76.9230769230769,4,2,0,75,0,0
107330,-76.9230769230769,4,2,0,75,0,0

[Colours]
Combo1 : 98,221,62
Combo2 : 255,152,13
Combo3 : 183,239,52
Combo4 : 242,255,85

[HitObjects]
42,41,818,6,0,P|170:26|224:124,1,225.000008583069,8|0,1:0|0:0,0:0:0:0:
220,93,1208,6,0,L|301:103,2,75,4|0|0,0:3|0:0|0:0,0:0:0:0:
228,106,1892,1,0,0:0:0:0:
235,118,1989,2,0,L|177:110,1,50,2|0,0:0|0:0,0:0:0:0:
25,159,2673,6,0,L|99:149,1,75,2|0,0:0|0:0,0:0:0:0:
22,170,3162,2,0,L|71:163,1,50,2|0,0:0|0:0,0:0:0:0:
305,290,3650,1,0,0:0:0:0:
253,213,3846,6,0,L|178:203,1,75,2|0,0:0|0:0,0:0:0:0:
257,224,4335,2,0,L|207:217,1,50,2|0,0:0|0:0,0:0:0:0:
23,258,5019,6,0,L|97:248,1,75,2|0,0:0|0:0,0:0:0:0:
90,261,5409,1,0,0:0:0:0:
83,273,5507,1,0,0:0:0:0:
0,348,5703,2,0,L|36:344,3,25.0000009536744,4|4|4|4,0:3|0:3|0:3|0:3,0:0:0:0:
160,336,6093,5,0,0:0:0:0:
150,347,6191,2,0,L|224:337,1,75,2|0,0:0|0:0,0:0:0:0:
220,350,6582,1,0,0:0:0:0:
213,363,6680,2,0,L|279:353,1,50,4|0,0:3|0:0,0:0:0:0:
376,299,7071,2,0,L|309:289,1,50,4|0,0:3|0:0,0:0:0:0:
337,282,7364,1,0,0:0:0:0:
348,272,7462,6,0,L|292:264,1,50,0|0,0:0|0:0,0:0:0:0:
171,220,7852,2,0,L|226:212,1,50,4|4,0:3|0:3,0:0:0:0:
210,202,8146,1,4,0:3:0:0:
197,193,8243,2,0,B|231:188|231:188|269:159|269:159|356:173,1,150,4|0,0:3|0:0,0:0:0:0:
457,96,9025,5,4,0:3:0:0:
366,86,9221,2,0,L|323:80,3,25.0000009536744,4|4|4|4,0:3|0:3|0:3|0:3,0:0:0:0:
241,15,9611,5,0,1:0:0:0:
241,15,9709,1,0,1:0:0:0:
241,15,9807,2,0,P|224:67|227:82,1,37.5000014305115,0|0,1:0|1:0,0:0:0:0:
157,98,10002,2,0,P|168:151|178:162,1,37.5000014305115,0|0,1:0|1:0,0:0:0:0:
125,211,10198,2,0,P|161:251|176:256,3,37.5000014305115,0|0|0|0,3:0|3:0|3:0|3:0,0:0:0:0:
227,285,10589,6,0,P|268:270|372:266,1,100,4|0,0:0|0:0,0:0:0:0:
392,326,10882,1,0,0:0:0:0:
392,326,10979,2,0,P|364:254|355:159,1,150,0|0,1:0|0:0,0:0:0:0:
409,116,11370,2,0,P|425:68|431:19,1,100,4|0,0:3|0:0,0:0:0:0:
202,89,11761,2,0,P|234:126|274:157,1,100,0|0,1:0|0:0,0:0:0:0:
358,186,12054,1,0,0:0:0:0:
358,186,12152,5,4,0:3:0:0:
311,22,12348,1,0,0:0:0:0:
274,157,12543,1,0,1:0:0:0:
416,123,12738,2,0,P|464:132|510:151,1,100,0|4,0:0|0:3,0:0:0:0:
511,151,13032,1,0,0:0:0:0:
511,151,13129,2,0,L|520:237,1,50,0|0,0:0|0:0,0:0:0:0:
473,274,13325,1,0,1:0:0:0:
358,186,13520,1,0,0:0:0:0:
225,242,13716,5,4,0:3:0:0:
358,186,13911,1,0,0:0:0:0:
339,329,14107,1,0,1:0:0:0:
317,349,14204,1,0,0:0:0:0:
290,363,14302,1,0,0:0:0:0:
261,372,14400,1,0,0:0:0:0:
231,372,14497,2,0,P|153:349|105:343,1,100,4|0,0:3|0:0,0:0:0:0:
1,248,14888,2,0,P|49:238|97:222,1,100,0|0,1:0|0:0,0:0:0:0:
97,222,15181,1,0,0:0:0:0:
97,222,15279,6,0,P|106:173|122:125,1,100,4|0,0:3|0:0,0:0:0:0:
181,61,15572,1,0,0:0:0:0:
181,61,15670,1,0,1:0:0:0:
274,160,15865,1,0,0:0:0:0:
274,160,15963,1,0,0:0:0:0:
274,160,16061,1,4,0:3:0:0:
406,128,16256,2,0,P|455:137|502:154,1,100,0|0,0:0|1:0,0:0:0:0:
312,34,16647,2,0,L|308:-11,2,33.3333333333333,0|0|0,0:0|0:0|0:0,0:0:0:0:
314,52,16843,6,0,P|241:61|166:94,1,150,4|0,0:3|0:0,0:0:0:0:
113,148,17234,1,0,1:0:0:0:
285,262,17429,1,0,0:0:0:0:
100,353,17624,6,0,P|28:348|-21:335,1,100,4|0,0:3|0:0,0:0:0:0:
61,267,17918,2,0,P|159:254|215:231,1,150,0|0,0:0|0:0,0:0:0:0:
17,119,18406,2,0,P|63:136|112:147,1,100,0|0,0:0|3:0,0:0:0:0:
112,147,18699,1,0,0:0:0:0:
112,147,18797,6,0,L|123:80,1,50,4|4,0:3|0:3,0:0:0:0:
225,134,18993,2,0,L|200:70,1,50,4|4,0:3|0:3,0:0:0:0:
315,66,19188,2,0,L|262:23,3,50,4|0|4|4,0:3|0:0|0:3|0:3,0:0:0:0:
288,25,19579,2,0,B|332:62|332:62|338:75|338:75|398:126,1,150,4|4,0:3|0:3,0:0:0:0:
462,185,19970,5,2,0:0:0:0:
497,158,20067,1,2,0:0:0:0:
397,241,20556,5,2,0:0:0:0:
430,213,20653,1,2,0:0:0:0:
457,304,21142,6,0,B|398:284|398:284|303:328,1,125,2|0,0:0|3:0,0:0:0:0:
203,365,21533,5,2,0:0:0:0:
230,353,21630,1,0,0:0:0:0:
248,330,21728,1,0,0:0:0:0:
253,301,21826,1,0,0:0:0:0:
243,273,21923,1,0,0:0:0:0:
220,254,22021,1,0,0:0:0:0:
191,248,22119,1,0,0:0:0:0:
163,258,22217,1,0,0:0:0:0:
143,280,22315,2,0,L|38:291,1,75.0000028610231,4|2,0:3|0:0,0:0:0:0:
68,287,22706,6,0,P|160:191|125:101,1,225.000008583069,0|0,1:0|0:0,0:0:0:0:
138,115,23097,6,0,P|207:134|287:136,1,110.000003356934,4|0,0:1|0:0,0:0:0:0:
419,65,23488,1,0,1:0:0:0:
296,14,23683,1,0,0:0:0:0:
368,188,23879,2,0,P|414:174|512:165,1,110.000003356934,4|0,0:3|0:0,0:0:0:0:
441,257,24172,1,0,0:0:0:0:
441,257,24269,1,0,1:0:0:0:
245,137,24465,6,0,P|199:123|101:114,1,110.000003356934,0|4,0:0|0:3,0:0:0:0:
288,318,24856,2,0,P|317:217|334:77,1,220.000006713867,0|0,0:0|0:0,0:0:0:0:
96,33,25442,5,4,0:3:0:0:
96,33,25540,2,0,P|68:57|50:80,1,55.0000016784668,0|0,0:0|0:0,0:0:0:0:
151,167,25735,2,0,P|143:130|132:103,1,55.0000016784668,0|0,0:0|1:0,0:0:0:0:
137,113,26028,6,0,P|128:224|96:336,1,220.000006713867,0|0,0:0|0:0,0:0:0:0:
33,204,26615,1,0,1:0:0:0:
137,113,26810,1,0,0:0:0:0:
220,283,27006,2,0,P|316:258|354:233,1,110.000003356934,4|0,0:3|0:0,0:0:0:0:
252,194,27299,1,0,0:0:0:0:
252,194,27396,1,0,1:0:0:0:
345,351,27592,6,0,P|388:317|423:275,1,110.000003356934,0|4,0:0|0:3,0:0:0:0:
445,191,27885,1,2,0:0:0:0:
438,158,27983,1,2,0:0:0:0:
432,125,28080,1,2,0:0:0:0:
423,93,28178,2,0,P|425:56|434:30,1,55.0000016784668,0|0,1:0|0:0,0:0:0:0:
508,78,28374,1,0,3:0:0:0:
338,229,28569,6,0,L|254:215,1,75.0000028610231,4|0,0:0|0:0,0:0:0:0:
239,245,28862,6,0,L|352:226,1,100,4|0,0:0|0:0,0:0:0:0:
423,275,29155,6,0,L|199:237,1,187.5,4|0,1:0|0:0,0:0:0:0:
155,260,29546,1,4,0:3:0:0:
318,346,29742,1,4,0:3:0:0:
155,260,29937,1,4,0:3:0:0:
311,161,30133,6,0,B|345:116|345:116|330:-2,1,119.999996337891,0|0,1:0|0:0,0:0:0:0:
417,21,30426,2,0,L|426:104,1,59.9999981689454,0|0,1:0|0:0,0:0:0:0:
319,177,30621,2,0,L|352:127,1,59.9999981689454,0|0,1:0|0:0,0:0:0:0:
240,86,30817,6,0,B|177:96|177:96|135:72|135:72|31:91,1,179.999994506836,4|0,0:0|0:0,0:0:0:0:
0,185,31208,2,0,L|118:162,1,119.999996337891,4|0,0:0|0:0,0:0:0:0:
59,262,31501,2,0,L|235:227,1,179.999994506836,4|0,0:0|0:0,0:0:0:0:
330,239,31892,6,0,P|317:311|328:332,1,59.9999981689454,2|0,3:2|3:3,0:0:0:0:
384,373,32087,2,0,P|452:348|465:328,1,59.9999981689454,0|0,1:3|0:3,0:0:0:0:
473,259,32282,2,0,P|417:211|393:210,1,59.9999981689454,0|0,1:0|0:3,0:0:0:0:
397,291,32478,5,4,0:0:0:0:
397,291,32576,2,0,L|369:156,1,119.999996337891,0|0,0:0|0:0,0:0:0:0:
437,110,32869,1,0,1:3:0:0:
405,142,32966,1,0,0:0:0:0:
367,161,33064,1,0,0:0:0:0:
321,162,33162,1,0,0:0:0:0:
280,145,33259,1,4,0:3:0:0:
333,17,33455,6,0,L|342:77,1,59.9999981689454,0|0,3:0|3:0,0:0:0:0:
280,145,33650,1,0,1:0:0:0:
251,110,33747,1,0,0:0:0:0:
214,89,33845,1,0,0:0:0:0:
168,84,33943,1,0,0:0:0:0:
131,103,34040,5,0,1:0:0:0:
127,116,34139,2,0,L|106:236,3,100,0|0|0|0,1:0|1:0|1:0|1:0,0:0:0:0:
289,248,35019,6,0,P|237:261|213:290,1,50,2|0,0:0|0:0,0:0:0:0:
242,259,35214,6,0,P|282:194|436:215,1,225.000008583069,0|0,1:0|0:0,0:0:0:0:
418,196,35605,6,0,P|492:181|539:160,1,100,4|0,0:3|0:0,0:0:0:0:
443,106,35898,1,0,0:0:0:0:
443,106,35995,1,0,1:0:0:0:
346,266,36191,2,0,P|393:282|442:289,1,100,0|4,0:0|0:3,0:0:0:0:
355,73,36582,1,0,0:0:0:0:
271,185,36778,2,0,L|278:245,2,33.3333333333333,0|0|0,1:0|0:0|0:0,0:0:0:0:
269,169,36973,1,0,0:0:0:0:
163,94,37168,6,0,P|97:105|43:134,1,100,4|0,0:3|0:0,0:0:0:0:
14,189,37462,1,0,0:0:0:0:
14,189,37559,1,0,1:0:0:0:
178,269,37755,2,0,P|131:250|82:244,1,100,0|4,0:0|0:3,0:0:0:0:
11,363,38146,2,0,P|57:344|106:338,1,100,0|0,0:0|1:0,0:0:0:0:
256,360,38536,2,0,L|320:368,1,50,0|0,0:0|0:0,0:0:0:0:
396,349,38732,6,0,P|413:295|417:231,1,100,4|0,0:3|0:0,0:0:0:0:
417,252,39025,1,0,0:0:0:0:
417,252,39123,2,0,P|400:198|396:134,1,100,0|0,1:0|0:0,0:0:0:0:
474,115,39416,1,0,0:0:0:0:
474,115,39514,2,0,P|362:104|305:83,1,150,4|0,0:3|0:0,0:0:0:0:
294,14,39905,6,0,P|318:8|343:7,1,50,2|0,1:2|0:0,0:0:0:0:
247,85,40100,1,0,0:0:0:0:
222,67,40198,1,0,0:0:0:0:
208,39,40295,1,4,0:3:0:0:
194,197,40491,1,0,0:0:0:0:
91,77,40686,1,0,1:0:0:0:
91,77,40784,2,0,P|77:136|79:181,1,100,2|0,0:0|0:0,0:0:0:0:
31,247,41077,5,4,0:3:0:0:
31,247,41175,2,0,P|13:229|-1:208,2,50,0|0|0,0:0|0:0|0:0,0:0:0:0:
53,333,41468,1,0,1:0:0:0:
53,333,41566,2,0,P|132:367|172:372,1,100,0|0,0:0|0:0,0:0:0:0:
223,330,41859,6,0,P|267:306|315:293,1,100,4|0,0:3|0:0,0:0:0:0:
401,237,42152,1,0,0:0:0:0:
401,237,42250,2,0,P|356:213|308:200,1,100,0|0,1:0|0:0,0:0:0:0:
148,268,42641,6,0,B|124:223|124:223|133:161,1,100,4|0,0:0|0:0,0:0:0:0:
149,80,42934,1,4,0:0:0:0:
149,80,43032,2,0,L|63:96,1,50,0|0,1:0|0:0,0:0:0:0:
15,105,43227,1,4,0:0:0:0:
234,63,43422,5,4,0:3:0:0:
131,174,43618,1,0,0:0:0:0:
122,213,43715,1,0,0:0:0:0:
130,252,43813,1,0,1:0:0:0:
152,285,43911,1,0,0:0:0:0:
185,307,44008,1,0,0:0:0:0:
224,314,44106,1,0,0:0:0:0:
262,303,44204,6,0,B|291:264|291:264|283:176,1,100,4|0,0:0|0:0,0:0:0:0:
368,176,44497,1,4,0:0:0:0:
368,176,44595,2,0,L|375:254,1,50,0|0,1:0|0:0,0:0:0:0:
381,312,44791,1,4,0:0:0:0:
361,88,44986,5,4,0:3:0:0:
286,212,45181,1,4,0:3:0:0:
247,205,45279,1,0,3:0:0:0:
214,183,45376,1,4,1:3:0:0:
192,150,45474,1,0,3:0:0:0:
184,111,45572,1,4,0:3:0:0:
193,72,45669,1,0,3:0:0:0:
217,40,45768,6,0,B|173:8|173:8|72:26,1,110.000003356934,4|0,0:0|0:0,0:0:0:0:
33,58,46061,2,0,B|1:101|1:101|10:156,1,110.000003356934,4|0,0:0|0:0,0:0:0:0:
79,213,46354,2,0,L|67:283,1,55.0000016784668,4|0,0:0|0:0,0:0:0:0:
51,351,46550,5,2,0:0:0:0:
10,341,46647,1,2,0:0:0:0:
137,373,47136,5,2,0:0:0:0:
92,362,47234,1,2,0:0:0:0:
250,291,47527,5,0,0:0:0:0:
250,291,47624,1,0,0:0:0:0:
297,315,47722,5,2,0:0:0:0:
344,338,47820,2,0,P|393:331|443:313,1,100,2|0,0:0|0:0,0:0:0:0:
511,269,48113,5,2,0:3:0:0:
256,192,48162,12,2,49677,0:0:0:0:
256,192,49725,12,2,50458,0:0:0:0:
179,36,50849,6,0,P|323:24|419:131,1,300,0|0,1:0|0:0,0:0:0:0:
419,132,51240,6,0,P|352:137|286:158,1,129.999994049073,4|0,1:0|0:0,0:0:0:0:
217,207,51533,1,0,0:0:0:0:
217,207,51631,1,0,1:0:0:0:
385,269,51826,1,0,0:0:0:0:
251,380,52022,2,0,P|188:361|124:356,1,129.999994049073,4|0,0:3|0:0,0:0:0:0:
35,378,52315,1,0,0:0:0:0:
35,378,52413,1,0,1:0:0:0:
217,207,52608,6,0,P|152:222|95:249,1,129.999994049073,0|4,0:0|0:3,0:0:0:0:
108,73,52999,2,0,P|60:118|23:170,2,129.999994049073,0|0|0,0:0|1:0|0:0,0:0:0:0:
276,42,53585,5,4,0:3:0:0:
276,42,53683,2,0,P|221:60|191:91,1,64.9999970245363,0|0,0:0|0:0,0:0:0:0:
356,93,53879,2,0,P|366:36|355:-4,1,64.9999970245363,0|0,0:0|1:0,0:0:0:0:
365,29,54172,6,0,P|393:129|477:264,1,259.999988098145,0|0,0:0|0:0,0:0:0:0:
314,176,54758,1,0,1:0:0:0:
239,338,54953,1,0,0:0:0:0:
473,264,55149,2,0,P|497:164|491:117,1,129.999994049073,4|0,0:3|0:0,0:0:0:0:
463,55,55442,1,0,0:0:0:0:
463,55,55540,1,0,1:0:0:0:
285,93,55735,6,0,P|220:91|158:70,1,129.999994049073,0|4,0:0|0:3,0:0:0:0:
92,20,56028,1,2,0:0:0:0:
56,37,56126,1,2,0:0:0:0:
34,69,56224,1,2,0:0:0:0:
25,107,56322,2,0,P|61:114|105:145,1,64.9999970245363,0|0,1:0|0:0,0:0:0:0:
147,191,56517,2,0,P|158:225|154:279,1,64.9999970245363,0|0,3:0|3:0,0:0:0:0:
136,345,56712,6,0,L|281:319,1,100,4|0,0:0|0:0,0:0:0:0:
264,368,57006,6,0,L|136:345,1,129.999994049073,4|0,0:0|0:0,0:0:0:0:
12,367,57299,6,0,L|278:319,1,225.000008583069,4|0,1:0|0:0,0:0:0:0:
326,309,57690,1,4,0:3:0:0:
127,191,57885,1,4,0:3:0:0:
328,77,58080,1,4,0:3:0:0:
127,191,58276,6,0,B|85:133|85:133|94:37,1,139.999995727539,4|0,0:0|0:0,0:0:0:0:
173,108,58569,2,0,L|241:94,1,69.9999978637696,0|0,1:0|0:0,0:0:0:0:
396,63,58765,2,0,L|328:77,1,69.9999978637696,0|0,1:0|0:0,0:0:0:0:
269,179,58960,6,0,B|337:164|337:164|387:194|387:194|502:172,1,209.999993591309,4|2,1:2|0:0,0:0:0:0:
319,254,59351,2,0,L|130:293,1,139.999995727539,4|0,1:2|0:0,0:0:0:0:
372,331,59644,2,0,L|166:373,1,209.999993591309,4|0,1:2|0:0,0:0:0:0:
80,351,60035,6,0,P|52:271|59:247,1,69.9999978637696,2|0,3:2|3:0,0:0:0:0:
0,222,60230,2,0,P|29:142|50:128,1,69.9999978637696,0|0,1:0|0:0,0:0:0:0:
21,71,60426,2,0,P|94:29|119:32,1,69.9999978637696,0|0,1:0|0:0,0:0:0:0:
154,82,60621,5,4,0:3:0:0:
154,82,60719,2,0,B|211:119|211:119|300:97,1,139.999995727539,0|0,0:0|0:0,0:0:0:0:
372,40,61012,1,0,1:0:0:0:
326,65,61109,1,0,0:0:0:0:
297,108,61207,1,0,0:0:0:0:
290,159,61305,1,0,0:0:0:0:
307,209,61402,1,4,0:3:0:0:
441,118,61598,6,0,P|367:154|355:178,1,69.9999978637696,0|0,3:0|3:0,0:0:0:0:
307,209,61794,1,0,1:0:0:0:
308,261,61891,1,0,0:0:0:0:
285,307,61989,1,0,0:0:0:0:
244,339,62087,1,0,0:0:0:0:
193,349,62184,5,0,1:0:0:0:
179,348,62282,2,0,L|27:333,3,110.000003356934,0|0|0|0,1:0|1:0|1:0|1:0,0:0:0:0:
125,127,63162,6,0,P|105:195|115:222,1,55.0000016784668,2|0,0:0|0:0,0:0:0:0:
104,176,63357,6,0,P|166:90|366:130,1,300,0|0,1:0|0:0,0:0:0:0:
343,104,63748,6,0,P|430:94|485:73,1,129.999994049073,4|0,1:0|0:0,0:0:0:0:
388,14,64041,1,0,0:0:0:0:
388,14,64139,1,0,1:0:0:0:
441,243,64335,1,0,0:0:0:0:
343,104,64530,2,0,P|281:84|216:79,1,129.999994049073,4|0,0:3|0:0,0:0:0:0:
130,101,64823,1,0,0:0:0:0:
130,101,64921,1,0,1:0:0:0:
301,296,65116,6,0,P|287:232|259:173,1,129.999994049073,0|4,0:0|0:3,0:0:0:0:
115,360,65507,2,0,P|163:316|200:262,2,129.999994049073,0|0|0,0:0|1:0|0:0,0:0:0:0:
0,161,66093,5,4,0:3:0:0:
0,161,66191,2,0,P|32:159|66:167,1,64.9999970245363,0|0,0:0|0:0,0:0:0:0:
54,310,66387,2,0,P|36:282|26:249,1,64.9999970245363,0|0,0:0|1:0,0:0:0:0:
27,251,66680,6,0,P|165:299|325:288,1,259.999988098145,0|0,0:0|0:0,0:0:0:0:
204,11,67266,1,0,1:0:0:0:
172,178,67462,1,0,0:0:0:0:
461,99,67657,2,0,P|377:102|324:117,1,129.999994049073,4|0,0:3|0:0,0:0:0:0:
268,185,67950,1,0,0:0:0:0:
268,185,68048,1,0,1:0:0:0:
476,256,68243,6,0,P|402:217|348:203,1,129.999994049073,0|4,0:0|0:3,0:0:0:0:
294,363,68634,1,0,0:0:0:0:
329,380,68732,1,0,0:0:0:0:
371,378,68830,2,0,P|326:307|286:269,1,129.999994049073,0|0,1:0|3:0,0:0:0:0:
276,115,69221,6,0,P|252:198|178:153,1,200,4|0,0:0|0:0,0:0:0:0:
106,73,69514,6,0,P|189:96|144:170,1,160,4|0,0:0|0:0,0:0:0:0:
5,112,69807,6,0,P|29:24|106:71,1,209.999993591309,4|0,1:0|0:0,0:0:0:0:
81,170,70198,6,0,P|61:258|71:281,1,69.9999978637696,4|0,0:3|0:0,0:0:0:0:
137,276,70393,2,0,P|203:337|228:340,1,69.9999978637696,4|0,0:3|0:0,0:0:0:0:
256,280,70589,2,0,P|342:253|357:233,1,69.9999978637696,4|0,0:3|0:0,0:0:0:0:
376,341,70784,6,0,B|358:273|358:273|410:218,1,139.999995727539,4|0,0:0|0:0,0:0:0:0:
494,171,71077,2,0,L|416:114,1,69.9999978637696,0|0,1:0|0:0,0:0:0:0:
407,40,71273,2,0,L|350:81,1,69.9999978637696,0|0,1:0|0:0,0:0:0:0:
231,149,71468,6,0,B|152:135|152:135|123:89|123:89|18:71,1,209.999993591309,4|2,1:2|0:0,0:0:0:0:
212,58,71859,2,0,L|350:80,1,139.999995727539,4|0,1:2|0:0,0:0:0:0:
231,149,72152,2,0,L|477:189,1,209.999993591309,4|0,1:2|0:0,0:0:0:0:
479,266,72543,6,0,P|395:289|373:314,1,69.9999978637696,2|0,3:2|3:0,0:0:0:0:
345,334,72738,2,0,P|262:303|237:266,1,69.9999978637696,0|0,1:0|0:0,0:0:0:0:
200,281,72934,2,0,P|120:327|106:361,1,69.9999978637696,0|0,1:0|0:0,0:0:0:0:
56,371,73129,5,4,0:3:0:0:
56,371,73227,2,0,L|44:206,1,139.999995727539,0|0,0:0|0:0,0:0:0:0:
39,111,73520,1,0,1:0:0:0:
75,148,73617,1,0,0:0:0:0:
122,170,73715,1,0,0:0:0:0:
174,171,73813,1,0,0:0:0:0:
223,153,73910,1,4,0:3:0:0:
155,12,74107,6,0,L|146:100,1,69.9999978637696,0|0,3:0|3:0,0:0:0:0:
223,153,74302,1,0,1:0:0:0:
272,135,74399,1,0,0:0:0:0:
324,136,74497,1,0,0:0:0:0:
371,158,74595,1,0,0:0:0:0:
407,195,74693,5,0,1:0:0:0:
406,209,74791,2,0,L|392:354,3,110.000003356934,0|0|0|0,1:0|1:0|1:0|1:0,0:0:0:0:
394,336,75475,6,0,P|336:321|311:333,1,50,2|0,0:0|0:0,0:0:0:0:
276,276,75670,2,0,P|251:279|230:292,1,50,0|0,0:0|0:0,0:0:0:0:
160,357,75865,6,0,P|201:271|67:136,1,300,0|0,1:0|0:0,0:0:0:0:
80,136,76256,6,0,P|186:118|241:94,1,150.000005722046,4|0,0:3|0:0,0:0:0:0:
296,47,76550,1,0,0:0:0:0:
296,47,76647,1,0,1:0:0:0:
256,264,76843,2,0,P|246:181|258:151,1,75.0000028610231,0|0,0:0|0:0,0:0:0:0:
310,132,77038,2,0,P|384:140|454:165,1,150.000005722046,4|0,0:3|0:0,0:0:0:0:
512,236,77331,1,0,0:0:0:0:
512,236,77429,1,0,1:0:0:0:
244,191,77624,6,0,P|273:259|287:333,1,150.000005722046,0|4,0:0|0:3,0:0:0:0:
159,172,78015,2,0,P|114:232|57:280,2,150.000005722046,0|0|0,0:0|1:0|0:0,0:0:0:0:
7,63,78602,5,4,0:3:0:0:
7,63,78699,2,0,P|75:79|117:71,1,75.0000028610231,0|0,0:0|0:0,0:0:0:0:
227,11,78895,2,0,P|189:13|154:26,1,75.0000028610231,0|0,0:0|1:0,0:0:0:0:
154,26,79188,6,0,P|313:45|459:116,1,300.000011444092,0|0,0:0|0:0,0:0:0:0:
406,325,79774,1,0,1:0:0:0:
230,185,79970,1,0,0:0:0:0:
439,102,80165,2,0,P|459:181|452:273,1,150.000005722046,4|0,0:3|0:0,0:0:0:0:
410,329,80458,1,0,0:0:0:0:
410,329,80556,1,0,1:0:0:0:
263,69,80751,6,0,P|319:127|359:210,1,150.000005722046,0|4,0:0|0:3,0:0:0:0:
334,274,81045,1,2,0:0:0:0:
293,293,81142,1,2,0:0:0:0:
248,289,81240,1,2,0:0:0:0:
207,268,81338,2,0,P|208:231|234:176,1,75.0000028610231,0|0,1:0|0:0,0:0:0:0:
91,204,81533,2,0,P|110:172|160:137,1,75.0000028610231,0|0,3:3|3:3,0:0:0:0:
174,46,81729,6,0,L|45:33,1,119.999996337891,4|0,0:0|0:0,0:0:0:0:
26,65,82022,6,0,L|174:45,1,150.000005722046,4|0,0:0|0:0,0:0:0:0:
323,61,82315,6,0,L|-5:27,1,269.999991760254,4|0,1:0|0:0,0:0:0:0:
15,155,82706,6,0,P|42:183|78:201,1,80,4|0,0:3|0:0,0:0:0:0:
144,265,82901,2,0,P|177:243|215:234,1,80,4|0,0:3|0:0,0:0:0:0:
301,192,83097,2,0,P|310:230|332:263,1,80,4|0,0:3|0:0,0:0:0:0:
450,321,83292,6,0,B|505:265|505:265|490:144,1,160,4|0,0:0|0:0,0:0:0:0:
438,117,83585,2,0,L|341:128,1,80,0|0,1:0|0:0,0:0:0:0:
303,28,83781,2,0,L|400:39,1,80,0|0,1:0|0:0,0:0:0:0:
415,231,83976,6,0,B|337:239|337:239|265:198|265:198|171:208,1,240,4|2,0:0|0:0,0:0:0:0:
276,114,84367,2,0,L|78:137,1,160,4|0,1:2|0:0,0:0:0:0:
303,28,84660,2,0,L|49:57,1,240,4|0,1:2|0:0,0:0:0:0:
33,142,85051,6,0,P|90:213|114:218,1,80,2|0,3:2|3:0,0:0:0:0:
93,294,85247,2,0,P|184:295|203:280,1,80,0|0,1:0|0:0,0:0:0:0:
248,345,85442,2,0,P|308:276|308:252,1,80,0|0,1:0|0:0,0:0:0:0:
336,215,85637,5,4,0:3:0:0:
336,215,85735,2,0,L|353:390,1,160,0|0,0:0|0:0,0:0:0:0:
436,210,86028,1,0,1:0:0:0:
413,155,86125,1,0,0:0:0:0:
365,120,86223,1,0,0:0:0:0:
306,116,86321,1,0,0:0:0:0:
253,143,86418,1,4,0:3:0:0:
447,74,86615,6,0,P|356:32|317:37,1,80,0|0,3:0|3:0,0:0:0:0:
253,143,86810,1,0,1:0:0:0:
200,170,86907,1,0,0:0:0:0:
141,166,87005,1,0,0:0:0:0:
93,131,87103,1,0,0:0:0:0:
71,77,87201,5,0,1:0:0:0:
75,62,87299,2,0,L|212:46,3,110.000003356934,0|0|0|0,1:0|1:0|1:0|1:0,0:0:0:0:
19,219,88178,6,0,P|28:193|46:172,1,55.0000016784668,2|0,0:0|0:0,0:0:0:0:
47,172,88374,6,0,P|35:269|223:278,1,300,0|0,1:0|0:0,0:0:0:0:
199,308,88765,6,0,L|292:321,5,53.3333333333333,4|0|0|2|0|0,1:0|0:0|0:0|0:0|0:0|0:0,0:0:0:0:
225,271,89155,2,0,L|316:251,5,53.3333333333333,0|0|0|2|0|0,1:0|0:0|0:0|0:0|0:0|0:0,0:0:0:0:
240,229,89546,2,0,L|319:179,5,53.3333333333333,4|0|0|2|0|0,0:3|0:0|0:0|0:0|0:0|0:0,0:0:0:0:
236,183,89937,2,0,L|293:108,5,53.3333333333333,0|0|0|2|0|0,1:0|0:0|0:0|0:0|0:0|0:0,0:0:0:0:
210,142,90328,6,0,P|130:130|35:80,1,160,4|2,0:3|0:0,0:0:0:0:
36,72,90621,1,0,0:0:0:0:
52,45,90719,1,0,1:0:0:0:
84,51,90816,1,2,0:0:0:0:
86,83,90914,1,2,0:0:0:0:
92,227,91110,5,4,0:3:0:0:
92,227,91208,2,0,P|181:265|217:264,1,80,0|0,0:0|0:0,0:0:0:0:
234,133,91403,2,0,P|156:191|138:222,1,80,0|0,0:0|1:0,0:0:0:0:
168,176,91696,6,0,P|301:131|496:138,1,320,0|0,0:0|0:0,0:0:0:0:
332,226,92282,1,0,1:0:0:0:
303,36,92478,1,0,0:0:0:0:
332,226,92673,2,0,P|326:309|303:395,1,160,4|0,0:3|0:0,0:0:0:0:
239,290,92966,1,0,0:0:0:0:
239,290,93064,1,0,1:0:0:0:
383,124,93260,6,0,P|451:170|514:233,1,160,0|4,0:0|0:3,0:0:0:0:
268,133,93650,1,0,0:0:0:0:
262,85,93748,1,0,0:0:0:0:
283,40,93846,2,0,P|360:20|440:15,1,160,0|0,1:0|3:3,0:0:0:0:
94,263,94237,6,0,P|58:204|150:194,1,139.999995727539,4|0,0:0|0:0,0:0:0:0:
196,207,94530,6,0,P|134:244|123:148,1,179.999994506836,4|0,0:0|0:0,0:0:0:0:
268,133,94823,6,0,P|330:234|195:201,1,330.000010070801,4|0,1:0|0:0,0:0:0:0:
274,44,95214,6,0,P|232:51|198:75,1,85.0000016212464,4|0,0:3|0:0,0:0:0:0:
130,30,95409,2,0,P|102:62|91:102,1,85.0000016212464,4|0,0:3|0:0,0:0:0:0:
7,112,95605,2,0,P|6:154|24:192,1,85.0000016212464,4|0,0:3|0:0,0:0:0:0:
77,296,95800,6,0,B|111:218|111:218|267:195,1,170.000003242493,4|0,0:0|0:0,0:0:0:0:
261,312,96093,2,0,L|177:296,1,85.0000016212464,0|0,1:0|0:0,0:0:0:0:
414,249,96289,2,0,L|330:264,1,85.0000016212464,0|0,1:0|0:0,0:0:0:0:
491,318,96484,6,0,B|505:229|505:229|463:168|463:168|480:39,1,255.000004863739,4|2,0:0|0:0,0:0:0:0:
398,0,96875,2,0,L|376:169,1,170.000003242493,4|0,1:2|0:0,0:0:0:0:
305,32,97168,2,0,L|266:330,1,255.000004863739,4|0,1:2|0:0,0:0:0:0:
217,356,97559,6,0,P|185:279|197:242,1,85.0000016212464,2|0,3:2|3:0,0:0:0:0:
101,257,97755,2,0,P|111:174|140:148,1,85.0000016212464,0|0,1:0|0:0,0:0:0:0:
50,113,97950,2,0,P|100:46|138:38,1,85.0000016212464,0|0,1:0|0:0,0:0:0:0:
189,85,98146,5,4,0:3:0:0:
189,85,98243,2,0,L|390:105,1,170.000003242493,0|0,0:0|0:0,0:0:0:0:
495,106,98536,1,0,1:0:0:0:
433,92,98633,1,0,0:0:0:0:
373,112,98731,1,0,0:0:0:0:
332,160,98829,1,0,0:0:0:0:
322,222,98926,1,4,0:3:0:0:
189,85,99123,6,0,L|285:94,1,85.0000016212464,0|0,3:0|3:0,0:0:0:0:
322,222,99318,1,0,1:0:0:0:
312,284,99415,1,0,0:0:0:0:
271,332,99513,1,0,0:0:0:0:
211,352,99611,1,0,0:0:0:0:
149,338,99708,5,0,1:0:0:0:
147,323,99807,2,0,L|138:197,3,110.000003356934,0|0|0|0,1:0|1:0|1:0|1:0,0:0:0:0:
303,44,100686,6,0,P|239:86|228:108,1,55.0000016784668,2|0,0:0|0:0,0:0:0:0:
254,68,100882,6,0,P|391:61|494:276,1,375,0|0,1:0|0:0,0:0:0:0:
501,248,101273,6,0,P|424:224|344:227,1,129.999994049073,4|0,0:3|0:0,0:0:0:0:
289,249,101566,1,0,0:0:0:0:
289,249,101663,1,0,1:0:0:0:
412,361,101859,1,0,0:0:0:0:
308,162,102054,2,0,P|243:166|182:187,1,129.999994049073,4|0,0:3|0:0,0:0:0:0:
118,248,102348,1,0,0:0:0:0:
118,248,102445,1,0,1:0:0:0:
368,252,102641,6,0,P|396:193|408:130,1,129.999994049073,0|4,0:0|0:3,0:0:0:0:
223,65,103032,2,0,P|258:118|307:161,2,129.999994049073,0|0|0,0:0|1:0|0:0,0:0:0:0:
450,53,103618,5,4,0:3:0:0:
450,53,103716,2,0,P|503:123|508:143,1,64.9999970245363,0|0,0:0|0:0,0:0:0:0:
389,191,103911,2,0,P|423:109|438:95,1,64.9999970245363,0|0,0:0|1:0,0:0:0:0:
408,129,104204,6,0,P|419:222|445:287,1,129.999994049073,0|4,0:0|0:3,0:0:0:0:
482,384,104595,1,0,0:0:0:0:
322,302,104791,1,0,1:0:0:0:
147,342,104986,1,0,3:3:0:0:
201,178,105181,6,0,L|210:88,2,64.9999970245363,4|0|0,0:0|0:0|0:0,0:0:0:0:
114,151,105475,2,0,L|123:61,2,64.9999970245363,4|0|0,0:0|0:0|0:0,0:0:0:0:
33,54,105768,2,0,L|20:183,1,129.999994049073,4|0,1:0|0:0,0:0:0:0:
52,271,106061,1,2,0:0:0:0:
86,290,106159,1,2,0:0:0:0:
124,294,106256,1,2,0:0:0:0:
162,285,106354,1,2,0:0:0:0:
201,284,106452,1,2,0:0:0:0:
238,294,106550,1,2,0:0:0:0:
269,316,106647,1,2,0:0:0:0:
294,345,106745,6,0,B|359:361|359:361|435:311,1,129.999994049073,4|0,0:0|0:0,0:0:0:0:
389,193,107038,2,0,B|324:177|324:177|248:227,1,129.999994049073,4|0,0:0|0:0,0:0:0:0:
342,271,107331,1,12,1:0:0:0:
256,192,107429,12,0,110458,0:0:0:0:
