osu file format v14

[General]
AudioFilename: audio.mp3
AudioLeadIn: 0
PreviewTime: 21289
Countdown: 1
SampleSet: Soft
StackLeniency: 0.7
Mode: 0
LetterboxInBreaks: 0
WidescreenStoryboard: 1

[Editor]
DistanceSpacing: 0.5
BeatDivisor: 4
GridSize: 32
TimelineZoom: 3

[Metadata]
Title:Zauberkugel
TitleUnicode:Zauberkugel
Artist:xi
ArtistUnicode:xi
Creator:pishifat
Version:Hard
Source:Cytus
Tags:magic bullet Agartha Progressive Jazz Electronic
BeatmapID:1296761
BeatmapSetID:554892

[Difficulty]
HPDrainRate:5
CircleSize:4
OverallDifficulty:6.5
ApproachRate:8
SliderMultiplier:0.999999999999999
SliderTickRate:1

[Events]
//Background and Video events
0,0,"bg6.jpg",0,0
//Break Periods
2,1408,4953
//Storyboard Layer 0 (Background)
//Storyboard Layer 1 (Fail)
//Storyboard Layer 2 (Pass)
//Storyboard Layer 3 (Foreground)
//Storyboard Sound Samples

[TimingPoints]
428,390.879478827362,4,2,0,60,1,0
818,-58.8235294117647,4,2,0,60,0,0
1112,-66.6666666666667,4,2,0,5,0,0
1208,390.879478827362,4,2,0,60,1,0
1208,-66.6666666666667,4,2,0,60,0,0
1501,-66.6666666666667,4,2,0,60,0,0
1794,-66.6666666666667,4,2,0,60,0,0
5507,-66.6666666666667,4,2,0,75,0,0
5605,-66.6666666666667,4,2,0,44,0,0
5996,-66.6666666666667,4,2,0,75,0,0
9123,-66.6666666666667,4,2,0,44,0,0
9514,-66.6666666666667,4,2,0,75,0,0
10589,-62.5,4,2,0,75,0,0
19579,-62.5,4,2,0,44,0,0
19774,-62.5,4,2,0,75,0,0
19872,-62.5,4,2,0,44,0,0
19970,-62.5,4,2,0,75,0,0
21142,-62.5,4,2,0,75,0,0
21338,-62.5,4,2,0,75,0,0
22706,-50,4,2,0,75,0,0
23097,-62.5,4,2,0,75,0,0
28569,-62.5,4,2,0,75,0,0
28862,-62.5,4,2,0,75,0,0
29155,-62.5,4,2,0,75,0,0
29546,-62.5,4,2,0,75,0,0
30133,-62.5,4,2,0,75,0,0
30817,-62.5,4,2,0,75,0,0
31208,-62.5,4,2,0,75,0,0
31892,-62.5,4,2,0,75,0,0
32478,-62.5,4,2,0,75,0,0
34139,-62.5,4,2,0,75,0,0
35214,-62.5,4,2,0,75,0,0
35605,-62.5,4,2,0,75,0,0
39905,-62.5,4,2,0,75,0,0
40100,-62.5,4,2,0,75,0,0
43422,-62.5,4,2,0,75,0,0
44986,-62.5,4,2,0,75,0,0
45768,-62.5,4,2,0,75,0,0
46550,-62.5,4,2,0,75,0,0
47818,-62.5,4,2,0,75,0,0
48111,-62.5,4,2,0,75,0,0
49577,-62.5,4,2,0,5,0,0
49675,-62.5,4,2,0,75,0,0
50359,-62.5,4,2,0,5,0,0
50457,-62.5,4,2,0,80,0,0
50750,-62.5,4,2,0,5,0,0
50848,-62.5,4,2,0,85,0,0
50994,-62.5,4,2,0,5,0,0
51043,-62.5,4,2,0,100,0,0
51092,-62.5,4,2,0,5,0,0
51141,-62.5,4,2,0,100,0,0
51190,-62.5,4,2,0,5,0,0
51240,-62.5,4,2,0,85,0,1
52020,-62.5,4,2,0,85,0,1
52607,-62.5,4,2,0,85,0,1
52802,-62.5,4,2,0,85,0,1
53584,-62.5,4,2,0,85,0,1
56711,-62.5,4,2,0,85,0,1
57004,-62.5,4,2,0,85,0,1
57297,-62.5,4,2,0,85,0,1
57688,-62.5,4,2,0,85,0,1
58274,-62.5,4,2,0,85,0,1
58470,-62.5,4,2,0,85,0,1
60033,-62.5,4,2,0,85,0,1
60229,-62.5,4,2,0,85,0,1
60620,-62.5,4,2,0,85,0,1
61597,-62.5,4,2,0,85,0,1
62185,-62.5,4,2,0,75,0,0
63356,-62.5,4,2,0,75,0,0
63748,-62.5,4,2,0,85,0,1
64528,-62.5,4,2,0,85,0,1
64919,-62.5,4,2,0,85,0,1
65310,-62.5,4,2,0,85,0,1
66092,-62.5,4,2,0,85,0,1
69219,-62.5,4,2,0,85,0,1
69512,-62.5,4,2,0,85,0,1
69805,-62.5,4,2,0,85,0,1
70196,-62.5,4,2,0,85,0,1
70392,-62.5,4,2,0,85,0,1
70587,-62.5,4,2,0,85,0,1
70782,-62.5,4,2,0,85,0,1
71076,-62.5,4,2,0,85,0,1
71467,-62.5,4,2,0,85,0,1
72541,-62.5,4,2,0,85,0,1
73128,-62.5,4,2,0,85,0,1
74693,-62.5,4,2,0,75,0,0
75473,-62.5,4,2,0,75,0,0
75864,-62.5,4,2,0,75,0,0
76256,-58.8235294117647,4,2,0,90,0,1
77037,-58.8235294117647,4,2,0,90,0,1
77427,-58.8235294117647,4,2,0,90,0,1
77818,-58.8235294117647,4,2,0,90,0,1
78600,-58.8235294117647,4,2,0,90,0,1
81727,-58.8235294117647,4,2,0,90,0,1
82020,-58.8235294117647,4,2,0,90,0,1
82313,-58.8235294117647,4,2,0,90,0,1
82704,-58.8235294117647,4,2,0,90,0,1
83291,-58.8235294117647,4,2,0,90,0,1
83584,-58.8235294117647,4,2,0,90,0,1
83975,-58.8235294117647,4,2,0,90,0,1
85050,-58.8235294117647,4,2,0,90,0,1
85245,-58.8235294117647,4,2,0,90,0,1
85636,-58.8235294117647,4,2,0,90,0,1
87201,-58.8235294117647,4,2,0,75,0,0
88372,-58.8235294117647,4,2,0,75,0,0
88765,-58.8235294117647,4,2,0,90,0,1
91108,-58.8235294117647,4,2,0,90,0,1
91695,-58.8235294117647,4,2,0,90,0,1
93258,-58.8235294117647,4,2,0,90,0,1
94235,-58.8235294117647,4,2,0,90,0,1
94528,-58.8235294117647,4,2,0,90,0,1
94822,-58.8235294117647,4,2,0,90,0,1
95212,-58.8235294117647,4,2,0,90,0,1
95408,-58.8235294117647,4,2,0,90,0,1
95603,-58.8235294117647,4,2,0,90,0,1
95799,-58.8235294117647,4,2,0,90,0,1
97558,-58.8235294117647,4,2,0,90,0,1
97755,-58.8235294117647,4,2,0,90,0,1
98144,-58.8235294117647,4,2,0,90,0,1
99709,-58.8235294117647,4,2,0,75,0,0
101273,-62.5,4,2,0,75,0,0
102053,-62.5,4,2,0,75,0,0
102444,-62.5,4,2,0,75,0,0
102835,-62.5,4,2,0,75,0,0
105180,-62.5,4,2,0,75,0,0
105473,-62.5,4,2,0,75,0,0
105766,-62.5,4,2,0,75,0,0
106157,-62.5,4,2,0,75,0,0
106743,-62.5,4,2,0,75,0,0
107037,-62.5,4,2,0,75,0,0
107330,-62.5,4,2,0,75,0,0

[Colours]
Combo1 : 98,221,62
Combo2 : 255,152,13
Combo3 : 183,239,52
Combo4 : 242,255,85

[HitObjects]
99,135,818,6,0,P|166:131|239:113,1,127.500002431869,8|0,1:0|0:0,0:0:0:0:
224,117,1208,1,4,0:3:0:0:
99,135,5703,6,0,L|94:175,3,25.0000009536743,4|4|4|4,0:3|0:3|0:3|0:3,0:0:0:0:
87,245,6680,5,4,0:3:0:0:
78,328,7071,1,4,0:3:0:0:
87,245,7852,5,4,0:3:0:0:
85,335,8048,1,4,0:3:0:0:
85,335,8146,1,4,0:3:0:0:
85,335,8243,1,4,0:3:0:0:
87,245,9025,5,4,0:3:0:0:
96,159,9221,2,0,L|100:135,3,25.0000009536743,4|4|4|4,0:3|0:3|0:3|0:3,0:0:0:0:
194,139,9611,2,0,L|175:97,2,37.5000014305115,0|0|0,1:0|1:0|1:0,0:0:0:0:
270,80,10002,2,0,L|235:51,2,37.5000014305115,0|0|0,1:0|1:0|3:0,0:0:0:0:
320,8,10393,1,0,3:0:0:0:
320,8,10491,1,0,3:0:0:0:
320,8,10589,6,0,P|389:15|474:60,1,160,4|0,0:0|1:0,0:0:0:0:
512,137,11175,1,0,0:0:0:0:
405,208,11370,2,0,P|407:160|441:120,1,79.9999999999999,4|0,0:3|0:0,0:0:0:0:
466,276,11761,2,0,P|423:297|371:288,1,79.9999999999999,0|0,1:0|0:0,0:0:0:0:
392,296,12054,1,0,0:0:0:0:
392,296,12152,6,0,P|304:306|237:332,1,160,4|0,0:3|1:0,0:0:0:0:
161,384,12738,1,0,0:0:0:0:
134,254,12934,2,0,L|50:243,1,79.9999999999999,4|0,0:3|0:0,0:0:0:0:
0,352,13325,2,0,L|81:339,1,79.9999999999999,0|0,1:0|0:0,0:0:0:0:
134,254,13716,6,0,P|126:198|102:169,1,79.9999999999999,4|0,0:3|0:0,0:0:0:0:
89,78,14107,2,0,P|141:99|178:92,1,79.9999999999999,0|0,1:0|0:0,0:0:0:0:
163,97,14400,1,0,0:0:0:0:
163,97,14497,2,0,P|273:58|344:59,1,160,4|0,0:3|1:0,0:0:0:0:
406,95,15084,1,0,0:0:0:0:
406,95,15181,1,0,0:0:0:0:
406,95,15279,6,0,L|389:286,1,160,4|0,0:3|1:0,0:0:0:0:
384,348,15865,1,0,0:0:0:0:
462,310,16061,1,4,0:3:0:0:
312,292,16256,2,0,P|256:310|224:351,1,79.9999999999999,0|0,0:0|1:0,0:0:0:0:
384,348,16647,1,0,0:0:0:0:
391,254,16843,6,0,L|406:95,1,160,4|0,0:3|1:0,0:0:0:0:
314,29,17429,1,0,0:0:0:0:
299,139,17624,2,0,P|245:167|177:166,2,120,4|0|0,0:3|0:0|0:0,0:0:0:0:
221,85,18406,1,0,0:0:0:0:
128,99,18602,1,0,3:0:0:0:
128,99,18699,1,0,0:0:0:0:
128,99,18797,6,0,L|58:90,3,40,4|4|4|4,0:3|0:3|0:3|0:3,0:0:0:0:
55,120,19188,2,0,L|-15:111,3,40,4|0|4|4,0:3|0:0|0:3|0:3,0:0:0:0:
1,152,19579,2,0,P|77:176|117:235,1,120,4|4,0:3|0:3,0:0:0:0:
102,204,19970,6,0,L|95:273,1,40,2|2,0:0|0:0,0:0:0:0:
244,133,20556,6,0,L|251:202,1,40,2|2,0:0|0:0,0:0:0:0:
404,81,21142,6,0,L|392:195,1,79.9999999999999,2|0,0:0|3:0,0:0:0:0:
395,284,21533,6,0,P|368:251|338:243,3,40,2|0|0|0,0:0|0:0|0:0|0:0,0:0:0:0:
323,238,21924,2,0,P|279:244|253:264,3,40,0|0|0|0,0:0|0:0|0:0|0:0,0:0:0:0:
243,270,22315,1,4,0:3:0:0:
317,330,22510,1,2,0:0:0:0:
395,284,22706,6,0,P|328:237|241:275,1,150,0|0,1:0|0:0,0:0:0:0:
243,270,23097,6,0,P|168:254|143:226,1,79.9999999999999,4|0,0:1|0:0,0:0:0:0:
139,170,23488,1,0,1:0:0:0:
192,100,23683,1,0,0:0:0:0:
118,48,23879,2,0,L|281:64,1,160,4|0,0:3|1:0,0:0:0:0:
348,120,24465,6,0,L|507:104,1,160,0|0,0:0|0:0,0:0:0:0:
432,154,25051,2,0,P|410:186|414:263,1,79.9999999999999,0|0,1:0|0:0,0:0:0:0:
440,319,25442,1,4,0:3:0:0:
440,319,25540,2,0,L|327:308,1,79.9999999999999,0|0,0:0|0:0,0:0:0:0:
360,311,25833,1,0,1:0:0:0:
275,349,26028,6,0,P|189:333|100:280,1,160,0|0,0:0|0:0,0:0:0:0:
98,216,26615,1,0,1:0:0:0:
11,238,26810,1,0,0:0:0:0:
36,322,27006,2,0,P|47:265|30:135,1,160,4|0,0:3|1:0,0:0:0:0:
29,61,27592,6,0,P|72:76|138:69,1,79.9999999999999,0|4,0:0|0:3,0:0:0:0:
125,73,27885,1,2,0:0:0:0:
144,66,27983,1,2,0:0:0:0:
160,54,28080,1,2,0:0:0:0:
175,41,28178,2,0,L|184:127,1,79.9999999999999,0|0,1:0|3:0,0:0:0:0:
264,180,28569,6,0,B|305:135|305:135|394:146,1,120,4|4,0:0|0:0,0:0:0:0:
363,142,29155,6,0,P|334:218|348:319,1,160,4|4,1:0|0:3,0:0:0:0:
448,366,29742,1,4,0:3:0:0:
430,286,29937,1,4,0:3:0:0:
358,379,30133,2,0,P|312:376|265:341,1,79.9999999999999,0|0,1:0|0:0,0:0:0:0:
282,360,30426,1,0,1:0:0:0:
214,323,30621,1,0,1:0:0:0:
114,354,30817,6,0,P|138:293|131:214,1,120,4|0,0:0|0:0,0:0:0:0:
137,239,31208,2,0,L|116:122,1,79.9999999999999,4|0,0:0|0:0,0:0:0:0:
122,160,31501,2,0,P|142:93|232:49,1,160,4|2,0:0|3:2,0:0:0:0:
305,78,32087,1,0,1:3:0:0:
382,32,32282,1,0,1:0:0:0:
481,101,32478,6,0,L|472:213,1,79.9999999999999,4|0,0:0|0:0,0:0:0:0:
467,270,32869,2,0,L|475:321,3,40,0|0|0|0,1:3|0:0|0:0|0:0,0:0:0:0:
477,324,33260,1,4,0:3:0:0:
380,295,33455,1,0,3:0:0:0:
302,340,33650,2,0,L|251:331,3,40,0|0|0|0,1:0|0:0|0:0|0:0,0:0:0:0:
246,331,34041,5,0,1:0:0:0:
256,192,34139,12,0,35214,1:0:0:0:
190,83,35605,6,0,P|111:75|39:108,1,160,4|0,0:3|1:0,0:0:0:0:
127,163,36191,2,0,P|82:194|61:247,1,79.9999999999999,0|4,0:0|0:3,0:0:0:0:
88,308,36582,1,0,0:0:0:0:
162,360,36778,1,0,1:0:0:0:
254,353,36973,6,0,P|252:265|223:169,1,160,0|0,0:0|0:0,0:0:0:0:
205,115,37559,1,0,1:0:0:0:
293,130,37755,2,0,P|335:127|380:91,1,79.9999999999999,0|4,0:0|0:3,0:0:0:0:
473,68,38146,2,0,P|454:105|462:162,1,79.9999999999999,0|0,0:0|1:0,0:0:0:0:
502,220,38536,6,0,P|413:246|366:297,1,160,0|0,0:0|0:0,0:0:0:0:
368,293,39025,1,0,0:0:0:0:
368,293,39123,1,0,1:0:0:0:
306,218,39318,2,0,P|217:192|170:141,1,160,0|0,0:0|0:0,0:0:0:0:
140,34,39905,1,2,1:2:0:0:
66,117,40100,1,0,0:0:0:0:
66,117,40198,1,0,0:0:0:0:
66,117,40295,6,0,L|55:198,1,79.9999999999999,4|0,0:3|0:0,0:0:0:0:
137,257,40686,1,0,1:0:0:0:
137,257,40784,2,0,L|148:349,1,79.9999999999999,2|0,0:0|0:0,0:0:0:0:
146,336,41077,2,0,L|205:343,3,40,4|0|0|0,0:3|0:0|0:0|0:0,0:0:0:0:
208,345,41468,1,0,1:0:0:0:
208,345,41566,2,0,P|265:317|316:326,1,79.9999999999999,0|0,0:0|0:0,0:0:0:0:
299,319,41859,6,0,P|359:318|425:291,2,120,4|0|0,0:3|0:0|0:0,0:0:0:0:
340,230,42641,2,0,B|371:178|371:178|351:92,2,120,4|4|4,0:0|0:0|0:0,0:0:0:0:
279,161,43422,5,4,0:3:0:0:
197,200,43618,1,0,0:0:0:0:
197,200,43716,1,0,0:0:0:0:
197,200,43813,2,0,L|129:192,3,40,0|0|0|0,1:0|0:0|0:0|0:0,0:0:0:0:
141,196,44204,2,0,B|110:248|110:248|130:334,2,120,4|4|4,0:0|0:0|0:0,0:0:0:0:
191,120,44986,5,4,0:3:0:0:
136,48,45181,1,4,0:3:0:0:
136,48,45279,1,0,3:0:0:0:
136,48,45377,2,0,L|81:44,3,40,4|0|4|0,1:3|3:0|0:3|3:0,0:0:0:0:
79,46,45768,2,0,B|34:85|34:85|-49:75,2,120,4|4|4,0:0|0:0|0:0,0:0:0:0:
108,134,46550,6,0,L|100:197,1,40,2|2,0:0|0:0,0:0:0:0:
292,76,47136,6,0,L|300:139,1,40,2|2,0:0|0:0,0:0:0:0:
346,237,47527,2,0,L|338:300,1,40,0|0,0:0|0:0,0:0:0:0:
318,307,47722,6,0,L|326:370,1,40,2|2,0:0|0:0,0:0:0:0:
256,192,48113,5,2,0:3:0:0:
256,192,49677,5,2,0:0:0:0:
256,192,50458,5,2,0:0:0:0:
475,121,50849,5,0,1:0:0:0:
365,77,51045,1,0,1:0:0:0:
382,195,51240,6,0,P|308:269|229:265,1,160,4|0,1:0|1:0,0:0:0:0:
179,223,51826,1,0,0:0:0:0:
95,307,52022,2,0,L|83:165,1,120,4|0,0:3|0:0,0:0:0:0:
84,187,52413,1,0,1:0:0:0:
43,112,52608,6,0,P|118:72|215:80,1,160,0|0,0:0|0:0,0:0:0:0:
267,120,53194,2,0,P|332:109|361:84,1,79.9999999999999,0|0,1:0|0:0,0:0:0:0:
424,50,53585,1,4,0:3:0:0:
424,50,53683,2,0,L|436:153,1,79.9999999999999,0|0,0:0|0:0,0:0:0:0:
432,128,53976,1,0,1:0:0:0:
366,189,54172,6,0,P|461:171|515:236,1,160,0|0,0:0|0:0,0:0:0:0:
428,258,54758,1,0,1:0:0:0:
512,300,54953,1,0,0:0:0:0:
434,350,55149,2,0,L|303:330,1,120,4|0,0:3|0:0,0:0:0:0:
315,331,55540,1,0,1:0:0:0:
227,364,55735,6,0,L|116:377,1,79.9999999999999,0|4,0:0|0:3,0:0:0:0:
127,371,56028,1,2,0:0:0:0:
107,365,56126,1,2,0:0:0:0:
87,358,56224,1,2,0:0:0:0:
69,348,56322,2,0,P|51:285|63:256,1,79.9999999999999,0|0,1:0|3:0,0:0:0:0:
102,198,56712,6,0,B|162:191|162:191|220:117,1,120,4|4,0:0|0:0,0:0:0:0:
198,144,57299,6,0,P|274:128|354:182,1,160,4|4,1:0|0:3,0:0:0:0:
320,285,57885,1,4,0:3:0:0:
261,215,58080,1,4,0:3:0:0:
406,246,58276,2,0,L|420:356,1,79.9999999999999,4|0,0:0|0:0,0:0:0:0:
416,325,58569,1,0,1:0:0:0:
320,285,58765,1,0,1:0:0:0:
237,352,58960,6,0,P|167:337|96:296,1,120,4|2,1:2|0:0,0:0:0:0:
123,315,59351,2,0,L|116:222,1,79.9999999999999,4|0,1:2|0:0,0:0:0:0:
117,236,59644,2,0,P|91:168|29:107,1,160,4|2,1:2|3:2,0:0:0:0:
111,14,60230,2,0,P|130:78|158:105,1,79.9999999999999,0|0,1:0|1:0,0:0:0:0:
241,136,60621,6,0,P|322:99|381:114,1,120,4|0,0:3|0:0,0:0:0:0:
362,108,61012,2,0,L|412:116,3,40,0|0|0|0,1:0|0:0|0:0|0:0,0:0:0:0:
416,118,61403,1,4,0:3:0:0:
366,200,61598,1,0,3:0:0:0:
419,282,61794,2,0,L|468:272,3,40,0|0|0|0,1:0|0:0|0:0|0:0,0:0:0:0:
473,271,62185,5,0,1:0:0:0:
256,192,62282,12,0,63357,1:0:0:0:
180,250,63748,6,0,P|106:235|27:164,1,160,4|0,1:0|1:0,0:0:0:0:
82,102,64335,1,0,0:0:0:0:
49,25,64530,2,0,P|117:62|189:55,1,120,4|0,0:3|0:0,0:0:0:0:
158,63,64921,1,0,1:0:0:0:
243,20,65116,6,0,P|305:28|347:63,1,79.9999999999999,0|4,0:0|0:3,0:0:0:0:
262,103,65507,1,0,0:0:0:0:
311,178,65703,2,0,P|350:177|387:161,1,79.9999999999999,0|0,1:0|0:0,0:0:0:0:
480,126,66093,1,4,0:3:0:0:
480,126,66191,2,0,L|474:233,1,79.9999999999999,0|0,0:0|0:0,0:0:0:0:
475,205,66484,1,0,1:0:0:0:
465,332,66680,6,0,P|414:276|305:285,1,160,0|0,0:0|0:0,0:0:0:0:
250,194,67266,2,0,P|205:240|201:276,1,79.9999999999999,0|0,1:0|0:0,0:0:0:0:
81,281,67657,2,0,P|109:348|174:392,1,120,4|0,0:3|0:0,0:0:0:0:
143,378,68048,1,0,1:0:0:0:
201,253,68243,6,0,P|217:217|250:194,1,79.9999999999999,0|4,0:0|0:3,0:0:0:0:
308,115,68634,1,0,0:0:0:0:
308,115,68732,1,0,0:0:0:0:
308,115,68830,2,0,L|205:100,1,79.9999999999999,0|0,1:0|3:0,0:0:0:0:
132,33,69221,6,0,B|156:62|156:62|150:119,1,79.9999999999999,4|0,0:0|0:0,0:0:0:0:
151,104,69514,2,0,B|127:134|127:134|133:190,1,79.9999999999999,4|0,0:0|0:0,0:0:0:0:
131,175,69807,6,0,P|188:265|175:326,1,160,4|4,1:0|0:3,0:0:0:0:
266,384,70393,1,4,0:3:0:0:
287,281,70589,1,4,0:3:0:0:
367,351,70784,2,0,P|434:333|463:308,1,79.9999999999999,4|0,0:0|0:0,0:0:0:0:
441,327,71077,1,0,1:0:0:0:
476,232,71273,1,0,1:0:0:0:
368,198,71468,6,0,L|354:63,1,120,4|2,1:2|0:0,0:0:0:0:
355,78,71859,2,0,P|295:50|253:60,1,79.9999999999999,4|0,1:2|0:0,0:0:0:0:
283,50,72152,2,0,P|208:42|123:4,1,160,4|2,1:2|3:2,0:0:0:0:
40,73,72738,1,0,1:0:0:0:
141,121,72934,1,0,1:0:0:0:
194,208,73129,6,0,L|181:318,1,79.9999999999999,4|0,0:3|0:0,0:0:0:0:
99,338,73520,2,0,L|91:277,3,40,0|0|0|0,1:0|0:0|0:0|0:0,0:0:0:0:
92,282,73911,1,4,0:3:0:0:
13,231,74107,1,0,3:0:0:0:
60,151,74302,2,0,L|68:90,3,40,0|0|0|0,1:0|0:0|0:0|0:0,0:0:0:0:
67,95,74693,5,0,1:0:0:0:
256,192,74791,12,0,75865,1:0:0:0:
256,192,76256,6,0,P|197:215|82:220,1,170.000003242493,4|0,0:3|1:0,0:0:0:0:
17,174,76843,1,0,0:0:0:0:
17,174,76940,1,0,0:0:0:0:
17,174,77038,2,0,P|27:103|77:56,1,127.500002431869,4|0,0:3|0:0,0:0:0:0:
63,63,77429,1,0,1:0:0:0:
161,111,77624,6,0,L|363:86,1,170.000003242493,0|0,0:0|0:0,0:0:0:0:
441,80,78211,2,0,P|408:131|415:174,1,85.0000016212463,0|0,1:0|0:0,0:0:0:0:
477,231,78602,1,4,0:3:0:0:
477,231,78699,2,0,L|489:324,1,85.0000016212463,0|0,0:0|0:0,0:0:0:0:
487,315,78993,1,0,1:0:0:0:
375,288,79188,6,0,P|277:316|228:380,1,170.000003242493,0|0,0:0|0:0,0:0:0:0:
172,293,79774,2,0,P|118:283|73:256,1,85.0000016212463,0|0,1:0|0:0,0:0:0:0:
45,190,80165,2,0,P|79:109|85:60,1,127.500002431869,4|0,0:3|0:0,0:0:0:0:
84,70,80556,1,0,1:0:0:0:
175,167,80751,6,0,L|296:149,1,85.0000016212463,0|4,0:0|0:3,0:0:0:0:
275,140,81045,1,2,0:0:0:0:
291,126,81142,1,2,0:0:0:0:
307,112,81240,1,2,0:0:0:0:
320,99,81338,2,0,L|404:111,1,85.0000016212463,0|0,1:0|3:3,0:0:0:0:
485,68,81729,6,0,B|445:115|445:115|462:195,1,127.500002431869,4|4,0:0|0:0,0:0:0:0:
458,179,82315,6,0,P|430:272|368:291,1,170.000003242493,4|4,1:0|0:3,0:0:0:0:
263,237,82901,1,4,0:3:0:0:
213,339,83097,1,4,0:3:0:0:
108,300,83292,2,0,P|88:260|89:197,1,85.0000016212463,4|0,0:0|0:0,0:0:0:0:
84,220,83585,1,0,1:0:0:0:
163,154,83781,1,0,1:0:0:0:
92,88,83976,6,0,P|216:102|242:96,1,127.500002431869,4|2,0:0|0:0,0:0:0:0:
217,101,84367,2,0,L|313:82,1,85.0000016212463,4|0,1:2|0:0,0:0:0:0:
300,84,84660,2,0,P|381:102|431:174,1,170.000003242493,4|2,1:2|3:2,0:0:0:0:
511,238,85247,1,0,1:0:0:0:
445,312,85442,1,0,1:0:0:0:
378,244,85637,6,0,P|321:254|245:320,1,127.500002431869,4|0,0:3|0:0,0:0:0:0:
258,307,86028,2,0,L|254:369,3,42.5000008106231,0|0|0|0,1:0|0:0|0:0|0:0,0:0:0:0:
255,365,86419,1,4,0:3:0:0:
166,300,86615,1,0,3:0:0:0:
76,324,86810,2,0,L|80:386,3,42.5000008106231,0|0|0|0,1:0|0:0|0:0|0:0,0:0:0:0:
79,383,87201,5,0,1:0:0:0:
256,192,87299,12,0,88374,1:0:0:0:
12,145,88765,6,0,P|9:103|28:65,1,85.0000016212463,4|2,1:0|0:0,0:0:0:0:
92,117,89155,2,0,P|127:94|169:91,1,85.0000016212463,0|2,1:0|0:0,0:0:0:0:
155,174,89546,2,0,P|193:193|216:228,1,85.0000016212463,4|2,0:3|0:0,0:0:0:0:
134,256,89937,2,0,P|137:297|118:335,1,85.0000016212463,0|2,1:0|0:0,0:0:0:0:
52,280,90328,6,0,P|154:283|223:324,1,170.000003242493,4|0,0:3|1:0,0:0:0:0:
277,378,90914,1,2,0:0:0:0:
357,345,91110,1,4,0:3:0:0:
357,345,91208,2,0,L|364:246,1,85.0000016212463,0|0,0:0|0:0,0:0:0:0:
362,260,91501,1,0,1:0:0:0:
272,208,91696,6,0,P|234:127|236:104,1,85.0000016212463,0|4,0:0|0:3,0:0:0:0:
280,53,92087,1,0,0:0:0:0:
362,93,92282,2,0,P|427:79|454:58,1,85.0000016212463,0|0,1:0|0:0,0:0:0:0:
512,150,92673,2,0,P|417:195|388:230,1,127.500002431869,4|0,0:3|0:0,0:0:0:0:
402,209,93064,1,0,1:0:0:0:
306,183,93260,6,0,L|120:172,1,170.000003242493,0|0,0:0|0:0,0:0:0:0:
136,172,93748,1,0,0:0:0:0:
136,172,93846,1,0,1:0:0:0:
59,237,94041,1,0,3:3:0:0:
125,320,94237,6,0,B|161:295|161:295|228:305,1,85.0000016212463,4|0,0:0|0:0,0:0:0:0:
201,301,94530,2,0,B|237:326|237:326|277:319,1,85.0000016212463,4|0,0:0|0:0,0:0:0:0:
277,319,94823,6,0,P|334:266|446:275,1,170.000003242493,4|4,1:0|0:3,0:0:0:0:
349,173,95409,1,4,0:3:0:0:
460,152,95605,1,4,0:3:0:0:
384,70,95800,2,0,P|337:48|275:53,1,85.0000016212463,4|0,0:0|0:0,0:0:0:0:
304,46,96093,1,0,1:0:0:0:
203,107,96289,1,0,1:0:0:0:
89,93,96484,6,0,P|20:131|12:207,1,127.500002431869,4|2,0:0|0:0,0:0:0:0:
7,174,96875,2,0,L|19:285,1,85.0000016212463,4|0,1:2|0:0,0:0:0:0:
16,258,97168,2,0,P|102:264|157:342,1,170.000003242493,4|2,1:2|3:2,0:0:0:0:
244,261,97755,1,0,1:0:0:0:
304,349,97950,1,0,1:0:0:0:
396,291,98146,6,0,L|385:186,1,85.0000016212463,4|0,0:3|0:0,0:0:0:0:
375,85,98536,2,0,L|434:91,3,42.5000008106231,0|0|0|0,1:0|0:0|0:0|0:0,0:0:0:0:
431,92,98927,1,4,0:3:0:0:
408,0,99123,1,0,3:0:0:0:
293,33,99318,2,0,L|234:39,3,42.5000008106231,0|0|0|0,1:0|0:0|0:0|0:0,0:0:0:0:
237,40,99709,5,0,1:0:0:0:
256,192,99807,12,0,100882,1:0:0:0:
268,270,101273,6,0,P|343:254|368:226,1,79.9999999999999,4|0,0:3|0:0,0:0:0:0:
372,170,101664,1,0,1:0:0:0:
319,100,101859,1,0,0:0:0:0:
393,48,102055,2,0,L|230:64,1,160,4|0,0:3|1:0,0:0:0:0:
163,120,102641,6,0,L|4:104,1,160,0|0,0:0|0:0,0:0:0:0:
79,154,103227,2,0,P|101:186|97:263,1,79.9999999999999,0|0,1:0|0:0,0:0:0:0:
71,319,103618,1,4,0:3:0:0:
71,319,103716,2,0,L|184:308,1,79.9999999999999,0|0,0:0|0:0,0:0:0:0:
151,311,104009,1,0,1:0:0:0:
236,349,104204,6,0,L|345:360,1,79.9999999999999,0|4,0:0|0:3,0:0:0:0:
404,315,104595,1,0,0:0:0:0:
356,240,104791,1,0,1:0:0:0:
424,189,104986,1,0,3:3:0:0:
380,115,105182,2,0,B|317:105|317:105|279:59,1,120,4|4,0:0|0:0,0:0:0:0:
292,72,105768,6,0,P|230:74|163:124,1,120,4|2,1:0|0:0,0:0:0:0:
180,102,106159,1,2,0:0:0:0:
180,102,106256,1,2,0:0:0:0:
180,102,106354,2,0,L|190:191,1,79.9999999999999,2|2,0:0|0:0,0:0:0:0:
142,265,106745,6,0,B|101:220|101:220|12:231,1,120,4|4,0:0|0:0,0:0:0:0:
155,351,107331,1,12,1:0:0:0:
256,192,107429,12,0,110458,0:0:0:0:
