osu file format v14

[General]
AudioFilename: audio.mp3
AudioLeadIn: 0
PreviewTime: 21289
Countdown: 1
SampleSet: Soft
StackLeniency: 0.2
Mode: 0
LetterboxInBreaks: 0
WidescreenStoryboard: 0

[Editor]
DistanceSpacing: 0.5
BeatDivisor: 4
GridSize: 32
TimelineZoom: 3.799999

[Metadata]
Title:Zauberkugel
TitleUnicode:Zauberkugel
Artist:xi
ArtistUnicode:xi
Creator:pishifat
Version:Extra
Source:Cytus
Tags:magic bullet Agartha Progressive Jazz Electronic
BeatmapID:1174596
BeatmapSetID:554892

[Difficulty]
HPDrainRate:5
CircleSize:4.5
OverallDifficulty:8.5
ApproachRate:9.5
SliderMultiplier:2
SliderTickRate:1

[Events]
//Background and Video events
0,0,"bg6.jpg",0,0
//Break Periods
//Storyboard Layer 0 (Background)
//Storyboard Layer 1 (Fail)
//Storyboard Layer 2 (Pass)
//Storyboard Layer 3 (Foreground)
//Storyboard Sound Samples

[TimingPoints]
428,390.879478827362,4,2,0,60,1,0
818,-33.3333333333333,4,2,0,60,0,0
1112,-66.6666666666667,4,2,0,5,0,0
1208,390.879478827362,4,2,0,60,1,0
1208,-200,4,2,0,60,0,0
1501,-133.333333333333,4,2,0,60,0,0
1794,-200,4,2,0,60,0,0
5507,-133.333333333333,4,2,0,75,0,0
5605,-133.333333333333,4,2,0,44,0,0
5996,-133.333333333333,4,2,0,75,0,0
9123,-133.333333333333,4,2,0,44,0,0
9514,-133.333333333333,4,2,0,75,0,0
10589,-100,4,2,0,75,0,0
19579,-100,4,2,0,44,0,0
19774,-100,4,2,0,75,0,0
19872,-100,4,2,0,44,0,0
19970,-200,4,2,0,75,0,0
21338,-100,4,2,0,75,0,0
22706,-54.3478260869565,4,2,0,75,0,0
23097,-76.9230769230769,4,2,0,75,0,0
28569,-133.333333333333,4,2,0,75,0,0
28862,-89.2857142857143,4,2,0,75,0,0
29155,-66.6666666666667,4,2,0,75,0,0
29546,-76.9230769230769,4,2,0,75,0,0
30133,-58.8235294117647,4,2,0,75,0,0
30817,-76.9230769230769,4,2,0,75,0,0
31208,-66.6666666666667,4,2,0,75,0,0
31892,-58.8235294117647,4,2,0,75,0,0
32478,-76.9230769230769,4,2,0,75,0,0
35214,-39.5256916996047,4,2,0,75,0,0
35605,-83.3333333333333,4,2,0,75,0,0
39905,-83.3333333333333,4,2,0,75,0,0
40100,-83.3333333333333,4,2,0,75,0,0
43129,-83.3333333333333,4,2,0,75,0,0
43422,-74.0740740740741,4,2,0,75,0,0
44693,-74.0740740740741,4,2,0,75,0,0
44986,-66.6666666666667,4,2,0,75,0,0
46550,-200,4,2,0,75,0,0
47818,-133.333333333333,4,2,0,75,0,0
48111,-1000,4,2,0,75,0,0
49577,-1000,4,2,0,5,0,0
49675,-465.116279069767,4,2,0,75,0,0
50359,-465.116279069767,4,2,0,5,0,0
50457,-200,4,2,0,80,0,0
50750,-200,4,2,0,5,0,0
50848,-100,4,2,0,85,0,0
50994,-33.3333333333333,4,2,0,5,0,0
51043,-33.3333333333333,4,2,0,100,0,0
51092,-33.3333333333333,4,2,0,5,0,0
51141,-33.3333333333333,4,2,0,100,0,0
51190,-66.6666666666667,4,2,0,5,0,0
51240,-66.6666666666667,4,2,0,85,0,1
52020,-71.4285714285714,4,2,0,85,0,1
52607,-76.9230769230769,4,2,0,85,0,1
52802,-83.3333333333333,4,2,0,85,0,1
53584,-66.6666666666667,4,2,0,85,0,1
56711,-133.333333333333,4,2,0,85,0,1
57004,-66.6666666666667,4,2,0,85,0,1
57297,-44.4444444444445,4,2,0,85,0,1
57688,-66.6666666666667,4,2,0,85,0,1
58274,-43.4782608695652,4,2,0,85,0,1
58470,-50,4,2,0,85,0,1
60033,-33.3333333333333,4,2,0,85,0,1
60229,-40,4,2,0,85,0,1
60620,-58.8235294117647,4,2,0,85,0,1
61597,-50,4,2,0,85,0,1
62185,-50,4,2,0,75,0,0
63356,-42.9184549356223,4,2,0,75,0,0
63748,-66.6666666666667,4,2,0,85,0,1
64528,-71.4285714285714,4,2,0,85,0,1
64919,-76.9230769230769,4,2,0,85,0,1
65310,-83.3333333333333,4,2,0,85,0,1
66092,-66.6666666666667,4,2,0,85,0,1
69219,-33.3333333333333,4,2,0,85,0,1
69512,-36.3636363636364,4,2,0,85,0,1
69805,-44.4444444444445,4,2,0,85,0,1
70196,-53.1914893617021,4,2,0,85,0,1
70392,-57.1428571428571,4,2,0,85,0,1
70587,-66.6666666666667,4,2,0,85,0,1
70782,-33.3333333333333,4,2,0,85,0,1
71076,-40,4,2,0,85,0,1
71467,-50,4,2,0,85,0,1
72541,-33.3333333333333,4,2,0,85,0,1
73128,-58.8235294117647,4,2,0,85,0,1
74693,-58.8235294117647,4,2,0,75,0,0
75473,-133.333333333333,4,2,0,75,0,0
75864,-48.3091787439614,4,2,0,75,0,0
76256,-50,4,2,0,90,0,1
77037,-55.5555555555556,4,2,0,90,0,1
77427,-62.5,4,2,0,90,0,1
77818,-66.6666666666667,4,2,0,90,0,1
78600,-55.5555555555556,4,2,0,90,0,1
81727,-111.111111111111,4,2,0,90,0,1
82020,-62.5,4,2,0,90,0,1
82313,-42.5531914893617,4,2,0,90,0,1
82704,-55.5555555555556,4,2,0,90,0,1
83291,-38.4615384615385,4,2,0,90,0,1
83584,-43.4782608695652,4,2,0,90,0,1
83975,-47.6190476190476,4,2,0,90,0,1
85050,-33.3333333333333,4,2,0,90,0,1
85245,-37.037037037037,4,2,0,90,0,1
85636,-50,4,2,0,90,0,1
87201,-50,4,2,0,75,0,0
88372,-43.4782608695652,4,2,0,75,0,0
88765,-41.6666666666667,4,2,0,90,0,1
91108,-50,4,2,0,90,0,1
91695,-50,4,2,0,90,0,1
93258,-50,4,2,0,90,0,1
94235,-35.7142857142857,4,2,0,90,0,1
94528,-28.5714285714286,4,2,0,90,0,1
94822,-28.5714285714286,4,2,0,90,0,1
95212,-50,4,2,0,90,0,1
95408,-55.5555555555556,4,2,0,90,0,1
95603,-62.5,4,2,0,90,0,1
95799,-33.3333333333333,4,2,0,90,0,1
97558,-28.5714285714286,4,2,0,90,0,1
97755,-30.7692307692308,4,2,0,90,0,1
98144,-50,4,2,0,90,0,1
99709,-50,4,2,0,75,0,0
100882,-19.6,4,2,0,75,0,1
101273,-55.5555555555556,4,2,0,75,0,0
102053,-58.8235294117647,4,2,0,75,0,0
102444,-62.5,4,2,0,75,0,0
102835,-66.6666666666667,4,2,0,75,0,0
105180,-66.6666666666667,4,2,0,75,0,0
105473,-57.1428571428571,4,2,0,75,0,0
105766,-50,4,2,0,75,0,0
106157,-66.6666666666667,4,2,0,75,0,0
106743,-55.5555555555556,4,2,0,85,0,0
107037,-44.4444444444445,4,2,0,95,0,0
107331,-33.3333333333333,4,2,0,67,0,0

[Colours]
Combo1 : 98,221,62
Combo2 : 255,152,13
Combo3 : 183,239,52
Combo4 : 242,255,85

[HitObjects]
410,284,818,6,0,L|399:364,1,75,8|0,1:0|0:0,0:0:0:0:
102,284,1208,6,0,L|113:364,1,75,4|0,0:3|0:0,0:0:0:0:
267,284,1794,2,0,L|270:308,1,25
186,284,1989,2,0,L|193:340,1,50,2|0,0:0|0:0,0:0:0:0:
102,284,2673,6,0,L|113:364,1,75,2|0,0:0|0:0,0:0:0:0:
186,284,3162,2,0,L|193:340,1,50,2|0,0:0|0:0,0:0:0:0:
28,330,3650,5,0,0:0:0:0:
102,284,3846,2,0,L|113:364,1,75,2|0,0:0|0:0,0:0:0:0:
186,284,4335,2,0,L|193:340,1,50,2|0,0:0|0:0,0:0:0:0:
102,284,5019,6,0,L|113:364,1,75,2|0,0:0|0:0,0:0:0:0:
28,330,5409,1,0,0:0:0:0:
28,330,5507,2,0,L|-29:338,1,37.5000014305115
187,307,5703,2,4,L|221:302,3,25.0000009536744,4|4|4|4,0:3|0:3|0:3|0:3,0:3:0:0:
83,137,6093,5,0,0:0:0:0:
83,137,6191,2,0,L|72:62,1,75,2|0,0:0|0:0,0:0:0:0:
166,88,6484,1,0,0:0:0:0:
166,88,6582,1,0,0:0:0:0:
166,88,6680,5,4,0:3:0:0:
166,88,7071,1,4,0:3:0:0:
476,248,7364,1,0,0:0:0:0:
476,248,7462,6,0,L|401:238,1,75.0000028610231
401,238,7852,1,4,0:3:0:0:
420,117,8048,1,4,0:3:0:0:
420,117,8146,1,4,0:3:0:0:
420,117,8243,2,0,B|382:126|382:126|306:88|306:88|205:108,1,225.000008583069,4|0,0:3|0:0,0:0:0:0:
206,107,9025,5,4,0:3:0:0:
303,197,9221,2,4,L|297:172,3,25.0000009536744,4|4|4|4,0:3|0:3|0:3|0:3,0:3:0:0:
265,10,9611,1,0,1:0:0:0:
265,10,9709,1,0,1:0:0:0:
265,10,9807,2,0,L|207:22,1,37.5000014305115,0|0,1:0|1:0,1:0:0:0:
145,46,10002,2,0,L|108:38,1,37.5000014305115,0|0,1:0|1:0,1:0:0:0:
23,22,10198,6,0,L|-7:30,7,18.7500007152558,0|0|0|0|0|0|0|0,3:0|3:0|3:0|3:0|3:0|3:0|3:0|3:0,3:0:0:0:
54,98,10589,6,0,B|32:154|32:154|63:204,1,100,4|0,0:0|0:0,0:0:0:0:
106,253,10882,1,0,0:0:0:0:
171,199,10979,2,0,P|237:199|244:280,1,150,0|0,1:0|0:0,0:0:0:0:
317,323,11370,6,0,L|390:316,1,50,4|0,0:3|0:0,0:0:0:0:
309,335,11566,2,0,L|382:328,1,50
472,320,11761,2,0,P|477:271|446:234,1,100,0|0,1:0|0:0,0:0:0:0:
442,155,12054,1,0,0:0:0:0:
373,197,12152,6,0,B|352:163|352:163|374:107,1,100,4|0,0:3|0:0,0:0:0:0:
386,98,12445,1,0,0:0:0:0:
285,117,12543,2,0,L|212:110,1,50,0|0,1:0|0:0,0:0:0:0:
273,126,12739,2,0,L|200:119,1,50
140,111,12934,5,4,0:3:0:0:
171,178,13032,2,0,B|137:157|137:157|81:179,1,100
43,284,13325,2,0,L|47:333,1,50,0|0,1:0|0:0,0:0:0:0:
130,249,13521,2,0,L|125:298,1,50
189,364,13716,6,0,P|244:355|269:316,1,100,4|0,0:3|0:0,0:0:0:0:
257,307,14009,1,0,0:0:0:0:
345,351,14107,1,0,1:0:0:0:
359,346,14204,1,0,0:0:0:0:
373,341,14302,2,0,L|423:354,2,33.3333333333333
330,269,14497,6,0,B|309:235|309:235|331:179,1,100,4|0,0:3|0:0,0:0:0:0:
346,172,14791,1,0,0:0:0:0:
232,234,14888,2,0,L|224:178,1,50,0|0,1:0|0:0,0:0:0:0:
210,84,15084,1,0,0:0:0:0:
204,97,15181,1,0,0:0:0:0:
198,111,15279,6,0,B|164:131|164:131|108:109,1,100,4|0,0:3|0:0,0:0:0:0:
29,81,15572,1,0,0:0:0:0:
44,162,15670,2,0,L|56:238,1,50,0|0,1:0|0:0,0:0:0:0:
140,209,15865,1,0,0:0:0:0:
137,223,15963,1,0,0:0:0:0:
134,237,16061,6,0,L|124:294,1,50,4|0,0:3|0:0,0:0:0:0:
50,323,16256,2,0,L|58:372,1,50
201,318,16452,1,0,1:0:0:0:
201,318,16647,2,0,L|194:371,2,33.3333333333333
246,251,16843,5,4,0:3:0:0:
310,305,16940,2,0,P|351:307|390:267,1,100
381,176,17234,2,0,L|374:103,1,50,0|0,1:0|0:0,0:0:0:0:
390,164,17430,2,0,L|383:91,1,50
325,43,17624,6,0,B|291:22|291:22|235:44,1,100,4|0,0:3|0:0,0:0:0:0:
157,75,17918,1,0,0:0:0:0:
157,75,18015,2,0,L|48:57,2,100,2|0|0,0:0|0:0|0:0,0:0:0:0:
360,110,18602,2,0,L|410:117,2,33.3333333333333,0|0|0,3:0|3:0|3:0,3:0:0:0:
281,121,18797,5,4,0:3:0:0:
252,136,18895,1,4,0:3:0:0:
233,162,18993,1,4,0:3:0:0:
226,193,19090,1,4,0:3:0:0:
303,193,19188,2,4,L|340:212,2,33.3333333333333,4|4|4,0:3|0:3|0:3,0:3:0:0:
264,262,19383,5,4,0:3:0:0:
227,285,19481,1,4,0:3:0:0:
191,308,19579,2,4,L|158:328,3,25,4|4|4|4,0:3|0:3|0:3|0:3,0:3:0:0:
157,328,19774,2,4,P|123:321|100:299,1,50,4|4,0:3|0:3,0:3:0:0:
69,159,19970,5,2,0:0:0:0:
83,232,20068,2,0,L|67:145,1,75.0000028610231,2|0,0:0|0:0,0:0:0:0:
165,101,20556,5,2,0:0:0:0:
151,174,20654,2,0,L|167:87,1,75.0000028610231,2|0,0:0|0:0,0:0:0:0:
488,207,21142,5,2,0:0:0:0:
255,129,21338,2,0,L|230:164,2,33.3333333333333,0|0|0,3:0|3:0|3:0,3:0:0:0:
335,121,21533,5,2,0:0:0:0:
350,122,21630,1,0,0:0:0:0:
365,128,21728,1,0,0:0:0:0:
377,137,21826,1,0,0:0:0:0:
388,148,21923,1,0,0:0:0:0:
395,162,22021,1,0,0:0:0:0:
399,177,22119,1,0,0:0:0:0:
399,193,22217,1,0,0:0:0:0:
395,208,22314,1,4,0:3:0:0:
276,219,22510,1,2,0:0:0:0:
276,219,22706,6,0,P|390:219|334:120,1,275.999990734864,0|0,1:0|0:0,0:0:0:0:
249,136,23097,6,0,B|197:152|197:152|183:172|183:172|134:188,1,129.999994049073,4|0,0:1|0:0,0:0:0:0:
122,180,23390,1,0,0:0:0:0:
197,256,23488,2,0,L|206:324,1,64.9999970245363,0|0,1:0|0:0,0:0:0:0:
186,265,23683,2,0,L|195:333,1,64.9999970245363
273,366,23879,6,0,P|346:359|344:249,1,194.999991073609,4|0,0:3|0:0,0:0:0:0:
276,219,24269,1,0,1:0:0:0:
276,219,24465,2,0,L|284:146,1,64.9999970245363
386,39,24660,6,0,B|324:82|324:82|263:63,1,129.999994049073,4|0,0:3|0:0,0:0:0:0:
191,31,24953,1,0,0:0:0:0:
201,109,25051,2,0,P|111:79|101:164,1,194.999991073609,0|0,1:0|0:0,0:0:0:0:
18,209,25442,5,4,0:3:0:0:
5,131,25540,2,0,L|20:222,1,64.9999970245363
44,356,25735,2,0,L|33:291,1,64.9999970245363,0|0,0:0|1:0,0:0:0:0:
33,291,26028,2,0,P|85:316|108:313,1,64.9999970245363
181,282,26224,6,0,P|250:269|292:325,1,129.999994049073,4|0,0:3|0:0,0:0:0:0:
278,319,26517,1,0,0:0:0:0:
251,236,26615,2,0,P|297:194|358:210,1,129.999994049073,0|0,1:0|0:0,0:0:0:0:
347,222,26908,1,0,0:0:0:0:
286,162,27006,6,0,B|278:107|278:107|289:80|289:80|282:31,1,129.999994049073,4|0,0:3|0:0,0:0:0:0:
200,6,27299,1,0,0:0:0:0:
269,43,27396,1,0,1:0:0:0:
269,43,27592,6,0,P|186:43|154:104,1,129.999994049073,0|4,0:0|0:3,0:0:0:0:
170,150,27885,1,2,0:0:0:0:
181,193,27983,1,2,0:0:0:0:
159,232,28080,1,2,0:0:0:0:
102,186,28178,6,0,L|180:194,1,64.9999970245363,0|0,1:0|0:0,0:0:0:0:
290,204,28374,2,0,L|297:155,3,32.4999985122681,0|0|0|0,3:0|3:0|3:0|3:0,3:0:0:0:
241,266,28569,6,0,P|225:295|226:342,1,75.0000028610231,4|0,0:0|0:0,0:0:0:0:
312,280,28862,6,0,P|231:319|219:353,1,112.000001367188,4|0,0:0|0:0,0:0:0:0:
412,384,29155,6,0,P|330:312|224:335,1,225.000008583069,4|0,1:0|0:0,0:0:0:0:
134,359,29546,2,0,P|102:358|65:336,1,64.9999970245363,4|0,0:3|0:0,0:0:0:0:
168,235,29742,2,0,P|151:262|113:283,1,64.9999970245363,4|0,0:3|0:0,0:0:0:0:
77,143,29937,2,0,P|92:171|91:214,1,64.9999970245363,4|0,0:3|0:0,0:0:0:0:
11,290,30133,6,0,B|4:253|21:241|21:241|60:296|124:279,1,170.000003242493,0|0,1:0|0:0,0:0:0:0:
257,139,30426,2,0,L|162:155,1,85.0000016212464,0|0,1:0|0:0,0:0:0:0:
376,261,30621,2,0,L|292:246,1,85.0000016212464,0|0,1:0|0:0,0:0:0:0:
412,97,30817,6,0,P|354:112|354:190,1,129.999994049073,4|0,0:0|0:0,0:0:0:0:
469,235,31110,2,0,L|526:227,1,32.4999985122681
509,217,31208,6,0,B|451:225|451:225|435:252|435:252|361:263,1,150.000005722046,4|0,0:0|0:0,0:0:0:0:
251,220,31501,2,0,B|293:247|293:247|220:253|220:253|199:235|199:235|94:246,1,225.000008583069,4|0,0:0|0:0,0:0:0:0:
42,234,31892,6,0,L|50:300,3,42.5000008106232,2|0|0|0,3:2|3:3|3:3|3:3,3:3:0:0:
29,135,32087,2,0,L|43:248,1,85.0000016212464,0|0,1:3|0:3,0:3:0:0:
58,373,32282,2,0,L|47:288,1,85.0000016212464,0|0,1:0|0:3,0:3:0:0:
98,89,32478,5,4,0:0:0:0:
155,146,32576,2,0,P|222:149|254:89,1,129.999994049073
281,24,32869,1,0,1:3:0:0:
325,17,32966,1,0,0:0:0:0:
367,33,33064,1,0,0:0:0:0:
391,71,33162,1,0,0:0:0:0:
392,116,33260,5,4,0:3:0:0:
392,116,33455,2,0,L|446:123,3,32.4999985122681,0|0|0|0,3:0|3:0|3:0|3:0,3:0:0:0:
325,150,33650,5,0,1:0:0:0:
316,194,33748,1,0,0:0:0:0:
324,238,33846,1,0,0:0:0:0:
352,273,33944,1,0,0:0:0:0:
397,293,34041,5,0,1:0:0:0:
397,293,34139,1,0,1:0:0:0:
268,308,34335,5,0,1:0:0:0:
143,323,34530,5,0,1:0:0:0:
16,338,34725,5,0,1:0:0:0:
268,308,35019,5,2,0:0:0:0:
16,338,35214,2,0,L|273:307,1,252.999998166275,0|0,1:0|0:0,0:0:0:0:
267,307,35605,6,0,P|204:280|234:190,1,179.999994506836,4|0,0:3|0:0,0:0:0:0:
306,196,35996,2,0,L|247:190,1,59.9999981689454,0|0,1:0|0:0,0:0:0:0:
115,129,36191,2,0,B|163:135|163:135|245:91,1,119.999996337891,0|4,0:0|0:3,0:0:0:0:
226,101,36582,6,0,L|291:91,1,59.9999981689454
401,110,36778,2,0,P|387:98|356:88,2,39.9999987792969,0|0|0,1:0|0:0|0:0,0:0:0:0:
436,182,36973,2,0,L|447:260,1,59.9999981689454
399,306,37168,6,0,P|326:322|292:234,1,179.999994506836,4|0,0:3|0:0,0:0:0:0:
359,221,37559,2,0,L|293:230,1,59.9999981689454,0|0,1:0|0:0,0:0:0:0:
223,190,37755,2,0,B|155:158|155:158|67:192,1,119.999996337891,0|4,0:0|0:3,0:0:0:0:
42,207,38048,1,0,0:0:0:0:
113,174,38146,2,0,B|173:131|173:131|188:38,1,119.999996337891,0|0,0:0|1:0,0:0:0:0:
187,7,38439,1,0,0:0:0:0:
180,85,38536,2,0,L|188:162,1,59.9999981689454
299,229,38732,6,0,P|377:195|379:158,1,119.999996337891,4|0,0:3|0:0,0:0:0:0:
345,98,39025,1,0,0:0:0:0:
409,49,39123,2,0,B|337:62|337:62|269:2,1,119.999996337891,0|0,1:0|0:0,0:0:0:0:
222,14,39416,1,0,0:0:0:0:
180,85,39514,6,0,L|188:156,2,59.9999981689454,4|0|0,0:3|0:0|0:0,0:0:0:0:
111,36,39807,1,0,0:0:0:0:
105,174,39905,6,0,L|99:111,1,59.9999981689454,2|0,1:2|0:0,0:0:0:0:
22,155,40100,1,0,0:0:0:0:
22,155,40198,1,0,0:0:0:0:
22,155,40295,6,0,B|28:206|28:206|15:224|15:224|25:302,1,119.999996337891,4|0,0:3|0:0,0:0:0:0:
21,271,40686,1,0,1:0:0:0:
96,313,40784,2,0,B|164:321|164:321|198:283,1,119.999996337891,2|0,0:0|0:0,0:0:0:0:
212,199,41077,1,4,0:3:0:0:
234,163,41175,1,0,0:0:0:0:
270,141,41273,1,0,0:0:0:0:
311,133,41370,1,0,0:0:0:0:
352,139,41468,5,0,1:0:0:0:
324,209,41566,2,0,B|358:171|358:171|460:184,1,119.999996337891
493,221,41859,6,0,P|487:300|409:301,1,119.999996337891,4|0,0:3|0:0,0:0:0:0:
387,275,42152,1,0,0:0:0:0:
338,340,42250,2,0,L|265:332,1,59.9999981689454,0|0,1:0|0:0,0:0:0:0:
199,264,42445,2,0,L|272:256,1,59.9999981689454
370,172,42641,6,0,B|331:146|331:146|263:175,1,119.999996337891,4|0,0:0|0:0,0:0:0:0:
248,43,42934,2,0,L|219:128,1,59.9999981689454,4|0,0:0|1:0,0:0:0:0:
133,7,43129,1,0,0:0:0:0:
133,7,43227,2,0,L|157:82,1,59.9999981689454,4|0,0:0|0:0,0:0:0:0:
150,179,43422,5,4,0:3:0:0:
150,179,43618,1,0,0:0:0:0:
103,168,43716,1,0,0:0:0:0:
57,180,43813,1,0,1:0:0:0:
25,215,43911,1,0,0:0:0:0:
15,261,44009,1,0,0:0:0:0:
29,306,44107,1,0,0:0:0:0:
92,350,44204,6,0,B|172:333|172:333|201:269,1,135.000000514984,4|0,0:0|0:0,0:0:0:0:
281,301,44497,2,0,L|269:228,1,67.5000002574921,4|0,0:0|1:0,0:0:0:0:
354,208,44693,1,0,0:0:0:0:
354,208,44791,2,0,L|301:145,1,67.5000002574921,4|0,0:0|0:0,0:0:0:0:
175,164,44986,5,4,0:3:0:0:
175,164,45181,1,4,0:3:0:0:
226,179,45279,1,0,3:0:0:0:
276,160,45377,1,4,1:3:0:0:
301,113,45475,1,0,3:0:0:0:
297,61,45572,1,4,0:3:0:0:
258,26,45670,1,0,3:0:0:0:
218,101,45768,6,0,B|127:130|127:130|40:80,1,150.000005722046,4|0,0:0|0:0,0:0:0:0:
52,247,46061,2,0,L|38:166,1,75.0000028610231,4|0,0:0|1:0,0:0:0:0:
118,348,46256,1,0,0:0:0:0:
118,348,46354,2,0,L|138:240,1,75.0000028610231,4|0,0:0|0:0,0:0:0:0:
218,101,46550,5,2,0:0:0:0:
232,174,46648,2,0,L|216:87,1,75.0000028610231,2|0,0:0|0:0,0:0:0:0:
323,148,47136,5,2,0:0:0:0:
309,221,47234,2,0,L|325:134,1,75.0000028610231,2|0,0:0|0:0,0:0:0:0:
308,157,47625,1,0,0:0:0:0:
437,254,47723,5,2,0:0:0:0:
395,195,47821,2,0,P|422:217|436:270,1,75.0000028610231,2|0,0:0|0:0,0:0:0:0:
419,332,48113,6,0,P|381:336|352:362,1,75,2|0,0:3|0:0,0:0:0:0:
354,360,49677,6,0,P|330:329|294:317,1,75.2500011482239,2|0,0:0|0:0,0:0:0:0:
297,317,50459,6,0,P|311:281|304:243,1,75,2|0,0:0|0:0,0:0:0:0:
305,246,50850,6,0,P|342:241|372:215,1,75,0|0,1:0|0:0,0:0:0:0:
370,217,51045,6,0,P|393:247|430:260,1,75,0|0,1:0|0:0,0:0:0:0:
437,261,51143,2,0,P|474:256|504:230,1,75,0|0,1:0|0:0,0:0:0:0:
509,226,51241,6,0,B|489:167|489:167|464:159|464:159|440:100,1,150.000005722046,4|0,1:0|0:0,0:0:0:0:
454,109,51534,1,0,0:0:0:0:
359,141,51631,2,0,L|284:130,1,75.0000028610231,0|0,1:0|0:0,0:0:0:0:
369,128,51827,2,0,L|294:117,1,75.0000028610231
153,134,52022,6,0,P|231:124|231:9,1,209.999993591309,4|0,0:3|0:0,0:0:0:0:
183,66,52413,1,0,1:0:0:0:
183,66,52609,2,0,P|213:53|233:14,1,64.9999970245363
122,20,52804,6,0,P|108:77|139:127,1,119.999996337891,4|0,0:3|0:0,0:0:0:0:
147,207,53097,1,0,0:0:0:0:
74,220,53195,2,0,L|145:208,1,59.9999981689454,0|0,1:0|0:0,0:0:0:0:
285,173,53390,1,0,0:0:0:0:
285,173,53585,5,4,0:3:0:0:
212,161,53684,2,0,L|285:174,1,75.0000028610231
427,107,53879,1,0,0:0:0:0:
353,120,53977,1,0,1:0:0:0:
353,120,54172,2,0,L|439:105,1,75.0000028610231
491,244,54368,6,0,P|430:263|402:183,1,150.000005722046,4|0,0:3|0:0,0:0:0:0:
409,191,54661,1,0,0:0:0:0:
411,280,54758,2,0,P|382:343|315:326,1,150.000005722046,0|0,1:0|0:0,0:0:0:0:
324,315,55052,1,0,0:0:0:0:
249,372,55149,6,0,B|193:354|193:354|178:328|178:328|101:304,1,150.000005722046,4|0,0:3|0:0,0:0:0:0:
50,353,55442,1,0,0:0:0:0:
133,301,55540,1,0,1:0:0:0:
133,301,55736,6,0,B|77:277|77:277|63:162,1,150.000005722046,0|4,0:0|0:3,0:0:0:0:
166,82,56029,1,2,0:0:0:0:
105,112,56126,1,2,0:0:0:0:
110,42,56224,1,2,0:0:0:0:
172,165,56322,6,0,P|218:188|259:183,1,75.0000028610231,0|0,1:0|0:0,0:0:0:0:
443,153,56517,2,0,L|406:159,3,37.5000014305115,0|0|0|0,3:0|3:0|3:0|3:0,3:0:0:0:
311,286,56713,6,0,L|323:199,1,75.0000028610231,4|0,0:0|0:0,0:0:0:0:
343,50,57006,6,0,L|322:200,1,150.000005722046,4|0,0:0|0:0,0:0:0:0:
298,384,57299,6,0,L|343:49,1,337.500012874604,4|0,1:0|0:0,0:0:0:0:
263,26,57690,2,0,P|263:70|306:115,1,75.0000028610231,4|0,0:3|0:0,0:0:0:0:
411,71,57885,2,0,P|371:49|310:63,1,75.0000028610231,4|0,0:3|0:0,0:0:0:0:
304,177,58081,2,0,P|341:152|359:93,1,75.0000028610231,4|0,0:3|0:0,0:0:0:0:
149,91,58276,6,0,B|191:121|302:91|283:4|283:4|255:33,1,230.000004386902,4|0,0:0|0:0,0:0:0:0:
116,165,58569,2,0,B|121:215|161:232|161:232|175:210|162:173,1,100,0|0,1:0|0:0,0:0:0:0:
134,85,58765,2,0,B|86:65|52:92|52:92|65:115|104:121,1,100,0|0,1:0|0:0,0:0:0:0:
249,195,58960,6,0,B|324:173|324:173|337:142|337:142|430:115,1,200,4|0,1:2|0:0,0:0:0:0:
441,192,59254,2,0,P|421:206|397:204,1,50,2|0,0:0|0:0,0:0:0:0:
436,115,59351,6,0,P|464:209|391:197,1,200,4|0,1:2|0:0,0:0:0:0:
436,115,59644,2,0,P|516:202|397:204,1,300,4|0,1:2|0:0,0:0:0:0:
356,131,60035,6,0,L|251:95,3,75.0000028610231,2|0|0|0,3:2|3:0|3:0|3:0,3:0:0:0:
436,115,60231,2,0,B|483:76|458:27|458:27|423:66,1,125,0|0,1:0|0:0,0:0:0:0:
396,202,60426,2,0,B|424:256|381:291|381:291|364:241,1,125,0|0,1:0|0:0,0:0:0:0:
285,106,60622,5,4,0:3:0:0:
356,131,60719,2,0,B|290:150|290:150|265:132|265:132|185:154,1,170.000003242493
121,250,61012,5,0,1:0:0:0:
184,226,61110,1,0,0:0:0:0:
183,156,61208,1,0,0:0:0:0:
116,136,61306,1,0,0:0:0:0:
77,193,61403,5,4,0:3:0:0:
77,193,61599,2,0,L|38:137,3,50,0|0|0|0,3:0|3:0|3:0|3:0,3:0:0:0:
121,250,61794,5,0,1:0:0:0:
171,299,61892,1,0,0:0:0:0:
242,286,61990,1,0,0:0:0:0:
302,318,62087,1,0,0:0:0:0:
369,296,62185,5,0,1:0:0:0:
309,237,62283,1,0,1:0:0:0:
229,359,62478,5,0,1:0:0:0:
193,218,62674,5,0,1:0:0:0:
121,250,62869,5,0,1:0:0:0:
121,250,63162,5,2,0:0:0:0:
369,296,63358,2,0,B|299:344|299:344|196:202|196:202|95:268,1,349.500013998986,0|0,1:0|0:0,0:0:0:0:
133,259,63749,6,0,B|166:204|166:204|154:180|154:180|190:108,1,150.000005722046,4|0,1:0|0:0,0:0:0:0:
190,139,64042,1,0,0:0:0:0:
98,105,64140,2,0,L|87:30,1,75.0000028610231,0|0,1:0|0:0,0:0:0:0:
87,117,64335,2,0,L|76:42,1,75.0000028610231
198,148,64530,6,0,P|273:88|223:4,1,209.999993591309,4|0,0:3|0:0,0:0:0:0:
199,74,64921,1,0,1:0:0:0:
199,74,65117,2,0,L|208:9,1,64.9999970245363
362,40,65312,6,0,L|380:166,1,119.999996337891,4|0,0:3|0:0,0:0:0:0:
364,248,65605,1,0,0:0:0:0:
376,174,65703,2,0,L|366:238,1,59.9999981689454,0|0,1:0|0:0,0:0:0:0:
351,330,65898,1,0,0:0:0:0:
351,330,66093,5,4,0:3:0:0:
416,360,66192,2,0,P|386:337|350:329,1,75.0000028610231
221,313,66387,1,0,0:0:0:0:
287,283,66485,1,0,1:0:0:0:
287,283,66680,2,0,P|257:305|221:313,1,75.0000028610231
121,185,66876,6,0,P|188:169|215:233,1,150.000005722046,4|0,0:3|0:0,0:0:0:0:
202,241,67169,1,0,0:0:0:0:
196,138,67267,2,0,L|207:63,1,75.0000028610231,0|0,1:0|0:0,0:0:0:0:
207,150,67462,2,0,L|218:75,1,75.0000028610231
299,202,67657,6,0,B|357:180|357:180|368:152|368:152|449:125,1,150.000005722046,4|0,0:3|0:0,0:0:0:0:
498,158,67951,1,0,0:0:0:0:
414,147,68048,1,0,1:0:0:0:
414,147,68244,6,0,P|479:173|448:246,1,150.000005722046,0|4,0:0|0:3,0:0:0:0:
462,238,68635,1,0,0:0:0:0:
472,333,68732,1,0,0:0:0:0:
474,246,68830,6,0,L|463:321,1,75.0000028610231,0|0,1:0|0:0,0:0:0:0:
353,268,69026,2,0,L|415:279,3,37.5000014305115,0|0|0|0,3:0|3:0|3:0|3:0,3:0:0:0:
224,279,69221,6,0,B|217:323|217:323|296:279|223:208|318:143|318:143|310:213,1,300.000011444092,4|0,0:0|0:0,0:0:0:0:
201,215,69514,6,0,B|175:247|175:247|257:247|232:159|336:151|336:151|298:202,1,275.000002622604,4|0,0:0|0:0,0:0:0:0:
90,198,69807,6,0,B|184:239|260:167|227:164|308:94|445:139,1,337.500012874604,4|0,1:0|0:0,0:0:0:0:
512,148,70198,2,0,L|420:133,1,93.9999985656739,4|0,0:3|0:0,0:0:0:0:
317,0,70394,2,0,L|347:84,1,87.500000834465,4|0,0:3|0:0,0:0:0:0:
279,238,70589,2,0,L|219:309,1,75.0000028610231,4|0,0:3|0:0,0:0:0:0:
340,166,70784,6,0,B|397:159|405:215|405:215|297:240|237:69,1,300.000011444092,4|0,0:0|0:0,0:0:0:0:
416,14,71078,2,0,B|419:7|442:7|442:7|448:64|404:91,1,125,0|0,1:0|0:0,0:0:0:0:
243,21,71273,2,0,B|236:19|236:-4|236:-4|293:-10|320:34,1,125,0|0,1:0|0:0,0:0:0:0:
275,267,71469,6,0,B|144:294|144:294|72:229,1,200,4|0,1:2|0:0,0:0:0:0:
215,184,71762,2,0,P|143:197|134:189,1,50,2|0,0:0|0:0,0:0:0:0:
99,167,71859,5,4,1:2:0:0:
192,114,71957,2,0,P|197:163|172:206,1,100,2|0,0:0|0:0,0:0:0:0:
14,166,72153,2,0,P|118:87|173:206,1,300,4|0,1:2|0:0,0:0:0:0:
79,251,72543,6,0,L|66:325,3,75.0000028610231,2|0|0|0,3:2|3:0|3:0|3:0,3:0:0:0:
173,206,72738,2,0,B|231:191|247:134|247:134|237:127|207:137,1,150.000005722046,0|0,1:0|0:0,0:0:0:0:
14,166,72934,2,0,B|-30:124|-16:67|-16:67|-4:65|17:89,1,150.000005722046,0|0,1:0|0:0,0:0:0:0:
163,303,73130,5,4,0:3:0:0:
236,267,73227,2,0,B|331:227|331:227|431:249,1,170.000003242493
468,349,73521,5,0,1:0:0:0:
405,325,73619,1,0,0:0:0:0:
406,255,73717,1,0,0:0:0:0:
473,235,73813,1,0,0:0:0:0:
512,292,73911,5,4,0:3:0:0:
512,292,74107,2,0,L|548:347,3,42.5000008106232,0|0|0|0,3:0|3:0|3:0|3:0,3:0:0:0:
473,235,74302,5,0,1:0:0:0:
440,173,74400,1,0,0:0:0:0:
456,104,74498,1,0,0:0:0:0:
423,40,74596,1,0,0:0:0:0:
352,25,74693,5,0,1:0:0:0:
376,105,74791,1,0,1:0:0:0:
198,47,74986,5,0,1:0:0:0:
240,176,75182,5,0,1:0:0:0:
278,309,75377,5,0,1:0:0:0:
278,309,75475,2,0,L|296:237,1,75.0000028610231,2|0,0:0|0:0,0:0:0:0:
356,9,75866,2,0,L|275:320,1,310.500008646584,0|0,1:0|0:0,0:0:0:0:
193,324,76257,6,0,B|116:300|116:300|108:266|108:266|-3:225,1,200,4|0,0:3|0:0,0:0:0:0:
36,250,76550,1,0,0:0:0:0:
132,189,76648,2,0,P|135:121|100:80,1,100,0|0,1:0|0:0,0:0:0:0:
42,68,76843,2,0,P|11:73|-27:117,2,66.6666666666667
134,88,77039,6,0,B|219:138|305:95|305:95|286:149|321:189,1,269.999991760254,4|0,0:3|0:0,0:0:0:0:
379,131,77429,1,0,1:0:0:0:
379,131,77624,2,0,P|418:160|459:157,1,80
347,54,77820,6,0,P|302:107|316:184,1,150.000005722046,4|0,0:3|0:0,0:0:0:0:
378,234,78113,1,0,0:0:0:0:
339,311,78211,2,0,P|356:253|393:232,1,75.0000028610231,0|0,1:0|0:0,0:0:0:0:
460,241,78406,2,0,L|512:247,2,50.0000019073487
314,180,78602,5,4,0:3:0:0:
378,234,78699,2,0,P|336:216|314:180,1,89.9999972534181
347,53,78895,1,0,0:0:0:0:
427,25,78993,1,0,1:0:0:0:
427,25,79188,2,0,P|390:53|348:54,1,89.9999972534181
101,127,79383,6,0,P|142:196|213:157,1,179.999994506836,4|0,0:3|0:0,0:0:0:0:
199,149,79677,1,0,0:0:0:0:
151,212,79774,2,0,P|109:281|38:242,1,179.999994506836,0|0,1:0|0:0,0:0:0:0:
49,231,80067,1,0,0:0:0:0:
120,303,80165,6,0,B|187:317|187:317|216:297|216:297|316:316,1,179.999994506836,4|0,0:3|0:0,0:0:0:0:
352,377,80458,1,0,0:0:0:0:
281,322,80556,1,0,1:0:0:0:
281,322,80751,6,0,B|352:288|352:288|338:169,1,179.999994506836,0|4,0:0|0:3,0:0:0:0:
315,43,81045,1,2,0:0:0:0:
326,110,81142,1,2,0:0:0:0:
380,68,81240,1,2,0:0:0:0:
240,86,81338,6,0,P|218:160|238:189,1,89.9999972534181,0|0,1:0|0:0,0:0:0:0:
346,233,81533,2,0,L|337:166,3,44.999998626709,0|0|0|0,3:3|3:3|3:3|3:3,3:3:0:0:
257,244,81729,6,0,L|356:232,1,89.9999972534181,4|0,0:0|0:0,0:0:0:0:
500,203,82022,6,0,B|435:210|435:210|424:222|424:222|331:234,1,160,4|0,0:0|0:0,0:0:0:0:
1,262,82315,6,0,B|82:253|82:253|97:264|97:264|356:231,1,352.499994621277,4|0,1:0|0:0,0:0:0:0:
288,11,82706,2,0,P|256:67|265:103,1,89.9999972534181,4|0,0:3|0:0,0:0:0:0:
354,72,82901,2,0,P|338:30|300:7,1,89.9999972534181,4|0,0:3|0:0,0:0:0:0:
267,99,83097,2,0,P|311:106|350:84,1,89.9999972534181,4|0,0:3|0:0,0:0:0:0:
188,128,83292,6,0,B|231:201|340:184|340:184|328:227|273:240,1,259.999988098145,4|0,0:0|0:0,0:0:0:0:
149,294,83585,2,0,B|121:287|121:287|143:252|203:245,1,115.000002193451,0|0,1:0|0:0,0:0:0:0:
352,364,83781,2,0,B|332:385|332:385|312:349|334:293,1,115.000002193451,0|0,1:0|0:0,0:0:0:0:
475,207,83976,6,0,B|351:257|351:257|244:229,1,209.999993591309,4|0,0:0|0:0,0:0:0:0:
381,134,84269,2,0,P|332:167|303:161,1,52.4999983978272,2|0,0:0|0:0,0:0:0:0:
245,144,84367,6,0,P|273:87|306:187,1,209.999993591309,4|0,1:2|0:0,0:0:0:0:
245,144,84660,2,0,P|240:84|334:169,1,314.999990386963,4|0,1:2|0:0,0:0:0:0:
277,237,85051,6,0,L|258:335,3,75.0000028610231,2|0|0|0,3:2|3:0|3:0|3:0,3:0:0:0:
161,102,85247,2,0,B|159:101|163:78|163:78|213:79|244:143,1,135.000000514984,0|0,1:0|0:0,0:0:0:0:
434,154,85442,2,0,B|435:154|439:130|439:130|392:114|340:165,1,135.000000514984,0|0,1:0|0:0,0:0:0:0:
214,378,85637,5,4,0:3:0:0:
132,366,85735,2,0,B|119:285|119:285|140:255|140:255|127:170,1,200
48,82,86028,5,0,1:0:0:0:
58,148,86126,1,0,0:0:0:0:
127,162,86224,1,0,0:0:0:0:
160,100,86322,1,0,0:0:0:0:
112,51,86419,5,4,0:3:0:0:
112,51,86614,2,0,L|75:5,3,50,0|0|0|0,3:0|3:0|3:0|3:0,3:0:0:0:
160,100,86810,5,0,1:0:0:0:
204,156,86908,1,0,0:0:0:0:
276,151,87006,1,0,0:0:0:0:
332,191,87103,1,0,0:0:0:0:
402,177,87201,5,0,1:0:0:0:
349,112,87299,1,0,1:0:0:0:
255,223,87494,5,0,1:0:0:0:
236,78,87690,5,0,1:0:0:0:
160,100,87885,5,0,1:0:0:0:
320,6,88178,5,2,0:0:0:0:
220,335,88374,2,0,L|319:5,1,345.000006580353,0|0,1:0|0:0,0:0:0:0:
390,43,88765,6,0,P|336:93|305:92,2,79.9999975585938,4|0|0,1:0|0:0|0:0,0:0:0:0:
239,0,88960,2,0,P|237:39|257:73,2,79.9999975585938,2|0|0,0:0|0:0|0:0,0:0:0:0:
355,176,89155,6,0,P|350:136|406:116,2,79.9999975585938,0|0|0,1:0|0:0|0:0,0:0:0:0:
188,129,89350,2,0,P|214:100|206:63,2,79.9999975585938,2|0|0,0:0|0:0|0:0,0:0:0:0:
349,256,89546,6,0,P|281:285|254:271,2,79.9999975585938,4|0|0,0:3|0:0|0:0,0:0:0:0:
155,203,89741,2,0,P|166:240|197:265,2,79.9999975585938,2|0|0,0:0|0:0|0:0,0:0:0:0:
295,371,89937,6,0,P|296:331|259:330,2,79.9999975585938,0|0|0,1:0|0:0|0:0,0:0:0:0:
132,328,90132,2,0,P|152:295|186:305,2,79.9999975585938,2|0|0,0:0|0:0|0:0,0:0:0:0:
257,169,90328,22,0,P|249:77|190:48,1,159.999995117188,4|0,0:3|0:0,0:0:0:0:
108,119,90523,2,0,L|209:132,2,79.9999975585938,2|0|0,0:0|0:0|0:0,0:0:0:0:
25,117,90719,5,0,1:0:0:0:
0,182,90817,1,2,0:0:0:0:
15,248,90914,1,2,0:0:0:0:
64,295,91012,1,2,0:0:0:0:
132,305,91110,5,4,0:3:0:0:
190,233,91208,2,0,P|148:259|131:305,1,100
280,376,91403,1,0,0:0:0:0:
213,311,91501,1,0,1:0:0:0:
213,311,91696,2,0,P|289:378|311:377,1,100
457,274,91892,6,0,P|365:237|349:325,1,200,4|0,0:3|0:0,0:0:0:0:
355,317,92185,1,0,0:0:0:0:
380,208,92282,2,0,P|341:127|264:170,1,200,0|0,1:0|0:0,0:0:0:0:
275,183,92576,1,0,0:0:0:0:
339,38,92673,6,0,B|254:51|254:51|221:26|221:26|117:44,1,200,4|0,0:3|0:0,0:0:0:0:
79,89,92966,1,0,0:0:0:0:
161,48,93064,1,0,1:0:0:0:
161,48,93260,6,0,B|99:95|99:95|125:235,1,200,0|4,0:0|0:3,0:0:0:0:
121,215,93650,1,0,0:0:0:0:
225,223,93748,1,0,0:0:0:0:
117,229,93846,6,0,L|229:210,1,100,0|0,1:0|0:0,0:0:0:0:
324,128,94041,2,0,L|334:176,3,50,0|0|0|0,3:3|3:3|3:3|3:3,3:3:0:0:
296,342,94237,6,0,B|303:380|303:380|211:327|272:256|196:222|196:222|206:262,1,279.999991455078,4|0,0:0|0:0,2:0:0:0:
349,308,94530,6,0,B|377:347|377:347|244:335|278:222|174:222|174:222|206:262,1,349.999989318848,4|0,0:0|0:0,2:0:0:0:
490,368,94823,6,0,B|337:402|267:268|314:279|236:145|28:187,1,525.00000500679,4|0,1:0|0:0,0:0:0:0:
34,185,95214,2,0,L|94:96,1,100,4|0,0:3|0:0,0:0:0:0:
249,169,95409,2,0,L|141:160,1,89.9999972534181,4|0,0:3|0:0,0:0:0:0:
144,4,95605,2,0,L|190:100,1,80,4|0,0:3|0:0,0:0:0:0:
96,301,95800,6,0,B|57:366|13:348|13:348|34:242|204:239,1,300.000011444092,4|0,0:0|0:0,0:0:0:0:
271,358,96093,2,0,B|260:381|241:388|241:388|207:324|252:253,1,150.000005722046,0|0,1:0|0:0,0:0:0:0:
400,280,96289,2,0,B|414:301|414:318|414:318|338:315|297:246,1,150.000005722046,0|0,1:0|0:0,0:0:0:0:
160,119,96484,6,0,B|269:175|269:175|287:224|287:224|432:296,1,300.000011444092,4|0,0:0|0:0,0:0:0:0:
348,44,96778,2,0,P|318:66|304:100,1,75.0000028610231,2|0,0:0|0:0,0:0:0:0:
354,166,96875,5,4,1:2:0:0:
440,69,96973,2,0,P|367:61|304:101,1,150.000005722046,2|0,0:0|0:0,0:0:0:0:
210,237,97168,6,0,B|79:370|-16:331|-6:189|123:144|148:287|177:355|294:326,1,450.000017166138,4|0,1:2|0:0,0:0:0:0:
326,325,97559,6,0,L|437:311,3,87.500000834465,2|0|0|0,3:2|3:0|3:0|3:0,3:0:0:0:
239,329,97755,2,0,B|201:297|211:237|211:237|224:274|281:289,1,162.500004649162,0|0,1:0|0:0,0:0:0:0:
494,298,97950,2,0,B|525:259|503:202|503:202|498:241|445:266,1,162.500004649162,0|0,1:0|0:0,0:0:0:0:
146,372,98146,5,4,0:3:0:0:
100,305,98243,2,0,B|87:237|87:237|116:187|116:187|100:93,1,200
44,2,98536,5,0,1:0:0:0:
0,52,98634,1,0,0:0:0:0:
33,113,98732,1,0,0:0:0:0:
101,98,98830,1,0,0:0:0:0:
108,30,98927,5,4,0:3:0:0:
108,30,99122,2,0,L|191:11,3,50,0|0|0|0,3:0|3:0|3:0|3:0,3:0:0:0:
101,98,99318,5,0,1:0:0:0:
98,170,99416,1,0,0:0:0:0:
161,201,99514,1,0,0:0:0:0:
156,272,99612,1,0,0:0:0:0:
216,305,99709,5,0,1:0:0:0:
297,293,99807,1,0,1:0:0:0:
105,323,100002,5,0,1:0:0:0:
407,274,100198,5,0,1:0:0:0:
6,339,100393,5,0,1:0:0:0:
509,257,100686,5,2,0:0:0:0:
6,339,100882,6,0,L|269:295,1,255.102035851342,0|0,1:0|0:0,0:0:0:0:
509,257,101077,2,0,L|225:302,1,255.102035851342,2|0,0:0|0:0,0:0:0:0:
257,296,101273,6,0,P|195:248|236:157,1,179.999994506836,4|0,0:3|0:0,0:0:0:0:
235,173,101566,1,0,0:0:0:0:
106,193,101664,2,0,L|17:180,1,89.9999972534181,0|0,1:0|0:0,0:0:0:0:
98,206,101859,2,0,L|6:192,1,89.9999972534181
99,46,102054,5,4,0:3:0:0:
153,107,102152,2,0,B|229:131|229:131|316:76,1,170.000003242493
374,34,102445,1,0,1:0:0:0:
429,89,102543,1,0,0:0:0:0:
500,63,102641,2,0,P|440:78|418:118,1,80
396,161,102836,6,0,B|407:223|407:223|429:241|429:241|441:331,1,150.000005722046,4|0,0:3|0:0,0:0:0:0:
374,348,103129,1,0,0:0:0:0:
325,284,103227,2,0,P|268:264|227:278,1,75.0000028610231,0|0,1:0|0:0,0:0:0:0:
181,313,103422,1,0,0:0:0:0:
181,313,103618,5,4,0:3:0:0:
173,238,103716,2,0,L|183:335,1,75.0000028610231
46,349,103911,1,0,0:0:0:0:
54,274,104009,1,0,1:0:0:0:
54,274,104204,2,0,L|43:366,1,75.0000028610231
254,222,104400,6,0,P|209:150|134:185,1,150.000005722046,4|0,0:3|0:0,0:0:0:0:
161,173,104693,1,0,0:0:0:0:
249,79,104791,2,0,L|240:-3,1,75.0000028610231,0|0,1:0|0:0,0:0:0:0:
153,30,104986,2,0,L|157:67,3,37.5000014305115,0|0|0|0,3:3|3:3|3:3|3:3,3:3:0:0:
76,98,105181,6,0,P|25:85|5:70,1,75.0000028610231,4|0,0:0|0:0,0:0:0:0:
0,59,105377,1,0,0:0:0:0:
69,234,105475,2,0,P|20:200|5:166,1,87.500000834465,4|0,0:0|0:0,0:0:0:0:
3,163,105670,1,0,0:0:0:0:
91,325,105768,6,0,B|65:307|32:315|32:315|90:241|178:248,1,200,4|0,1:0|0:0,0:0:0:0:
249,264,106061,1,2,0:0:0:0:
262,271,106159,1,2,0:0:0:0:
272,281,106256,1,2,0:0:0:0:
213,330,106354,5,2,0:0:0:0:
199,326,106451,1,2,0:0:0:0:
184,325,106549,1,2,0:0:0:0:
170,328,106647,1,2,0:0:0:0:
288,359,106745,6,0,B|337:337|402:348|402:348|359:329|346:276,1,179.999994506836,4|0,0:0|0:0,0:0:0:0:
434,170,107038,2,0,B|482:168|564:232|497:299|450:297|422:262,1,225.000008583069,4|0,0:0|0:0,0:0:0:0:
256,117,107331,6,0,L|256:202,1,75.0000028610231,12|0,1:0|0:0,0:0:0:0:
256,192,107429,12,0,110458,0:0:0:0:
