osu file format v14

[General]
AudioFilename: audio.mp3
AudioLeadIn: 0
PreviewTime: 21289
Countdown: 1
SampleSet: Soft
StackLeniency: 0.7
Mode: 0
LetterboxInBreaks: 0
WidescreenStoryboard: 1

[Editor]
DistanceSpacing: 1
BeatDivisor: 4
GridSize: 32
TimelineZoom: 3

[Metadata]
Title:Zauberkugel
TitleUnicode:Zauberkugel
Artist:xi
ArtistUnicode:xi
Creator:pishifat
Version:Easy
Source:Cytus
Tags:magic bullet Agartha Progressive Jazz Electronic
BeatmapID:1296760
BeatmapSetID:554892

[Difficulty]
HPDrainRate:3
CircleSize:2
OverallDifficulty:2
ApproachRate:3
SliderMultiplier:0.999999999999999
SliderTickRate:1

[Events]
//Background and Video events
0,0,"bg6.jpg",0,0
//Break Periods
2,1408,4458
//Storyboard Layer 0 (Background)
//Storyboard Layer 1 (Fail)
//Storyboard Layer 2 (Pass)
//Storyboard Layer 3 (Foreground)
//Storyboard Sound Samples

[TimingPoints]
428,390.879478827362,4,2,0,60,1,0
818,-100,4,2,0,60,0,0
1112,-100,4,2,0,5,0,0
1208,390.879478827362,4,2,0,60,1,0
1208,-100,4,2,0,60,0,0
1501,-100,4,2,0,60,0,0
1794,-100,4,2,0,60,0,0
5507,-100,4,2,0,75,0,0
5605,-100,4,2,0,44,0,0
5996,-100,4,2,0,75,0,0
9123,-100,4,2,0,44,0,0
9514,-100,4,2,0,75,0,0
10589,-100,4,2,0,75,0,0
19579,-100,4,2,0,44,0,0
19774,-100,4,2,0,75,0,0
19872,-100,4,2,0,44,0,0
19970,-100,4,2,0,75,0,0
21142,-100,4,2,0,75,0,0
21338,-100,4,2,0,75,0,0
22706,-100,4,2,0,75,0,0
23097,-100,4,2,0,75,0,0
28569,-100,4,2,0,75,0,0
28862,-100,4,2,0,75,0,0
29155,-100,4,2,0,75,0,0
29546,-100,4,2,0,75,0,0
30133,-100,4,2,0,75,0,0
30817,-100,4,2,0,75,0,0
31208,-100,4,2,0,75,0,0
31892,-100,4,2,0,75,0,0
32478,-100,4,2,0,75,0,0
34139,-100,4,2,0,75,0,0
35214,-100,4,2,0,75,0,0
35605,-100,4,2,0,75,0,0
39905,-100,4,2,0,75,0,0
40100,-100,4,2,0,75,0,0
43422,-100,4,2,0,75,0,0
44986,-100,4,2,0,75,0,0
45768,-100,4,2,0,75,0,0
46550,-100,4,2,0,75,0,0
47818,-100,4,2,0,75,0,0
48111,-100,4,2,0,75,0,0
49577,-100,4,2,0,5,0,0
49675,-100,4,2,0,75,0,0
50359,-100,4,2,0,5,0,0
50457,-100,4,2,0,80,0,0
50750,-100,4,2,0,5,0,0
50848,-100,4,2,0,85,0,0
50994,-100,4,2,0,5,0,0
51043,-100,4,2,0,100,0,0
51092,-100,4,2,0,5,0,0
51141,-100,4,2,0,100,0,0
51190,-100,4,2,0,5,0,0
51240,-100,4,2,0,85,0,1
52020,-100,4,2,0,85,0,1
52607,-100,4,2,0,85,0,1
52802,-100,4,2,0,85,0,1
53584,-100,4,2,0,85,0,1
56711,-100,4,2,0,85,0,1
57004,-100,4,2,0,85,0,1
57297,-100,4,2,0,85,0,1
57688,-100,4,2,0,85,0,1
58274,-100,4,2,0,85,0,1
58470,-100,4,2,0,85,0,1
60033,-100,4,2,0,85,0,1
60229,-100,4,2,0,85,0,1
60620,-100,4,2,0,85,0,1
61597,-100,4,2,0,85,0,1
62185,-100,4,2,0,75,0,0
63356,-100,4,2,0,75,0,0
63748,-100,4,2,0,85,0,1
64528,-100,4,2,0,85,0,1
64919,-100,4,2,0,85,0,1
65310,-100,4,2,0,85,0,1
66092,-100,4,2,0,85,0,1
69219,-100,4,2,0,85,0,1
69512,-100,4,2,0,85,0,1
69805,-100,4,2,0,85,0,1
70196,-100,4,2,0,85,0,1
70392,-100,4,2,0,85,0,1
70587,-100,4,2,0,85,0,1
70782,-100,4,2,0,85,0,1
71076,-100,4,2,0,85,0,1
71467,-100,4,2,0,85,0,1
72541,-100,4,2,0,85,0,1
73128,-100,4,2,0,85,0,1
74693,-100,4,2,0,75,0,0
75473,-100,4,2,0,75,0,0
75864,-100,4,2,0,75,0,0
76256,-100,4,2,0,90,0,1
77037,-100,4,2,0,90,0,1
77427,-100,4,2,0,90,0,1
77818,-100,4,2,0,90,0,1
78600,-100,4,2,0,90,0,1
81727,-100,4,2,0,90,0,1
82020,-100,4,2,0,90,0,1
82313,-100,4,2,0,90,0,1
82704,-100,4,2,0,90,0,1
83291,-100,4,2,0,90,0,1
83584,-100,4,2,0,90,0,1
83975,-100,4,2,0,90,0,1
85050,-100,4,2,0,90,0,1
85245,-100,4,2,0,90,0,1
85636,-100,4,2,0,90,0,1
87201,-100,4,2,0,75,0,0
88372,-100,4,2,0,75,0,0
88765,-100,4,2,0,90,0,1
91108,-100,4,2,0,90,0,1
91695,-100,4,2,0,90,0,1
93258,-100,4,2,0,90,0,1
94235,-100,4,2,0,90,0,1
94528,-100,4,2,0,90,0,1
94822,-100,4,2,0,90,0,1
95212,-100,4,2,0,90,0,1
95408,-100,4,2,0,90,0,1
95603,-100,4,2,0,90,0,1
95799,-102.040816326531,4,2,0,90,0,1
97558,-100,4,2,0,90,0,1
97755,-100,4,2,0,90,0,1
98144,-100,4,2,0,90,0,1
99709,-100,4,2,0,75,0,0
101273,-100,4,2,0,75,0,0
102053,-100,4,2,0,75,0,0
102444,-100,4,2,0,75,0,0
102835,-100,4,2,0,75,0,0
105180,-100,4,2,0,75,0,0
105473,-100,4,2,0,75,0,0
105766,-100,4,2,0,75,0,0
106157,-100,4,2,0,75,0,0
106743,-100,4,2,0,75,0,0
107037,-100,4,2,0,75,0,0
107330,-100,4,2,0,75,0,0

[Colours]
Combo1 : 98,221,62
Combo2 : 255,152,13
Combo3 : 183,239,52
Combo4 : 242,255,85

[HitObjects]
451,292,818,6,0,P|405:295|357:344,1,99.9999999999999,8|4,1:0|0:3,0:0:0:0:
75,166,5898,5,4,0:3:0:0:
75,166,6680,2,0,L|66:66,1,99.9999999999999,4|4,0:3|0:3,0:0:0:0:
248,152,7852,2,0,L|240:53,1,99.9999999999999,4|4,0:3|0:3,0:0:0:0:
421,137,9025,2,0,L|413:38,2,99.9999999999999,4|4|0,0:3|0:3|1:0,0:0:0:0:
431,237,10198,1,0,3:0:0:0:
372,317,10589,6,0,P|305:315|176:263,1,200,4|4,0:0|0:3,0:0:0:0:
121,188,11761,1,0,1:0:0:0:
193,119,12152,2,0,P|273:101|300:76,1,99.9999999999999,4|0,0:3|1:0,0:0:0:0:
210,24,12934,1,4,0:3:0:0:
115,56,13325,1,0,1:0:0:0:
19,85,13716,6,0,P|-17:186|-2:290,1,200,4|4,0:3|0:3,0:0:0:0:
68,341,14888,1,0,1:0:0:0:
155,292,15279,2,0,P|211:273|257:281,1,99.9999999999999,4|0,0:3|1:0,0:0:0:0:
318,351,16061,2,0,P|374:370|420:362,1,99.9999999999999,4|0,0:3|1:0,0:0:0:0:
486,295,16843,5,4,0:3:0:0:
417,222,17234,1,0,1:0:0:0:
461,132,17624,1,4,0:3:0:0:
168,65,18797,2,0,L|61:80,2,99.9999999999999,4|4|4,0:3|0:3|0:3,0:0:0:0:
267,49,19970,6,0,L|421:26,2,150,2|2|2,0:0|0:0|0:0,0:0:0:0:
310,139,21533,2,0,L|409:124,2,99.9999999999999,2|0|4,0:0|0:0|0:3,0:0:0:0:
256,223,22706,1,0,1:0:0:0:
178,159,23097,6,0,P|91:160|19:253,1,200,4|4,0:1|0:3,0:0:0:0:
102,298,24269,1,0,1:0:0:0:
185,352,24660,2,0,L|300:362,1,99.9999999999999,4|0,0:3|1:0,0:0:0:0:
382,328,25442,2,0,P|407:253|394:217,1,99.9999999999999,4|0,0:3|1:0,0:0:0:0:
443,141,26224,6,0,P|406:201|285:202,1,200,4|4,0:3|0:3,0:0:0:0:
221,129,27396,1,0,1:0:0:0:
124,154,27787,2,0,L|111:259,1,99.9999999999999,4|0,0:3|1:0,0:0:0:0:
158,341,28569,6,0,B|223:306|223:306|305:331,1,150,4|4,0:0|1:0,0:0:0:0:
395,339,29546,2,4,P|395:311|386:277,1,50,4|4,0:3|0:3,0:0:0:0:
309,232,30133,2,0,L|128:179,2,175,0|4|4,1:0|0:0|0:0,0:0:0:0:
414,242,31892,2,4,P|414:214|405:180,1,50,2|0,3:2|1:3,0:0:0:0:
320,135,32478,6,0,P|307:89|331:22,1,99.9999999999999,4|0,0:0|1:3,0:0:0:0:
230,0,33260,2,0,P|196:33|126:46,1,99.9999999999999,4|0,0:3|1:0,0:0:0:0:
52,80,34041,2,0,P|139:104|120:283,1,300,0|0,1:0|1:0,0:0:0:0:
53,351,35605,6,0,P|158:317|252:316,1,200,4|4,0:3|0:3,0:0:0:0:
339,354,36778,1,0,1:0:0:0:
438,345,37168,2,0,P|462:294|454:234,1,99.9999999999999,4|0,0:3|1:0,0:0:0:0:
377,194,37950,2,0,P|353:143|361:83,1,99.9999999999999,4|0,0:3|1:0,0:0:0:0:
418,22,38732,6,0,P|375:63|238:61,1,200,4|4,0:3|0:3,0:0:0:0:
151,19,39905,1,2,1:2:0:0:
59,58,40295,2,0,P|34:144|45:168,1,99.9999999999999,4|0,0:3|1:0,0:0:0:0:
124,195,41077,1,4,0:3:0:0:
209,247,41468,1,0,1:0:0:0:
296,296,41859,6,0,P|341:273|407:279,1,99.9999999999999,4|0,0:3|1:0,0:0:0:0:
429,181,42641,2,0,P|470:211|493:271,2,99.9999999999999,4|0|4,0:0|1:0|0:3,0:0:0:0:
330,161,43813,1,0,1:0:0:0:
261,88,44204,2,0,P|305:64|371:70,2,99.9999999999999,4|0|4,0:0|1:0|0:3,0:0:0:0:
201,168,45377,1,4,1:3:0:0:
103,189,45768,2,0,P|105:138|143:84,1,99.9999999999999,4|0,0:0|1:0,0:0:0:0:
193,18,46550,6,0,B|126:54|126:54|34:34,2,150,2|2|2,0:0|0:0|0:0,0:0:0:0:
256,192,48113,12,2,49677,0:0:0:0:
77,117,51240,6,0,P|142:57|252:88,1,200,4|4,1:0|0:3,0:0:0:0:
313,150,52413,1,0,1:0:0:0:
385,218,52804,2,0,P|452:208|487:182,1,99.9999999999999,4|0,0:3|1:0,0:0:0:0:
408,119,53585,1,4,0:3:0:0:
475,45,53976,1,0,1:0:0:0:
377,22,54367,6,0,L|168:49,1,200,4|4,0:3|0:3,0:0:0:0:
94,102,55540,1,0,1:0:0:0:
12,159,55931,2,0,P|33:242|60:261,1,99.9999999999999,4|0,0:3|1:0,0:0:0:0:
136,276,56712,6,0,B|172:208|172:208|253:193,1,150,4|4,0:0|1:0,0:0:0:0:
336,156,57690,2,4,P|316:122|296:104,1,50,4|4,0:3|0:3,0:0:0:0:
212,102,58276,2,0,L|34:132,2,175,4|4|4,0:0|1:2|1:2,0:0:0:0:
316,104,60035,2,0,P|312:129|302:152,1,50,2|0,3:2|1:0,0:0:0:0:
213,199,60621,6,0,P|214:246|255:302,1,99.9999999999999,4|0,0:3|1:0,0:0:0:0:
339,277,61403,2,0,P|400:277|445:312,1,99.9999999999999,4|0,0:3|1:0,0:0:0:0:
497,372,62185,2,0,B|452:304|480:213|526:241|546:158|493:73,1,300,0|0,1:0|1:0,0:0:0:0:
413,40,63748,6,0,P|329:65|296:165,1,200,4|4,1:0|0:3,0:0:0:0:
342,253,64921,1,0,1:0:0:0:
300,343,65312,2,0,P|235:367|186:352,1,99.9999999999999,4|0,0:3|1:0,0:0:0:0:
119,313,66093,1,4,0:3:0:0:
153,218,66484,1,0,1:0:0:0:
102,131,66875,6,0,P|169:184|281:153,1,200,4|4,0:3|0:3,0:0:0:0:
328,75,68048,1,0,1:0:0:0:
426,92,68439,2,0,P|446:201|444:206,1,99.9999999999999,4|0,0:3|1:0,0:0:0:0:
405,274,69221,6,0,B|329:260|329:260|265:318,1,150,4|4,0:0|1:0,0:0:0:0:
196,370,70198,2,4,P|175:325|174:303,1,50,4|4,0:3|0:3,0:0:0:0:
210,230,70784,2,0,L|342:112,2,175,4|4|4,0:0|1:2|1:2,0:0:0:0:
119,280,72543,2,0,P|110:256|107:231,1,50,2|0,3:2|1:0,0:0:0:0:
161,145,73129,6,0,P|126:116|64:107,1,99.9999999999999,4|0,0:3|1:0,0:0:0:0:
0,38,73911,2,0,P|45:12|108:14,1,99.9999999999999,4|0,0:3|1:0,0:0:0:0:
187,40,74693,2,0,P|290:48|497:-1,1,300,0|0,1:0|1:0,0:0:0:0:
488,106,76256,6,0,P|423:169|432:287,1,200,4|4,0:3|0:3,0:0:0:0:
366,355,77429,1,0,1:0:0:0:
277,308,77820,2,0,P|286:242|270:202,1,99.9999999999999,4|0,0:3|1:0,0:0:0:0:
188,161,78602,1,4,0:3:0:0:
111,225,78993,1,0,1:0:0:0:
99,125,79383,6,0,P|177:65|264:103,1,200,4|4,0:3|0:3,0:0:0:0:
353,143,80556,1,0,1:0:0:0:
445,104,80947,2,0,L|457:223,1,99.9999999999999,4|0,0:3|1:0,0:0:0:0:
409,292,81729,6,0,B|357:238|357:238|276:251,1,150,4|4,0:0|1:0,0:0:0:0:
182,253,82706,2,4,P|187:215|202:185,1,50,4|4,0:3|0:3,0:0:0:0:
279,151,83292,2,0,L|455:127,2,175,4|4|4,0:0|0:0|1:2,0:0:0:0:
180,174,85051,2,0,P|187:197|200:218,1,50,2|0,3:2|1:0,0:0:0:0:
292,261,85637,6,0,P|326:337|321:369,1,99.9999999999999,4|0,0:3|1:0,0:0:0:0:
226,333,86419,2,0,P|143:351|119:373,1,99.9999999999999,4|0,0:3|1:0,0:0:0:0:
46,308,87201,2,0,P|23:208|188:172,1,300,0|0,1:0|1:0,0:0:0:0:
247,90,88765,6,0,L|363:73,1,99.9999999999999,4|0,1:0|1:0,0:0:0:0:
386,166,89546,2,0,L|288:181,1,99.9999999999999,4|0,0:3|1:0,0:0:0:0:
329,271,90328,2,0,L|427:256,2,99.9999999999999,4|0|4,0:3|1:0|0:3,0:0:0:0:
230,288,91501,1,0,1:0:0:0:
158,217,91892,6,0,P|39:228|7:309,1,200,4|4,0:3|0:3,0:0:0:0:
105,302,93064,1,0,1:0:0:0:
170,377,93455,2,0,L|283:368,1,99.9999999999999,4|0,0:3|1:0,0:0:0:0:
361,333,94237,6,0,B|393:262|393:262|344:187,1,150,4|4,0:0|1:0,0:0:0:0:
302,115,95214,2,4,P|356:100|371:101,1,50,4|4,0:3|0:3,0:0:0:0:
438,148,95800,2,0,L|534:292,2,171.49999842987,4|4|4,0:0|0:0|1:2,0:0:0:0:
375,66,97559,2,0,P|346:68|312:79,1,50,2|0,3:2|1:0,0:0:0:0:
264,154,98146,6,0,P|177:132|155:114,1,99.9999999999999,4|0,0:3|1:0,0:0:0:0:
80,172,98927,2,0,P|83:221|103:266,1,99.9999999999999,4|0,0:3|1:0,0:0:0:0:
169,342,99709,2,0,B|239:386|322:366|294:320|385:292|453:337,1,300,0|0,1:0|1:0,0:0:0:0:
506,252,101273,6,0,L|479:41,1,200,4|4,0:3|0:3,0:0:0:0:
388,14,102445,1,0,1:0:0:0:
345,104,102836,2,0,P|259:105|162:31,1,200,4|4,0:3|0:3,0:0:0:0:
71,16,104009,1,0,1:0:0:0:
4,90,104400,6,0,L|23:211,1,99.9999999999999,4|0,0:3|1:0,0:0:0:0:
82,266,105181,2,0,B|139:219|139:219|225:237,1,150,4|4,0:0|1:0,0:0:0:0:
430,118,106745,2,0,B|373:165|373:165|287:147,1,150,4|12,0:0|1:0,0:0:0:0:
256,192,107429,12,0,110458,0:0:0:0:
