osu file format v14

[General]
AudioFilename: Xi - Zauberkugel.mp3
AudioLeadIn: 0
PreviewTime: 85646
Countdown: 0
SampleSet: Normal
StackLeniency: 0.8
Mode: 1
LetterboxInBreaks: 1
WidescreenStoryboard: 1

[Editor]
DistanceSpacing: 1.5
BeatDivisor: 4
GridSize: 32
TimelineZoom: 1.8

[Metadata]
Title:Zauberkugel
TitleUnicode:Zauberkugel
Artist:xi
ArtistUnicode:xi
Creator:Dark Espeon
Version:Ultima Oni
Source:Cytus
Tags:
BeatmapID:950193
BeatmapSetID:266659

[Difficulty]
HPDrainRate:7.7
CircleSize:6
OverallDifficulty:8.3
ApproachRate:4.7
SliderMultiplier:1.5
SliderTickRate:1

[Events]
//Background and Video events
0,0,"maxresdefault.jpg",0,0
//Break Periods
//Storyboard Layer 0 (Background)
//Storyboard Layer 1 (Fail)
//Storyboard Layer 2 (Pass)
//Storyboard Layer 3 (Foreground)
//Storyboard Sound Samples

[TimingPoints]
2743,390.878690671031,4,1,0,75,1,0
24645,-100,4,1,0,75,0,1
37153,-100,4,1,0,75,0,0
62169,-133.333333333333,4,1,0,75,0,0
74029,-100,4,1,0,75,0,0
90312,-100,4,1,0,75,0,1
115328,-100,4,1,0,75,0,0

[HitObjects]
256,192,2156,5,0,0:0:0:0:
256,192,2352,1,12,0:0:0:0:
256,192,2742,1,0,0:0:0:0:
256,192,3036,1,0,0:0:0:0:
256,192,3329,1,0,0:0:0:0:
256,192,3427,1,0,0:0:0:0:
256,192,3524,1,0,0:0:0:0:
256,192,3720,1,0,0:0:0:0:
256,192,3817,1,0,0:0:0:0:
256,192,3915,1,8,0:0:0:0:
256,192,4111,1,8,0:0:0:0:
256,192,4208,1,0,0:0:0:0:
256,192,4501,1,0,0:0:0:0:
256,192,4599,1,0,0:0:0:0:
256,192,4697,1,8,0:0:0:0:
256,192,4795,1,0,0:0:0:0:
256,192,4892,1,8,0:0:0:0:
256,192,5088,1,0,0:0:0:0:
256,192,5283,1,0,0:0:0:0:
256,192,5381,1,0,0:0:0:0:
256,192,5479,1,8,0:0:0:0:
256,192,5674,1,0,0:0:0:0:
256,192,5870,1,8,0:0:0:0:
256,192,6065,1,0,0:0:0:0:
256,192,6260,1,0,0:0:0:0:
256,192,6456,1,0,0:0:0:0:
256,192,6554,1,0,0:0:0:0:
256,192,6651,1,0,0:0:0:0:
256,192,6847,1,0,0:0:0:0:
256,192,6944,1,0,0:0:0:0:
256,192,7042,1,8,0:0:0:0:
256,192,7140,1,0,0:0:0:0:
256,192,7238,1,8,0:0:0:0:
256,192,7335,1,8,0:0:0:0:
256,192,7433,1,0,0:0:0:0:
256,192,7726,1,0,0:0:0:0:
256,192,8019,1,0,0:0:0:0:
256,192,8117,1,0,0:0:0:0:
256,192,8215,1,0,0:0:0:0:
256,192,8410,1,0,0:0:0:0:
256,192,8508,1,8,0:0:0:0:
256,192,8801,1,8,0:0:0:0:
256,192,8899,1,0,0:0:0:0:
256,192,8997,1,8,0:0:0:0:
256,192,9192,1,0,0:0:0:0:
256,192,9290,1,8,0:0:0:0:
256,192,9387,1,0,0:0:0:0:
256,192,9485,1,8,0:0:0:0:
256,192,9583,1,0,0:0:0:0:
256,192,9681,1,8,0:0:0:0:
256,192,9778,1,0,0:0:0:0:
256,192,9876,1,8,0:0:0:0:
256,192,9974,1,0,0:0:0:0:
256,192,10071,1,8,0:0:0:0:
256,192,10169,1,0,0:0:0:0:
256,192,10234,1,8,0:0:0:0:
256,192,10299,1,0,0:0:0:0:
256,192,10365,1,8,0:0:0:0:
256,192,10430,1,0,0:0:0:0:
256,192,10495,1,0,0:0:0:0:
256,192,10560,1,0,0:0:0:0:
256,192,10756,1,0,0:0:0:0:
256,192,10853,1,0,0:0:0:0:
256,192,10951,1,0,0:0:0:0:
256,192,11146,1,0,0:0:0:0:
256,192,11244,1,0,0:0:0:0:
256,192,11342,1,0,0:0:0:0:
256,192,11440,1,8,0:0:0:0:
256,192,11635,1,8,0:0:0:0:
256,192,11733,1,0,0:0:0:0:
256,192,11928,1,8,0:0:0:0:
256,192,11993,1,8,0:0:0:0:
256,192,12058,1,8,0:0:0:0:
256,192,12124,1,0,0:0:0:0:
256,192,12417,1,0,0:0:0:0:
256,192,12710,1,0,0:0:0:0:
256,192,12808,1,0,0:0:0:0:
256,192,12905,1,0,0:0:0:0:
256,192,13101,1,0,0:0:0:0:
256,192,13199,1,0,0:0:0:0:
256,192,13296,1,8,0:0:0:0:
256,192,13394,1,0,0:0:0:0:
256,192,13492,1,8,0:0:0:0:
256,192,13687,1,0,0:0:0:0:
256,192,13883,1,8,0:0:0:0:
256,192,13980,1,0,0:0:0:0:
256,192,14078,1,8,0:0:0:0:
256,192,14176,1,0,0:0:0:0:
256,192,14273,1,8,0:0:0:0:
256,192,14371,1,8,0:0:0:0:
256,192,14469,1,0,0:0:0:0:
256,192,14664,1,0,0:0:0:0:
256,192,14762,1,0,0:0:0:0:
256,192,14860,1,8,0:0:0:0:
256,192,15055,1,8,0:0:0:0:
256,192,15251,1,8,0:0:0:0:
256,192,15348,1,8,0:0:0:0:
256,192,15446,1,0,0:0:0:0:
256,192,15544,1,0,0:0:0:0:
256,192,15641,1,8,0:0:0:0:
256,192,15739,1,0,0:0:0:0:
256,192,15837,1,0,0:0:0:0:
256,192,15935,1,0,0:0:0:0:
256,192,16032,1,8,0:0:0:0:
256,192,16130,1,0,0:0:0:0:
256,192,16228,1,0,0:0:0:0:
256,192,16423,1,8,0:0:0:0:
256,192,16488,1,8,0:0:0:0:
256,192,16554,1,8,0:0:0:0:
256,192,16619,1,8,0:0:0:0:
256,192,16684,1,8,0:0:0:0:
256,192,16749,1,8,0:0:0:0:
256,192,16814,1,0,0:0:0:0:
256,192,17107,1,8,0:0:0:0:
256,192,17400,1,8,0:0:0:0:
256,192,17498,1,8,0:0:0:0:
256,192,17596,1,0,0:0:0:0:
256,192,17791,1,0,0:0:0:0:
256,192,17987,1,0,0:0:0:0:
256,192,18084,1,0,0:0:0:0:
256,192,18182,1,8,0:0:0:0:
256,192,18280,1,8,0:0:0:0:
256,192,18378,1,0,0:0:0:0:
256,192,18475,1,0,0:0:0:0:
256,192,18573,1,8,0:0:0:0:
256,192,18671,1,8,0:0:0:0:
256,192,18866,1,0,0:0:0:0:
256,192,18964,1,0,0:0:0:0:
256,192,19062,1,8,0:0:0:0:
256,192,19159,1,8,0:0:0:0:
256,192,19257,1,0,0:0:0:0:
256,192,19355,1,8,0:0:0:0:
256,192,19550,1,8,0:0:0:0:
256,192,19648,1,8,0:0:0:0:
256,192,19746,1,0,0:0:0:0:
256,192,19941,1,8,0:0:0:0:
256,192,20039,1,0,0:0:0:0:
256,192,20137,1,8,0:0:0:0:
256,192,20332,1,8,0:0:0:0:
256,192,20397,1,8,0:0:0:0:
256,192,20462,1,8,0:0:0:0:
256,192,20527,1,8,0:0:0:0:
256,192,20593,1,8,0:0:0:0:
256,192,20658,1,8,0:0:0:0:
256,192,20723,1,8,0:0:0:0:
256,192,20788,1,8,0:0:0:0:
256,192,20853,1,8,0:0:0:0:
256,192,20918,1,0,0:0:0:0:
256,192,20984,1,0,0:0:0:0:
256,192,21049,1,0,0:0:0:0:
256,192,21114,1,0,0:0:0:0:
256,192,21179,1,0,0:0:0:0:
256,192,21244,1,0,0:0:0:0:
256,192,21309,1,0,0:0:0:0:
256,192,21505,1,4,0:0:0:0:
256,192,21602,1,0,0:0:0:0:
256,192,22091,1,4,0:0:0:0:
256,192,22189,1,0,0:0:0:0:
256,192,22677,1,4,0:0:0:0:
256,192,22873,1,8,0:0:0:0:
256,192,22938,1,8,0:0:0:0:
256,192,23003,1,8,0:0:0:0:
256,192,23068,1,8,0:0:0:0:
256,192,23166,1,0,0:0:0:0:
256,192,23264,1,8,0:0:0:0:
256,192,23361,1,0,0:0:0:0:
256,192,23459,1,8,0:0:0:0:
256,192,23557,1,0,0:0:0:0:
256,192,23655,1,8,0:0:0:0:
256,192,23720,1,0,0:0:0:0:
256,192,23785,1,0,0:0:0:0:
256,192,23850,1,0,0:0:0:0:
256,192,24045,1,4,0:0:0:0:
256,192,24241,1,4,0:0:0:0:
256,192,24632,1,8,0:0:0:0:
256,192,24697,1,8,0:0:0:0:
256,192,24762,1,8,0:0:0:0:
256,192,24827,1,0,0:0:0:0:
256,192,24925,1,0,0:0:0:0:
256,192,25023,1,0,0:0:0:0:
256,192,25218,1,0,0:0:0:0:
256,192,25413,1,0,0:0:0:0:
256,192,25609,1,8,0:0:0:0:
256,192,25707,1,0,0:0:0:0:
256,192,25902,1,8,0:0:0:0:
256,192,26000,1,0,0:0:0:0:
256,192,26195,1,0,0:0:0:0:
256,192,26293,1,0,0:0:0:0:
256,192,26391,1,8,0:0:0:0:
256,192,26488,1,8,0:0:0:0:
256,192,26586,1,0,0:0:0:0:
256,192,26684,1,0,0:0:0:0:
256,192,26782,1,8,0:0:0:0:
256,192,26879,1,0,0:0:0:0:
256,192,26977,1,8,0:0:0:0:
256,192,27075,1,8,0:0:0:0:
256,192,27270,1,0,0:0:0:0:
256,192,27563,1,8,0:0:0:0:
256,192,27759,1,0,0:0:0:0:
256,192,27954,1,8,0:0:0:0:
256,192,28052,1,8,0:0:0:0:
256,192,28150,1,0,0:0:0:0:
256,192,28247,1,8,0:0:0:0:
256,192,28345,1,0,0:0:0:0:
256,192,28443,1,0,0:0:0:0:
256,192,28540,1,8,0:0:0:0:
256,192,28638,1,0,0:0:0:0:
256,192,28736,1,0,0:0:0:0:
256,192,28834,1,8,0:0:0:0:
256,192,28931,1,0,0:0:0:0:
256,192,29029,1,0,0:0:0:0:
256,192,29127,1,8,0:0:0:0:
256,192,29225,1,0,0:0:0:0:
256,192,29322,1,0,0:0:0:0:
256,192,29420,1,8,0:0:0:0:
256,192,29518,1,0,0:0:0:0:
256,192,29615,1,0,0:0:0:0:
256,192,29713,1,8,0:0:0:0:
256,192,29778,1,8,0:0:0:0:
256,192,29843,1,8,0:0:0:0:
256,192,29909,1,8,0:0:0:0:
256,192,30104,1,4,0:0:0:0:
256,192,30397,1,4,0:0:0:0:
256,192,30690,1,4,0:0:0:0:
256,192,30886,1,0,0:0:0:0:
256,192,31081,1,0,0:0:0:0:
256,192,31146,1,0,0:0:0:0:
256,192,31211,1,0,0:0:0:0:
256,192,31277,1,8,0:0:0:0:
256,192,31374,1,0,0:0:0:0:
256,192,31472,1,0,0:0:0:0:
256,192,31668,1,8,0:0:0:0:
256,192,31863,1,8,0:0:0:0:
256,192,31961,1,0,0:0:0:0:
256,192,32156,1,8,0:0:0:0:
256,192,32352,1,8,0:0:0:0:
256,192,32547,1,0,0:0:0:0:
256,192,32645,1,8,0:0:0:0:
256,192,32710,1,0,0:0:0:0:
256,192,32775,1,0,0:0:0:0:
256,192,32840,1,0,0:0:0:0:
256,192,33036,1,0,0:0:0:0:
256,192,33426,1,8,0:0:0:0:
256,192,33524,1,0,0:0:0:0:
256,192,33622,1,8,0:0:0:0:
256,192,33687,1,0,0:0:0:0:
256,192,33752,1,0,0:0:0:0:
256,192,33817,1,8,0:0:0:0:
256,192,34013,1,8,0:0:0:0:
256,192,34111,1,8,0:0:0:0:
256,192,34208,1,0,0:0:0:0:
256,192,34306,1,0,0:0:0:0:
256,192,34404,1,8,0:0:0:0:
256,192,34501,1,8,0:0:0:0:
256,192,34599,1,0,0:0:0:0:
256,192,34697,1,0,0:0:0:0:
256,192,34795,1,8,0:0:0:0:
256,192,34990,1,8,0:0:0:0:
256,192,35088,1,0,0:0:0:0:
256,192,35185,1,8,0:0:0:0:
256,192,35283,1,0,0:0:0:0:
256,192,35381,1,0,0:0:0:0:
256,192,35576,1,8,0:0:0:0:
256,192,35641,1,8,0:0:0:0:
256,192,35707,1,8,0:0:0:0:
256,192,35772,1,8,0:0:0:0:
256,192,35869,1,4,0:0:0:0:
256,192,36065,1,12,0:0:0:0:
256,192,36260,1,4,0:0:0:0:
256,192,36554,1,4,0:0:0:0:
256,192,36749,1,4,0:0:0:0:
256,192,37140,1,8,0:0:0:0:
256,192,37238,1,0,0:0:0:0:
256,192,37335,1,0,0:0:0:0:
256,192,37433,1,8,0:0:0:0:
256,192,37531,1,0,0:0:0:0:
256,192,37628,1,0,0:0:0:0:
256,192,37726,1,8,0:0:0:0:
256,192,37824,1,0,0:0:0:0:
256,192,37922,1,8,0:0:0:0:
256,192,37987,1,8,0:0:0:0:
256,192,38052,1,8,0:0:0:0:
256,192,38117,1,0,0:0:0:0:
256,192,38215,1,8,0:0:0:0:
256,192,38312,1,8,0:0:0:0:
256,192,38410,1,8,0:0:0:0:
256,192,38508,1,0,0:0:0:0:
256,192,38606,1,0,0:0:0:0:
256,192,38703,1,8,0:0:0:0:
256,192,38801,1,0,0:0:0:0:
256,192,38899,1,8,0:0:0:0:
256,192,38996,1,0,0:0:0:0:
256,192,39094,1,8,0:0:0:0:
256,192,39485,1,0,0:0:0:0:
256,192,39583,1,0,0:0:0:0:
256,192,39778,1,0,0:0:0:0:
256,192,40071,1,0,0:0:0:0:
256,192,40267,1,8,0:0:0:0:
256,192,40365,1,8,0:0:0:0:
256,192,40462,1,0,0:0:0:0:
256,192,40560,1,8,0:0:0:0:
256,192,40658,1,0,0:0:0:0:
256,192,40755,1,8,0:0:0:0:
256,192,40853,1,0,0:0:0:0:
256,192,41049,1,8,0:0:0:0:
256,192,41146,1,0,0:0:0:0:
256,192,41244,1,0,0:0:0:0:
256,192,41342,1,0,0:0:0:0:
256,192,41439,1,8,0:0:0:0:
256,192,41537,1,0,0:0:0:0:
256,192,41635,1,8,0:0:0:0:
256,192,41733,1,0,0:0:0:0:
256,192,41830,1,8,0:0:0:0:
256,192,41928,1,8,0:0:0:0:
256,192,42026,1,0,0:0:0:0:
256,192,42124,1,0,0:0:0:0:
256,192,42221,1,8,0:0:0:0:
256,192,42319,1,8,0:0:0:0:
256,192,42417,1,0,0:0:0:0:
256,192,42612,1,0,0:0:0:0:
256,192,42905,1,0,0:0:0:0:
256,192,43198,1,0,0:0:0:0:
256,192,43394,1,4,0:0:0:0:
256,192,43687,1,4,0:0:0:0:
256,192,43980,1,4,0:0:0:0:
256,192,44176,1,0,0:0:0:0:
256,192,44241,1,0,0:0:0:0:
256,192,44306,1,0,0:0:0:0:
256,192,44371,1,8,0:0:0:0:
256,192,44567,1,4,0:0:0:0:
256,192,44860,1,4,0:0:0:0:
256,192,45153,1,4,0:0:0:0:
256,192,45348,1,8,0:0:0:0:
256,192,45413,1,8,0:0:0:0:
256,192,45479,1,0,0:0:0:0:
256,192,45544,1,8,0:0:0:0:
256,192,45739,1,4,0:0:0:0:
256,192,46032,1,4,0:0:0:0:
256,192,46325,1,4,0:0:0:0:
256,192,46521,1,0,0:0:0:0:
256,192,46716,1,0,0:0:0:0:
256,192,46912,1,8,0:0:0:0:
256,192,47010,1,0,0:0:0:0:
256,192,47107,1,0,0:0:0:0:
256,192,47205,1,8,0:0:0:0:
256,192,47303,1,0,0:0:0:0:
256,192,47400,1,0,0:0:0:0:
256,192,47498,1,8,0:0:0:0:
256,192,47596,1,0,0:0:0:0:
256,192,47694,1,8,0:0:0:0:
256,192,47759,1,0,0:0:0:0:
256,192,47824,1,0,0:0:0:0:
256,192,47889,1,8,0:0:0:0:
256,192,48084,1,4,0:0:0:0:
256,192,48378,1,4,0:0:0:0:
256,192,48671,1,4,0:0:0:0:
256,192,48866,1,0,0:0:0:0:
256,192,48931,1,0,0:0:0:0:
256,192,48996,1,0,0:0:0:0:
256,192,49062,1,8,0:0:0:0:
256,192,49257,1,4,0:0:0:0:
256,192,49550,1,4,0:0:0:0:
256,192,49843,1,4,0:0:0:0:
256,192,50039,1,8,0:0:0:0:
256,192,50104,1,8,0:0:0:0:
256,192,50169,1,8,0:0:0:0:
256,192,50234,1,8,0:0:0:0:
256,192,50430,1,4,0:0:0:0:
256,192,50723,1,4,0:0:0:0:
256,192,51016,1,4,0:0:0:0:
256,192,51211,1,0,0:0:0:0:
256,192,51407,1,0,0:0:0:0:
256,192,51602,1,8,0:0:0:0:
256,192,51700,1,0,0:0:0:0:
256,192,51798,1,8,0:0:0:0:
256,192,51895,1,0,0:0:0:0:
256,192,51993,1,8,0:0:0:0:
256,192,52091,1,0,0:0:0:0:
256,192,52189,1,0,0:0:0:0:
256,192,52254,1,0,0:0:0:0:
256,192,52319,1,0,0:0:0:0:
256,192,52384,1,8,0:0:0:0:
256,192,52449,1,0,0:0:0:0:
256,192,52514,1,0,0:0:0:0:
256,192,52580,1,8,0:0:0:0:
256,192,52775,1,4,0:0:0:0:
256,192,52970,1,0,0:0:0:0:
256,192,53068,1,0,0:0:0:0:
256,192,53166,1,0,0:0:0:0:
256,192,53361,1,0,0:0:0:0:
256,192,53459,1,0,0:0:0:0:
256,192,53557,1,8,0:0:0:0:
256,192,53654,1,0,0:0:0:0:
256,192,53752,1,8,0:0:0:0:
256,192,53948,1,4,0:0:0:0:
256,192,54143,1,0,0:0:0:0:
256,192,54241,1,0,0:0:0:0:
256,192,54338,1,0,0:0:0:0:
256,192,54534,1,0,0:0:0:0:
256,192,54632,1,0,0:0:0:0:
256,192,54729,1,8,0:0:0:0:
256,192,54827,1,8,0:0:0:0:
256,192,54925,1,8,0:0:0:0:
256,192,55120,1,4,0:0:0:0:
256,192,55316,1,0,0:0:0:0:
256,192,55413,1,0,0:0:0:0:
256,192,55511,1,8,0:0:0:0:
256,192,55609,1,0,0:0:0:0:
256,192,55707,1,0,0:0:0:0:
256,192,55804,1,0,0:0:0:0:
256,192,55902,1,8,0:0:0:0:
256,192,56097,1,0,0:0:0:0:
256,192,56293,1,0,0:0:0:0:
256,192,56488,1,0,0:0:0:0:
256,192,56553,1,0,0:0:0:0:
256,192,56619,1,0,0:0:0:0:
256,192,56684,1,8,0:0:0:0:
256,192,56812,1,0,0:0:0:0:
256,192,56942,1,0,0:0:0:0:
256,192,57073,1,0,0:0:0:0:
256,192,57270,1,0,0:0:0:0:
256,192,57368,1,0,0:0:0:0:
256,192,57466,1,0,0:0:0:0:
256,192,57661,1,0,0:0:0:0:
256,192,57759,1,0,0:0:0:0:
256,192,57856,1,8,0:0:0:0:
256,192,57954,1,0,0:0:0:0:
256,192,58052,1,8,0:0:0:0:
256,192,58247,1,0,0:0:0:0:
256,192,58443,1,0,0:0:0:0:
256,192,58540,1,0,0:0:0:0:
256,192,58638,1,0,0:0:0:0:
256,192,58736,1,8,0:0:0:0:
256,192,58834,1,0,0:0:0:0:
256,192,58931,1,0,0:0:0:0:
256,192,59029,1,8,0:0:0:0:
256,192,59094,1,8,0:0:0:0:
256,192,59159,1,8,0:0:0:0:
256,192,59224,1,8,0:0:0:0:
256,192,59420,1,0,0:0:0:0:
256,192,59615,1,0,0:0:0:0:
256,192,59713,1,8,0:0:0:0:
256,192,59909,1,0,0:0:0:0:
256,192,60006,1,8,0:0:0:0:
256,192,60202,1,0,0:0:0:0:
256,192,60299,1,8,0:0:0:0:
256,192,60495,1,0,0:0:0:0:
256,192,60593,1,8,0:0:0:0:
256,192,60788,1,0,0:0:0:0:
256,192,60886,1,8,0:0:0:0:
256,192,61081,1,0,0:0:0:0:
256,192,61179,1,8,0:0:0:0:
256,192,61374,1,0,0:0:0:0:
256,192,61472,1,8,0:0:0:0:
256,192,61570,1,0,0:0:0:0:
256,192,61667,1,0,0:0:0:0:
256,192,61765,1,8,0:0:0:0:
256,192,61863,1,0,0:0:0:0:
256,192,61961,1,0,0:0:0:0:
256,192,62026,1,8,0:0:0:0:
256,192,62091,1,8,0:0:0:0:
256,192,62156,1,0,0:0:0:0:
256,192,62449,1,0,0:0:0:0:
256,192,62742,1,8,0:0:0:0:
256,192,63133,1,8,0:0:0:0:
256,192,63329,1,8,0:0:0:0:
256,192,63524,1,8,0:0:0:0:
256,192,63915,1,0,0:0:0:0:
256,192,64306,1,0,0:0:0:0:
256,192,64697,1,0,0:0:0:0:
256,192,65088,1,8,0:0:0:0:
256,192,65283,1,0,0:0:0:0:
256,192,65576,1,8,0:0:0:0:
256,192,65869,1,0,0:0:0:0:
256,192,66260,1,8,0:0:0:0:
256,192,66358,1,8,0:0:0:0:
256,192,66456,1,8,0:0:0:0:
256,192,66553,1,8,0:0:0:0:
256,192,66651,1,0,0:0:0:0:
256,192,67042,1,8,0:0:0:0:
256,192,67433,1,8,0:0:0:0:
256,192,67824,1,8,0:0:0:0:
256,192,68215,1,8,0:0:0:0:
256,192,68410,1,4,0:0:0:0:
256,192,68703,1,0,0:0:0:0:
256,192,68801,1,0,0:0:0:0:
256,192,68996,1,0,0:0:0:0:
256,192,69387,1,8,0:0:0:0:
256,192,69583,1,8,0:0:0:0:
256,192,69680,1,8,0:0:0:0:
256,192,69778,1,0,0:0:0:0:
256,192,70169,1,8,0:0:0:0:
256,192,70365,1,8,0:0:0:0:
256,192,70462,1,8,0:0:0:0:
256,192,70560,1,0,0:0:0:0:
256,192,70951,1,0,0:0:0:0:
256,192,71146,1,8,0:0:0:0:
256,192,71342,1,0,0:0:0:0:
256,192,71537,1,0,0:0:0:0:
256,192,71635,1,0,0:0:0:0:
256,192,71733,1,0,0:0:0:0:
256,192,71830,1,0,0:0:0:0:
256,192,71928,1,0,0:0:0:0:
256,192,72026,1,0,0:0:0:0:
256,192,72123,1,0,0:0:0:0:
256,192,72221,1,0,0:0:0:0:
256,192,72319,1,0,0:0:0:0:
256,192,72384,1,0,0:0:0:0:
256,192,72449,1,0,0:0:0:0:
256,192,72514,1,0,0:0:0:0:
256,192,72579,1,0,0:0:0:0:
256,192,72645,1,0,0:0:0:0:
256,192,72710,1,0,0:0:0:0:
256,192,73101,1,8,0:0:0:0:
256,192,73198,1,0,0:0:0:0:
256,192,73296,1,8,0:0:0:0:
256,192,73394,1,0,0:0:0:0:
256,192,73492,1,8,0:0:0:0:
256,192,73589,1,0,0:0:0:0:
256,192,73687,1,8,0:0:0:0:
256,192,73785,1,0,0:0:0:0:
256,192,73882,1,8,0:0:0:0:
256,192,73980,1,0,0:0:0:0:
256,192,74078,1,8,0:0:0:0:
256,192,74143,1,0,0:0:0:0:
256,192,74208,1,0,0:0:0:0:
256,192,74273,1,8,0:0:0:0:
256,192,74338,1,8,0:0:0:0:
256,192,74404,1,0,0:0:0:0:
256,192,74469,1,8,0:0:0:0:
256,192,74664,1,0,0:0:0:0:
256,192,74860,1,0,0:0:0:0:
256,192,74957,1,8,0:0:0:0:
256,192,75153,1,0,0:0:0:0:
256,192,75250,1,8,0:0:0:0:
256,192,75446,1,0,0:0:0:0:
256,192,75544,1,0,0:0:0:0:
256,192,75641,1,8,0:0:0:0:
256,192,75707,1,0,0:0:0:0:
256,192,75772,1,0,0:0:0:0:
256,192,75837,1,0,0:0:0:0:
256,192,76032,1,8,0:0:0:0:
256,192,76130,1,8,0:0:0:0:
256,192,76228,1,0,0:0:0:0:
256,192,76325,1,0,0:0:0:0:
256,192,76521,1,8,0:0:0:0:
256,192,76619,1,8,0:0:0:0:
256,192,76716,1,0,0:0:0:0:
256,192,76814,1,8,0:0:0:0:
256,192,76912,1,8,0:0:0:0:
256,192,77009,1,8,0:0:0:0:
256,192,77303,1,8,0:0:0:0:
256,192,77400,1,0,0:0:0:0:
256,192,77498,1,0,0:0:0:0:
256,192,77596,1,8,0:0:0:0:
256,192,77693,1,0,0:0:0:0:
256,192,77987,1,8,0:0:0:0:
256,192,78084,1,8,0:0:0:0:
256,192,78182,1,8,0:0:0:0:
256,192,78280,1,0,0:0:0:0:
256,192,78475,1,8,0:0:0:0:
256,192,78671,1,8,0:0:0:0:
256,192,78768,1,0,0:0:0:0:
256,192,78964,1,0,0:0:0:0:
256,192,79062,1,8,0:0:0:0:
256,192,79159,1,0,0:0:0:0:
256,192,79257,1,8,0:0:0:0:
256,192,79355,1,0,0:0:0:0:
256,192,79452,1,8,0:0:0:0:
256,192,79550,1,8,0:0:0:0:
256,192,79746,1,0,0:0:0:0:
256,192,79843,1,8,0:0:0:0:
256,192,80039,1,0,0:0:0:0:
256,192,80136,1,0,0:0:0:0:
256,192,80234,1,0,0:0:0:0:
256,192,80332,1,8,0:0:0:0:
256,192,80430,1,0,0:0:0:0:
256,192,80527,1,8,0:0:0:0:
256,192,80625,1,0,0:0:0:0:
256,192,80723,1,8,0:0:0:0:
256,192,80821,1,8,0:0:0:0:
256,192,80918,1,0,0:0:0:0:
256,192,81114,1,0,0:0:0:0:
256,192,81211,1,0,0:0:0:0:
256,192,81309,1,0,0:0:0:0:
256,192,81407,1,0,0:0:0:0:
256,192,81505,1,8,0:0:0:0:
256,192,81700,1,4,0:0:0:0:
256,192,81993,1,4,0:0:0:0:
256,192,82286,1,12,0:0:0:0:
256,192,82482,1,0,0:0:0:0:
256,192,82677,1,8,0:0:0:0:
256,192,82775,1,8,0:0:0:0:
256,192,82873,1,0,0:0:0:0:
256,192,82970,1,8,0:0:0:0:
256,192,83068,1,8,0:0:0:0:
256,192,83264,1,4,0:0:0:0:
256,192,83557,1,4,0:0:0:0:
256,192,83850,1,12,0:0:0:0:
256,192,84045,1,0,0:0:0:0:
256,192,84241,1,0,0:0:0:0:
256,192,84338,1,8,0:0:0:0:
256,192,84436,1,0,0:0:0:0:
256,192,84534,1,8,0:0:0:0:
256,192,84827,1,4,0:0:0:0:
256,192,85120,1,4,0:0:0:0:
256,192,85413,1,4,0:0:0:0:
256,192,85609,1,0,0:0:0:0:
256,192,85658,1,0,0:0:0:0:
256,192,85707,1,0,0:0:0:0:
256,192,86195,1,8,0:0:0:0:
256,192,86244,1,8,0:0:0:0:
256,192,86293,1,8,0:0:0:0:
256,192,86781,1,0,0:0:0:0:
256,192,86830,1,0,0:0:0:0:
256,192,86879,1,8,0:0:0:0:
256,192,87368,1,8,0:0:0:0:
256,192,87465,1,0,0:0:0:0:
256,192,87563,1,8,0:0:0:0:
256,192,87661,1,0,0:0:0:0:
256,192,87954,1,8,0:0:0:0:
256,192,88052,1,0,0:0:0:0:
256,192,88149,1,8,0:0:0:0:
256,192,88247,1,0,0:0:0:0:
256,192,88345,1,8,0:0:0:0:
256,192,88443,1,8,0:0:0:0:
256,192,88540,1,0,0:0:0:0:
256,192,88638,1,8,0:0:0:0:
256,192,88736,1,0,0:0:0:0:
256,192,88834,1,8,0:0:0:0:
256,192,88931,1,0,0:0:0:0:
256,192,89029,1,8,0:0:0:0:
256,192,89127,1,0,0:0:0:0:
256,192,89224,1,8,0:0:0:0:
256,192,89322,1,0,0:0:0:0:
256,192,89420,1,8,0:0:0:0:
256,192,89518,1,0,0:0:0:0:
256,192,89615,1,8,0:0:0:0:
256,192,89713,1,0,0:0:0:0:
256,192,89811,1,8,0:0:0:0:
256,192,89908,1,0,0:0:0:0:
256,192,89974,1,0,0:0:0:0:
256,192,90039,1,8,0:0:0:0:
256,192,90104,1,8,0:0:0:0:
256,192,90169,1,0,0:0:0:0:
256,192,90234,1,8,0:0:0:0:
256,192,90299,1,0,0:0:0:0:
256,192,90397,1,0,0:0:0:0:
256,192,90495,1,8,0:0:0:0:
256,192,90592,1,0,0:0:0:0:
256,192,90690,1,0,0:0:0:0:
256,192,90886,1,0,0:0:0:0:
256,192,91081,1,0,0:0:0:0:
256,192,91277,1,8,0:0:0:0:
256,192,91374,1,0,0:0:0:0:
256,192,91570,1,8,0:0:0:0:
256,192,91667,1,0,0:0:0:0:
256,192,91863,1,0,0:0:0:0:
256,192,91961,1,0,0:0:0:0:
256,192,92058,1,8,0:0:0:0:
256,192,92156,1,8,0:0:0:0:
256,192,92254,1,0,0:0:0:0:
256,192,92645,1,8,0:0:0:0:
256,192,92742,1,8,0:0:0:0:
256,192,92938,1,0,0:0:0:0:
256,192,93231,1,8,0:0:0:0:
256,192,93426,1,0,0:0:0:0:
256,192,93622,1,8,0:0:0:0:
256,192,93720,1,8,0:0:0:0:
256,192,93817,1,0,0:0:0:0:
256,192,93915,1,8,0:0:0:0:
256,192,94013,1,8,0:0:0:0:
256,192,94208,1,0,0:0:0:0:
256,192,94404,1,8,0:0:0:0:
256,192,94501,1,0,0:0:0:0:
256,192,94697,1,8,0:0:0:0:
256,192,94794,1,0,0:0:0:0:
256,192,94990,1,0,0:0:0:0:
256,192,95088,1,8,0:0:0:0:
256,192,95185,1,0,0:0:0:0:
256,192,95283,1,0,0:0:0:0:
256,192,95381,1,8,0:0:0:0:
256,192,95446,1,8,0:0:0:0:
256,192,95511,1,8,0:0:0:0:
256,192,95576,1,0,0:0:0:0:
256,192,95772,1,4,0:0:0:0:
256,192,96065,1,4,0:0:0:0:
256,192,96358,1,4,0:0:0:0:
256,192,96553,1,0,0:0:0:0:
256,192,96749,1,8,0:0:0:0:
256,192,96814,1,0,0:0:0:0:
256,192,96879,1,0,0:0:0:0:
256,192,96944,1,0,0:0:0:0:
256,192,97042,1,0,0:0:0:0:
256,192,97140,1,0,0:0:0:0:
256,192,97335,1,8,0:0:0:0:
256,192,97531,1,8,0:0:0:0:
256,192,97628,1,0,0:0:0:0:
256,192,97824,1,8,0:0:0:0:
256,192,98019,1,8,0:0:0:0:
256,192,98215,1,8,0:0:0:0:
256,192,98312,1,8,0:0:0:0:
256,192,98410,1,0,0:0:0:0:
256,192,98508,1,0,0:0:0:0:
256,192,98573,1,0,0:0:0:0:
256,192,98638,1,0,0:0:0:0:
256,192,98703,1,0,0:0:0:0:
256,192,99094,1,8,0:0:0:0:
256,192,99192,1,0,0:0:0:0:
256,192,99290,1,8,0:0:0:0:
256,192,99485,1,8,0:0:0:0:
256,192,99680,1,8,0:0:0:0:
256,192,99778,1,8,0:0:0:0:
256,192,99876,1,0,0:0:0:0:
256,192,99974,1,0,0:0:0:0:
256,192,100071,1,8,0:0:0:0:
256,192,100169,1,8,0:0:0:0:
256,192,100267,1,0,0:0:0:0:
256,192,100364,1,0,0:0:0:0:
256,192,100462,1,8,0:0:0:0:
256,192,100658,1,8,0:0:0:0:
256,192,100755,1,8,0:0:0:0:
256,192,100853,1,0,0:0:0:0:
256,192,100951,1,8,0:0:0:0:
256,192,101048,1,0,0:0:0:0:
256,192,101244,1,0,0:0:0:0:
256,192,101293,1,0,0:0:0:0:
256,192,101342,1,0,0:0:0:0:
256,192,101537,1,4,0:0:0:0:
256,192,101733,1,12,0:0:0:0:
256,192,101928,1,4,0:0:0:0:
256,192,102221,1,4,0:0:0:0:
256,192,102417,1,4,0:0:0:0:
256,192,102807,1,8,0:0:0:0:
256,192,102905,1,8,0:0:0:0:
256,192,103003,1,0,0:0:0:0:
256,192,103101,1,0,0:0:0:0:
256,192,103198,1,0,0:0:0:0:
256,192,103394,1,0,0:0:0:0:
256,192,103589,1,0,0:0:0:0:
256,192,103785,1,8,0:0:0:0:
256,192,103882,1,0,0:0:0:0:
256,192,104078,1,8,0:0:0:0:
256,192,104176,1,0,0:0:0:0:
256,192,104371,1,0,0:0:0:0:
256,192,104469,1,0,0:0:0:0:
256,192,104566,1,8,0:0:0:0:
256,192,104664,1,8,0:0:0:0:
256,192,104762,1,0,0:0:0:0:
256,192,105153,1,8,0:0:0:0:
256,192,105250,1,8,0:0:0:0:
256,192,105446,1,0,0:0:0:0:
256,192,105739,1,8,0:0:0:0:
256,192,106130,1,8,0:0:0:0:
256,192,106228,1,8,0:0:0:0:
256,192,106325,1,0,0:0:0:0:
256,192,106423,1,8,0:0:0:0:
256,192,106521,1,8,0:0:0:0:
256,192,106716,1,0,0:0:0:0:
256,192,106912,1,8,0:0:0:0:
256,192,107009,1,0,0:0:0:0:
256,192,107107,1,0,0:0:0:0:
256,192,107205,1,8,0:0:0:0:
256,192,107303,1,0,0:0:0:0:
256,192,107596,1,8,0:0:0:0:
256,192,107693,1,0,0:0:0:0:
256,192,107791,1,0,0:0:0:0:
256,192,107889,1,8,0:0:0:0:
256,192,107954,1,8,0:0:0:0:
256,192,108019,1,8,0:0:0:0:
256,192,108084,1,0,0:0:0:0:
256,192,108280,1,4,0:0:0:0:
256,192,108573,1,4,0:0:0:0:
256,192,108866,1,4,0:0:0:0:
256,192,109062,1,8,0:0:0:0:
256,192,109257,1,8,0:0:0:0:
256,192,109322,1,0,0:0:0:0:
256,192,109387,1,0,0:0:0:0:
256,192,109452,1,0,0:0:0:0:
256,192,109550,1,0,0:0:0:0:
256,192,109648,1,0,0:0:0:0:
256,192,109843,1,8,0:0:0:0:
256,192,110039,1,8,0:0:0:0:
256,192,110136,1,0,0:0:0:0:
256,192,110332,1,8,0:0:0:0:
256,192,110527,1,8,0:0:0:0:
256,192,110723,1,8,0:0:0:0:
256,192,110820,1,8,0:0:0:0:
256,192,110918,1,0,0:0:0:0:
256,192,111016,1,0,0:0:0:0:
256,192,111211,1,0,0:0:0:0:
256,192,111602,1,8,0:0:0:0:
256,192,111667,1,0,0:0:0:0:
256,192,111733,1,0,0:0:0:0:
256,192,111798,1,8,0:0:0:0:
256,192,111993,1,8,0:0:0:0:
256,192,112189,1,8,0:0:0:0:
256,192,112286,1,8,0:0:0:0:
256,192,112384,1,0,0:0:0:0:
256,192,112482,1,0,0:0:0:0:
256,192,112579,1,8,0:0:0:0:
256,192,112677,1,8,0:0:0:0:
256,192,112775,1,0,0:0:0:0:
256,192,112873,1,0,0:0:0:0:
256,192,112970,1,8,0:0:0:0:
256,192,113166,1,8,0:0:0:0:
256,192,113263,1,8,0:0:0:0:
256,192,113361,1,8,0:0:0:0:
256,192,113426,1,0,0:0:0:0:
256,192,113491,1,0,0:0:0:0:
256,192,113557,1,0,0:0:0:0:
256,192,113752,1,0,0:0:0:0:
256,192,113850,1,0,0:0:0:0:
256,192,114045,1,4,0:0:0:0:
256,192,114241,1,12,0:0:0:0:
256,192,114436,1,4,0:0:0:0:
256,192,114729,1,12,0:0:0:0:
256,192,114925,1,4,0:0:0:0:
256,192,115316,1,0,0:0:0:0:
256,192,115413,1,0,0:0:0:0:
256,192,115511,1,8,0:0:0:0:
256,192,115609,1,8,0:0:0:0:
256,192,115706,1,0,0:0:0:0:
256,192,115804,1,0,0:0:0:0:
256,192,115902,1,8,0:0:0:0:
256,192,116000,1,8,0:0:0:0:
256,192,116097,1,0,0:0:0:0:
256,192,116195,1,8,0:0:0:0:
256,192,116293,1,0,0:0:0:0:
256,192,116390,1,8,0:0:0:0:
256,192,116488,1,0,0:0:0:0:
256,192,116586,1,8,0:0:0:0:
256,192,116684,1,0,0:0:0:0:
256,192,116781,1,8,0:0:0:0:
256,192,116879,1,0,0:0:0:0:
256,192,116977,1,0,0:0:0:0:
256,192,117075,1,8,0:0:0:0:
256,192,117172,1,8,0:0:0:0:
256,192,117270,1,0,0:0:0:0:
256,192,117661,1,0,0:0:0:0:
256,192,117759,1,0,0:0:0:0:
256,192,117954,1,0,0:0:0:0:
256,192,118247,1,0,0:0:0:0:
256,192,118443,1,8,0:0:0:0:
256,192,118540,1,8,0:0:0:0:
256,192,118638,1,0,0:0:0:0:
256,192,118736,1,8,0:0:0:0:
256,192,118833,1,0,0:0:0:0:
256,192,118931,1,8,0:0:0:0:
256,192,119029,1,0,0:0:0:0:
256,192,119224,1,4,0:0:0:0:
256,192,119518,1,4,0:0:0:0:
256,192,119811,1,4,0:0:0:0:
256,192,120006,1,8,0:0:0:0:
256,192,120104,1,8,0:0:0:0:
256,192,120202,1,0,0:0:0:0:
256,192,120299,1,0,0:0:0:0:
256,192,120397,1,8,0:0:0:0:
256,192,120495,1,8,0:0:0:0:
256,192,120592,1,0,0:0:0:0:
256,192,120788,1,4,0:0:0:0:
256,192,121081,1,4,0:0:0:0:
256,192,121374,12,0,124306,0:0:0:0:
256,192,124501,5,4,0:0:0:0:
