osu file format v14

[General]
AudioFilename: audio.mp3
AudioLeadIn: 0
PreviewTime: 104030
Countdown: 0
SampleSet: Normal
StackLeniency: 0.7
Mode: 1
LetterboxInBreaks: 0
WidescreenStoryboard: 0

[Editor]
Bookmarks: 44443,54043,63643,82843,94843,104068,123642,142842,210045,219643,229243,248443,277243
DistanceSpacing: 1.3
BeatDivisor: 12
GridSize: 32
TimelineZoom: 2.999999

[Metadata]
Title:World Fragments III
TitleUnicode:World Fragments III
Artist:xi
ArtistUnicode:xi
Creator:Faputa
Version:Rupture
Source:
Tags:osu! mappers' guild mpg mg fa featured artist electronic instrumental diverse system
BeatmapID:3463234
BeatmapSetID:1694908

[Difficulty]
HPDrainRate:6
CircleSize:2
OverallDifficulty:6
ApproachRate:10
SliderMultiplier:1.4
SliderTickRate:1

[Events]
//Background and Video events
0,0,"pexels-plato-terentev-5912059.jpg",0,0
//Break Periods
2,200651,208400
//Storyboard Layer 0 (Background)
//Storyboard Layer 1 (Fail)
//Storyboard Layer 2 (Pass)
//Storyboard Layer 3 (Foreground)
//Storyboard Layer 4 (Overlay)
//Storyboard Sound Samples

[TimingPoints]
42,600,4,1,0,35,1,8
42,-80,4,1,0,35,0,0
952,600,4,1,0,35,1,8
952,-80,4,1,0,35,0,0
1252,600,4,1,0,35,1,0
1252,-80,4,1,0,35,0,0
3042,600,4,1,0,35,1,8
3042,-80,4,1,0,35,0,0
3652,600,4,1,0,35,1,0
3652,-80,4,1,0,35,0,0
9502,-80,4,1,0,40,0,0
12625,600,4,1,0,40,1,8
12625,-80,4,1,0,40,0,8
12939,600,4,1,0,40,1,8
12939,-80,4,1,0,40,0,8
13252,600,4,1,0,40,1,0
13252,-80,4,1,0,40,0,0
16844,600,4,1,0,40,1,8
16844,-80,4,1,0,40,0,0
17652,600,4,1,0,40,1,8
17652,-80,4,1,0,40,0,0
17744,600,4,1,0,40,1,8
17744,-80,4,1,0,40,0,0
17902,-80,4,1,0,20,0,0
18044,600,4,1,0,20,1,0
18044,-80,4,1,0,20,0,0
18652,-80,4,1,0,25,0,0
19252,-80,4,1,0,30,0,0
19852,-80,4,1,0,35,0,0
20452,-66.6666666666667,4,1,0,40,0,0
20902,-80,4,1,0,60,0,0
21050,300,4,1,0,60,1,8
21050,-117.647058823529,4,1,0,60,0,0
21200,-114.285714285714,4,1,0,60,0,8
21275,-110.422565072018,4,1,0,60,0,8
21350,-106.812044980688,4,1,0,60,0,8
21425,-103.430050773812,4,1,0,60,0,8
21500,-100.255752424435,4,1,0,60,0,8
21648,300,4,1,0,60,1,0
21648,-95.2380952380952,4,1,0,60,0,0
21798,-100,4,1,0,60,0,0
26448,-100,4,1,0,60,0,0
26598,-99.4500412717671,4,1,0,60,0,0
26673,-99.1773240966185,4,1,0,60,0,0
26748,-98.9060985500366,4,1,0,60,0,0
26898,-98.3680736580135,4,1,0,60,0,0
26973,-98.1012503004351,4,1,0,60,0,0
27048,-97.8358705435761,4,1,0,60,0,0
27198,-97.3093952221087,4,1,0,60,0,0
27273,-97.0482766652271,4,1,0,60,0,0
27348,-96.7885557211715,4,1,0,60,0,0
27423,-96.5302211990019,4,1,0,60,0,0
27498,-96.2732620269373,4,1,0,60,0,0
27648,-95.7634260323297,4,1,0,60,0,0
27798,-95.2589614868019,4,1,0,60,0,0
27948,-94.5131344903001,4,1,0,60,0,0
28098,-93.799215275765,4,1,0,60,0,0
28173,-93.4462413118357,4,1,0,60,0,0
28248,-93.0959139272418,4,1,0,60,0,0
28323,-92.7482034672989,4,1,0,60,0,0
28473,-92.0605169013903,4,1,0,60,0,0
28548,-91.7205677870028,4,1,0,60,0,0
28623,-91.3830365669221,4,1,0,60,0,0
28698,-91.0479804647453,4,1,0,60,0,0
28773,-90.7153723548531,4,1,0,60,0,0
28810,-90.3851855065547,4,1,0,65,0,0
28960,-89.7319706038064,4,1,0,65,0,0
29110,-89.0882089082864,4,1,0,65,0,0
29260,-88.453540220267,4,1,0,65,0,0
29410,-87.8278503870134,4,1,0,65,0,0
29485,-87.5183898016571,4,1,0,65,0,0
29560,-87.2110262644727,4,1,0,65,0,0
29710,-86.6027307573062,4,1,0,65,0,0
29785,-86.3017540831517,4,1,0,65,0,0
29860,-86.0028621752532,4,1,0,65,0,0
29935,-85.7060334476366,4,1,0,65,0,0
30010,-85.4113195621816,4,1,0,65,0,0
30160,-84.8277868684889,4,1,0,65,0,0
30310,-84.2521734954457,4,1,0,65,0,0
30385,-83.9672863452399,4,1,0,65,0,0
30460,-83.6843893466425,4,1,0,65,0,0
30535,-83.4033226215666,4,1,0,65,0,0
30610,-83.1241375870725,4,1,0,65,0,0
30685,-82.8468154098391,4,1,0,65,0,0
30760,-82.5713375070392,4,1,0,65,0,0
30835,-82.2976855421895,4,1,0,65,0,0
30910,-82.0258414210813,4,1,0,65,0,0
30985,-81.7558541279348,4,1,0,65,0,0
31060,-81.4875719229682,4,1,0,65,0,0
31210,-80.9562552874554,4,1,0,70,0,0
31285,-80.6931867514698,4,1,0,70,0,0
31360,-80.4318223679289,4,1,0,70,0,0
31435,-80.17220990688,4,1,0,70,0,0
31510,-79.914204110467,4,1,0,70,0,0
31585,-79.657853587272,4,1,0,70,0,0
31660,-79.403142458766,4,1,0,70,0,0
31735,-79.1500550488633,4,1,0,70,0,0
31810,-78.8985758807054,4,1,0,70,0,0
31885,-78.6486896735057,4,1,0,70,0,0
31960,-78.400442805701,4,1,0,70,0,0
32035,-78.1536970606394,4,1,0,70,0,0
32110,-77.9084995835791,4,1,0,70,0,0
32185,-77.6648358476029,4,1,0,70,0,0
32260,-77.422691506963,4,1,0,70,0,0
32410,-76.9429637198538,4,1,0,70,0,0
33348,-81.6326530612245,4,1,0,70,0,0
33948,-86.9565217391304,4,1,0,70,0,0
34848,300,4,1,0,70,1,0
34848,-86.9565217391304,4,1,0,70,0,0
35148,-100,4,1,0,60,0,0
42010,-100,4,1,0,65,0,0
42310,-98.7685536728074,4,1,0,65,0,0
42610,-97.5671627956895,4,1,0,65,0,0
42910,-96.3945544788284,4,1,0,70,0,0
43060,-95.8188487173689,4,1,0,70,0,0
43210,-95.2498880813815,4,1,0,70,0,0
43360,-94.6876443986577,4,1,0,70,0,0
43510,-94.1319994201469,4,1,0,70,0,0
43810,-93.0401328613097,4,1,0,70,0,0
43960,-92.5036007026573,4,1,0,70,0,0
44110,-91.9732210769512,4,1,0,70,0,0
44185,-91.7103054870276,4,1,0,70,0,0
44260,-91.4489723878973,4,1,0,70,0,0
44410,-90.9305835924855,4,1,0,70,0,0
44598,-95.2380952380952,4,1,0,70,0,0
49210,-95.2380952380952,4,1,0,70,0,0
49510,-94.1195958881031,4,1,0,70,0,0
49660,-93.5700530916481,4,1,0,70,0,0
49810,-93.0269768930292,4,1,0,70,0,0
49960,-92.4901682951102,4,1,0,70,0,0
50110,-91.9595194195515,4,1,0,70,0,0
50260,-91.4349248496353,4,1,0,70,0,0
50410,-90.9162815604507,4,1,0,70,0,0
50710,-89.8963674675834,4,1,0,70,0,0
50860,-89.3949836898852,4,1,0,70,0,0
50935,-89.1464229997771,4,1,0,70,0,0
51010,-88.8991616809054,4,1,0,70,0,0
51160,-88.4088094074046,4,1,0,70,0,0
51310,-87.9238368555622,4,1,0,70,0,0
51460,-87.4440795111526,4,1,0,70,0,0
51610,-86.9696049927511,4,1,0,70,0,0
51760,-86.5002517157325,4,1,0,70,0,0
51910,-86.035937210973,4,1,0,70,0,0
51985,-85.8056073964434,4,1,0,70,0,0
52060,-85.5765807706,4,1,0,70,0,0
52135,-85.3487006513813,4,1,0,70,0,0
52210,-85.1221034012239,4,1,0,70,0,0
52285,-84.8966341031477,4,1,0,70,0,0
52360,-84.6723560845132,4,1,0,70,0,0
52435,-84.4493312457459,4,1,0,70,0,0
52510,-84.2274072614132,4,1,0,70,0,0
52585,-84.0067171771055,4,1,0,70,0,0
52660,-83.7871103585167,4,1,0,70,0,0
52735,-83.5687185572696,4,1,0,70,0,0
52810,-83.3333333333333,4,1,0,70,0,0
53110,-86.936942027839,4,1,0,70,0,0
53410,-90.8663011418259,4,1,0,70,0,0
53710,-95.1676711614358,4,1,0,70,0,0
53760,-95.9244575711735,4,1,0,70,0,0
53810,-96.6933766003962,4,1,0,70,0,0
53860,-97.474722367622,4,1,0,70,0,0
54010,-99.8965072185216,4,1,0,70,0,0
54123,-102.040816326531,4,1,0,60,0,0
54273,-104.166666666667,4,1,0,60,0,0
54423,-106.382978723404,4,1,0,60,0,0
54723,-108.695652173913,4,1,0,60,0,0
54873,-109.89010989011,4,1,0,60,0,0
55023,-110.497237569061,4,1,0,60,0,0
55173,-111.111111111111,4,1,0,60,0,0
59110,-105.263157894737,4,1,0,60,0,0
59260,-105.079103549152,4,1,0,60,0,0
59410,-104.895581693203,4,1,0,60,0,0
59560,-104.712809413263,4,1,0,60,0,0
59860,-104.349060128015,4,1,0,60,0,0
60010,-104.168185786043,4,1,0,60,0,0
60160,-103.987937399262,4,1,0,60,0,0
60460,-103.629198148353,4,1,0,60,0,0
60760,-103.272925556744,4,1,0,60,0,0
60910,-103.095759465222,4,1,0,60,0,0
61060,-102.919094270803,4,1,0,60,0,0
61110,-102.860446146899,4,1,0,60,0,0
61160,-102.801759143702,4,1,0,60,0,0
61210,-102.743139070031,4,1,0,60,0,0
61510,-102.39292260119,4,1,0,60,0,0
61810,-102.045189691803,4,1,0,60,0,0
61910,-101.929733718764,4,1,0,60,0,0
62010,-101.814538708869,4,1,0,60,0,0
62110,-101.699707206543,4,1,0,60,0,0
62210,-101.585031242476,4,1,0,60,0,0
62310,-101.470716565906,4,1,0,60,0,0
62410,-101.356556147478,4,1,0,60,0,0
62710,-101.015712994156,4,1,0,60,0,0
62860,-100.846200468128,4,1,0,60,0,0
63010,-100.677255900442,4,1,0,60,0,0
63085,-100.592995709709,4,1,0,60,0,0
63160,-100.508775421182,4,1,0,60,0,0
63235,-100.424796890848,4,1,0,60,0,0
63310,-100.340958577245,4,1,0,60,0,0
63385,-100.257260129492,4,1,0,60,0,0
63460,-100.173701197877,4,1,0,60,0,0
63573,-100,4,1,0,65,0,0
68410,-100,4,1,0,65,0,0
68560,-99.379672086834,4,1,0,65,0,0
68860,-98.1618217263523,4,1,0,65,0,0
68935,-97.8620086960181,4,1,0,65,0,0
69010,-97.5641166983913,4,1,0,65,0,0
69085,-97.2679381531542,4,1,0,65,0,0
69160,-96.9735524030531,4,1,0,65,0,0
69235,-96.6809432192821,4,1,0,65,0,0
69310,-96.3900945683218,4,1,0,65,0,0
69385,-96.1009906090112,4,1,0,65,0,0
69460,-95.8136156896712,4,1,0,65,0,0
69535,-95.5279543452801,4,1,0,65,0,0
69610,-95.2439912946992,4,1,0,65,0,0
69685,-94.9617114379482,4,1,0,65,0,0
69760,-94.6810998535284,4,1,0,65,0,0
69835,-94.4021417957931,4,1,0,65,0,0
69910,-94.1248226923653,4,1,0,65,0,0
69985,-93.8491281415996,4,1,0,65,0,0
70060,-93.5750439100893,4,1,0,65,0,0
70135,-93.3025559302172,4,1,0,65,0,0
70210,-93.0317368467079,4,1,0,65,0,0
70285,-92.7623993180109,4,1,0,65,0,0
70360,-92.4946168133015,4,1,0,65,0,0
70435,-92.2283759044145,4,1,0,65,0,0
70510,-91.9636633173501,4,1,0,65,0,0
70585,-91.7004659300674,4,1,0,65,0,0
70660,-91.4387707703168,4,1,0,65,0,0
70810,-90.9198359806159,4,1,0,70,0,0
70960,-90.4067580859804,4,1,0,70,0,0
71110,-89.8994384881072,4,1,0,70,0,0
71185,-89.6479078419507,4,1,0,70,0,0
71260,-89.3977807894897,4,1,0,70,0,0
71410,-88.9017697675308,4,1,0,70,0,0
71560,-88.4111543048717,4,1,0,70,0,0
71710,-87.9259241674074,4,1,0,70,0,0
71785,-87.6853009622585,4,1,0,70,0,0
71860,-87.4459911697038,4,1,0,70,0,0
72010,-86.9712690412722,4,1,0,70,0,0
72235,-86.2687720848057,4,1,0,70,0,0
72460,-85.5775328168444,4,1,0,70,0,0
72685,-84.8973548531148,4,1,0,70,0,0
72910,-84.2278329189324,4,1,0,70,0,0
73060,-83.7873209674419,4,1,0,70,0,0
73210,-83.3513928017737,4,1,0,70,0,0
73360,-117.647058823529,4,1,0,60,0,0
77373,-114.942528735632,4,1,0,60,0,0
77523,-112.359550561798,4,1,0,60,0,0
77673,-109.89010989011,4,1,0,60,0,0
77823,-107.52688172043,4,1,0,65,0,0
77935,-106.769165065129,4,1,0,65,0,0
77973,-106.010813102936,4,1,0,65,0,0
78010,-105.263157894737,4,1,0,65,0,0
78160,-104.066610956341,4,1,0,65,0,0
78310,-102.896855163416,4,1,0,65,0,0
78460,-101.753207769875,4,1,0,65,0,0
78610,-100.634703072277,4,1,0,65,0,0
78760,-99.5405209552705,4,1,0,65,0,0
78910,-98.4697796246332,4,1,0,65,0,0
79060,-97.421923634851,4,1,0,65,0,0
79135,-96.9062674128449,4,1,0,65,0,0
79210,-96.3961341294369,4,1,0,65,0,0
79360,-95.3917213340723,4,1,0,65,0,0
79510,-94.4079347981039,4,1,0,65,0,0
79585,-93.9237001429519,4,1,0,65,0,0
79660,-93.4443202673255,4,1,0,65,0,0
79810,-92.5001780628428,4,1,0,65,0,0
79960,-91.5748399958608,4,1,0,65,0,0
80035,-91.119161995291,4,1,0,65,0,0
80110,-90.6679142571668,4,1,0,65,0,0
80260,-89.7787761177682,4,1,0,70,0,0
80335,-89.3406747543802,4,1,0,70,0,0
80410,-88.9069073554463,4,1,0,70,0,0
80485,-88.4772533829278,4,1,0,70,0,0
80560,-88.0517321536749,4,1,0,70,0,0
80635,-87.6303611159551,4,1,0,70,0,0
80710,-87.2129277467057,4,1,0,70,0,0
80785,-86.7994524690538,4,1,0,70,0,0
80860,-86.3899538850426,4,1,0,70,0,0
80935,-85.9842270533893,4,1,0,70,0,0
81010,-85.5822933658318,4,1,0,70,0,0
81085,-85.184172440024,4,1,0,70,0,0
81160,-84.7896665137626,4,1,0,70,0,0
81235,-84.3988690551547,4,1,0,70,0,0
81310,-84.0115868780622,4,1,0,70,0,0
81385,-83.6278427194436,4,1,0,70,0,0
81460,-83.2476576190337,4,1,0,70,0,0
81535,-82.8708449594223,4,1,0,70,0,0
81610,-82.4974281426776,4,1,0,70,0,0
81660,-82.2503701266656,4,1,0,70,0,0
81710,-82.0047874394907,4,1,0,70,0,0
81760,-81.7606669054078,4,1,0,70,0,0
81835,-81.3971660762659,4,1,0,70,0,0
81910,-81.0369487968039,4,1,0,70,0,0
81960,-80.7985482116857,4,1,0,70,0,0
82010,-80.5615462016439,4,1,0,70,0,0
82060,-80.3259304955789,4,1,0,70,0,0
82135,-79.9750477850911,4,1,0,70,0,0
82210,-79.6272172198635,4,1,0,70,0,0
82260,-79.397027216507,4,1,0,70,0,0
82310,-79.1681642644407,4,1,0,70,0,0
82360,-78.9406169209212,4,1,0,70,0,0
82435,-78.6017070718742,4,1,0,70,0,0
82510,-78.2657560706834,4,1,0,70,0,0
82560,-78.0433593295763,4,1,0,70,0,0
82610,-77.8222229139753,4,1,0,70,0,0
82660,-77.6022759195482,4,1,0,70,0,0
82810,-76.9500094263762,4,1,0,70,0,0
82960,-77.667972524178,4,1,0,70,0,0
83035,-78.0457957120079,4,1,0,70,0,0
83110,-78.4273742907224,4,1,0,70,0,0
83260,-79.2018355817414,4,1,0,70,0,0
83335,-79.5947671216304,4,1,0,70,0,0
83410,-79.99168086519,4,1,0,70,0,0
83560,-80.7975036803263,4,1,0,70,0,0
83635,-81.2064682576096,4,1,0,70,0,0
83710,-81.6196605438318,4,1,0,70,0,0
83860,-82.4587891586482,4,1,0,70,0,0
83935,-82.8847884863083,4,1,0,70,0,0
84010,-83.3152816889674,4,1,0,70,0,0
84160,-84.1898244810539,4,1,0,70,0,0
84310,-85.0828494246272,4,1,0,70,0,0
84460,-85.9950965595942,4,1,0,70,0,0
84610,-86.9270421335373,4,1,0,70,0,0
84685,-87.4006691395229,4,1,0,70,0,0
84760,-87.8794855886431,4,1,0,70,0,0
84835,-88.3635772403701,4,1,0,70,0,0
84910,-88.8529528057541,4,1,0,70,0,0
85060,-89.8483090997469,4,1,0,70,0,0
85210,-90.8662185750541,4,1,0,70,0,0
92523,-90.9090909090909,4,1,0,40,0,0
93048,-100,4,1,0,35,0,0
93648,-100,4,1,0,30,0,0
94248,-100,4,1,0,25,0,0
94773,-100,4,1,0,60,0,0
94848,300,4,1,0,60,1,0
99573,-100,4,1,0,65,0,0
101973,-100,4,1,0,70,0,0
102048,-100,4,1,0,70,0,0
102198,-99.2555831265509,4,1,0,70,0,0
102273,-98.8875154511743,4,1,0,70,0,0
102348,-98.5221674876847,4,1,0,70,0,0
102498,-97.799511002445,4,1,0,70,0,0
102573,-97.0873786407767,4,1,0,75,0,0
102798,-96.3855421686747,4,1,0,75,0,0
102873,-96.0384153661465,4,1,0,75,0,0
102948,-95.6937799043062,4,1,0,75,0,0
103023,-95.3516090584029,4,1,0,75,0,0
103098,-95.0118764845606,4,1,0,75,0,0
103173,-94.6745562130178,4,1,0,75,0,0
103248,-94.3396226415094,4,1,0,75,0,0
103323,-94.0070505287897,4,1,0,75,0,0
103398,-93.6768149882904,4,1,0,75,0,0
103473,-93.3488914819137,4,1,0,75,0,0
103548,-93.0232558139535,4,1,0,75,0,0
103623,-92.6998841251448,4,1,0,75,0,0
103698,-92.378752886836,4,1,0,75,0,0
103773,-92.0598388952819,4,1,0,75,0,0
103848,-91.743119266055,4,1,0,75,0,0
103998,-91.1161731207289,4,1,0,75,0,0
104073,-100,4,1,0,80,0,0
104148,-90.4977375565611,4,1,0,80,0,0
104223,-90.1916572717024,4,1,0,80,0,0
104298,-89.8876404494382,4,1,0,80,0,0
104373,-89.5856662933931,4,1,0,80,0,0
104409,-89.2857142857143,4,1,0,80,0,0
104447,300,4,1,0,80,1,1
104447,-89.2857142857143,4,1,0,80,0,1
123422,-87.719298245614,4,1,0,80,0,1
123572,-86.2068965517241,4,1,0,80,0,1
142847,-86.2068965517241,4,1,0,80,0,0
142922,-90.9090909090909,4,1,0,60,0,0
143447,-91.1997694469828,4,1,0,60,0,0
143897,-92.0831510854301,4,1,0,60,0,0
144047,-92.3813984511335,4,1,0,60,0,0
144497,-93.2879332058398,4,1,0,60,0,0
144647,-93.5940489159937,4,1,0,60,0,0
145097,-94.5246591204481,4,1,0,60,0,0
145247,-94.838958706169,4,1,0,60,0,0
145697,-95.7945245765643,4,1,0,60,0,0
145847,-96.1174324342509,4,1,0,60,0,0
146297,-97.0990682373412,4,1,0,60,0,0
146447,-97.4307510936602,4,1,0,60,0,0
146897,-98.4396333714295,4,1,0,60,0,0
147047,-98.7805540601277,4,1,0,60,0,0
147497,-99.8177328198709,4,1,0,60,0,0
147647,-100.168282714961,4,1,0,60,0,0
147947,-100.876821331009,4,1,0,60,0,0
148247,-101.595558242194,4,1,0,60,0,0
148547,-102.324505798218,4,1,0,60,0,0
148847,-103.064095561029,4,1,0,60,0,0
149147,-103.81434672746,4,1,0,60,0,0
149447,-104.575710199792,4,1,0,60,0,0
149747,-105.348212714897,4,1,0,60,0,0
150047,-106.132213143201,4,1,0,60,0,0
150347,-106.928084447524,4,1,0,60,0,0
150647,-107.735866131722,4,1,0,60,0,0
150947,-108.556063236078,4,1,0,60,0,0
151247,-109.388724866573,4,1,0,60,0,0
151547,-110.234258823426,4,1,0,60,0,0
151847,-111.093089343284,4,1,0,60,0,0
152072,-109.89010989011,4,1,0,65,0,0
152184,-108.695652173913,4,1,0,65,0,0
152259,-107.52688172043,4,1,0,65,0,0
152334,-106.382978723404,4,1,0,65,0,0
152409,-105.263157894737,4,1,0,65,0,0
157247,-105.263157894737,4,1,0,65,0,0
157547,-106.664846253291,4,1,0,65,0,0
157697,-107.379782963983,4,1,0,65,0,0
157847,-108.104251415895,4,1,0,65,0,0
158147,-109.583156630493,4,1,0,65,0,0
158297,-110.337887713545,4,1,0,65,0,0
158447,-111.103086999272,4,1,0,65,0,0
158747,-112.665773602635,4,1,0,65,0,0
158897,-113.463718274126,4,1,0,65,0,0
159047,-114.272915719154,4,1,0,65,0,0
159197,-115.093870560829,4,1,0,65,0,0
159347,-115.926706499083,4,1,0,65,0,0
159497,-116.771683333878,4,1,0,65,0,0
159647,-117.629068495407,4,1,0,65,0,0
159797,-118.49913732628,4,1,0,65,0,0
159947,-119.382173376343,4,1,0,65,0,0
160097,-120.278468710759,4,1,0,65,0,0
160247,-121.188177366169,4,1,0,65,0,0
160397,-122.11190090375,4,1,0,65,0,0
160547,-123.049814256305,4,1,0,65,0,0
160697,-124.002246920714,4,1,0,65,0,0
160847,-124.969538674948,4,1,0,65,0,0
160997,-125.952039982216,4,1,0,65,0,0
161147,-126.950112414325,4,1,0,65,0,0
161297,-127.964129095332,4,1,0,65,0,0
161447,-128.994308771097,4,1,0,65,0,0
161597,-130.041379166851,4,1,0,65,0,0
161747,-131.105587195704,4,1,0,65,0,0
161897,-132.18735707242,4,1,0,65,0,0
161972,-133.333333333333,4,1,0,70,0,0
162122,-133.333333333333,4,1,0,40,0,0
163247,-138.888888888889,4,1,0,35,0,0
164447,-144.927536231884,4,1,0,30,0,0
165647,-151.515151515152,4,1,0,25,0,0
166847,-158.730158730159,4,1,0,20,0,0
169097,-166.666666666667,4,1,0,40,0,0
169246,300,4,1,0,40,1,8
169252,1193.72,4,1,0,40,1,8
169252,-40.2104346077807,4,1,0,40,0,8
170004,1207.44,4,1,0,40,1,8
170004,-39.7535281256211,4,1,0,40,0,8
170451,1193.5,4,1,0,40,1,8
170451,-40.2178466694596,4,1,0,40,0,8
170976,1186.8,4,1,0,40,1,8
170976,-40.4448938321537,4,1,0,40,0,8
171641,1115.5,4,1,0,40,1,0
171641,-43.0300313760645,4,1,0,40,0,0
172310,1114.56,4,1,0,40,1,8
172310,-43.0663221360896,4,1,0,40,0,8
172756,817.334,4,1,0,40,1,8
172756,-58.7275214294279,4,1,0,40,0,8
173214,849.187,4,1,0,40,1,8
173214,-56.5246524028276,4,1,0,40,0,8
173587,718.585,4,1,0,40,1,8
173587,-66.7979431799996,4,1,0,40,0,8
173961,683.933,4,1,0,40,1,8
173961,-70.1823131797998,4,1,0,40,0,8
174118,696.599,4,1,0,40,1,8
174118,-68.9062143356508,4,1,0,40,0,8
174292,666.939,4,1,0,40,1,8
174292,-71.970600009896,4,1,0,40,0,8
174573,656.793,4,1,0,40,1,8
174573,-73.0823866880433,4,1,0,40,0,8
174954,715.622,4,1,0,40,1,0
174954,-67.0745169936084,4,1,0,40,0,0
175297,710.531,4,1,0,40,1,8
175297,-67.5551101922365,4,1,0,40,0,8
175446,687.31,4,1,0,40,1,8
175446,-69.837482358761,4,1,0,40,0,8
175659,807.429,4,1,0,40,1,8
175659,-59.4479514607476,4,1,0,40,0,8
176047,813.628,4,1,0,40,1,8
176047,-58.9950198370754,4,1,0,40,0,8
176470,950.838,4,1,0,40,1,8
176470,-50.4817855407546,4,1,0,40,0,8
176945,957.824,4,1,0,40,1,8
176945,-50.1135908058265,4,1,0,40,0,8
177424,1664.44740346205,4,1,0,40,1,8
177424,-28.8384,4,1,0,40,0,8
178057,1602.17,4,1,0,40,1,8
178057,-29.9593676076821,4,1,0,40,0,8
179050,1015.32,4,1,0,40,1,0
179050,-47.2757357286373,4,1,0,40,0,0
179659,989.903,4,1,0,40,1,8
179659,-48.4895994860102,4,1,0,40,0,8
180055,698.066,4,1,0,40,1,8
180055,-68.7614065145703,4,1,0,40,0,8
180390,674.307,4,1,0,40,1,8
180390,-71.1841935498223,4,1,0,40,0,8
180741,670.749,4,1,0,40,1,8
180741,-71.5617913705425,4,1,0,40,0,8
181076,710.531,4,1,0,40,1,8
181076,-67.5551101922365,4,1,0,40,0,8
181226,686.647,4,1,0,40,1,8
181226,-69.9049147524128,4,1,0,40,0,8
181425,649.160959459898,4,1,0,40,1,8
181425,-73.9416,4,1,0,40,0,8
181749,777.868,4,1,0,40,1,8
181749,-61.707127687474,4,1,0,40,0,8
182138,754.649,4,1,0,40,1,0
182138,-63.6057292860654,4,1,0,40,0,0
182516,1040.31,4,1,0,40,1,8
182516,-46.1400928569369,4,1,0,40,0,8
183015,1047.68,4,1,0,40,1,8
183015,-45.8155161881491,4,1,0,40,0,8
183560,2181.74,4,1,0,40,1,8
183560,-22.000788361583,4,1,0,40,0,8
184432,2109.7,4,1,0,40,1,8
184432,-22.7520500545101,4,1,0,40,0,8
184728,2159.45,4,1,0,40,1,8
184728,-22.2278820996087,4,1,0,40,0,8
185721,641.156,4,1,0,40,1,8
185721,-74.8647754992545,4,1,0,40,0,8
186362,885.38669263801,5,1,0,40,1,0
186362,-54.2136,5,1,0,40,0,0
186893,923.91,4,1,0,40,1,8
186893,-51.9531123161347,4,1,0,40,0,8
187263,718.281,4,1,0,40,1,8
187263,-66.8262142531962,4,1,0,40,0,8
187637,698.728,4,1,0,40,1,8
187637,-68.6962594886708,4,1,0,40,0,8
187972,800.414,4,1,0,40,1,8
187972,-59.9689660600639,4,1,0,40,0,8
188324,810.587,4,1,0,40,1,8
188324,-59.2163456852873,4,1,0,40,0,8
188511,766.258,4,1,0,40,1,8
188511,-62.6420866079049,4,1,0,40,0,8
188763,745.897563401293,4,1,0,40,1,8
188763,-64.352,4,1,0,40,0,8
189136,852.542,4,1,0,40,1,8
189136,-56.3022115039494,4,1,0,40,0,8
189529,868.195,4,1,0,40,1,0
189529,-55.2871186772557,4,1,0,40,0,0
189997,916.920857504386,4,1,0,40,1,8
189997,-52.34912,4,1,0,40,0,8
190227,905.57836271432,4,1,0,40,1,8
190227,-53.0048,4,1,0,40,0,8
190453,752.849,4,1,0,40,1,8
190453,-63.7578053500768,4,1,0,40,0,8
190844,739,4,1,0,40,1,8
190844,-64.9526387009472,4,1,0,40,0,8
191199,576.768,4,1,0,40,1,8
191199,-83.2223701731025,4,1,0,40,0,8
191453,572.76,4,1,0,40,1,8
191453,-83.8047349675257,4,1,0,40,0,8
191774,655.333,4,1,0,40,1,8
191774,-73.2452051094634,4,1,0,40,0,8
192088,657.633,4,1,0,40,1,8
192088,-72.9890379588615,4,1,0,40,0,8
192429,945.85,4,1,0,40,1,8
192429,-50.7480044404504,4,1,0,40,0,8
192806,984.847,4,1,0,40,1,8
192806,-48.7385350211759,4,1,0,40,0,8
193399,824.739,4,1,0,40,1,0
193399,-58.2002306184138,4,1,0,40,0,0
194017,-58.2002306184138,4,1,0,45,0,0
194223,1045.47,4,1,0,45,1,8
194223,-43.4782608695652,4,1,0,45,0,8
195007,-43.4782608695652,4,1,0,50,0,0
195268,1282.02,4,1,0,50,1,8
195268,-34.4827586206897,4,1,0,50,0,8
196229,-34.4827586206897,4,1,0,55,0,0
196552,1448.41,4,1,0,55,1,0
196552,-28.5714285714286,4,1,0,55,0,0
197638,-28.5714285714286,4,1,0,55,0,0
198000,1026.89,4,1,0,55,1,8
198000,-46.7430786160153,4,1,0,55,0,8
198490,1164.00884646723,4,1,0,55,1,8
198490,-41.2368000000001,4,1,0,55,0,8
199027,1376.64,4,1,0,55,1,8
199027,-34.8675034867504,4,1,0,55,0,8
200404,2380.4,4,1,0,55,1,8
200404,-20.1646782053436,4,1,0,55,0,8
200451,2105.87,4,1,0,55,1,8
200451,-22.7934297938619,4,1,0,55,0,8
202516,2111.59,4,1,0,15,1,0
202516,-22.7316856018451,4,1,0,15,0,0
205947,-22.7316856018451,4,1,0,5,0,0
208586,-22.7316856018451,4,1,0,65,0,0
208850,300,4,1,0,65,1,0
208850,-117.647058823529,4,1,0,65,0,0
209000,-114.302696400608,4,1,0,65,0,0
209075,-112.700691756846,4,1,0,65,0,0
209150,-111.143095624185,4,1,0,65,0,0
209300,-108.153591077761,4,1,0,65,0,0
209375,-106.718232916812,4,1,0,65,0,0
209450,-105.320585329685,4,1,0,65,0,0
209500,-104.408982513584,4,1,0,65,0,0
209550,-103.513025043941,4,1,0,65,0,0
209600,-102.632313578666,4,1,0,65,0,0
209650,-101.766462251766,4,1,0,65,0,0
209700,-100.914996271191,4,1,0,65,0,0
209750,-100.077760419846,4,1,0,65,0,0
209825,-98.8476342795688,4,1,0,65,0,0
209900,-97.6473816342852,4,1,0,65,0,0
209975,-96.4759273266135,4,1,0,65,0,0
210012,-95.2380952380952,4,1,0,70,0,0
210050,300,4,1,0,70,1,0
210050,-95.3321562989769,4,1,0,70,0,0
210200,-100,4,1,0,70,0,0
214475,-100,4,1,0,75,0,0
214850,-100,4,1,0,75,0,0
215000,-99.2574549792999,4,1,0,75,0,0
215150,-98.5259532139659,4,1,0,75,0,0
215300,-97.8050588688649,4,1,0,75,0,0
215450,-97.0947314456823,4,1,0,75,0,0
215600,-96.3945544788284,4,1,0,75,0,0
215750,-95.7044951444324,4,1,0,75,0,0
215825,-95.3631572071183,4,1,0,75,0,0
215900,-95.0241551402366,4,1,0,75,0,0
215975,-94.6876443986577,4,1,0,75,0,0
216050,-94.3535086295719,4,1,0,75,0,0
216125,-94.0217227788308,4,1,0,75,0,0
216200,-93.6921743611365,4,1,0,75,0,0
216275,-93.3650151951562,4,1,0,75,0,0
216350,-93.0401328613097,4,1,0,75,0,0
216425,-92.7175036739311,4,1,0,75,0,0
216500,-92.3970189025821,4,1,0,75,0,0
216575,-92.078826842083,4,1,0,75,0,0
216650,-91.7628188069732,4,1,0,75,0,0
216725,-91.4489723878973,4,1,0,75,0,0
216800,-91.1371824210957,4,1,0,75,0,0
216875,-90.8275937863027,4,1,0,75,0,0
216950,-90.5201013463055,4,1,0,75,0,0
217025,-90.2146024964185,4,1,0,75,0,0
217100,-89.9112396242429,4,1,0,75,0,0
217175,-89.6099101391821,4,1,0,75,0,0
217250,-89.3105936653782,4,1,0,75,0,0
217550,-90.49134993186,4,1,0,75,0,0
217850,-91.7300750810665,4,1,0,75,0,0
218150,-93.0030979331922,4,1,0,75,0,0
218300,-93.652952128357,4,1,0,75,0,0
218450,-94.3396226415094,4,1,0,75,0,0
218600,-93.1740677934517,4,1,0,75,0,0
218750,-92.0370467520586,4,1,0,75,0,0
218900,-90.9273590421348,4,1,0,75,0,0
218975,-90.3824896579836,4,1,0,75,0,0
219050,-89.8441114821673,4,1,0,75,0,0
219125,-100,4,1,0,80,0,0
219200,-88.7864490569991,4,1,0,80,0,0
219275,-88.2668625014123,4,1,0,80,0,0
219350,-87.7533219020006,4,1,0,80,0,0
219425,-87.2457223422336,4,1,0,80,0,0
219500,-86.7439613191328,4,1,0,80,0,0
219575,-86.2479386742657,4,1,0,80,0,0
219648,300,4,1,0,80,1,0
219648,-86.2068965517241,4,1,0,80,0,1
228048,-86.2068965517241,4,1,0,80,0,1
228123,-86.0224673480219,4,1,0,80,0,1
228198,-85.8388255875238,4,1,0,80,0,1
228273,-85.6559662378443,4,1,0,80,0,1
228348,-85.4738843093881,4,1,0,80,0,1
228423,-85.292574854896,4,1,0,80,0,1
228498,-85.1120329689971,4,1,0,80,0,1
228573,-84.9322537877662,4,1,0,80,0,1
228648,-84.7532324882871,4,1,0,80,0,1
228723,-84.5749642882213,4,1,0,80,0,1
228798,-84.3974444453822,4,1,0,80,0,1
228873,-84.2205973261645,4,1,0,80,0,1
228948,-84.0445604259378,4,1,0,80,0,1
229098,-83.6946851364098,4,1,0,80,0,1
229173,-83.3333333333333,4,1,0,85,0,1
248448,-83.3333333333333,4,1,0,85,0,0
248523,-100,4,1,0,75,0,0
248598,-83.7685107466622,4,1,0,75,0,0
248748,-84.2082571248606,4,1,0,75,0,0
248898,-84.6525731419395,4,1,0,75,0,0
249048,-85.1016752264768,4,1,0,75,0,0
249123,-85.3280179666675,4,1,0,75,0,0
249198,-85.555567913582,4,1,0,75,0,0
249498,-86.4779602270565,4,1,0,75,0,0
249648,-86.9466929825324,4,1,0,75,0,0
249798,-87.4205347339269,4,1,0,75,0,0
249948,-87.8995694679087,4,1,0,75,0,0
250023,-88.1410609539507,4,1,0,75,0,0
250098,-88.3838049051244,4,1,0,75,0,0
250248,-88.873484151636,4,1,0,75,0,0
250323,-89.1203641814562,4,1,0,75,0,0
250398,-89.3686196391116,4,1,0,75,0,0
250473,-89.6182620509677,4,1,0,75,0,0
250548,-89.8693030725416,4,1,0,75,0,0
250698,-90.3755465461177,4,1,0,75,0,0
250848,-90.887608383473,4,1,0,75,0,0
262848,-90.9090909090909,4,1,0,75,0,0
263148,-90.4261331524811,4,1,0,75,0,0
263223,-90.3061740525076,4,1,0,75,0,0
263298,-90.1865328058022,4,1,0,75,0,0
263448,-89.94827973915,4,1,0,75,0,0
263598,-89.711201699489,4,1,0,75,0,0
263673,-89.5931307154818,4,1,0,75,0,0
263748,-89.4754501733587,4,1,0,75,0,0
263898,-89.2408548203002,4,1,0,75,0,0
264048,-89.0074864196827,4,1,0,75,0,0
264198,-88.7754141816949,4,1,0,75,0,0
264273,-88.659791986396,4,1,0,75,0,0
264348,-88.5444705749015,4,1,0,75,0,0
264498,-88.3148034156633,4,1,0,75,0,0
264648,-88.0862470061687,4,1,0,75,0,0
264723,-87.9724118516433,4,1,0,75,0,0
264798,-87.8589477309548,4,1,0,75,0,0
264873,-87.7456989252029,4,1,0,75,0,0
264948,-87.6327416954832,4,1,0,75,0,0
265098,-87.4076974714701,4,1,0,75,0,0
265248,-87.1838821413408,4,1,0,75,0,0
265398,-86.9611344601757,4,1,0,75,0,0
265473,-86.8501869016022,4,1,0,75,0,0
265548,-86.7395973200934,4,1,0,75,0,0
265698,-86.5191112064744,4,1,0,75,0,0
265848,-86.2997431719643,4,1,0,75,0,0
265923,-86.1905500680905,4,1,0,75,0,0
265998,-86.0815588337326,4,1,0,75,0,0
266073,-85.9728428983853,4,1,0,75,0,0
266148,-85.8644012203049,4,1,0,75,0,0
266298,-85.6484098516227,4,1,0,75,0,0
266448,-85.4334294174636,4,1,0,75,0,0
266523,-85.3263433992821,4,1,0,75,0,0
266598,-85.2195981214192,4,1,0,75,0,0
266673,-85.1130471492236,4,1,0,75,0,0
266748,-85.00676228794,4,1,0,75,0,0
266823,-84.9007425418943,4,1,0,75,0,0
266898,-84.7949869203733,4,1,0,75,0,0
266973,-84.6895661607594,4,1,0,75,0,0
267048,-84.5843356577109,4,1,0,75,0,0
267123,-84.479366337169,4,1,0,75,0,0
267198,-84.374657227955,4,1,0,75,0,0
267273,-84.2702073636993,4,1,0,75,0,0
267348,-84.166086622053,4,1,0,75,0,0
267423,-84.0621521928453,4,1,0,75,0,0
267498,-83.958474138691,4,1,0,75,0,0
267573,-83.8550515121581,4,1,0,75,0,0
267948,-83.3333333333333,4,1,0,75,0,0
268248,-84.3353070606362,4,1,0,75,0,0
268548,-85.3617417209781,4,1,0,75,0,0
268698,-85.8843858751104,4,1,0,75,0,0
268848,-86.4133947674961,4,1,0,75,0,0
268998,-86.9490365612004,4,1,0,75,0,0
269148,-87.4913602281775,4,1,0,75,0,0
269298,-88.0404140716755,4,1,0,75,0,0
269448,-88.5964811249627,4,1,0,75,0,0
269598,-89.1596171129403,4,1,0,75,0,0
269748,-89.7299576923249,4,1,0,75,0,0
269898,-90.307560458654,4,1,0,75,0,0
270048,-90.8927302176517,4,1,0,75,0,0
270348,-92.0860341399763,4,1,0,75,0,0
270498,-92.6945566048579,4,1,0,75,0,0
270798,-93.9360520931771,4,1,0,75,0,0
271098,-95.2111640802554,4,1,0,75,0,0
271698,-96.1538461538461,4,1,0,75,0,0
271998,-98.0392156862745,4,1,0,75,0,0
272298,-100,4,1,0,70,0,0
274848,-95.2380952380952,4,1,0,70,0,0
275148,-94.6759903581972,4,1,0,70,0,0
275298,-94.3974187969804,4,1,0,70,0,0
275748,-93.5715415256466,4,1,0,70,0,0
275823,-93.4352400351317,4,1,0,70,0,0
275898,-93.2994221033795,4,1,0,70,0,0
276048,-93.0288808160494,4,1,0,70,0,0
276348,-92.4924780492226,4,1,0,70,0,0
276648,-91.9622255962141,4,1,0,70,0,0
276798,-91.699456864117,4,1,0,70,0,0
276873,-91.5685509643084,4,1,0,70,0,0
276948,-91.4381018913057,4,1,0,70,0,0
277023,-91.3079405950539,4,1,0,70,0,0
277098,-91.1782324734922,4,1,0,70,0,0
277173,-90.9090909090909,4,1,0,75,0,0
277398,-95.2380952380952,4,1,0,75,0,0
286848,300,4,1,0,65,1,8
286848,-95.2380952380952,4,1,0,65,0,0
287148,864.966,4,1,0,65,1,0
287148,-31.5357931251971,4,1,0,65,0,0
288013,1166.97,4,1,0,65,1,8
288013,-24.4834002546274,4,1,0,65,0,8
289133,1218.5,4,1,0,65,1,8
289133,-24.0211386019697,4,1,0,65,0,8
289182,1550.9,4,1,0,65,1,8
289182,-18.875047187618,4,1,0,65,0,8
290671,1393.2,4,1,0,65,1,8
290671,-21.2675457252233,4,1,0,65,0,8
290726,1676.96,4,1,0,65,1,8
290726,-17.6678445229682,4,1,0,65,0,8
291983,-17.6678445229682,4,1,0,60,0,0
292370,626.946145326116,4,1,0,65,1,0
292370,-47.8697941598851,4,1,0,60,0,0
292526,-47.8697941598851,4,1,0,40,0,0
293623,-47.8697941598851,4,1,0,35,0,0
294877,-47.8697941598851,4,1,0,30,0,0
296131,-47.8697941598851,4,1,0,25,0,0
297385,-47.8697941598851,4,1,0,20,0,0

[HitObjects]
256,192,642,5,8,0:0:0:0:
256,192,952,1,8,0:0:0:0:
256,192,1252,1,0,0:0:0:0:
256,192,1718,1,0,0:0:0:0:
256,192,2212,1,8,0:0:0:0:
256,192,2709,1,0,0:0:0:0:
256,192,3042,1,8,0:0:0:0:
256,192,5452,1,8,0:0:0:0:
256,192,5752,1,8,0:0:0:0:
256,192,6052,1,0,0:0:0:0:
256,192,6502,1,0,0:0:0:0:
256,192,6977,1,8,0:0:0:0:
256,192,7552,1,0,0:0:0:0:
256,192,7877,1,8,0:0:0:0:
256,192,9652,1,8,0:0:0:0:
256,192,9952,1,8,0:0:0:0:
256,192,10252,1,0,0:0:0:0:
256,192,10552,1,0,0:0:0:0:
256,192,10852,1,8,0:0:0:0:
256,192,11302,1,0,0:0:0:0:
256,192,11752,1,8,0:0:0:0:
256,192,12352,1,0,0:0:0:0:
256,192,12625,1,8,0:0:0:0:
256,192,12939,1,8,0:0:0:0:
256,192,13552,1,8,0:0:0:0:
256,192,13702,1,8,0:0:0:0:
256,192,13852,1,8,0:0:0:0:
256,192,14152,1,0,0:0:0:0:
256,192,14452,1,8,0:0:0:0:
256,192,14852,1,0,0:0:0:0:
256,192,14902,1,0,0:0:0:0:
256,192,15052,1,8,0:0:0:0:
256,192,15352,1,8,0:0:0:0:
256,192,15652,1,0,0:0:0:0:
256,192,16777,1,0,0:0:0:0:
256,192,16844,1,8,0:0:0:0:
256,192,17652,1,8,0:0:0:0:
256,192,17744,1,8,0:0:0:0:
256,192,18044,12,0,20744,0:0:0:0:
256,192,21050,5,8,0:0:0:0:
256,192,21200,1,0,0:0:0:0:
256,192,21275,1,0,0:0:0:0:
256,192,21350,1,8,0:0:0:0:
256,192,21425,1,8,0:0:0:0:
256,192,21500,1,8,0:0:0:0:
256,192,21648,1,4,0:0:0:0:
256,192,21948,1,8,0:0:0:0:
256,192,22098,1,0,0:0:0:0:
256,192,22323,1,8,0:0:0:0:
256,192,22398,1,0,0:0:0:0:
256,192,22548,1,8,0:0:0:0:
256,192,22698,1,8,0:0:0:0:
256,192,22848,1,4,0:0:0:0:
256,192,23148,1,8,0:0:0:0:
256,192,23298,1,0,0:0:0:0:
256,192,23448,1,8,0:0:0:0:
256,192,23523,1,8,0:0:0:0:
256,192,23598,1,8,0:0:0:0:
256,192,23748,1,0,0:0:0:0:
256,192,23823,1,0,0:0:0:0:
256,192,23898,1,8,0:0:0:0:
256,192,24048,1,4,0:0:0:0:
256,192,24273,1,0,0:0:0:0:
256,192,24348,1,8,0:0:0:0:
256,192,24498,1,0,0:0:0:0:
256,192,24723,1,8,0:0:0:0:
256,192,24798,1,0,0:0:0:0:
256,192,24948,1,8,0:0:0:0:
256,192,25023,1,8,0:0:0:0:
256,192,25098,1,0,0:0:0:0:
256,192,25248,1,12,0:0:0:0:
256,192,25398,1,0,0:0:0:0:
256,192,25473,1,0,0:0:0:0:
256,192,25548,1,8,0:0:0:0:
256,192,25623,1,8,0:0:0:0:
256,192,25698,1,8,0:0:0:0:
256,192,25848,1,0,0:0:0:0:
256,192,25923,1,8,0:0:0:0:
256,192,25998,1,0,0:0:0:0:
256,192,26148,1,8,0:0:0:0:
256,192,26223,1,8,0:0:0:0:
256,192,26298,1,8,0:0:0:0:
256,192,26448,1,4,0:0:0:0:
256,192,26598,1,8,0:0:0:0:
256,192,26673,1,8,0:0:0:0:
256,192,26748,1,8,0:0:0:0:
256,192,26898,1,0,0:0:0:0:
256,192,26973,1,0,0:0:0:0:
256,192,27048,1,8,0:0:0:0:
256,192,27198,1,0,0:0:0:0:
256,192,27273,1,0,0:0:0:0:
256,192,27348,1,8,0:0:0:0:
256,192,27423,1,8,0:0:0:0:
256,192,27498,1,8,0:0:0:0:
256,192,27648,1,4,0:0:0:0:
256,192,27798,1,8,0:0:0:0:
256,192,27948,1,0,0:0:0:0:
256,192,28098,1,8,0:0:0:0:
256,192,28173,1,0,0:0:0:0:
256,192,28248,1,8,0:0:0:0:
256,192,28323,1,8,0:0:0:0:
256,192,28473,1,0,0:0:0:0:
256,192,28548,1,8,0:0:0:0:
256,192,28623,1,8,0:0:0:0:
256,192,28698,1,0,0:0:0:0:
256,192,28773,1,0,0:0:0:0:
256,192,28848,1,8,0:0:0:0:
256,192,28998,1,0,0:0:0:0:
256,192,29148,1,8,0:0:0:0:
256,192,29298,1,8,0:0:0:0:
256,192,29448,1,0,0:0:0:0:
256,192,29523,1,0,0:0:0:0:
256,192,29598,1,0,0:0:0:0:
256,192,29748,1,8,0:0:0:0:
256,192,29823,1,8,0:0:0:0:
256,192,29898,1,8,0:0:0:0:
256,192,29973,1,8,0:0:0:0:
256,192,30048,1,0,0:0:0:0:
256,192,30198,1,8,0:0:0:0:
256,192,30348,1,0,0:0:0:0:
256,192,30423,1,0,0:0:0:0:
256,192,30498,1,8,0:0:0:0:
256,192,30573,1,0,0:0:0:0:
256,192,30648,1,8,0:0:0:0:
256,192,30723,1,8,0:0:0:0:
256,192,30798,1,0,0:0:0:0:
256,192,30873,1,0,0:0:0:0:
256,192,30948,1,8,0:0:0:0:
256,192,31023,1,0,0:0:0:0:
256,192,31098,1,8,0:0:0:0:
256,192,31248,1,8,0:0:0:0:
256,192,31323,1,8,0:0:0:0:
256,192,31398,1,0,0:0:0:0:
256,192,31473,1,8,0:0:0:0:
256,192,31548,1,0,0:0:0:0:
256,192,31623,1,0,0:0:0:0:
256,192,31698,1,8,0:0:0:0:
256,192,31773,1,0,0:0:0:0:
256,192,31848,1,8,0:0:0:0:
256,192,31923,1,8,0:0:0:0:
256,192,31998,1,8,0:0:0:0:
256,192,32073,1,0,0:0:0:0:
256,192,32148,1,8,0:0:0:0:
256,192,32223,1,8,0:0:0:0:
256,192,32298,1,0,0:0:0:0:
256,192,32448,1,12,0:0:0:0:
256,192,34248,1,8,0:0:0:0:
256,192,34548,1,8,0:0:0:0:
256,192,34848,1,12,0:0:0:0:
256,192,35748,1,0,0:0:0:0:
256,192,35898,1,0,0:0:0:0:
256,192,37548,1,8,0:0:0:0:
256,192,38148,1,0,0:0:0:0:
256,192,38448,1,8,0:0:0:0:
256,192,39048,1,8,0:0:0:0:
256,192,39648,1,8,0:0:0:0:
256,192,40548,1,0,0:0:0:0:
256,192,40698,1,0,0:0:0:0:
256,192,40848,1,8,0:0:0:0:
256,192,41448,1,8,0:0:0:0:
256,192,42048,1,0,0:0:0:0:
256,192,42348,1,0,0:0:0:0:
256,192,42648,1,8,0:0:0:0:
256,192,42948,1,0,0:0:0:0:
256,192,43098,1,0,0:0:0:0:
256,192,43248,1,8,0:0:0:0:
256,192,43398,1,8,0:0:0:0:
256,192,43548,1,0,0:0:0:0:
256,192,43848,1,8,0:0:0:0:
256,192,43998,1,0,0:0:0:0:
256,192,44148,1,8,0:0:0:0:
256,192,44223,1,8,0:0:0:0:
256,192,44298,1,8,0:0:0:0:
256,192,44448,1,4,0:0:0:0:
256,192,44748,1,0,0:0:0:0:
256,192,44898,1,0,0:0:0:0:
256,192,44973,1,0,0:0:0:0:
256,192,45048,1,8,0:0:0:0:
256,192,45198,1,0,0:0:0:0:
256,192,45348,1,8,0:0:0:0:
256,192,45498,1,8,0:0:0:0:
256,192,45573,1,0,0:0:0:0:
256,192,45648,1,8,0:0:0:0:
256,192,45798,1,0,0:0:0:0:
256,192,45948,1,8,0:0:0:0:
256,192,46023,1,8,0:0:0:0:
256,192,46098,1,0,0:0:0:0:
256,192,46248,1,8,0:0:0:0:
256,192,46398,1,0,0:0:0:0:
256,192,46548,1,8,0:0:0:0:
256,192,46698,1,8,0:0:0:0:
256,192,46773,1,8,0:0:0:0:
256,192,46848,1,8,0:0:0:0:
256,192,46998,1,0,0:0:0:0:
256,192,47073,1,0,0:0:0:0:
256,192,47148,1,8,0:0:0:0:
256,192,47298,1,0,0:0:0:0:
256,192,47448,1,8,0:0:0:0:
256,192,47523,1,8,0:0:0:0:
256,192,47598,1,0,0:0:0:0:
256,192,47673,1,0,0:0:0:0:
256,192,47748,1,8,0:0:0:0:
256,192,47823,1,0,0:0:0:0:
256,192,47898,1,8,0:0:0:0:
256,192,48048,1,8,0:0:0:0:
256,192,48198,1,8,0:0:0:0:
256,192,48348,1,0,0:0:0:0:
256,192,48423,1,0,0:0:0:0:
256,192,48498,1,8,0:0:0:0:
256,192,48573,1,0,0:0:0:0:
256,192,48648,1,8,0:0:0:0:
256,192,48798,1,8,0:0:0:0:
256,192,48948,1,0,0:0:0:0:
256,192,49098,1,0,0:0:0:0:
256,192,49248,1,12,0:0:0:0:
256,192,49548,1,0,0:0:0:0:
256,192,49698,1,0,0:0:0:0:
256,192,49848,1,8,0:0:0:0:
256,192,49998,1,8,0:0:0:0:
256,192,50148,1,0,0:0:0:0:
256,192,50298,1,0,0:0:0:0:
256,192,50448,1,12,0:0:0:0:
256,192,50748,1,8,0:0:0:0:
256,192,50898,1,0,0:0:0:0:
256,192,50973,1,0,0:0:0:0:
256,192,51048,1,8,0:0:0:0:
256,192,51198,1,8,0:0:0:0:
256,192,51348,1,0,0:0:0:0:
256,192,51498,1,0,0:0:0:0:
256,192,51648,1,8,0:0:0:0:
256,192,51798,1,8,0:0:0:0:
256,192,51948,1,8,0:0:0:0:
256,192,52023,1,8,0:0:0:0:
256,192,52098,1,0,0:0:0:0:
256,192,52173,1,0,0:0:0:0:
256,192,52248,1,8,0:0:0:0:
256,192,52323,1,0,0:0:0:0:
256,192,52398,1,8,0:0:0:0:
256,192,52473,1,0,0:0:0:0:
256,192,52548,1,8,0:0:0:0:
256,192,52623,1,0,0:0:0:0:
256,192,52698,1,8,0:0:0:0:
256,192,52773,1,8,0:0:0:0:
256,192,52848,1,0,0:0:0:0:
256,192,53148,1,8,0:0:0:0:
256,192,53448,1,8,0:0:0:0:
256,192,53748,1,0,0:0:0:0:
256,192,53798,1,0,0:0:0:0:
256,192,53848,1,0,0:0:0:0:
256,192,53898,1,0,0:0:0:0:
256,192,54048,1,12,0:0:0:0:
256,192,54198,1,0,0:0:0:0:
256,192,54348,1,8,0:0:0:0:
256,192,54498,1,8,0:0:0:0:
256,192,54798,1,0,0:0:0:0:
256,192,54948,1,8,0:0:0:0:
256,192,55098,1,8,0:0:0:0:
256,192,55398,1,8,0:0:0:0:
256,192,55848,1,8,0:0:0:0:
256,192,55998,1,0,0:0:0:0:
256,192,56048,1,0,0:0:0:0:
256,192,56098,1,0,0:0:0:0:
256,192,56148,1,8,0:0:0:0:
256,192,56298,1,0,0:0:0:0:
256,192,56448,1,8,0:0:0:0:
256,192,56748,1,8,0:0:0:0:
256,192,56898,1,0,0:0:0:0:
256,192,57198,1,0,0:0:0:0:
256,192,57498,1,8,0:0:0:0:
256,192,57948,1,8,0:0:0:0:
256,192,58248,1,0,0:0:0:0:
256,192,58398,1,0,0:0:0:0:
256,192,58548,1,8,0:0:0:0:
256,192,58698,1,8,0:0:0:0:
256,192,58848,1,0,0:0:0:0:
256,192,59148,1,8,0:0:0:0:
256,192,59298,1,8,0:0:0:0:
256,192,59448,1,0,0:0:0:0:
256,192,59598,1,8,0:0:0:0:
256,192,59898,1,8,0:0:0:0:
256,192,60048,1,0,0:0:0:0:
256,192,60198,1,8,0:0:0:0:
256,192,60498,1,8,0:0:0:0:
256,192,60798,1,0,0:0:0:0:
256,192,60948,1,8,0:0:0:0:
256,192,61098,1,0,0:0:0:0:
256,192,61148,1,0,0:0:0:0:
256,192,61198,1,0,0:0:0:0:
256,192,61248,1,8,0:0:0:0:
256,192,61548,1,8,0:0:0:0:
256,192,61848,1,0,0:0:0:0:
256,192,61948,1,8,0:0:0:0:
256,192,62048,1,8,0:0:0:0:
256,192,62148,1,0,0:0:0:0:
256,192,62248,1,8,0:0:0:0:
256,192,62348,1,8,0:0:0:0:
256,192,62448,1,0,0:0:0:0:
256,192,62748,1,8,0:0:0:0:
256,192,62898,1,8,0:0:0:0:
256,192,63048,1,0,0:0:0:0:
256,192,63123,1,8,0:0:0:0:
256,192,63198,1,0,0:0:0:0:
256,192,63273,1,8,0:0:0:0:
256,192,63348,1,0,0:0:0:0:
256,192,63423,1,0,0:0:0:0:
256,192,63498,1,8,0:0:0:0:
256,192,63648,1,4,0:0:0:0:
256,192,63798,1,8,0:0:0:0:
256,192,63948,1,0,0:0:0:0:
256,192,64098,1,8,0:0:0:0:
256,192,64323,1,8,0:0:0:0:
256,192,64398,1,0,0:0:0:0:
256,192,64548,1,8,0:0:0:0:
256,192,64698,1,8,0:0:0:0:
256,192,64998,1,8,0:0:0:0:
256,192,65148,1,0,0:0:0:0:
256,192,65298,1,8,0:0:0:0:
256,192,65373,1,8,0:0:0:0:
256,192,65448,1,8,0:0:0:0:
256,192,65598,1,0,0:0:0:0:
256,192,65648,1,8,0:0:0:0:
256,192,65698,1,8,0:0:0:0:
256,192,65748,1,0,0:0:0:0:
256,192,65898,1,0,0:0:0:0:
256,192,66048,1,8,0:0:0:0:
256,192,66198,1,0,0:0:0:0:
256,192,66273,1,0,0:0:0:0:
256,192,66348,1,8,0:0:0:0:
256,192,66498,1,8,0:0:0:0:
256,192,66723,1,8,0:0:0:0:
256,192,66798,1,0,0:0:0:0:
256,192,66948,1,8,0:0:0:0:
256,192,67098,1,0,0:0:0:0:
256,192,67398,1,0,0:0:0:0:
256,192,67473,1,0,0:0:0:0:
256,192,67548,1,8,0:0:0:0:
256,192,67698,1,0,0:0:0:0:
256,192,67848,1,8,0:0:0:0:
256,192,67923,1,8,0:0:0:0:
256,192,67998,1,0,0:0:0:0:
256,192,68073,1,8,0:0:0:0:
256,192,68148,1,0,0:0:0:0:
256,192,68298,1,8,0:0:0:0:
256,192,68448,1,4,0:0:0:0:
256,192,68598,1,0,0:0:0:0:
256,192,68898,1,0,0:0:0:0:
256,192,68973,1,0,0:0:0:0:
256,192,69048,1,8,0:0:0:0:
256,192,69123,1,0,0:0:0:0:
256,192,69198,1,8,0:0:0:0:
256,192,69273,1,8,0:0:0:0:
256,192,69348,1,0,0:0:0:0:
256,192,69423,1,0,0:0:0:0:
256,192,69498,1,8,0:0:0:0:
256,192,69573,1,0,0:0:0:0:
256,192,69648,1,8,0:0:0:0:
256,192,69723,1,8,0:0:0:0:
256,192,69798,1,0,0:0:0:0:
256,192,69873,1,0,0:0:0:0:
256,192,69948,1,8,0:0:0:0:
256,192,70023,1,8,0:0:0:0:
256,192,70098,1,8,0:0:0:0:
256,192,70173,1,0,0:0:0:0:
256,192,70248,1,8,0:0:0:0:
256,192,70323,1,8,0:0:0:0:
256,192,70398,1,0,0:0:0:0:
256,192,70473,1,0,0:0:0:0:
256,192,70548,1,8,0:0:0:0:
256,192,70623,1,0,0:0:0:0:
256,192,70698,1,0,0:0:0:0:
256,192,70848,1,12,0:0:0:0:
256,192,70998,1,8,0:0:0:0:
256,192,71148,1,0,0:0:0:0:
256,192,71223,1,0,0:0:0:0:
256,192,71298,1,0,0:0:0:0:
256,192,71448,1,12,0:0:0:0:
256,192,71598,1,8,0:0:0:0:
256,192,71748,1,0,0:0:0:0:
256,192,71823,1,0,0:0:0:0:
256,192,71898,1,0,0:0:0:0:
256,192,72048,1,12,0:0:0:0:
256,192,72273,1,12,0:0:0:0:
256,192,72498,1,12,0:0:0:0:
256,192,72723,1,4,0:0:0:0:
256,192,72948,1,12,0:0:0:0:
256,192,73098,1,12,0:0:0:0:
256,192,73248,1,4,0:0:0:0:
256,192,74148,1,0,0:0:0:0:
256,192,74298,1,0,0:0:0:0:
256,192,74448,1,8,0:0:0:0:
256,192,75048,1,0,0:0:0:0:
256,192,75648,1,8,0:0:0:0:
256,192,76848,1,8,0:0:0:0:
256,192,77148,1,0,0:0:0:0:
256,192,77448,1,8,0:0:0:0:
256,192,77598,1,8,0:0:0:0:
256,192,77748,1,0,0:0:0:0:
256,192,77898,1,8,0:0:0:0:
256,192,77948,1,0,0:0:0:0:
256,192,77998,1,0,0:0:0:0:
256,192,78048,1,8,0:0:0:0:
256,192,78198,1,0,0:0:0:0:
256,192,78348,1,8,0:0:0:0:
256,192,78498,1,8,0:0:0:0:
256,192,78648,1,8,0:0:0:0:
256,192,78798,1,8,0:0:0:0:
256,192,78948,1,0,0:0:0:0:
256,192,79098,1,0,0:0:0:0:
256,192,79173,1,0,0:0:0:0:
256,192,79248,1,8,0:0:0:0:
256,192,79398,1,8,0:0:0:0:
256,192,79548,1,0,0:0:0:0:
256,192,79623,1,8,0:0:0:0:
256,192,79698,1,0,0:0:0:0:
256,192,79848,1,8,0:0:0:0:
256,192,79998,1,8,0:0:0:0:
256,192,80073,1,8,0:0:0:0:
256,192,80148,1,0,0:0:0:0:
256,192,80298,1,0,0:0:0:0:
256,192,80373,1,0,0:0:0:0:
256,192,80448,1,8,0:0:0:0:
256,192,80523,1,8,0:0:0:0:
256,192,80598,1,0,0:0:0:0:
256,192,80673,1,8,0:0:0:0:
256,192,80748,1,0,0:0:0:0:
256,192,80823,1,0,0:0:0:0:
256,192,80898,1,8,0:0:0:0:
256,192,80973,1,0,0:0:0:0:
256,192,81048,1,8,0:0:0:0:
256,192,81123,1,8,0:0:0:0:
256,192,81198,1,0,0:0:0:0:
256,192,81273,1,0,0:0:0:0:
256,192,81348,1,8,0:0:0:0:
256,192,81423,1,8,0:0:0:0:
256,192,81498,1,0,0:0:0:0:
256,192,81573,1,0,0:0:0:0:
256,192,81648,1,8,0:0:0:0:
256,192,81698,1,8,0:0:0:0:
256,192,81748,1,0,0:0:0:0:
256,192,81798,1,0,0:0:0:0:
256,192,81873,1,0,0:0:0:0:
256,192,81948,1,8,0:0:0:0:
256,192,81998,1,8,0:0:0:0:
256,192,82048,1,0,0:0:0:0:
256,192,82098,1,0,0:0:0:0:
256,192,82173,1,0,0:0:0:0:
256,192,82248,1,8,0:0:0:0:
256,192,82298,1,8,0:0:0:0:
256,192,82348,1,8,0:0:0:0:
256,192,82398,1,0,0:0:0:0:
256,192,82473,1,0,0:0:0:0:
256,192,82548,1,8,0:0:0:0:
256,192,82598,1,8,0:0:0:0:
256,192,82648,1,8,0:0:0:0:
256,192,82698,1,0,0:0:0:0:
256,192,82848,1,12,0:0:0:0:
256,192,82998,1,0,0:0:0:0:
256,192,83073,1,8,0:0:0:0:
256,192,83148,1,0,0:0:0:0:
256,192,83298,1,8,0:0:0:0:
256,192,83373,1,8,0:0:0:0:
256,192,83448,1,0,0:0:0:0:
256,192,83598,1,0,0:0:0:0:
256,192,83673,1,8,0:0:0:0:
256,192,83748,1,0,0:0:0:0:
256,192,83898,1,8,0:0:0:0:
256,192,83973,1,8,0:0:0:0:
256,192,84048,1,8,0:0:0:0:
256,192,84198,1,0,0:0:0:0:
256,192,84348,1,8,0:0:0:0:
256,192,84498,1,0,0:0:0:0:
256,192,84648,1,8,0:0:0:0:
256,192,84723,1,8,0:0:0:0:
256,192,84798,1,0,0:0:0:0:
256,192,84873,1,0,0:0:0:0:
256,192,84948,1,8,0:0:0:0:
256,192,85098,1,0,0:0:0:0:
256,192,85248,1,12,0:0:0:0:
256,192,85398,1,0,0:0:0:0:
256,192,85473,1,0,0:0:0:0:
256,192,85548,1,8,0:0:0:0:
256,192,85698,1,0,0:0:0:0:
256,192,85848,1,8,0:0:0:0:
256,192,85923,1,8,0:0:0:0:
256,192,85998,1,0,0:0:0:0:
256,192,86073,1,8,0:0:0:0:
256,192,86148,1,0,0:0:0:0:
256,192,86223,1,8,0:0:0:0:
256,192,86298,1,0,0:0:0:0:
256,192,86373,1,0,0:0:0:0:
256,192,86448,1,8,0:0:0:0:
256,192,86598,1,0,0:0:0:0:
256,192,86748,1,8,0:0:0:0:
256,192,86823,1,8,0:0:0:0:
256,192,86898,1,0,0:0:0:0:
256,192,86973,1,0,0:0:0:0:
256,192,87048,1,8,0:0:0:0:
256,192,87123,1,8,0:0:0:0:
256,192,87198,1,8,0:0:0:0:
256,192,87348,1,0,0:0:0:0:
256,192,87498,1,0,0:0:0:0:
256,192,87648,1,12,0:0:0:0:
256,192,87948,1,0,0:0:0:0:
256,192,88023,1,0,0:0:0:0:
256,192,88098,1,0,0:0:0:0:
256,192,88248,1,12,0:0:0:0:
256,192,88398,1,12,0:0:0:0:
256,192,88698,1,4,0:0:0:0:
256,192,88998,1,0,0:0:0:0:
256,192,89148,1,8,0:0:0:0:
256,192,89223,1,0,0:0:0:0:
256,192,89298,1,8,0:0:0:0:
256,192,89373,1,8,0:0:0:0:
256,192,89448,1,8,0:0:0:0:
256,192,89598,1,0,0:0:0:0:
256,192,89673,1,8,0:0:0:0:
256,192,89898,1,4,0:0:0:0:
256,192,90198,1,0,0:0:0:0:
256,192,90348,1,8,0:0:0:0:
256,192,90498,1,8,0:0:0:0:
256,192,90573,1,0,0:0:0:0:
256,192,90648,1,8,0:0:0:0:
256,192,90798,1,8,0:0:0:0:
256,192,90873,1,8,0:0:0:0:
256,192,90948,1,0,0:0:0:0:
256,192,91098,1,0,0:0:0:0:
256,192,91173,1,0,0:0:0:0:
256,192,91248,1,8,0:0:0:0:
256,192,91323,1,8,0:0:0:0:
256,192,91398,1,0,0:0:0:0:
256,192,91473,1,8,0:0:0:0:
256,192,91548,1,0,0:0:0:0:
256,192,91623,1,0,0:0:0:0:
256,192,91698,1,8,0:0:0:0:
256,192,91773,1,0,0:0:0:0:
256,192,91848,1,8,0:0:0:0:
256,192,91923,1,8,0:0:0:0:
256,192,91998,1,8,0:0:0:0:
256,192,92073,1,0,0:0:0:0:
256,192,92148,1,8,0:0:0:0:
256,192,92223,1,8,0:0:0:0:
256,192,92298,1,0,0:0:0:0:
256,192,92448,1,12,0:0:0:0:
256,192,92598,12,0,94698,0:0:0:0:
256,192,94848,5,4,0:0:0:0:
256,192,95148,1,0,0:0:0:0:
256,192,95298,1,8,0:0:0:0:
256,192,95523,1,8,0:0:0:0:
256,192,95598,1,0,0:0:0:0:
256,192,95748,1,8,0:0:0:0:
256,192,95898,1,8,0:0:0:0:
256,192,96048,1,0,0:0:0:0:
256,192,96198,1,0,0:0:0:0:
256,192,96348,1,8,0:0:0:0:
256,192,96498,1,0,0:0:0:0:
256,192,96723,1,8,0:0:0:0:
256,192,96798,1,0,0:0:0:0:
256,192,96948,1,8,0:0:0:0:
256,192,97098,1,8,0:0:0:0:
256,192,97248,1,0,0:0:0:0:
256,192,97548,1,8,0:0:0:0:
256,192,97698,1,0,0:0:0:0:
256,192,97923,1,8,0:0:0:0:
256,192,97998,1,8,0:0:0:0:
256,192,98148,1,0,0:0:0:0:
256,192,98298,1,8,0:0:0:0:
256,192,98448,1,0,0:0:0:0:
256,192,98598,1,0,0:0:0:0:
256,192,98748,1,8,0:0:0:0:
256,192,98898,1,0,0:0:0:0:
256,192,98973,1,0,0:0:0:0:
256,192,99123,1,8,0:0:0:0:
256,192,99198,1,0,0:0:0:0:
256,192,99348,1,8,0:0:0:0:
256,192,99423,1,8,0:0:0:0:
256,192,99498,1,8,0:0:0:0:
256,192,99648,1,0,0:0:0:0:
256,192,99798,1,0,0:0:0:0:
256,192,99948,1,8,0:0:0:0:
256,192,100098,1,0,0:0:0:0:
256,192,100248,1,8,0:0:0:0:
256,192,100323,1,8,0:0:0:0:
256,192,100398,1,0,0:0:0:0:
256,192,100548,1,8,0:0:0:0:
256,192,100623,1,8,0:0:0:0:
256,192,100698,1,8,0:0:0:0:
256,192,100848,1,0,0:0:0:0:
256,192,100998,1,0,0:0:0:0:
256,192,101073,1,0,0:0:0:0:
256,192,101148,1,8,0:0:0:0:
256,192,101298,1,0,0:0:0:0:
256,192,101448,1,8,0:0:0:0:
256,192,101523,1,8,0:0:0:0:
256,192,101598,1,0,0:0:0:0:
256,192,101673,1,8,0:0:0:0:
256,192,101748,1,0,0:0:0:0:
256,192,101898,1,0,0:0:0:0:
256,192,102048,1,12,0:0:0:0:
256,192,102198,1,0,0:0:0:0:
256,192,102273,1,0,0:0:0:0:
256,192,102348,1,8,0:0:0:0:
256,192,102498,1,0,0:0:0:0:
256,192,102648,1,12,0:0:0:0:
256,192,102798,1,0,0:0:0:0:
256,192,102873,1,0,0:0:0:0:
256,192,102948,1,8,0:0:0:0:
256,192,103023,1,8,0:0:0:0:
256,192,103098,1,0,0:0:0:0:
256,192,103173,1,0,0:0:0:0:
256,192,103248,1,8,0:0:0:0:
256,192,103323,1,8,0:0:0:0:
256,192,103398,1,8,0:0:0:0:
256,192,103473,1,0,0:0:0:0:
256,192,103548,1,8,0:0:0:0:
256,192,103623,1,8,0:0:0:0:
256,192,103698,1,0,0:0:0:0:
256,192,103773,1,0,0:0:0:0:
256,192,103848,1,8,0:0:0:0:
256,192,103998,1,0,0:0:0:0:
256,192,104148,1,8,0:0:0:0:
256,192,104223,1,8,0:0:0:0:
256,192,104298,1,0,0:0:0:0:
256,192,104373,1,0,0:0:0:0:
256,192,104447,1,12,0:0:0:0:
256,192,104597,1,0,0:0:0:0:
256,192,104747,1,8,0:0:0:0:
256,192,104897,1,0,0:0:0:0:
256,192,104972,1,0,0:0:0:0:
256,192,105047,1,8,0:0:0:0:
256,192,105122,1,8,0:0:0:0:
256,192,105197,1,0,0:0:0:0:
256,192,105347,1,8,0:0:0:0:
256,192,105497,1,0,0:0:0:0:
256,192,105572,1,8,0:0:0:0:
256,192,105647,1,0,0:0:0:0:
256,192,105797,1,0,0:0:0:0:
256,192,105947,1,8,0:0:0:0:
256,192,106022,1,0,0:0:0:0:
256,192,106097,1,8,0:0:0:0:
256,192,106172,1,8,0:0:0:0:
256,192,106247,1,0,0:0:0:0:
256,192,106322,1,8,0:0:0:0:
256,192,106397,1,0,0:0:0:0:
256,192,106547,1,8,0:0:0:0:
256,192,106697,1,8,0:0:0:0:
256,192,106772,1,8,0:0:0:0:
256,192,106847,1,0,0:0:0:0:
256,192,106997,1,0,0:0:0:0:
256,192,107147,1,8,0:0:0:0:
256,192,107222,1,0,0:0:0:0:
256,192,107297,1,8,0:0:0:0:
256,192,107372,1,0,0:0:0:0:
256,192,107447,1,8,0:0:0:0:
256,192,107522,1,8,0:0:0:0:
256,192,107597,1,0,0:0:0:0:
256,192,107747,1,8,0:0:0:0:
256,192,107822,1,8,0:0:0:0:
256,192,107897,1,0,0:0:0:0:
256,192,108047,1,8,0:0:0:0:
256,192,108197,1,0,0:0:0:0:
256,192,108347,1,8,0:0:0:0:
256,192,108422,1,8,0:0:0:0:
256,192,108497,1,0,0:0:0:0:
256,192,108572,1,0,0:0:0:0:
256,192,108647,1,8,0:0:0:0:
256,192,108797,1,8,0:0:0:0:
256,192,108947,1,0,0:0:0:0:
256,192,109022,1,0,0:0:0:0:
256,192,109097,1,8,0:0:0:0:
256,192,109172,1,0,0:0:0:0:
256,192,109247,1,12,0:0:0:0:
256,192,109397,1,0,0:0:0:0:
256,192,109547,1,8,0:0:0:0:
256,192,109697,1,0,0:0:0:0:
256,192,109772,1,0,0:0:0:0:
256,192,109847,1,8,0:0:0:0:
256,192,109922,1,8,0:0:0:0:
256,192,109997,1,0,0:0:0:0:
256,192,110147,1,8,0:0:0:0:
256,192,110297,1,0,0:0:0:0:
256,192,110372,1,0,0:0:0:0:
256,192,110447,1,8,0:0:0:0:
256,192,110522,1,8,0:0:0:0:
256,192,110597,1,0,0:0:0:0:
256,192,110747,1,8,0:0:0:0:
256,192,110822,1,0,0:0:0:0:
256,192,110897,1,8,0:0:0:0:
256,192,110972,1,8,0:0:0:0:
256,192,111047,1,0,0:0:0:0:
256,192,111122,1,0,0:0:0:0:
256,192,111197,1,0,0:0:0:0:
256,192,111347,1,8,0:0:0:0:
256,192,111497,1,0,0:0:0:0:
256,192,111572,1,0,0:0:0:0:
256,192,111647,1,8,0:0:0:0:
256,192,111797,1,0,0:0:0:0:
256,192,111947,1,8,0:0:0:0:
256,192,112097,1,8,0:0:0:0:
256,192,112172,1,0,0:0:0:0:
256,192,112247,1,8,0:0:0:0:
256,192,112397,1,0,0:0:0:0:
256,192,112547,1,8,0:0:0:0:
256,192,112622,1,8,0:0:0:0:
256,192,112697,1,0,0:0:0:0:
256,192,112772,1,0,0:0:0:0:
256,192,112922,1,8,0:0:0:0:
256,192,112997,1,0,0:0:0:0:
256,192,113147,1,8,0:0:0:0:
256,192,113222,1,8,0:0:0:0:
256,192,113297,1,0,0:0:0:0:
256,192,113372,1,8,0:0:0:0:
256,192,113447,1,0,0:0:0:0:
256,192,113597,1,0,0:0:0:0:
256,192,113747,1,8,0:0:0:0:
256,192,113822,1,8,0:0:0:0:
256,192,113897,1,0,0:0:0:0:
256,192,113972,1,0,0:0:0:0:
256,192,114047,1,12,0:0:0:0:
256,192,114197,1,0,0:0:0:0:
256,192,114347,1,8,0:0:0:0:
256,192,114497,1,0,0:0:0:0:
256,192,114572,1,0,0:0:0:0:
256,192,114647,1,8,0:0:0:0:
256,192,114722,1,8,0:0:0:0:
256,192,114797,1,0,0:0:0:0:
256,192,114947,1,8,0:0:0:0:
256,192,115097,1,0,0:0:0:0:
256,192,115172,1,8,0:0:0:0:
256,192,115247,1,0,0:0:0:0:
256,192,115397,1,0,0:0:0:0:
256,192,115547,1,8,0:0:0:0:
256,192,115622,1,0,0:0:0:0:
256,192,115697,1,8,0:0:0:0:
256,192,115772,1,8,0:0:0:0:
256,192,115847,1,0,0:0:0:0:
256,192,115922,1,8,0:0:0:0:
256,192,115997,1,0,0:0:0:0:
256,192,116147,1,8,0:0:0:0:
256,192,116297,1,8,0:0:0:0:
256,192,116372,1,8,0:0:0:0:
256,192,116447,1,0,0:0:0:0:
256,192,116597,1,0,0:0:0:0:
256,192,116747,1,8,0:0:0:0:
256,192,116822,1,0,0:0:0:0:
256,192,116897,1,8,0:0:0:0:
256,192,116972,1,0,0:0:0:0:
256,192,117047,1,8,0:0:0:0:
256,192,117122,1,8,0:0:0:0:
256,192,117197,1,0,0:0:0:0:
256,192,117347,1,8,0:0:0:0:
256,192,117422,1,8,0:0:0:0:
256,192,117497,1,8,0:0:0:0:
256,192,117647,1,4,0:0:0:0:
256,192,117847,1,4,0:0:0:0:
256,192,118047,1,12,0:0:0:0:
256,192,118247,1,12,0:0:0:0:
256,192,118447,1,4,0:0:0:0:
256,192,118647,1,12,0:0:0:0:
256,192,118847,1,4,0:0:0:0:
256,192,119447,1,8,0:0:0:0:
256,192,119747,1,4,0:0:0:0:
256,192,120347,1,8,0:0:0:0:
256,192,120497,1,0,0:0:0:0:
256,192,120647,1,12,0:0:0:0:
256,192,120797,1,12,0:0:0:0:
256,192,120947,1,0,0:0:0:0:
256,192,121022,1,0,0:0:0:0:
256,192,121097,1,8,0:0:0:0:
256,192,121172,1,0,0:0:0:0:
256,192,121247,1,12,0:0:0:0:
256,192,121397,1,0,0:0:0:0:
256,192,121472,1,0,0:0:0:0:
256,192,121547,1,8,0:0:0:0:
256,192,121697,1,0,0:0:0:0:
256,192,121847,1,8,0:0:0:0:
256,192,121922,1,8,0:0:0:0:
256,192,121997,1,0,0:0:0:0:
256,192,122072,1,0,0:0:0:0:
256,192,122147,1,8,0:0:0:0:
256,192,122297,1,0,0:0:0:0:
256,192,122372,1,0,0:0:0:0:
256,192,122447,1,8,0:0:0:0:
256,192,122522,1,8,0:0:0:0:
256,192,122597,1,0,0:0:0:0:
256,192,122672,1,8,0:0:0:0:
256,192,122747,1,0,0:0:0:0:
256,192,122822,1,0,0:0:0:0:
256,192,122897,1,8,0:0:0:0:
256,192,122972,1,0,0:0:0:0:
256,192,123047,1,8,0:0:0:0:
256,192,123122,1,8,0:0:0:0:
256,192,123197,1,8,0:0:0:0:
256,192,123272,1,0,0:0:0:0:
256,192,123347,1,8,0:0:0:0:
256,192,123497,1,0,0:0:0:0:
256,192,123647,1,12,0:0:0:0:
256,192,123797,1,0,0:0:0:0:
256,192,123872,1,0,0:0:0:0:
256,192,123947,1,8,0:0:0:0:
256,192,124097,1,0,0:0:0:0:
256,192,124247,1,8,0:0:0:0:
256,192,124397,1,0,0:0:0:0:
256,192,124472,1,0,0:0:0:0:
256,192,124547,1,8,0:0:0:0:
256,192,124697,1,0,0:0:0:0:
256,192,124847,1,8,0:0:0:0:
256,192,124997,1,0,0:0:0:0:
256,192,125072,1,0,0:0:0:0:
256,192,125147,1,8,0:0:0:0:
256,192,125222,1,8,0:0:0:0:
256,192,125297,1,0,0:0:0:0:
256,192,125372,1,0,0:0:0:0:
256,192,125447,1,8,0:0:0:0:
256,192,125597,1,0,0:0:0:0:
256,192,125747,1,8,0:0:0:0:
256,192,125822,1,8,0:0:0:0:
256,192,125897,1,0,0:0:0:0:
256,192,126047,1,8,0:0:0:0:
256,192,126197,1,0,0:0:0:0:
256,192,126347,1,8,0:0:0:0:
256,192,126422,1,0,0:0:0:0:
256,192,126497,1,8,0:0:0:0:
256,192,126572,1,8,0:0:0:0:
256,192,126647,1,0,0:0:0:0:
256,192,126797,1,0,0:0:0:0:
256,192,126947,1,8,0:0:0:0:
256,192,127022,1,8,0:0:0:0:
256,192,127097,1,0,0:0:0:0:
256,192,127247,1,8,0:0:0:0:
256,192,127397,1,0,0:0:0:0:
256,192,127472,1,0,0:0:0:0:
256,192,127547,1,8,0:0:0:0:
256,192,127697,1,0,0:0:0:0:
256,192,127847,1,8,0:0:0:0:
256,192,127922,1,8,0:0:0:0:
256,192,127997,1,0,0:0:0:0:
256,192,128147,1,8,0:0:0:0:
256,192,128222,1,8,0:0:0:0:
256,192,128297,1,0,0:0:0:0:
256,192,128372,1,0,0:0:0:0:
256,192,128447,1,12,0:0:0:0:
256,192,128597,1,0,0:0:0:0:
256,192,128747,1,8,0:0:0:0:
256,192,128897,1,0,0:0:0:0:
256,192,128972,1,0,0:0:0:0:
256,192,129047,1,8,0:0:0:0:
256,192,129197,1,0,0:0:0:0:
256,192,129347,1,8,0:0:0:0:
256,192,129497,1,0,0:0:0:0:
256,192,129572,1,0,0:0:0:0:
256,192,129647,1,8,0:0:0:0:
256,192,129797,1,0,0:0:0:0:
256,192,129872,1,0,0:0:0:0:
256,192,129947,1,8,0:0:0:0:
256,192,130022,1,8,0:0:0:0:
256,192,130097,1,0,0:0:0:0:
256,192,130172,1,0,0:0:0:0:
256,192,130247,1,8,0:0:0:0:
256,192,130397,1,0,0:0:0:0:
256,192,130547,1,8,0:0:0:0:
256,192,130697,1,8,0:0:0:0:
256,192,130772,1,8,0:0:0:0:
256,192,130847,1,0,0:0:0:0:
256,192,130997,1,0,0:0:0:0:
256,192,131147,1,8,0:0:0:0:
256,192,131297,1,0,0:0:0:0:
256,192,131372,1,0,0:0:0:0:
256,192,131447,1,8,0:0:0:0:
256,192,131522,1,8,0:0:0:0:
256,192,131597,1,0,0:0:0:0:
256,192,131747,1,8,0:0:0:0:
256,192,131822,1,8,0:0:0:0:
256,192,131897,1,8,0:0:0:0:
256,192,131972,1,8,0:0:0:0:
256,192,132047,1,0,0:0:0:0:
256,192,132197,1,0,0:0:0:0:
256,192,132347,1,8,0:0:0:0:
256,192,132422,1,8,0:0:0:0:
256,192,132497,1,0,0:0:0:0:
256,192,132572,1,0,0:0:0:0:
256,192,132647,1,8,0:0:0:0:
256,192,132797,1,0,0:0:0:0:
256,192,132872,1,0,0:0:0:0:
256,192,132947,1,8,0:0:0:0:
256,192,133022,1,0,0:0:0:0:
256,192,133097,1,8,0:0:0:0:
256,192,133172,1,0,0:0:0:0:
256,192,133247,1,12,0:0:0:0:
256,192,133397,1,0,0:0:0:0:
256,192,133472,1,0,0:0:0:0:
256,192,133547,1,8,0:0:0:0:
256,192,133697,1,0,0:0:0:0:
256,192,133847,1,8,0:0:0:0:
256,192,133997,1,0,0:0:0:0:
256,192,134072,1,0,0:0:0:0:
256,192,134147,1,8,0:0:0:0:
256,192,134297,1,0,0:0:0:0:
256,192,134447,1,8,0:0:0:0:
256,192,134597,1,0,0:0:0:0:
256,192,134672,1,0,0:0:0:0:
256,192,134747,1,8,0:0:0:0:
256,192,134822,1,8,0:0:0:0:
256,192,134897,1,0,0:0:0:0:
256,192,134972,1,0,0:0:0:0:
256,192,135047,1,8,0:0:0:0:
256,192,135197,1,0,0:0:0:0:
256,192,135347,1,8,0:0:0:0:
256,192,135422,1,8,0:0:0:0:
256,192,135497,1,0,0:0:0:0:
256,192,135572,1,0,0:0:0:0:
256,192,135647,1,8,0:0:0:0:
256,192,135797,1,0,0:0:0:0:
256,192,135947,1,8,0:0:0:0:
256,192,136022,1,0,0:0:0:0:
256,192,136097,1,8,0:0:0:0:
256,192,136172,1,8,0:0:0:0:
256,192,136247,1,0,0:0:0:0:
256,192,136397,1,0,0:0:0:0:
256,192,136547,1,8,0:0:0:0:
256,192,136622,1,8,0:0:0:0:
256,192,136697,1,8,0:0:0:0:
256,192,136847,1,4,0:0:0:0:
256,192,137047,1,4,0:0:0:0:
256,192,137247,1,12,0:0:0:0:
256,192,137447,1,4,0:0:0:0:
256,192,137647,1,12,0:0:0:0:
256,192,137847,1,12,0:0:0:0:
256,192,138047,1,4,0:0:0:0:
256,192,138647,1,8,0:0:0:0:
256,192,138947,1,4,0:0:0:0:
256,192,139547,1,8,0:0:0:0:
256,192,139697,1,0,0:0:0:0:
256,192,139847,1,12,0:0:0:0:
256,192,139997,1,12,0:0:0:0:
256,192,140147,1,0,0:0:0:0:
256,192,140222,1,0,0:0:0:0:
256,192,140297,1,8,0:0:0:0:
256,192,140372,1,0,0:0:0:0:
256,192,140447,1,12,0:0:0:0:
256,192,140597,1,0,0:0:0:0:
256,192,140672,1,0,0:0:0:0:
256,192,140747,1,8,0:0:0:0:
256,192,140897,1,0,0:0:0:0:
256,192,141047,1,8,0:0:0:0:
256,192,141122,1,8,0:0:0:0:
256,192,141197,1,0,0:0:0:0:
256,192,141272,1,0,0:0:0:0:
256,192,141347,1,8,0:0:0:0:
256,192,141497,1,0,0:0:0:0:
256,192,141572,1,0,0:0:0:0:
256,192,141647,1,8,0:0:0:0:
256,192,141722,1,8,0:0:0:0:
256,192,141797,1,0,0:0:0:0:
256,192,141872,1,8,0:0:0:0:
256,192,141947,1,0,0:0:0:0:
256,192,142022,1,0,0:0:0:0:
256,192,142097,1,8,0:0:0:0:
256,192,142172,1,0,0:0:0:0:
256,192,142247,1,8,0:0:0:0:
256,192,142322,1,8,0:0:0:0:
256,192,142397,1,8,0:0:0:0:
256,192,142472,1,0,0:0:0:0:
256,192,142547,1,8,0:0:0:0:
256,192,142697,1,8,0:0:0:0:
256,192,142847,1,4,0:0:0:0:
256,192,143297,1,0,0:0:0:0:
256,192,143447,1,8,0:0:0:0:
256,192,143897,1,0,0:0:0:0:
256,192,144047,1,0,0:0:0:0:
256,192,144497,1,0,0:0:0:0:
256,192,144647,1,8,0:0:0:0:
256,192,145097,1,8,0:0:0:0:
256,192,145247,1,0,0:0:0:0:
256,192,145697,1,8,0:0:0:0:
256,192,145847,1,8,0:0:0:0:
256,192,146297,1,0,0:0:0:0:
256,192,146447,1,0,0:0:0:0:
256,192,146897,1,0,0:0:0:0:
256,192,147047,1,8,0:0:0:0:
256,192,147497,1,8,0:0:0:0:
256,192,147647,1,0,0:0:0:0:
256,192,147947,1,0,0:0:0:0:
256,192,148247,1,8,0:0:0:0:
256,192,148547,1,8,0:0:0:0:
256,192,148847,1,0,0:0:0:0:
256,192,149147,1,0,0:0:0:0:
256,192,149447,1,8,0:0:0:0:
256,192,149747,1,8,0:0:0:0:
256,192,150047,1,0,0:0:0:0:
256,192,150347,1,0,0:0:0:0:
256,192,150647,1,8,0:0:0:0:
256,192,150947,1,0,0:0:0:0:
256,192,151247,1,0,0:0:0:0:
256,192,151547,1,0,0:0:0:0:
256,192,151847,1,8,0:0:0:0:
256,192,152147,1,0,0:0:0:0:
256,192,152222,1,0,0:0:0:0:
256,192,152297,1,8,0:0:0:0:
256,192,152372,1,8,0:0:0:0:
256,192,152447,1,8,0:0:0:0:
256,192,152897,1,0,0:0:0:0:
256,192,153047,1,8,0:0:0:0:
256,192,153497,1,0,0:0:0:0:
256,192,153647,1,0,0:0:0:0:
256,192,154097,1,8,0:0:0:0:
256,192,154247,1,8,0:0:0:0:
256,192,154697,1,0,0:0:0:0:
256,192,154847,1,8,0:0:0:0:
256,192,155297,1,8,0:0:0:0:
256,192,155447,1,8,0:0:0:0:
256,192,155897,1,0,0:0:0:0:
256,192,156047,1,0,0:0:0:0:
256,192,156497,1,8,0:0:0:0:
256,192,156647,1,8,0:0:0:0:
256,192,157097,1,0,0:0:0:0:
256,192,157247,1,8,0:0:0:0:
256,192,157547,1,0,0:0:0:0:
256,192,157697,1,0,0:0:0:0:
256,192,157847,1,8,0:0:0:0:
256,192,158147,1,0,0:0:0:0:
256,192,158297,1,8,0:0:0:0:
256,192,158447,1,8,0:0:0:0:
256,192,158747,1,0,0:0:0:0:
256,192,158897,1,0,0:0:0:0:
256,192,159047,1,8,0:0:0:0:
256,192,159197,1,0,0:0:0:0:
256,192,159347,1,8,0:0:0:0:
256,192,159497,1,8,0:0:0:0:
256,192,159647,1,0,0:0:0:0:
256,192,159797,1,0,0:0:0:0:
256,192,159947,1,8,0:0:0:0:
256,192,160097,1,0,0:0:0:0:
256,192,160247,1,8,0:0:0:0:
256,192,160397,1,8,0:0:0:0:
256,192,160547,1,0,0:0:0:0:
256,192,160697,1,0,0:0:0:0:
256,192,160847,1,8,0:0:0:0:
256,192,160997,1,8,0:0:0:0:
256,192,161147,1,8,0:0:0:0:
256,192,161297,1,0,0:0:0:0:
256,192,161447,1,8,0:0:0:0:
256,192,161597,1,8,0:0:0:0:
256,192,161747,1,0,0:0:0:0:
256,192,161897,1,0,0:0:0:0:
256,192,162047,1,12,0:0:0:0:
256,192,162197,12,12,166847,0:0:0:0:
256,192,169252,5,0,0:0:0:0:
256,192,170004,1,0,0:0:0:0:
256,192,170451,1,8,0:0:0:0:
256,192,170976,1,8,0:0:0:0:
256,192,171641,1,0,0:0:0:0:
256,192,172310,1,8,0:0:0:0:
256,192,172756,1,0,0:0:0:0:
256,192,173214,1,8,0:0:0:0:
256,192,173587,1,0,0:0:0:0:
256,192,173961,1,8,0:0:0:0:
256,192,174118,1,8,0:0:0:0:
256,192,174292,1,0,0:0:0:0:
256,192,174573,1,0,0:0:0:0:
256,192,174954,1,8,0:0:0:0:
256,192,175297,1,8,0:0:0:0:
256,192,175446,1,8,0:0:0:0:
256,192,175659,1,0,0:0:0:0:
256,192,176047,1,0,0:0:0:0:
256,192,176470,1,8,0:0:0:0:
256,192,176945,1,8,0:0:0:0:
256,192,177424,1,0,0:0:0:0:
256,192,178057,1,0,0:0:0:0:
256,192,179050,1,0,0:0:0:0:
256,192,179113,1,0,0:0:0:0:
256,192,179176,1,0,0:0:0:0:
256,192,179240,1,8,0:0:0:0:
256,192,179659,1,8,0:0:0:0:
256,192,180055,1,0,0:0:0:0:
256,192,180390,1,8,0:0:0:0:
256,192,180741,1,0,0:0:0:0:
256,192,181076,1,8,0:0:0:0:
256,192,181226,1,8,0:0:0:0:
256,192,181425,1,0,0:0:0:0:
256,192,181749,1,8,0:0:0:0:
256,192,182138,1,8,0:0:0:0:
256,192,182516,1,0,0:0:0:0:
256,192,183015,1,8,0:0:0:0:
256,192,183560,1,0,0:0:0:0:
256,192,184432,1,8,0:0:0:0:
256,192,184728,1,8,0:0:0:0:
256,192,185721,1,0,0:0:0:0:
256,192,186362,1,0,0:0:0:0:
256,192,186417,1,8,0:0:0:0:
256,192,186893,1,8,0:0:0:0:
256,192,187263,1,0,0:0:0:0:
256,192,187637,1,8,0:0:0:0:
256,192,187972,1,0,0:0:0:0:
256,192,188324,1,8,0:0:0:0:
256,192,188511,1,8,0:0:0:0:
256,192,188763,1,0,0:0:0:0:
256,192,189136,1,0,0:0:0:0:
256,192,189529,1,8,0:0:0:0:
256,192,189997,1,8,0:0:0:0:
256,192,190227,1,8,0:0:0:0:
256,192,190453,1,0,0:0:0:0:
256,192,190844,1,0,0:0:0:0:
256,192,191199,1,0,0:0:0:0:
256,192,191453,1,8,0:0:0:0:
256,192,191774,1,8,0:0:0:0:
256,192,192088,1,8,0:0:0:0:
256,192,192429,1,0,0:0:0:0:
256,192,192806,1,8,0:0:0:0:
256,192,193399,1,0,0:0:0:0:
256,192,194223,1,0,0:0:0:0:
256,192,195268,1,0,0:0:0:0:
256,192,196552,1,4,0:0:0:0:
256,192,198000,1,8,0:0:0:0:
256,192,198490,1,0,0:0:0:0:
256,192,199027,1,8,0:0:0:0:
256,192,199616,1,8,0:0:0:0:
256,192,200404,1,0,0:0:0:0:
256,192,200451,1,8,0:0:0:0:
256,192,208850,5,8,0:0:0:0:
256,192,209000,1,0,0:0:0:0:
256,192,209075,1,0,0:0:0:0:
256,192,209150,1,0,0:0:0:0:
256,192,209300,1,8,0:0:0:0:
256,192,209375,1,0,0:0:0:0:
256,192,209450,1,8,0:0:0:0:
256,192,209500,1,8,0:0:0:0:
256,192,209550,1,0,0:0:0:0:
256,192,209600,1,0,0:0:0:0:
256,192,209650,1,8,0:0:0:0:
256,192,209700,1,8,0:0:0:0:
256,192,209750,1,8,0:0:0:0:
256,192,209825,1,0,0:0:0:0:
256,192,209900,1,0,0:0:0:0:
256,192,209975,1,0,0:0:0:0:
256,192,210050,1,12,0:0:0:0:
256,192,210350,1,8,0:0:0:0:
256,192,210650,1,0,0:0:0:0:
256,192,210950,1,8,0:0:0:0:
256,192,211250,1,0,0:0:0:0:
256,192,211550,1,8,0:0:0:0:
256,192,211700,1,8,0:0:0:0:
256,192,211850,1,0,0:0:0:0:
256,192,212150,1,8,0:0:0:0:
256,192,212300,1,0,0:0:0:0:
256,192,212450,1,8,0:0:0:0:
256,192,212750,1,8,0:0:0:0:
256,192,212900,1,8,0:0:0:0:
256,192,213050,1,0,0:0:0:0:
256,192,213200,1,0,0:0:0:0:
256,192,213350,1,8,0:0:0:0:
256,192,213650,1,0,0:0:0:0:
256,192,213800,1,0,0:0:0:0:
256,192,213950,1,8,0:0:0:0:
256,192,214250,1,8,0:0:0:0:
256,192,214400,1,8,0:0:0:0:
256,192,214550,1,0,0:0:0:0:
256,192,214625,1,0,0:0:0:0:
256,192,214700,1,0,0:0:0:0:
256,192,214775,1,0,0:0:0:0:
256,192,214850,1,8,0:0:0:0:
256,192,215000,1,0,0:0:0:0:
256,192,215150,1,8,0:0:0:0:
256,192,215300,1,8,0:0:0:0:
256,192,215450,1,0,0:0:0:0:
256,192,215600,1,0,0:0:0:0:
256,192,215750,1,8,0:0:0:0:
256,192,215825,1,8,0:0:0:0:
256,192,215900,1,0,0:0:0:0:
256,192,215975,1,0,0:0:0:0:
256,192,216050,1,8,0:0:0:0:
256,192,216125,1,8,0:0:0:0:
256,192,216200,1,0,0:0:0:0:
256,192,216275,1,0,0:0:0:0:
256,192,216350,1,8,0:0:0:0:
256,192,216425,1,0,0:0:0:0:
256,192,216500,1,8,0:0:0:0:
256,192,216575,1,0,0:0:0:0:
256,192,216650,1,8,0:0:0:0:
256,192,216725,1,8,0:0:0:0:
256,192,216800,1,0,0:0:0:0:
256,192,216875,1,0,0:0:0:0:
256,192,216950,1,8,0:0:0:0:
256,192,217025,1,8,0:0:0:0:
256,192,217100,1,8,0:0:0:0:
256,192,217175,1,0,0:0:0:0:
256,192,217250,1,8,0:0:0:0:
256,192,217550,1,8,0:0:0:0:
256,192,217850,1,8,0:0:0:0:
256,192,218150,1,0,0:0:0:0:
256,192,218300,1,0,0:0:0:0:
256,192,218450,1,8,0:0:0:0:
256,192,218600,1,0,0:0:0:0:
256,192,218750,1,8,0:0:0:0:
256,192,218900,1,8,0:0:0:0:
256,192,218975,1,8,0:0:0:0:
256,192,219050,1,0,0:0:0:0:
256,192,219200,1,8,0:0:0:0:
256,192,219275,1,0,0:0:0:0:
256,192,219350,1,8,0:0:0:0:
256,192,219425,1,8,0:0:0:0:
256,192,219500,1,0,0:0:0:0:
256,192,219575,1,0,0:0:0:0:
256,192,219648,1,12,0:0:0:0:
256,192,219798,1,0,0:0:0:0:
256,192,219873,1,0,0:0:0:0:
256,192,219948,1,8,0:0:0:0:
256,192,220098,1,0,0:0:0:0:
256,192,220248,1,8,0:0:0:0:
256,192,220398,1,0,0:0:0:0:
256,192,220473,1,0,0:0:0:0:
256,192,220548,1,8,0:0:0:0:
256,192,220698,1,0,0:0:0:0:
256,192,220848,1,8,0:0:0:0:
256,192,220998,1,0,0:0:0:0:
256,192,221073,1,0,0:0:0:0:
256,192,221148,1,8,0:0:0:0:
256,192,221223,1,8,0:0:0:0:
256,192,221298,1,0,0:0:0:0:
256,192,221373,1,0,0:0:0:0:
256,192,221448,1,8,0:0:0:0:
256,192,221598,1,0,0:0:0:0:
256,192,221748,1,8,0:0:0:0:
256,192,221823,1,8,0:0:0:0:
256,192,221898,1,0,0:0:0:0:
256,192,221973,1,0,0:0:0:0:
256,192,222048,1,8,0:0:0:0:
256,192,222198,1,0,0:0:0:0:
256,192,222348,1,8,0:0:0:0:
256,192,222423,1,0,0:0:0:0:
256,192,222498,1,8,0:0:0:0:
256,192,222573,1,8,0:0:0:0:
256,192,222648,1,0,0:0:0:0:
256,192,222798,1,0,0:0:0:0:
256,192,222948,1,8,0:0:0:0:
256,192,223023,1,8,0:0:0:0:
256,192,223098,1,8,0:0:0:0:
256,192,223248,1,4,0:0:0:0:
256,192,223448,1,4,0:0:0:0:
256,192,223648,1,12,0:0:0:0:
256,192,223848,1,4,0:0:0:0:
256,192,224048,1,12,0:0:0:0:
256,192,224248,1,12,0:0:0:0:
256,192,224448,1,4,0:0:0:0:
256,192,225048,1,8,0:0:0:0:
256,192,225348,1,4,0:0:0:0:
256,192,225948,1,8,0:0:0:0:
256,192,226098,1,0,0:0:0:0:
256,192,226248,1,12,0:0:0:0:
256,192,226398,1,12,0:0:0:0:
256,192,226548,1,0,0:0:0:0:
256,192,226623,1,0,0:0:0:0:
256,192,226698,1,8,0:0:0:0:
256,192,226773,1,0,0:0:0:0:
256,192,226848,1,12,0:0:0:0:
256,192,226998,1,0,0:0:0:0:
256,192,227073,1,0,0:0:0:0:
256,192,227148,1,8,0:0:0:0:
256,192,227298,1,0,0:0:0:0:
256,192,227448,1,8,0:0:0:0:
256,192,227523,1,8,0:0:0:0:
256,192,227598,1,0,0:0:0:0:
256,192,227673,1,0,0:0:0:0:
256,192,227748,1,8,0:0:0:0:
256,192,227898,1,0,0:0:0:0:
256,192,227973,1,0,0:0:0:0:
256,192,228048,1,8,0:0:0:0:
256,192,228123,1,8,0:0:0:0:
256,192,228198,1,0,0:0:0:0:
256,192,228273,1,8,0:0:0:0:
256,192,228348,1,0,0:0:0:0:
256,192,228423,1,0,0:0:0:0:
256,192,228498,1,8,0:0:0:0:
256,192,228573,1,0,0:0:0:0:
256,192,228648,1,8,0:0:0:0:
256,192,228723,1,8,0:0:0:0:
256,192,228798,1,8,0:0:0:0:
256,192,228873,1,0,0:0:0:0:
256,192,228948,1,8,0:0:0:0:
256,192,229098,1,0,0:0:0:0:
256,192,229248,1,12,0:0:0:0:
256,192,229398,1,0,0:0:0:0:
256,192,229473,1,0,0:0:0:0:
256,192,229548,1,8,0:0:0:0:
256,192,229698,1,0,0:0:0:0:
256,192,229773,1,0,0:0:0:0:
256,192,229848,1,8,0:0:0:0:
256,192,229923,1,8,0:0:0:0:
256,192,229998,1,0,0:0:0:0:
256,192,230148,1,8,0:0:0:0:
256,192,230298,1,0,0:0:0:0:
256,192,230373,1,8,0:0:0:0:
256,192,230448,1,0,0:0:0:0:
256,192,230598,1,0,0:0:0:0:
256,192,230748,1,8,0:0:0:0:
256,192,230823,1,0,0:0:0:0:
256,192,230898,1,8,0:0:0:0:
256,192,230973,1,8,0:0:0:0:
256,192,231048,1,0,0:0:0:0:
256,192,231123,1,8,0:0:0:0:
256,192,231198,1,0,0:0:0:0:
256,192,231348,1,8,0:0:0:0:
256,192,231423,1,8,0:0:0:0:
256,192,231498,1,0,0:0:0:0:
256,192,231648,1,8,0:0:0:0:
256,192,231798,1,0,0:0:0:0:
256,192,231948,1,8,0:0:0:0:
256,192,232023,1,8,0:0:0:0:
256,192,232098,1,0,0:0:0:0:
256,192,232173,1,8,0:0:0:0:
256,192,232248,1,0,0:0:0:0:
256,192,232323,1,0,0:0:0:0:
256,192,232398,1,8,0:0:0:0:
256,192,232548,1,0,0:0:0:0:
256,192,232623,1,0,0:0:0:0:
256,192,232698,1,8,0:0:0:0:
256,192,232773,1,0,0:0:0:0:
256,192,232848,1,8,0:0:0:0:
256,192,232998,1,0,0:0:0:0:
256,192,233148,1,8,0:0:0:0:
256,192,233223,1,8,0:0:0:0:
256,192,233298,1,0,0:0:0:0:
256,192,233373,1,0,0:0:0:0:
256,192,233448,1,8,0:0:0:0:
256,192,233523,1,0,0:0:0:0:
256,192,233598,1,8,0:0:0:0:
256,192,233673,1,8,0:0:0:0:
256,192,233748,1,0,0:0:0:0:
256,192,233823,1,0,0:0:0:0:
256,192,233898,1,8,0:0:0:0:
256,192,233973,1,0,0:0:0:0:
256,192,234048,1,12,0:0:0:0:
256,192,234198,1,0,0:0:0:0:
256,192,234348,1,8,0:0:0:0:
256,192,234498,1,0,0:0:0:0:
256,192,234573,1,0,0:0:0:0:
256,192,234648,1,8,0:0:0:0:
256,192,234723,1,8,0:0:0:0:
256,192,234798,1,0,0:0:0:0:
256,192,234948,1,8,0:0:0:0:
256,192,235098,1,0,0:0:0:0:
256,192,235173,1,0,0:0:0:0:
256,192,235248,1,8,0:0:0:0:
256,192,235323,1,8,0:0:0:0:
256,192,235398,1,0,0:0:0:0:
256,192,235548,1,8,0:0:0:0:
256,192,235623,1,8,0:0:0:0:
256,192,235698,1,0,0:0:0:0:
256,192,235773,1,8,0:0:0:0:
256,192,235848,1,0,0:0:0:0:
256,192,235923,1,0,0:0:0:0:
256,192,235998,1,0,0:0:0:0:
256,192,236148,1,8,0:0:0:0:
256,192,236223,1,8,0:0:0:0:
256,192,236298,1,0,0:0:0:0:
256,192,236373,1,0,0:0:0:0:
256,192,236448,1,8,0:0:0:0:
256,192,236598,1,0,0:0:0:0:
256,192,236748,1,8,0:0:0:0:
256,192,236898,1,8,0:0:0:0:
256,192,236973,1,0,0:0:0:0:
256,192,237048,1,8,0:0:0:0:
256,192,237198,1,0,0:0:0:0:
256,192,237348,1,8,0:0:0:0:
256,192,237423,1,8,0:0:0:0:
256,192,237498,1,0,0:0:0:0:
256,192,237573,1,0,0:0:0:0:
256,192,237648,1,8,0:0:0:0:
256,192,237798,1,0,0:0:0:0:
256,192,237873,1,0,0:0:0:0:
256,192,237948,1,8,0:0:0:0:
256,192,238023,1,8,0:0:0:0:
256,192,238098,1,0,0:0:0:0:
256,192,238173,1,8,0:0:0:0:
256,192,238248,1,0,0:0:0:0:
256,192,238323,1,0,0:0:0:0:
256,192,238398,1,8,0:0:0:0:
256,192,238473,1,0,0:0:0:0:
256,192,238548,1,8,0:0:0:0:
256,192,238623,1,8,0:0:0:0:
256,192,238698,1,0,0:0:0:0:
256,192,238773,1,0,0:0:0:0:
256,192,238848,1,12,0:0:0:0:
256,192,238998,1,0,0:0:0:0:
256,192,239148,1,8,0:0:0:0:
256,192,239298,1,0,0:0:0:0:
256,192,239373,1,0,0:0:0:0:
256,192,239448,1,8,0:0:0:0:
256,192,239523,1,8,0:0:0:0:
256,192,239598,1,0,0:0:0:0:
256,192,239748,1,8,0:0:0:0:
256,192,239898,1,0,0:0:0:0:
256,192,239973,1,8,0:0:0:0:
256,192,240048,1,0,0:0:0:0:
256,192,240198,1,0,0:0:0:0:
256,192,240348,1,8,0:0:0:0:
256,192,240423,1,0,0:0:0:0:
256,192,240498,1,8,0:0:0:0:
256,192,240573,1,8,0:0:0:0:
256,192,240648,1,0,0:0:0:0:
256,192,240723,1,8,0:0:0:0:
256,192,240798,1,0,0:0:0:0:
256,192,240948,1,8,0:0:0:0:
256,192,241098,1,8,0:0:0:0:
256,192,241173,1,8,0:0:0:0:
256,192,241248,1,0,0:0:0:0:
256,192,241398,1,0,0:0:0:0:
256,192,241548,1,8,0:0:0:0:
256,192,241623,1,0,0:0:0:0:
256,192,241698,1,8,0:0:0:0:
256,192,241773,1,0,0:0:0:0:
256,192,241848,1,8,0:0:0:0:
256,192,241923,1,8,0:0:0:0:
256,192,241998,1,0,0:0:0:0:
256,192,242148,1,8,0:0:0:0:
256,192,242223,1,8,0:0:0:0:
256,192,242298,1,8,0:0:0:0:
256,192,242448,1,4,0:0:0:0:
256,192,242648,1,4,0:0:0:0:
256,192,242848,1,12,0:0:0:0:
256,192,243048,1,12,0:0:0:0:
256,192,243248,1,4,0:0:0:0:
256,192,243448,1,12,0:0:0:0:
256,192,243648,1,4,0:0:0:0:
256,192,244248,1,8,0:0:0:0:
256,192,244548,1,4,0:0:0:0:
256,192,245148,1,8,0:0:0:0:
256,192,245298,1,0,0:0:0:0:
256,192,245448,1,12,0:0:0:0:
256,192,245598,1,12,0:0:0:0:
256,192,245748,1,0,0:0:0:0:
256,192,245823,1,0,0:0:0:0:
256,192,245898,1,8,0:0:0:0:
256,192,245973,1,0,0:0:0:0:
256,192,246048,1,12,0:0:0:0:
256,192,246198,1,0,0:0:0:0:
256,192,246273,1,0,0:0:0:0:
256,192,246348,1,8,0:0:0:0:
256,192,246498,1,0,0:0:0:0:
256,192,246648,1,8,0:0:0:0:
256,192,246723,1,8,0:0:0:0:
256,192,246798,1,0,0:0:0:0:
256,192,246873,1,0,0:0:0:0:
256,192,246948,1,8,0:0:0:0:
256,192,247098,1,0,0:0:0:0:
256,192,247173,1,0,0:0:0:0:
256,192,247248,1,8,0:0:0:0:
256,192,247323,1,8,0:0:0:0:
256,192,247398,1,0,0:0:0:0:
256,192,247473,1,8,0:0:0:0:
256,192,247548,1,0,0:0:0:0:
256,192,247623,1,0,0:0:0:0:
256,192,247698,1,8,0:0:0:0:
256,192,247773,1,0,0:0:0:0:
256,192,247848,1,8,0:0:0:0:
256,192,247923,1,8,0:0:0:0:
256,192,247998,1,8,0:0:0:0:
256,192,248073,1,0,0:0:0:0:
256,192,248148,1,8,0:0:0:0:
256,192,248298,1,8,0:0:0:0:
256,192,248448,1,4,0:0:0:0:
256,192,248598,1,8,0:0:0:0:
256,192,248748,1,8,0:0:0:0:
256,192,248898,1,0,0:0:0:0:
256,192,249048,1,0,0:0:0:0:
256,192,249123,1,8,0:0:0:0:
256,192,249198,1,0,0:0:0:0:
256,192,249498,1,8,0:0:0:0:
256,192,249648,1,0,0:0:0:0:
256,192,249798,1,8,0:0:0:0:
256,192,249948,1,8,0:0:0:0:
256,192,250023,1,0,0:0:0:0:
256,192,250098,1,8,0:0:0:0:
256,192,250248,1,0,0:0:0:0:
256,192,250323,1,0,0:0:0:0:
256,192,250398,1,8,0:0:0:0:
256,192,250473,1,0,0:0:0:0:
256,192,250548,1,8,0:0:0:0:
256,192,250698,1,8,0:0:0:0:
256,192,250848,1,0,0:0:0:0:
256,192,250998,1,0,0:0:0:0:
256,192,251148,1,8,0:0:0:0:
256,192,251298,1,8,0:0:0:0:
256,192,251373,1,8,0:0:0:0:
256,192,251448,1,0,0:0:0:0:
256,192,251523,1,8,0:0:0:0:
256,192,251598,1,0,0:0:0:0:
256,192,251898,1,8,0:0:0:0:
256,192,252048,1,0,0:0:0:0:
256,192,252198,1,8,0:0:0:0:
256,192,252273,1,0,0:0:0:0:
256,192,252348,1,8,0:0:0:0:
256,192,252498,1,0,0:0:0:0:
256,192,252573,1,0,0:0:0:0:
256,192,252648,1,8,0:0:0:0:
256,192,252723,1,8,0:0:0:0:
256,192,252798,1,0,0:0:0:0:
256,192,252873,1,8,0:0:0:0:
256,192,252948,1,8,0:0:0:0:
256,192,253023,1,0,0:0:0:0:
256,192,253098,1,8,0:0:0:0:
256,192,253248,1,4,0:0:0:0:
256,192,253398,1,8,0:0:0:0:
256,192,253473,1,8,0:0:0:0:
256,192,253548,1,8,0:0:0:0:
256,192,253698,1,0,0:0:0:0:
256,192,253848,1,8,0:0:0:0:
256,192,253923,1,8,0:0:0:0:
256,192,253998,1,0,0:0:0:0:
256,192,254298,1,8,0:0:0:0:
256,192,254448,1,0,0:0:0:0:
256,192,254598,1,0,0:0:0:0:
256,192,254748,1,8,0:0:0:0:
256,192,254823,1,8,0:0:0:0:
256,192,254898,1,0,0:0:0:0:
256,192,255048,1,8,0:0:0:0:
256,192,255123,1,8,0:0:0:0:
256,192,255198,1,8,0:0:0:0:
256,192,255273,1,0,0:0:0:0:
256,192,255348,1,8,0:0:0:0:
256,192,255423,1,8,0:0:0:0:
256,192,255498,1,0,0:0:0:0:
256,192,255648,1,12,0:0:0:0:
256,192,255798,1,0,0:0:0:0:
256,192,255873,1,0,0:0:0:0:
256,192,255948,1,8,0:0:0:0:
256,192,256098,1,0,0:0:0:0:
256,192,256248,1,8,0:0:0:0:
256,192,256323,1,8,0:0:0:0:
256,192,256398,1,0,0:0:0:0:
256,192,256698,1,8,0:0:0:0:
256,192,256848,1,0,0:0:0:0:
256,192,256998,1,8,0:0:0:0:
256,192,257073,1,0,0:0:0:0:
256,192,257148,1,8,0:0:0:0:
256,192,257298,1,8,0:0:0:0:
256,192,257373,1,8,0:0:0:0:
256,192,257448,1,0,0:0:0:0:
256,192,257523,1,0,0:0:0:0:
256,192,257598,1,8,0:0:0:0:
256,192,257673,1,0,0:0:0:0:
256,192,257748,1,8,0:0:0:0:
256,192,257898,1,8,0:0:0:0:
256,192,258048,1,4,0:0:0:0:
256,192,258198,1,8,0:0:0:0:
256,192,258348,1,8,0:0:0:0:
256,192,258498,1,0,0:0:0:0:
256,192,258573,1,0,0:0:0:0:
256,192,258648,1,8,0:0:0:0:
256,192,258723,1,8,0:0:0:0:
256,192,258798,1,8,0:0:0:0:
256,192,258948,1,0,0:0:0:0:
256,192,259098,1,8,0:0:0:0:
256,192,259173,1,8,0:0:0:0:
256,192,259248,1,0,0:0:0:0:
256,192,259398,1,0,0:0:0:0:
256,192,259548,1,8,0:0:0:0:
256,192,259698,1,0,0:0:0:0:
256,192,259773,1,8,0:0:0:0:
256,192,259848,1,0,0:0:0:0:
256,192,259923,1,0,0:0:0:0:
256,192,260073,1,8,0:0:0:0:
256,192,260148,1,0,0:0:0:0:
256,192,260223,1,0,0:0:0:0:
256,192,260298,1,8,0:0:0:0:
256,192,260373,1,0,0:0:0:0:
256,192,260598,1,12,0:0:0:0:
256,192,260748,1,0,0:0:0:0:
256,192,260823,1,0,0:0:0:0:
256,192,260898,1,0,0:0:0:0:
256,192,261048,1,12,0:0:0:0:
256,192,261198,1,8,0:0:0:0:
256,192,261348,1,0,0:0:0:0:
256,192,261423,1,0,0:0:0:0:
256,192,261498,1,0,0:0:0:0:
256,192,261648,1,12,0:0:0:0:
256,192,261798,1,0,0:0:0:0:
256,192,261873,1,8,0:0:0:0:
256,192,261948,1,0,0:0:0:0:
256,192,262023,1,0,0:0:0:0:
256,192,262098,1,8,0:0:0:0:
256,192,262173,1,0,0:0:0:0:
256,192,262248,1,8,0:0:0:0:
256,192,262398,1,8,0:0:0:0:
256,192,262473,1,8,0:0:0:0:
256,192,262548,1,0,0:0:0:0:
256,192,262623,1,8,0:0:0:0:
256,192,262698,1,0,0:0:0:0:
256,192,262848,1,12,0:0:0:0:
256,192,263148,1,8,0:0:0:0:
256,192,263223,1,8,0:0:0:0:
256,192,263298,1,0,0:0:0:0:
256,192,263448,1,8,0:0:0:0:
256,192,263598,1,0,0:0:0:0:
256,192,263673,1,0,0:0:0:0:
256,192,263748,1,8,0:0:0:0:
256,192,263898,1,8,0:0:0:0:
256,192,264048,1,4,0:0:0:0:
256,192,264198,1,8,0:0:0:0:
256,192,264273,1,8,0:0:0:0:
256,192,264348,1,0,0:0:0:0:
256,192,264498,1,0,0:0:0:0:
256,192,264648,1,8,0:0:0:0:
256,192,264723,1,8,0:0:0:0:
256,192,264798,1,0,0:0:0:0:
256,192,264873,1,0,0:0:0:0:
256,192,264948,1,8,0:0:0:0:
256,192,265098,1,0,0:0:0:0:
256,192,265248,1,12,0:0:0:0:
256,192,265398,1,0,0:0:0:0:
256,192,265473,1,0,0:0:0:0:
256,192,265548,1,8,0:0:0:0:
256,192,265698,1,0,0:0:0:0:
256,192,265848,1,8,0:0:0:0:
256,192,265923,1,8,0:0:0:0:
256,192,265998,1,0,0:0:0:0:
256,192,266073,1,0,0:0:0:0:
256,192,266148,1,8,0:0:0:0:
256,192,266298,1,0,0:0:0:0:
256,192,266448,1,8,0:0:0:0:
256,192,266523,1,8,0:0:0:0:
256,192,266598,1,0,0:0:0:0:
256,192,266673,1,8,0:0:0:0:
256,192,266748,1,0,0:0:0:0:
256,192,266823,1,0,0:0:0:0:
256,192,266898,1,8,0:0:0:0:
256,192,266973,1,0,0:0:0:0:
256,192,267048,1,8,0:0:0:0:
256,192,267123,1,8,0:0:0:0:
256,192,267198,1,8,0:0:0:0:
256,192,267273,1,0,0:0:0:0:
256,192,267348,1,8,0:0:0:0:
256,192,267423,1,8,0:0:0:0:
256,192,267498,1,0,0:0:0:0:
256,192,267573,1,0,0:0:0:0:
256,192,267948,1,4,0:0:0:0:
256,192,268248,1,8,0:0:0:0:
256,192,268548,1,0,0:0:0:0:
256,192,268698,1,8,0:0:0:0:
256,192,268848,1,8,0:0:0:0:
256,192,268998,1,0,0:0:0:0:
256,192,269148,1,8,0:0:0:0:
256,192,269298,1,8,0:0:0:0:
256,192,269448,1,0,0:0:0:0:
256,192,269598,1,8,0:0:0:0:
256,192,269748,1,8,0:0:0:0:
256,192,269898,1,0,0:0:0:0:
256,192,270048,1,8,0:0:0:0:
256,192,270348,1,0,0:0:0:0:
256,192,270498,1,8,0:0:0:0:
256,192,270798,1,0,0:0:0:0:
256,192,271098,1,8,0:0:0:0:
256,192,271848,1,8,0:0:0:0:
256,192,272148,1,8,0:0:0:0:
256,192,272448,1,0,0:0:0:0:
256,192,273348,1,8,0:0:0:0:
256,192,273498,1,8,0:0:0:0:
256,192,273648,1,8,0:0:0:0:
256,192,274248,1,0,0:0:0:0:
256,192,274848,1,12,0:0:0:0:
256,192,275148,1,8,0:0:0:0:
256,192,275298,1,4,0:0:0:0:
256,192,275748,1,8,0:0:0:0:
256,192,275823,1,8,0:0:0:0:
256,192,275898,1,0,0:0:0:0:
256,192,276048,1,12,0:0:0:0:
256,192,276348,1,0,0:0:0:0:
256,192,276648,1,12,0:0:0:0:
256,192,276798,1,0,0:0:0:0:
256,192,276873,1,0,0:0:0:0:
256,192,276948,1,8,0:0:0:0:
256,192,277023,1,8,0:0:0:0:
256,192,277098,1,8,0:0:0:0:
256,192,277248,1,4,0:0:0:0:
256,192,277548,1,8,0:0:0:0:
256,192,277698,1,0,0:0:0:0:
256,192,277848,1,8,0:0:0:0:
256,192,277923,1,8,0:0:0:0:
256,192,277998,1,0,0:0:0:0:
256,192,278073,1,8,0:0:0:0:
256,192,278148,1,0,0:0:0:0:
256,192,278298,1,8,0:0:0:0:
256,192,278448,1,0,0:0:0:0:
256,192,278598,1,8,0:0:0:0:
256,192,278748,1,0,0:0:0:0:
256,192,278898,1,0,0:0:0:0:
256,192,279048,1,8,0:0:0:0:
256,192,279198,1,0,0:0:0:0:
256,192,279273,1,0,0:0:0:0:
256,192,279348,1,8,0:0:0:0:
256,192,279423,1,0,0:0:0:0:
256,192,279498,1,8,0:0:0:0:
256,192,279648,1,4,0:0:0:0:
256,192,279948,1,8,0:0:0:0:
256,192,280098,1,0,0:0:0:0:
256,192,280248,1,8,0:0:0:0:
256,192,280323,1,8,0:0:0:0:
256,192,280398,1,0,0:0:0:0:
256,192,280473,1,0,0:0:0:0:
256,192,280548,1,8,0:0:0:0:
256,192,280698,1,8,0:0:0:0:
256,192,280848,1,0,0:0:0:0:
256,192,280998,1,8,0:0:0:0:
256,192,281148,1,0,0:0:0:0:
256,192,281298,1,0,0:0:0:0:
256,192,281448,1,8,0:0:0:0:
256,192,281523,1,8,0:0:0:0:
256,192,281598,1,8,0:0:0:0:
256,192,281748,1,0,0:0:0:0:
256,192,281898,1,8,0:0:0:0:
256,192,282048,1,4,0:0:0:0:
256,192,282198,1,0,0:0:0:0:
256,192,282348,1,8,0:0:0:0:
256,192,282498,1,0,0:0:0:0:
256,192,282573,1,0,0:0:0:0:
256,192,282648,1,8,0:0:0:0:
256,192,282723,1,8,0:0:0:0:
256,192,282798,1,0,0:0:0:0:
256,192,282948,1,8,0:0:0:0:
256,192,283098,1,8,0:0:0:0:
256,192,283248,1,4,0:0:0:0:
256,192,283398,1,8,0:0:0:0:
256,192,283473,1,8,0:0:0:0:
256,192,283548,1,8,0:0:0:0:
256,192,283698,1,0,0:0:0:0:
256,192,283773,1,0,0:0:0:0:
256,192,283848,1,8,0:0:0:0:
256,192,283923,1,8,0:0:0:0:
256,192,283998,1,0,0:0:0:0:
256,192,284073,1,0,0:0:0:0:
256,192,284148,1,8,0:0:0:0:
256,192,284298,1,0,0:0:0:0:
256,192,284448,1,8,0:0:0:0:
256,192,284523,1,8,0:0:0:0:
256,192,284598,1,0,0:0:0:0:
256,192,284673,1,0,0:0:0:0:
256,192,284748,1,8,0:0:0:0:
256,192,284823,1,0,0:0:0:0:
256,192,284898,1,8,0:0:0:0:
256,192,284973,1,0,0:0:0:0:
256,192,285048,1,8,0:0:0:0:
256,192,285123,1,8,0:0:0:0:
256,192,285198,1,8,0:0:0:0:
256,192,285273,1,0,0:0:0:0:
256,192,285348,1,8,0:0:0:0:
256,192,285423,1,8,0:0:0:0:
256,192,285498,1,0,0:0:0:0:
256,192,285648,1,12,0:0:0:0:
256,192,285948,1,8,0:0:0:0:
256,192,286248,1,8,0:0:0:0:
256,192,286548,1,0,0:0:0:0:
256,192,286598,1,0,0:0:0:0:
256,192,286648,1,0,0:0:0:0:
256,192,286698,1,0,0:0:0:0:
256,192,287148,1,12,0:0:0:0:
256,192,288013,1,0,0:0:0:0:
256,192,289133,1,8,0:0:0:0:
256,192,289182,1,8,0:0:0:0:
256,192,290671,1,0,0:0:0:0:
256,192,290726,1,8,0:0:0:0:
256,192,292370,1,8,0:0:0:0:
256,192,292409,1,8,0:0:0:0:
256,192,292683,12,8,297620,0:0:0:0:
