osu file format v14

[General]
AudioFilename: audio.mp3
AudioLeadIn: 0
PreviewTime: 75620
Countdown: 0
SampleSet: Normal
StackLeniency: 0.7
Mode: 1
LetterboxInBreaks: 0
WidescreenStoryboard: 0

[Editor]
DistanceSpacing: 1.4
BeatDivisor: 4
GridSize: 32
TimelineZoom: 2

[Metadata]
Title:World Fragments II
TitleUnicode:World Fragments II
Artist:xi
ArtistUnicode:xi
Creator:Cynplytholowazy
Version:Muzukashii
Source:
Tags:FA Featured Artist Electronic Instrumental Diverse System Faputa KeyWee
BeatmapID:3415002
BeatmapSetID:1671987

[Difficulty]
HPDrainRate:6
CircleSize:10
OverallDifficulty:5
ApproachRate:10
SliderMultiplier:1.4
SliderTickRate:1

[Events]
//Background and Video events
0,0,"pexels-plato-terentev-5912059.jpg",0,0
//Break Periods
//Storyboard Layer 0 (Background)
//Storyboard Layer 1 (Fail)
//Storyboard Layer 2 (Pass)
//Storyboard Layer 3 (Foreground)
//Storyboard Layer 4 (Overlay)
//Storyboard Sound Samples

[TimingPoints]
542,333.333333333333,6,1,0,35,1,8
1292,-100,6,1,0,70,0,8
1376,333.333,6,1,0,70,1,0
9209,-100,6,1,0,80,0,0
9375,333.333,3,1,0,80,1,0
12374,333.333333333333,7,1,0,80,1,0
12457,-100,7,1,0,35,0,0
14456,-100,7,1,0,80,0,0
14540,333.333,4,1,0,80,1,0
14706,-100,4,1,0,60,0,0
16539,-100,4,1,0,80,0,0
17206,333.333,5,1,0,80,1,0
17289,-100,5,1,0,35,0,0
19955,-100,5,1,0,70,0,0
20039,333.333,4,1,0,70,1,0
20122,-100,4,1,0,60,0,0
30455,-100,4,1,0,70,0,0
41372,333.333,7,1,0,70,1,0
41538,-100,7,1,0,60,0,0
50286,-100,7,1,0,70,0,0
50370,333.333,7,1,0,70,1,0
55036,333.333,4,1,0,70,1,0
57702,333.333,4,1,0,70,1,0
57785,-100,4,1,0,35,0,0
59035,333.333,6,1,0,35,1,0
60618,-100,6,1,0,60,0,0
60950,-100,6,1,0,70,0,0
61034,333.333,7,1,0,70,1,8
61038,333.333,7,1,0,70,1,0
65704,333.333,4,1,0,70,1,0
71120,-100,4,1,0,35,0,0
73620,-100,4,1,0,60,0,0
76287,-100,4,1,0,85,0,0
76370,-100,4,1,0,85,0,1
96370,333.333,4,1,0,35,1,1
98369,-100,4,1,0,35,0,0
98869,-100,4,1,0,70,0,0
99036,333.333,6,1,0,70,1,0
107119,-100,6,1,0,35,0,0
108951,-100,6,1,0,75,0,0
109035,333.333,6,1,0,75,1,8
109045,333.333,3,1,0,75,1,0
112044,333.333,5,1,0,75,1,0
112127,-100,5,1,0,35,0,0
113543,-100,5,1,0,80,0,0
113700,333.333,5,1,0,80,1,8
113718,666.667,4,1,0,80,1,0
113718,-50,4,1,0,80,0,0
113801,-50,4,1,0,25,0,0

[HitObjects]
256,192,542,8,0,1208,0:0:0:0:
256,192,1376,5,4,0:0:0:0:
256,192,1625,1,0,0:0:0:0:
256,192,1875,1,2,0:0:0:0:
256,192,2375,1,0,0:0:0:0:
256,192,2709,1,2,0:0:0:0:
256,192,2875,1,0,0:0:0:0:
256,192,2959,1,0,0:0:0:0:
256,192,3042,1,0,0:0:0:0:
256,192,3209,1,2,0:0:0:0:
256,192,3375,1,0,0:0:0:0:
256,192,3625,1,0,0:0:0:0:
256,192,3875,1,2,0:0:0:0:
256,192,4375,1,0,0:0:0:0:
256,192,4709,1,2,0:0:0:0:
256,192,4875,1,0,0:0:0:0:
256,192,5042,1,2,0:0:0:0:
256,192,5125,1,2,0:0:0:0:
256,192,5209,1,2,0:0:0:0:
256,192,5375,1,4,0:0:0:0:
256,192,5709,1,2,0:0:0:0:
256,192,5931,1,0,0:0:0:0:
256,192,6042,1,2,0:0:0:0:
256,192,6264,1,2,0:0:0:0:
256,192,6375,1,2,0:0:0:0:
256,192,6598,1,2,0:0:0:0:
256,192,6709,1,0,0:0:0:0:
256,192,6875,1,0,0:0:0:0:
256,192,7042,1,2,0:0:0:0:
256,192,7375,1,0,0:0:0:0:
256,192,7709,1,2,0:0:0:0:
256,192,7875,1,0,0:0:0:0:
256,192,8042,1,2,0:0:0:0:
256,192,8125,1,2,0:0:0:0:
256,192,8209,1,2,0:0:0:0:
256,192,8375,1,2,0:0:0:0:
256,192,8542,1,0,0:0:0:0:
256,192,8709,1,2,0:0:0:0:
256,192,8875,1,0,0:0:0:0:
256,192,9042,1,2,0:0:0:0:
256,192,9375,1,4,0:0:0:0:
256,192,9624,1,0,0:0:0:0:
256,192,10208,1,0,0:0:0:0:
256,192,10374,1,6,0:0:0:0:
256,192,10624,1,0,0:0:0:0:
256,192,11041,1,0,0:0:0:0:
256,192,11208,1,0,0:0:0:0:
256,192,11374,1,6,0:0:0:0:
256,192,11624,1,2,0:0:0:0:
256,192,12041,1,2,0:0:0:0:
256,192,12208,1,2,0:0:0:0:
256,192,12374,1,4,0:0:0:0:
256,192,12540,8,0,14373,0:0:0:0:
256,192,14540,5,6,0:0:0:0:
256,192,16706,1,2,0:0:0:0:
256,192,16789,1,2,0:0:0:0:
256,192,16956,1,2,0:0:0:0:
256,192,17206,1,4,0:0:0:0:
256,192,17372,8,0,19872,0:0:0:0:
256,192,20039,5,6,0:0:0:0:
256,192,20538,1,2,0:0:0:0:
256,192,21038,1,0,0:0:0:0:
256,192,21538,1,2,0:0:0:0:
256,192,22038,1,0,0:0:0:0:
256,192,22372,1,0,0:0:0:0:
256,192,22538,1,0,0:0:0:0:
256,192,22705,1,2,0:0:0:0:
256,192,23205,1,2,0:0:0:0:
256,192,23705,1,0,0:0:0:0:
256,192,24705,1,0,0:0:0:0:
256,192,25038,1,2,0:0:0:0:
256,192,25372,1,4,0:0:0:0:
256,192,25538,1,0,0:0:0:0:
256,192,25705,1,2,0:0:0:0:
256,192,26038,1,0,0:0:0:0:
256,192,26372,1,2,0:0:0:0:
256,192,26538,1,4,0:0:0:0:
256,192,27038,1,0,0:0:0:0:
256,192,27205,1,6,0:0:0:0:
256,192,27705,1,0,0:0:0:0:
256,192,27872,1,6,0:0:0:0:
256,192,28038,1,4,0:0:0:0:
256,192,28372,1,0,0:0:0:0:
256,192,28538,1,2,0:0:0:0:
256,192,28705,1,0,0:0:0:0:
256,192,28788,1,2,0:0:0:0:
256,192,29038,1,0,0:0:0:0:
256,192,29205,1,2,0:0:0:0:
256,192,29372,1,0,0:0:0:0:
256,192,29538,1,0,0:0:0:0:
256,192,29705,1,2,0:0:0:0:
256,192,29872,1,0,0:0:0:0:
256,192,30038,1,2,0:0:0:0:
256,192,30122,1,2,0:0:0:0:
256,192,30205,1,2,0:0:0:0:
256,192,30372,1,2,0:0:0:0:
256,192,30538,1,4,0:0:0:0:
256,192,30872,1,2,0:0:0:0:
256,192,31205,1,0,0:0:0:0:
256,192,31538,1,0,0:0:0:0:
256,192,31705,1,2,0:0:0:0:
256,192,31872,1,0,0:0:0:0:
256,192,32205,1,0,0:0:0:0:
256,192,32705,1,2,0:0:0:0:
256,192,32872,1,0,0:0:0:0:
256,192,32955,1,0,0:0:0:0:
256,192,33038,1,0,0:0:0:0:
256,192,33205,1,6,0:0:0:0:
256,192,33538,1,0,0:0:0:0:
256,192,33705,1,2,0:0:0:0:
256,192,33927,1,2,0:0:0:0:
256,192,34038,1,0,0:0:0:0:
256,192,34372,1,0,0:0:0:0:
256,192,34705,1,2,0:0:0:0:
256,192,34872,1,0,0:0:0:0:
256,192,34955,1,0,0:0:0:0:
256,192,35038,1,0,0:0:0:0:
256,192,35205,1,0,0:0:0:0:
256,192,35538,1,2,0:0:0:0:
256,192,36038,1,4,0:0:0:0:
256,192,36372,1,2,0:0:0:0:
256,192,36594,1,2,0:0:0:0:
256,192,36705,1,2,0:0:0:0:
256,192,36927,1,2,0:0:0:0:
256,192,37150,1,2,0:0:0:0:
256,192,37372,1,4,0:0:0:0:
256,192,37705,1,2,0:0:0:0:
256,192,37927,1,2,0:0:0:0:
256,192,38038,1,2,0:0:0:0:
256,192,38261,1,2,0:0:0:0:
256,192,38483,1,0,0:0:0:0:
256,192,38705,1,6,0:0:0:0:
256,192,39038,1,6,0:0:0:0:
256,192,39372,1,6,0:0:0:0:
256,192,39705,1,6,0:0:0:0:
256,192,40038,1,6,0:0:0:0:
256,192,40205,1,0,0:0:0:0:
256,192,40288,1,0,0:0:0:0:
256,192,40372,1,0,0:0:0:0:
256,192,40538,1,2,0:0:0:0:
256,192,40705,1,2,0:0:0:0:
256,192,40788,1,2,0:0:0:0:
256,192,40872,1,2,0:0:0:0:
256,192,41038,1,4,0:0:0:0:
256,192,41372,1,6,0:0:0:0:
256,192,41871,1,2,0:0:0:0:
256,192,42371,1,0,0:0:0:0:
256,192,42705,1,2,0:0:0:0:
256,192,43371,1,0,0:0:0:0:
256,192,43705,1,2,0:0:0:0:
256,192,44205,1,2,0:0:0:0:
256,192,44705,1,0,0:0:0:0:
256,192,45038,1,2,0:0:0:0:
256,192,45538,1,0,0:0:0:0:
256,192,45705,1,0,0:0:0:0:
256,192,45927,1,0,0:0:0:0:
256,192,46038,1,6,0:0:0:0:
256,192,46538,1,2,0:0:0:0:
256,192,47038,1,0,0:0:0:0:
256,192,47371,1,2,0:0:0:0:
256,192,48038,1,0,0:0:0:0:
256,192,48371,1,0,0:0:0:0:
256,192,49038,1,2,0:0:0:0:
256,192,49371,1,2,0:0:0:0:
256,192,50038,1,0,0:0:0:0:
256,192,50121,1,0,0:0:0:0:
256,192,50205,1,0,0:0:0:0:
256,192,50370,1,6,0:0:0:0:
256,192,50869,1,2,0:0:0:0:
256,192,50953,1,0,0:0:0:0:
256,192,51203,1,0,0:0:0:0:
256,192,51369,1,2,0:0:0:0:
256,192,51703,1,2,0:0:0:0:
256,192,51869,1,0,0:0:0:0:
256,192,52036,1,2,0:0:0:0:
256,192,52369,1,0,0:0:0:0:
256,192,52453,1,0,0:0:0:0:
256,192,52536,1,0,0:0:0:0:
256,192,52703,1,6,0:0:0:0:
256,192,52953,1,2,0:0:0:0:
256,192,53203,1,0,0:0:0:0:
256,192,53453,1,2,0:0:0:0:
256,192,53703,1,0,0:0:0:0:
256,192,54036,1,2,0:0:0:0:
256,192,54203,1,0,0:0:0:0:
256,192,54369,1,2,0:0:0:0:
256,192,54703,1,2,0:0:0:0:
256,192,54925,1,0,0:0:0:0:
256,192,55036,1,6,0:0:0:0:
256,192,55535,1,2,0:0:0:0:
256,192,55619,1,0,0:0:0:0:
256,192,55869,1,0,0:0:0:0:
256,192,56035,1,2,0:0:0:0:
256,192,56369,1,6,0:0:0:0:
256,192,56702,1,0,0:0:0:0:
256,192,56785,1,0,0:0:0:0:
256,192,56869,1,0,0:0:0:0:
256,192,57035,1,2,0:0:0:0:
256,192,57202,1,0,0:0:0:0:
256,192,57369,1,2,0:0:0:0:
256,192,57452,1,2,0:0:0:0:
256,192,57535,1,2,0:0:0:0:
256,192,57702,1,4,0:0:0:0:
256,192,57868,12,0,60534,0:0:0:0:
256,192,60701,5,2,0:0:0:0:
256,192,60784,1,2,0:0:0:0:
256,192,60868,1,2,0:0:0:0:
256,192,61038,1,4,0:0:0:0:
256,192,61287,1,4,0:0:0:0:
256,192,61787,1,0,0:0:0:0:
256,192,62037,1,2,0:0:0:0:
256,192,62371,1,6,0:0:0:0:
256,192,62621,1,6,0:0:0:0:
256,192,63037,1,0,0:0:0:0:
256,192,63121,1,0,0:0:0:0:
256,192,63204,1,0,0:0:0:0:
256,192,63371,1,6,0:0:0:0:
256,192,63621,1,6,0:0:0:0:
256,192,64371,1,2,0:0:0:0:
256,192,64454,1,2,0:0:0:0:
256,192,64537,1,2,0:0:0:0:
256,192,64704,1,4,0:0:0:0:
256,192,65037,1,2,0:0:0:0:
256,192,65121,1,2,0:0:0:0:
256,192,65204,1,2,0:0:0:0:
256,192,65371,1,2,0:0:0:0:
256,192,65537,1,0,0:0:0:0:
256,192,65704,1,4,0:0:0:0:
256,192,65953,1,4,0:0:0:0:
256,192,66537,1,0,0:0:0:0:
256,192,66703,1,6,0:0:0:0:
256,192,67120,1,6,0:0:0:0:
256,192,67370,1,4,0:0:0:0:
256,192,67620,1,6,0:0:0:0:
256,192,67870,1,4,0:0:0:0:
256,192,68120,1,6,0:0:0:0:
256,192,68370,1,6,0:0:0:0:
256,192,68620,1,0,0:0:0:0:
256,192,68870,1,2,0:0:0:0:
256,192,69120,1,2,0:0:0:0:
256,192,69370,1,0,0:0:0:0:
256,192,69703,1,0,0:0:0:0:
256,192,69787,1,2,0:0:0:0:
256,192,70037,1,0,0:0:0:0:
256,192,70287,1,2,0:0:0:0:
256,192,70370,1,0,0:0:0:0:
256,192,70537,1,0,0:0:0:0:
256,192,70703,1,2,0:0:0:0:
256,192,70870,1,0,0:0:0:0:
256,192,71037,1,6,0:0:0:0:
256,192,71203,12,0,73537,0:0:0:0:
256,192,73703,5,2,0:0:0:0:
256,192,73787,1,2,0:0:0:0:
256,192,73870,1,2,0:0:0:0:
256,192,74037,1,0,0:0:0:0:
256,192,74370,1,0,0:0:0:0:
256,192,74703,1,2,0:0:0:0:
256,192,74926,1,2,0:0:0:0:
256,192,75037,1,2,0:0:0:0:
256,192,75370,1,0,0:0:0:0:
256,192,75703,1,2,0:0:0:0:
256,192,76370,1,4,0:0:0:0:
256,192,76537,1,0,0:0:0:0:
256,192,76703,1,2,0:0:0:0:
256,192,77037,1,0,0:0:0:0:
256,192,77120,1,0,0:0:0:0:
256,192,77287,1,2,0:0:0:0:
256,192,77537,1,6,0:0:0:0:
256,192,78037,1,2,0:0:0:0:
256,192,78203,1,0,0:0:0:0:
256,192,78287,1,2,0:0:0:0:
256,192,78537,1,0,0:0:0:0:
256,192,78703,1,2,0:0:0:0:
256,192,78870,1,0,0:0:0:0:
256,192,79037,1,6,0:0:0:0:
256,192,79203,1,2,0:0:0:0:
256,192,79370,1,0,0:0:0:0:
256,192,79537,1,6,0:0:0:0:
256,192,79870,1,2,0:0:0:0:
256,192,80037,1,0,0:0:0:0:
256,192,80203,1,6,0:0:0:0:
256,192,80537,1,2,0:0:0:0:
256,192,80703,1,0,0:0:0:0:
256,192,81203,1,0,0:0:0:0:
256,192,81370,1,2,0:0:0:0:
256,192,81537,1,2,0:0:0:0:
256,192,81703,1,4,0:0:0:0:
256,192,81870,1,2,0:0:0:0:
256,192,82037,1,2,0:0:0:0:
256,192,82203,1,0,0:0:0:0:
256,192,82370,1,2,0:0:0:0:
256,192,82453,1,2,0:0:0:0:
256,192,82537,1,2,0:0:0:0:
256,192,82703,1,0,0:0:0:0:
256,192,82870,1,6,0:0:0:0:
256,192,83203,1,0,0:0:0:0:
256,192,83370,1,2,0:0:0:0:
256,192,83537,1,6,0:0:0:0:
256,192,83870,1,2,0:0:0:0:
256,192,84037,1,2,0:0:0:0:
256,192,84203,1,0,0:0:0:0:
256,192,84370,1,6,0:0:0:0:
256,192,84870,1,0,0:0:0:0:
256,192,85037,1,2,0:0:0:0:
256,192,85203,1,0,0:0:0:0:
256,192,85370,1,2,0:0:0:0:
256,192,85537,1,6,0:0:0:0:
256,192,85870,1,6,0:0:0:0:
256,192,86120,1,4,0:0:0:0:
256,192,86370,1,6,0:0:0:0:
256,192,86620,1,6,0:0:0:0:
256,192,86870,1,4,0:0:0:0:
256,192,87037,1,6,0:0:0:0:
256,192,87537,1,2,0:0:0:0:
256,192,87703,1,0,0:0:0:0:
256,192,87953,1,0,0:0:0:0:
256,192,88037,1,2,0:0:0:0:
256,192,88203,1,6,0:0:0:0:
256,192,88537,1,2,0:0:0:0:
256,192,88703,1,0,0:0:0:0:
256,192,88787,1,2,0:0:0:0:
256,192,88953,1,2,0:0:0:0:
256,192,89203,1,0,0:0:0:0:
256,192,89370,1,2,0:0:0:0:
256,192,89453,1,2,0:0:0:0:
256,192,89537,1,2,0:0:0:0:
256,192,89703,1,4,0:0:0:0:
256,192,89870,1,2,0:0:0:0:
256,192,90037,1,0,0:0:0:0:
256,192,90203,1,6,0:0:0:0:
256,192,90537,1,2,0:0:0:0:
256,192,90703,1,0,0:0:0:0:
256,192,90870,1,6,0:0:0:0:
256,192,91203,1,2,0:0:0:0:
256,192,91370,1,0,0:0:0:0:
256,192,91870,1,0,0:0:0:0:
256,192,92037,1,2,0:0:0:0:
256,192,92203,1,2,0:0:0:0:
256,192,92370,1,4,0:0:0:0:
256,192,92537,1,2,0:0:0:0:
256,192,92703,1,2,0:0:0:0:
256,192,92870,1,0,0:0:0:0:
256,192,93037,1,2,0:0:0:0:
256,192,93120,1,2,0:0:0:0:
256,192,93203,1,2,0:0:0:0:
256,192,93370,1,0,0:0:0:0:
256,192,93537,1,6,0:0:0:0:
256,192,93870,1,0,0:0:0:0:
256,192,94037,1,0,0:0:0:0:
256,192,94203,1,6,0:0:0:0:
256,192,94370,1,0,0:0:0:0:
256,192,94537,1,0,0:0:0:0:
256,192,94703,1,2,0:0:0:0:
256,192,94870,1,0,0:0:0:0:
256,192,95037,1,6,0:0:0:0:
256,192,95537,1,0,0:0:0:0:
256,192,95703,1,2,0:0:0:0:
256,192,95787,1,2,0:0:0:0:
256,192,95870,1,2,0:0:0:0:
256,192,96037,1,0,0:0:0:0:
256,192,96203,1,6,0:0:0:0:
256,192,96536,12,2,98369,0:0:0:0:
256,192,99036,5,4,0:0:0:0:
256,192,99285,1,0,0:0:0:0:
256,192,99535,1,2,0:0:0:0:
256,192,100035,1,0,0:0:0:0:
256,192,100369,1,2,0:0:0:0:
256,192,100702,1,0,0:0:0:0:
256,192,100869,1,2,0:0:0:0:
256,192,101035,1,4,0:0:0:0:
256,192,101285,1,0,0:0:0:0:
256,192,101535,1,2,0:0:0:0:
256,192,102035,1,2,0:0:0:0:
256,192,102285,1,0,0:0:0:0:
256,192,102535,1,2,0:0:0:0:
256,192,102785,1,2,0:0:0:0:
256,192,103035,1,4,0:0:0:0:
256,192,103369,1,2,0:0:0:0:
256,192,103591,1,0,0:0:0:0:
256,192,103702,1,2,0:0:0:0:
256,192,103924,1,2,0:0:0:0:
256,192,104035,1,2,0:0:0:0:
256,192,104258,1,2,0:0:0:0:
256,192,104369,1,0,0:0:0:0:
256,192,104535,1,0,0:0:0:0:
256,192,104702,1,2,0:0:0:0:
256,192,105035,1,4,0:0:0:0:
256,192,105369,1,0,0:0:0:0:
256,192,105535,1,0,0:0:0:0:
256,192,105702,1,2,0:0:0:0:
256,192,105785,1,2,0:0:0:0:
256,192,105869,1,2,0:0:0:0:
256,192,106035,1,2,0:0:0:0:
256,192,106285,1,0,0:0:0:0:
256,192,106535,1,2,0:0:0:0:
256,192,106785,1,2,0:0:0:0:
256,192,107035,1,4,0:0:0:0:
256,192,107202,12,0,108869,0:0:0:0:
256,192,109045,5,2,0:0:0:0:
256,192,109128,1,2,0:0:0:0:
256,192,109211,1,2,0:0:0:0:
256,192,109378,1,2,0:0:0:0:
256,192,109461,1,2,0:0:0:0:
256,192,109544,1,2,0:0:0:0:
256,192,110044,1,2,0:0:0:0:
256,192,110128,1,2,0:0:0:0:
256,192,110211,1,2,0:0:0:0:
256,192,110378,1,2,0:0:0:0:
256,192,110461,1,2,0:0:0:0:
256,192,110544,1,2,0:0:0:0:
256,192,111044,1,2,0:0:0:0:
256,192,111128,1,2,0:0:0:0:
256,192,111211,1,2,0:0:0:0:
256,192,111378,1,2,0:0:0:0:
256,192,111461,1,2,0:0:0:0:
256,192,111544,1,2,0:0:0:0:
256,192,112044,1,4,0:0:0:0:
256,192,112210,12,0,113377,0:0:0:0:
256,192,113718,5,6,0:0:0:0:
256,192,113884,12,6,119051,0:0:0:0:
