osu file format v14

[General]
AudioFilename: audio123.mp3
AudioLeadIn: 0
PreviewTime: 459506
Countdown: 0
SampleSet: Normal
StackLeniency: 0.7
Mode: 1
LetterboxInBreaks: 0
WidescreenStoryboard: 0

[Editor]
DistanceSpacing: 0.8
BeatDivisor: 16
GridSize: 4
TimelineZoom: 2.9

[Metadata]
Title:World Fragments
TitleUnicode:World Fragments
Artist:xi
ArtistUnicode:xi
Creator:iloveyou4ever
Version:Elysium
Source:
Tags:Diverse System Comiket C89 part I II III marathon
BeatmapID:1523646
BeatmapSetID:721551

[Difficulty]
HPDrainRate:3
CircleSize:2
OverallDifficulty:6
ApproachRate:5
SliderMultiplier:1.4
SliderTickRate:1

[Events]
//Background and Video events
0,0,"BG.jpg",0,45
//Break Periods
2,555897,562896
//Storyboard Layer 0 (Background)
//Storyboard Layer 1 (Fail)
//Storyboard Layer 2 (Pass)
//Storyboard Layer 3 (Foreground)
//Storyboard Sound Samples

[TimingPoints]
546,874.676,4,1,0,10,1,8
546,-48.9977349980368,4,1,0,10,0,0
965,845.366,4,1,0,10,1,8
965,-50.6965537496692,4,1,0,10,0,0
1406,957.083,4,1,0,10,1,8
1406,-44.7789197563251,4,1,0,10,0,0
1904,983.994,4,1,0,10,1,8
1904,-43.5542725434737,4,1,0,10,0,0
2376,948.527,4,1,0,10,1,0
2376,-45.1828391359897,4,1,0,10,0,0
3324,979.298,4,1,0,10,1,8
3324,-43.7631271146708,4,1,0,10,0,0
4303,943.288,4,1,0,10,1,8
4303,-45.4337835922251,4,1,0,10,0,0
5246,949.388,4,1,0,10,1,8
5246,-45.1418628180921,4,1,0,10,0,0
6196,965.215,4,1,0,10,1,0
6196,-44.4016544056432,4,1,0,10,0,0
7161,973.25,4,1,0,10,1,8
7161,-44.0350812814209,4,1,0,10,0,0
7628,979.984,4,1,0,10,1,8
7628,-43.7324924255323,4,1,0,10,0,0
8138,1073.9,4,1,0,10,1,8
8138,-39.9079456719833,4,1,0,10,0,0
9211,1183.33,4,1,0,10,1,8
9211,-36.2174058437992,4,1,0,10,0,0
10395,549.9441,4,1,0,13,1,0
10395,-77.9299984437379,4,1,0,13,0,0
11495,885.623,4,1,0,12,1,8
11495,-48.3920842809444,4,1,0,12,0,0
11938,895.782,4,1,0,12,1,8
11938,-47.8432730922734,4,1,0,12,0,0
12386,865.918,4,1,0,12,1,8
12386,-49.493304050895,4,1,0,12,0,0
13251,843.583,4,1,0,12,1,8
13251,-50.8037061642338,4,1,0,12,0,0
14095,1092.2,4,1,0,12,1,8
14095,-39.2392811363696,4,1,0,12,0,0
15187,1028.77,4,1,0,12,1,8
15187,-41.6586242378208,4,1,0,12,0,0
16215,1888.93086513034,4,1,0,12,1,8
16215,-22.6885714285714,4,1,0,12,0,0
18104,-22.6885714285714,4,1,0,12,0,0
18813,-22.6885714285714,4,1,0,15,0,0
19049,-22.6885714285714,4,1,0,18,0,0
19285,-22.6885714285714,4,1,0,21,0,0
19521,-22.6885714285714,4,1,0,24,0,0
19757,-22.6885714285714,4,1,0,27,0,0
19992,1888.93086513034,4,1,0,37,1,8
19996,333.333,4,1,0,37,1,0
19996,-100,4,1,0,37,0,0
21162,333.333,4,1,0,37,1,0
21245,-100,4,1,0,25,0,0
23995,-100,4,1,0,35,0,0
24495,-100,4,1,0,30,0,0
31578,-100,4,1,0,60,0,0
31827,333.333333333333,4,1,0,60,1,0
37160,333.333333333333,4,1,0,62,1,0
37160,-100,4,1,0,62,0,0
44159,-100,4,1,0,56,0,0
44996,333.333,4,1,0,62,1,8
45162,333.333,4,1,0,60,1,0
66329,-100,4,1,0,62,0,0
76995,-100,4,1,0,64,0,0
87828,-100,4,1,0,65,0,0
89161,333.333,4,1,0,58,1,0
89161,-108.695652173913,4,1,0,58,0,0
94494,-100,4,1,0,58,0,0
95827,-100,4,1,0,63,0,0
97160,-100,4,1,0,67,0,0
113160,333.333,4,1,0,70,1,0
113160,-100,4,1,0,70,0,0
134577,-100,4,1,0,65,0,0
136827,-100,4,1,0,66,0,0
137160,333.333,4,1,0,68,1,9
137160,-98.0392156862745,4,1,0,68,0,1
158159,-98.0392156862745,4,1,0,70,0,0
158493,-98.0392156862745,4,1,0,70,0,1
179826,-100,4,1,0,63,0,0
190576,-107.52688172043,4,1,0,42,0,0
201159,-103.626943005181,4,1,0,43,0,0
211826,-100,4,1,0,48,0,0
217159,-100,4,1,0,52,0,0
222493,-100,4,1,0,56,0,0
225159,-100,4,1,0,58,0,0
227826,-100,4,1,0,60,0,0
233159,-100,4,1,0,54,0,0
238160,333.333,6,1,0,60,1,0
246159,333.333,3,1,0,95,1,1
246159,-98.0392156862745,3,1,0,95,0,1
247158,-96.1538461538461,3,1,0,95,0,1
248158,-94.3396226415094,3,1,0,95,0,1
249158,-94.5179584120983,3,1,0,61,0,0
249242,-94.6969696969697,3,1,0,61,0,0
249325,-94.876660341556,3,1,0,61,0,0
249408,-95.0570342205323,3,1,0,61,0,0
249492,-95.2380952380952,3,1,0,61,0,0
249575,-95.4198473282443,3,1,0,61,0,0
249658,-95.6022944550669,3,1,0,61,0,0
249742,-95.7854406130268,3,1,0,61,0,0
249825,-95.9692898272553,3,1,0,61,0,0
249908,-96.1538461538461,3,1,0,61,0,0
250075,-96.3391136801541,3,1,0,61,0,0
250242,-96.5250965250965,3,1,0,61,0,0
250325,-96.7117988394584,3,1,0,61,0,0
250408,-96.8992248062015,3,1,0,61,0,0
250492,-97.0873786407767,3,1,0,61,0,0
250575,-97.2762645914397,3,1,0,61,0,0
250658,-97.4658869395711,3,1,0,61,0,0
250742,-97.65625,3,1,0,61,0,0
250825,-97.8473581213307,3,1,0,61,0,0
250992,-98.0392156862745,3,1,0,61,0,0
251158,-98.2318271119843,4,1,0,61,0,8
251325,-98.0392156862745,4,1,0,64,0,0
251491,333.333,4,1,0,64,1,8
253991,-100,4,1,0,55,0,0
256824,333.333,4,1,0,42,1,0
256824,-105.263157894737,4,1,0,42,0,0
261823,-104.166666666667,4,1,0,42,0,0
261879,-103.092783505155,4,1,0,42,0,0
261935,-102.040816326531,4,1,0,42,0,0
261990,-101.010101010101,4,1,0,42,0,0
262157,-100,4,1,0,45,0,0
263323,-100,4,1,0,48,0,0
264822,-100,4,1,0,51,0,0
265989,-100,4,1,0,56,0,0
267322,-100,4,1,0,60,0,0
272656,333.333333333333,4,1,0,65,1,8
272822,333.333,4,1,0,65,1,0
278155,333.333,7,1,0,55,1,0
278155,-103.092783505155,7,1,0,55,0,0
286821,-102.459016393443,7,1,0,51,0,0
286904,-101.83299389002,7,1,0,51,0,0
286988,-101.214574898785,7,1,0,51,0,0
287071,-100.603621730382,7,1,0,51,0,0
287154,333.333,7,1,0,62,1,0
291820,333.333,4,1,0,63,1,0
295819,333.333,6,1,0,63,1,0
297818,333.333,7,1,0,63,1,8
297822,333.333,7,1,0,63,1,0
302488,333.333,4,1,0,63,1,0
303821,-100,4,1,0,80,0,0
305154,-100,4,1,0,63,0,0
307904,-100,4,1,0,50,0,0
312654,-99.2063492063492,4,1,0,58,0,0
312710,-98.6193293885601,4,1,0,58,0,0
312765,-97.9431929480901,4,1,0,58,0,0
312821,-97.2762645914397,4,1,0,58,0,0
312987,-96.6183574879227,4,1,0,58,0,0
313154,-95.9692898272553,4,1,0,69,0,1
323821,-96.1538461538461,4,1,0,72,0,1
333321,-100,4,1,0,56,0,0
335820,333.333,6,1,0,62,1,0
341819,-100,6,1,0,65,0,0
345819,333.333,3,1,0,98,1,1
345819,-80,3,1,0,98,0,1
348818,-80,3,1,0,98,0,0
350502,666.667,4,1,0,55,1,0
350502,-50,4,1,0,55,0,0
350668,-50,4,1,0,50,0,0
353835,-50,4,1,0,43,0,0
354502,-50,4,1,0,36,0,0
355168,-50,4,1,0,29,0,0
355833,666.666666666667,4,1,0,20,1,8
355885,600,4,1,0,20,1,8
355885,-62.5,4,1,0,20,0,0
356498,600,4,1,0,20,1,0
356498,-62.5,4,1,0,20,0,0
365198,-61.7283950617284,4,1,0,20,0,0
365498,-60.9756097560976,4,1,0,20,0,0
365798,-60.2409638554217,4,1,0,20,0,0
366098,-59.5238095238095,4,1,0,20,0,0
367879,600,4,1,0,20,1,8
367879,-59.5238095238095,4,1,0,20,0,8
368185,600,4,1,0,20,1,8
368185,-59.5238095238095,4,1,0,20,0,8
368498,600,4,1,0,20,1,0
368498,-59.5238095238095,4,1,0,20,0,8
376221,-59.5238095238095,4,1,0,57,0,8
376296,300,4,1,0,57,1,8
376296,-100,4,1,0,57,0,0
376894,300,4,1,0,60,1,0
376894,-100,4,1,0,60,0,0
384093,-92.5925925925926,4,1,0,62,0,0
387694,-100,4,1,0,52,0,0
390094,300,4,1,0,60,1,0
390094,-100,4,1,0,60,0,0
390169,-111.111111111111,4,1,0,56,0,0
399094,-100,4,1,0,61,0,0
399694,-100,4,1,0,66,0,0
408094,-100,4,1,0,40,0,0
408994,-100,4,1,0,55,0,0
409294,-102.564102564103,4,1,0,41,0,0
409444,-103.412616339193,4,1,0,41,0,0
409594,-104.275286757039,4,1,0,41,0,0
409744,-105.263157894737,4,1,0,41,0,0
414094,-103.092783505155,4,1,0,44,0,0
415294,-103.092783505155,4,1,0,46,0,0
416494,-103.092783505155,4,1,0,48,0,0
417694,-103.092783505155,4,1,0,50,0,0
418594,-102.459016393443,4,1,0,52,0,0
418669,-101.83299389002,4,1,0,52,0,0
418744,-101.214574898785,4,1,0,52,0,0
418819,-100.603621730382,4,1,0,52,0,0
418894,-100,4,1,0,54,0,0
423694,-100,4,1,0,56,0,0
428494,-100,4,1,0,48,0,0
428569,-111.111111111111,4,1,0,45,0,0
433144,-100,4,1,0,58,0,0
438094,-100,4,1,0,65,0,0
447769,-100,4,1,0,60,0,0
450094,300,4,1,0,55,1,0
450094,-100,4,1,0,55,0,0
450169,-105.263157894737,4,1,0,52,0,0
452494,-103.092783505155,4,1,0,56,0,0
454894,-101.010101010101,4,1,0,60,0,0
457294,-99.009900990099,4,1,0,67,0,0
459394,-98.5221674876847,4,1,0,67,0,0
459544,-98.0392156862745,4,1,0,67,0,0
459619,-97.5609756097561,4,1,0,67,0,0
459693,300,4,1,0,72,1,1
459693,-97.0873786407767,4,1,0,72,0,1
474168,-97.0873786407767,4,1,0,70,0,1
476493,-97.0873786407767,4,1,0,72,0,1
478593,-97.0873786407767,4,1,0,72,0,0
478893,-97.0873786407767,4,1,0,72,0,1
498093,-105.263157894737,4,1,0,43,0,0
507393,-104.166666666667,4,1,0,45,0,0
507468,-103.092783505155,4,1,0,45,0,0
507543,-102.040816326531,4,1,0,45,0,0
507618,-101.010101010101,4,1,0,45,0,0
507693,-100,4,1,0,47,0,0
517294,-100,4,1,0,49,0,0
524418,-100,4,1,0,11,0,0
524492,300,4,1,0,11,1,8
524498,1193.72,4,1,0,11,1,8
524498,-33.5086955064839,4,1,0,11,0,0
525250,1207.44,4,1,0,11,1,8
525250,-33.1279401046843,4,1,0,11,0,0
525697,1193.5,4,1,0,11,1,8
525697,-33.5148722245496,4,1,0,11,0,0
526222,1186.8,4,1,0,11,1,8
526222,-33.7040781934614,4,1,0,11,0,0
526887,1115.5,4,1,0,11,1,0
526887,-35.8583594800538,4,1,0,11,0,0
527556,1114.56,4,1,0,11,1,8
527556,-35.8886017800747,4,1,0,11,0,0
528002,817.334,4,1,0,11,1,8
528002,-48.9396011911899,4,1,0,11,0,0
528460,849.187,4,1,0,11,1,8
528460,-47.1038770023564,4,1,0,11,0,0
528833,718.585,4,1,0,11,1,8
528833,-55.6649526499997,4,1,0,11,0,0
529207,683.933,4,1,0,11,1,8
529207,-58.4852609831665,4,1,0,11,0,0
529364,696.599,4,1,0,11,1,8
529364,-57.421845279709,4,1,0,11,0,0
529538,666.939,4,1,0,11,1,8
529538,-59.9755000082466,4,1,0,11,0,0
529819,656.793,4,1,0,11,1,8
529819,-60.9019889067027,4,1,0,11,0,0
530200,715.622,4,1,0,11,1,0
530200,-55.895430828007,4,1,0,11,0,0
530543,710.531,4,1,0,11,1,8
530543,-56.2959251601971,4,1,0,11,0,0
530692,687.31,4,1,0,11,1,8
530692,-58.1979019656341,4,1,0,11,0,0
530905,807.429,4,1,0,11,1,8
530905,-49.539959550623,4,1,0,11,0,0
531293,813.628,4,1,0,11,1,8
531293,-49.1625165308962,4,1,0,11,0,0
531716,950.838,4,1,0,11,1,8
531716,-42.0681546172955,4,1,0,11,0,0
532191,957.824,4,1,0,11,1,8
532191,-41.7613256715221,4,1,0,11,0,0
532670,1664.44740346205,4,1,0,11,1,8
532670,-24.0318181272004,4,1,0,11,0,0
533303,1602.17,4,1,0,11,1,8
533303,-24.9661396730684,4,1,0,11,0,0
534296,1015.32,4,1,0,11,1,0
534296,-39.3964464405311,4,1,0,11,0,0
534905,989.903,4,1,0,11,1,8
534905,-40.4079995716752,4,1,0,11,0,0
535301,698.066,4,1,0,11,1,8
535301,-57.3011720954752,4,1,0,11,0,0
535636,674.307,4,1,0,11,1,8
535636,-59.3201612915185,4,1,0,11,0,0
535987,670.749,4,1,0,11,1,8
535987,-59.6348261421187,4,1,0,11,0,0
536322,710.531,4,1,0,11,1,8
536322,-56.2959251601971,4,1,0,11,0,0
536472,686.647,4,1,0,11,1,8
536472,-58.2540956270107,4,1,0,11,0,0
536671,649.160959459898,4,1,0,11,1,8
536671,-61.618,4,1,0,11,0,0
536995,777.868,4,1,0,11,1,8
536995,-51.4226064062283,4,1,0,11,0,0
537384,754.649,4,1,0,11,1,0
537384,-53.0047744050545,4,1,0,11,0,0
537762,1040.31,4,1,0,11,1,8
537762,-38.4500773807807,4,1,0,11,0,0
538261,1047.68,4,1,0,11,1,8
538261,-38.1795968234575,4,1,0,11,0,0
538806,2181.74,4,1,0,11,1,8
538806,-18.3339903013191,4,1,0,11,0,0
539678,2109.7,4,1,0,11,1,8
539678,-18.9600417120918,4,1,0,11,0,0
539974,2159.45,4,1,0,11,1,8
539974,-18.5232350830072,4,1,0,11,0,0
540967,641.156,4,1,0,11,1,8
540967,-62.3873129160454,4,1,0,11,0,0
541608,885.385,5,1,0,11,1,0
541608,-45.1780863692066,5,1,0,11,0,0
542139,923.91,4,1,0,11,1,8
542139,-43.2942602634456,4,1,0,11,0,0
542509,718.281,4,1,0,11,1,8
542509,-55.6885118776635,4,1,0,11,0,0
542883,698.728,4,1,0,11,1,8
542883,-57.2468829072257,4,1,0,11,0,0
543218,800.414,4,1,0,11,1,8
543218,-49.9741383833866,4,1,0,11,0,0
543570,810.587,4,1,0,11,1,8
543570,-49.3469547377394,4,1,0,11,0,0
543757,766.258,4,1,0,11,1,8
543757,-52.2017388399208,4,1,0,11,0,0
544009,745.897563401293,4,1,0,11,1,8
544009,-53.6266666666667,4,1,0,11,0,0
544382,852.542,4,1,0,11,1,8
544382,-46.9185095866245,4,1,0,11,0,0
544775,868.195,4,1,0,11,1,0
544775,-46.0725988977131,4,1,0,11,0,0
545243,916.920857504386,4,1,0,11,1,8
545243,-43.6242666666667,4,1,0,11,0,0
545473,905.57836271432,4,1,0,11,1,8
545473,-44.1706666666667,4,1,0,11,0,0
545699,752.849,4,1,0,11,1,8
545699,-53.1315044583974,4,1,0,11,0,0
546090,739,4,1,0,11,1,8
546090,-54.127198917456,4,1,0,11,0,0
546445,576.768,4,1,0,11,1,8
546445,-69.3519751442521,4,1,0,11,0,0
546699,572.76,4,1,0,11,1,8
546699,-69.8372791396047,4,1,0,11,0,0
547020,655.333,4,1,0,11,1,8
547020,-61.0376709245529,4,1,0,11,0,0
547334,657.633,4,1,0,11,1,8
547334,-60.8241982990513,4,1,0,11,0,0
547675,945.85,4,1,0,11,1,8
547675,-42.2900037003753,4,1,0,11,0,0
548052,984.847,4,1,0,11,1,8
548052,-40.6154458509799,4,1,0,11,0,0
548645,824.739,4,1,0,14,1,0
548645,-48.5001921820115,4,1,0,14,0,0
549469,1045.47,4,1,0,17,1,8
549469,-38.2603039781151,4,1,0,17,0,0
550514,1282.02,4,1,0,20,1,8
550514,-31.2007612985757,4,1,0,20,0,0
551798,1448.41,4,1,0,25,1,0
551798,-27.6164898060632,4,1,0,25,0,0
553246,1026.89,4,1,0,11,1,8
553246,-38.9525655133461,4,1,0,11,0,0
553736,1164.00884646723,4,1,0,11,1,8
553736,-34.3640000000001,4,1,0,11,0,0
554273,1376.64,4,1,0,11,1,8
554273,-29.0562529056253,4,1,0,11,0,0
555650,2380.4,4,1,0,11,1,0
555650,-16.803898504453,4,1,0,11,0,0
555697,2105.87,4,1,0,11,1,8
555697,-18.9945248282183,4,1,0,11,0,0
557762,2111.59,4,1,0,11,1,8
557762,-18.9430713348709,4,1,0,11,0,0
563963,-18.9430713348709,4,1,0,50,0,0
564096,300,4,1,0,50,1,0
564096,-92.5925925925926,4,1,0,50,0,0
565296,300,4,1,0,54,1,0
565296,-100,4,1,0,54,0,0
570096,-100,4,1,0,58,0,0
571296,-100,4,1,0,62,0,0
572477,-100,4,1,0,18,0,0
573621,-100,4,1,0,65,0,0
574446,-99.502487562189,4,1,0,65,0,0
574521,-99.009900990099,4,1,0,65,0,0
574596,-98.5221674876847,4,1,0,65,0,0
574671,-98.0392156862745,4,1,0,65,0,0
574746,-97.5609756097561,4,1,0,65,0,0
574894,300,4,1,0,67,1,1
574894,-97.0873786407767,4,1,0,67,0,1
581794,-96.7117988394584,4,1,0,69,0,1
581869,-96.3391136801541,4,1,0,69,0,1
581944,-95.9692898272553,4,1,0,69,0,1
582019,-95.6022944550669,4,1,0,69,0,1
582094,-95.2380952380952,4,1,0,72,0,1
584194,-95.2380952380952,4,1,0,72,0,0
584494,-93.4579439252336,4,1,0,75,0,1
603394,-93.4579439252336,4,1,0,75,0,0
603694,-96.1538461538461,4,1,0,73,0,1
623194,-106.382978723404,4,1,0,46,0,0
627094,-106.382978723404,4,1,0,48,0,0
627694,-106.382978723404,4,1,0,54,0,0
630094,-100,4,1,0,60,0,0
632044,-99.502487562189,4,1,0,67,0,0
632119,-99.009900990099,4,1,0,67,0,0
632194,-98.5221674876847,4,1,0,67,0,0
632269,-98.0392156862745,4,1,0,67,0,0
632344,-97.5609756097561,4,1,0,67,0,0
632419,-97.0873786407767,4,1,0,67,0,0
632494,-96.6183574879227,4,1,0,70,0,1
637294,-96.6183574879227,4,1,0,72,0,1
640894,-96.6183574879227,4,1,0,58,0,1
641744,-96.6183574879227,4,1,0,68,0,1
642394,864.966,4,1,0,60,1,8
642394,-33.3333333333333,4,1,0,60,0,0
643259,1166.97,4,1,0,55,1,8
643259,-28.5640835213802,4,1,0,55,0,0
644379,1218.5,4,1,0,50,1,8
644379,-27.356787218909,4,1,0,50,0,0
644428,1550.9,4,1,0,45,1,8
644428,-21.505376344086,4,1,0,45,0,0
645917,1393.2,4,1,0,40,1,8
645917,-23.9234449760766,4,1,0,40,0,0
645972,1676.96,4,1,0,35,1,8
645972,-19.8807157057654,4,1,0,35,0,0
647616,626.946145326116,4,1,0,30,1,0
647616,-26.5957446808511,4,1,0,30,0,0

[HitObjects]
289,141,546,5,0,0:0:0:0:
340,168,965,1,0,0:0:0:0:
336,104,1406,1,8,0:0:0:0:
360,136,1904,1,8,0:0:0:0:
408,180,2376,1,0,0:0:0:0:
260,152,3324,1,8,0:0:0:0:
160,100,4303,1,0,0:0:0:0:
372,152,5246,1,8,0:0:0:0:
196,120,6196,1,8,0:0:0:0:
308,188,7161,1,8,0:0:0:0:
212,24,7628,1,8,0:0:0:0:
376,188,8138,1,0,0:0:0:0:
396,184,9211,1,8,0:0:0:0:
416,152,10395,1,0,0:0:0:0:
416,152,10486,1,0,0:0:0:0:
416,152,10578,1,0,0:0:0:0:
352,160,10669,1,8,0:0:0:0:
376,188,11495,1,8,0:0:0:0:
360,232,11938,1,8,0:0:0:0:
376,212,12386,1,8,0:0:0:0:
308,172,13251,1,0,0:0:0:0:
365,178,14095,1,8,0:0:0:0:
363,206,14641,1,0,0:0:0:0:
456,175,15187,1,8,0:0:0:0:
335,197,16215,1,8,0:0:0:0:
256,192,18103,12,8,19756,0:0:0:0:
334,175,19996,5,8,0:0:0:0:
304,158,20162,1,0,0:0:0:0:
461,172,20218,1,0,0:0:0:0:
480,168,20273,1,0,0:0:0:0:
452,172,20329,1,8,0:0:0:0:
396,168,20495,1,8,0:0:0:0:
425,163,20579,1,8,0:0:0:0:
328,124,20662,1,0,0:0:0:0:
340,100,20718,1,0,0:0:0:0:
352,112,20773,1,0,0:0:0:0:
452,172,20829,1,8,0:0:0:0:
425,163,20912,1,0,0:0:0:0:
396,168,20995,1,8,0:0:0:0:
396,168,21079,1,8,0:0:0:0:
378,146,21162,1,0,0:0:0:0:
378,146,21411,1,0,0:0:0:0:
352,157,21495,1,8,0:0:0:0:
296,148,21661,1,8,0:0:0:0:
378,146,21995,1,0,0:0:0:0:
469,210,22328,1,8,0:0:0:0:
378,146,22661,1,0,0:0:0:0:
418,184,22828,1,8,0:0:0:0:
418,184,22995,1,8,0:0:0:0:
362,176,23161,1,0,0:0:0:0:
401,216,23328,1,0,0:0:0:0:
401,216,23384,1,0,0:0:0:0:
362,176,23439,1,0,0:0:0:0:
362,176,23495,1,8,0:0:0:0:
416,172,23661,1,0,0:0:0:0:
362,176,23995,1,12,0:0:0:0:
252,204,24328,1,4,0:0:0:0:
304,188,24495,1,0,0:0:0:0:
331,187,24578,1,0,0:0:0:0:
355,173,24661,1,8,0:0:0:0:
416,172,24745,1,8,0:0:0:0:
443,169,24828,1,8,0:0:0:0:
416,172,24911,1,0,0:0:0:0:
416,172,24995,1,8,0:0:0:0:
416,172,25328,1,8,0:0:0:0:
416,172,25495,1,8,0:0:0:0:
373,208,25661,1,8,0:0:0:0:
416,186,25828,1,0,0:0:0:0:
460,220,25995,1,0,0:0:0:0:
437,202,26078,1,0,0:0:0:0:
416,172,26161,1,8,0:0:0:0:
416,172,26273,1,8,0:0:0:0:
451,183,26384,1,0,0:0:0:0:
302,198,26828,1,4,0:0:0:0:
246,192,26995,1,0,0:0:0:0:
300,180,27161,1,0,0:0:0:0:
416,172,27245,1,8,0:0:0:0:
416,172,27328,1,8,0:0:0:0:
443,177,27411,1,0,0:0:0:0:
416,172,27495,1,8,0:0:0:0:
416,172,27661,1,0,0:0:0:0:
416,172,27995,1,8,0:0:0:0:
397,184,28328,1,8,0:0:0:0:
472,168,28495,1,8,0:0:0:0:
417,156,28661,1,0,0:0:0:0:
438,137,28745,1,0,0:0:0:0:
428,163,28828,1,8,0:0:0:0:
397,184,28939,1,8,0:0:0:0:
417,156,29050,1,8,0:0:0:0:
438,137,29161,1,0,0:0:0:0:
392,196,29495,1,4,0:0:0:0:
428,163,29661,1,0,0:0:0:0:
450,214,29828,1,0,0:0:0:0:
397,184,29995,1,8,0:0:0:0:
397,184,30161,1,8,0:0:0:0:
341,172,30328,1,0,0:0:0:0:
341,172,30495,1,8,0:0:0:0:
341,172,30661,1,0,0:0:0:0:
341,172,30828,1,0,0:0:0:0:
397,172,30995,1,8,0:0:0:0:
452,173,31161,1,8,0:0:0:0:
413,132,31328,1,0,0:0:0:0:
370,124,31495,1,8,0:0:0:0:
364,196,31661,1,12,0:0:0:0:
424,208,31993,1,0,0:0:0:0:
408,212,32160,1,8,0:0:0:0:
384,180,32327,1,0,0:0:0:0:
384,180,32410,1,0,0:0:0:0:
384,180,32493,1,0,0:0:0:0:
372,192,32660,1,8,0:0:0:0:
448,180,32827,1,0,0:0:0:0:
448,180,32910,1,0,0:0:0:0:
448,180,32993,1,0,0:0:0:0:
464,176,33077,1,8,0:0:0:0:
456,168,33160,1,0,0:0:0:0:
424,180,33327,1,8,0:0:0:0:
424,180,33493,1,8,0:0:0:0:
454,176,33660,1,0,0:0:0:0:
454,176,33743,1,0,0:0:0:0:
454,176,33827,1,8,0:0:0:0:
454,176,33993,1,8,0:0:0:0:
431,159,34160,1,0,0:0:0:0:
399,180,34327,1,12,0:0:0:0:
431,159,34660,1,0,0:0:0:0:
379,180,34827,1,8,0:0:0:0:
433,195,34993,1,0,0:0:0:0:
454,176,35077,1,0,0:0:0:0:
379,180,35160,1,0,0:0:0:0:
454,176,35326,1,8,0:0:0:0:
398,171,35493,1,0,0:0:0:0:
431,159,35576,1,0,0:0:0:0:
431,159,35660,1,8,0:0:0:0:
398,171,35993,1,8,0:0:0:0:
454,176,36160,1,0,0:0:0:0:
398,171,36493,1,8,0:0:0:0:
292,183,36604,1,0,0:0:0:0:
255,126,36715,1,0,0:0:0:0:
227,240,36826,1,8,0:0:0:0:
192,251,36938,1,8,0:0:0:0:
145,212,37049,1,8,0:0:0:0:
384,148,37160,1,4,0:0:0:0:
384,148,37410,1,4,0:0:0:0:
384,176,37660,1,12,0:0:0:0:
347,188,37993,1,0,0:0:0:0:
356,190,38076,1,0,0:0:0:0:
316,184,38160,1,8,0:0:0:0:
316,184,38326,1,8,0:0:0:0:
360,185,38493,1,4,0:0:0:0:
420,180,38743,1,4,0:0:0:0:
385,182,38993,1,12,0:0:0:0:
401,153,39326,1,0,0:0:0:0:
369,170,39410,1,8,0:0:0:0:
369,170,39493,1,8,0:0:0:0:
322,164,39660,1,0,0:0:0:0:
360,184,39743,1,8,0:0:0:0:
404,184,39826,1,0,0:0:0:0:
268,172,40076,1,0,0:0:0:0:
368,208,40160,1,8,0:0:0:0:
320,180,40326,1,0,0:0:0:0:
320,180,40410,1,0,0:0:0:0:
416,192,40493,1,8,0:0:0:0:
364,184,40576,1,0,0:0:0:0:
364,184,40659,1,0,0:0:0:0:
396,192,40743,1,8,0:0:0:0:
392,192,40826,1,8,0:0:0:0:
368,188,40909,1,0,0:0:0:0:
388,184,40993,1,8,0:0:0:0:
304,152,41159,1,4,0:0:0:0:
336,176,41826,1,12,0:0:0:0:
200,24,42493,1,4,0:0:0:0:
428,204,44159,1,8,0:0:0:0:
440,184,44215,1,0,0:0:0:0:
440,184,44271,1,0,0:0:0:0:
480,208,44326,1,8,0:0:0:0:
448,184,44409,1,0,0:0:0:0:
412,196,44493,1,8,0:0:0:0:
460,184,44576,1,0,0:0:0:0:
436,180,44659,1,8,0:0:0:0:
436,180,44715,1,8,0:0:0:0:
436,180,44771,1,8,0:0:0:0:
424,200,44826,1,0,0:0:0:0:
406,205,44993,5,12,0:0:0:0:
448,176,45328,1,0,0:0:0:0:
315,180,45495,1,8,0:0:0:0:
370,173,45661,1,0,0:0:0:0:
397,192,45745,1,8,0:0:0:0:
424,186,45828,1,0,0:0:0:0:
424,186,45995,1,8,0:0:0:0:
424,186,46161,1,0,0:0:0:0:
370,169,46245,1,0,0:0:0:0:
370,169,46328,1,8,0:0:0:0:
370,188,46411,1,8,0:0:0:0:
424,186,46495,1,0,0:0:0:0:
424,186,46661,1,0,0:0:0:0:
370,169,46828,1,8,0:0:0:0:
424,186,46995,1,0,0:0:0:0:
424,186,47078,1,0,0:0:0:0:
443,166,47161,1,8,0:0:0:0:
443,166,47245,1,0,0:0:0:0:
443,166,47328,1,8,0:0:0:0:
443,166,47411,1,8,0:0:0:0:
424,186,47495,1,0,0:0:0:0:
424,186,47661,1,8,0:0:0:0:
458,193,47995,1,0,0:0:0:0:
458,193,48078,1,0,0:0:0:0:
424,186,48161,1,8,0:0:0:0:
478,170,48328,1,0,0:0:0:0:
424,186,48411,1,8,0:0:0:0:
458,193,48495,1,0,0:0:0:0:
446,248,48661,1,0,0:0:0:0:
478,170,48828,1,8,0:0:0:0:
428,200,48995,1,0,0:0:0:0:
478,170,49161,1,0,0:0:0:0:
480,196,49245,1,0,0:0:0:0:
478,170,49328,1,8,0:0:0:0:
422,168,49495,1,0,0:0:0:0:
478,170,49661,1,8,0:0:0:0:
478,170,49745,1,8,0:0:0:0:
478,170,49828,1,0,0:0:0:0:
478,170,49911,1,8,0:0:0:0:
478,170,49995,1,0,0:0:0:0:
449,167,50078,1,0,0:0:0:0:
478,170,50161,1,8,0:0:0:0:
428,144,50328,1,4,0:0:0:0:
449,167,50661,1,0,0:0:0:0:
393,170,50828,1,8,0:0:0:0:
448,167,50995,1,8,0:0:0:0:
419,169,51078,1,8,0:0:0:0:
478,170,51161,1,0,0:0:0:0:
419,169,51328,1,8,0:0:0:0:
449,167,51495,1,0,0:0:0:0:
449,167,51578,1,0,0:0:0:0:
449,167,51661,1,8,0:0:0:0:
419,169,51828,1,0,0:0:0:0:
448,167,51995,1,0,0:0:0:0:
419,169,52078,1,0,0:0:0:0:
478,170,52161,1,8,0:0:0:0:
478,170,52328,1,8,0:0:0:0:
449,167,52411,1,0,0:0:0:0:
478,170,52495,1,8,0:0:0:0:
478,170,52578,1,8,0:0:0:0:
478,170,52661,1,0,0:0:0:0:
478,170,52745,1,0,0:0:0:0:
457,189,52828,1,8,0:0:0:0:
478,170,52995,1,12,0:0:0:0:
449,167,53161,1,0,0:0:0:0:
449,167,53245,1,0,0:0:0:0:
420,172,53328,1,8,0:0:0:0:
420,184,53495,1,8,0:0:0:0:
444,204,53661,1,0,0:0:0:0:
416,152,53828,1,0,0:0:0:0:
408,212,53911,1,0,0:0:0:0:
461,151,53995,1,8,0:0:0:0:
407,163,54161,1,0,0:0:0:0:
392,160,54245,1,8,0:0:0:0:
461,151,54328,1,8,0:0:0:0:
424,240,54411,1,0,0:0:0:0:
444,204,54495,1,0,0:0:0:0:
407,163,54661,1,8,0:0:0:0:
389,166,54745,1,0,0:0:0:0:
408,159,54828,1,8,0:0:0:0:
407,163,54995,1,0,0:0:0:0:
407,163,55078,1,8,0:0:0:0:
462,160,55245,1,8,0:0:0:0:
407,163,55328,1,0,0:0:0:0:
455,263,55661,1,12,0:0:0:0:
438,262,55995,1,0,0:0:0:0:
433,217,56161,1,8,0:0:0:0:
439,161,56328,1,0,0:0:0:0:
364,184,56411,1,8,0:0:0:0:
445,207,56495,1,0,0:0:0:0:
437,180,56661,1,8,0:0:0:0:
409,173,56828,1,0,0:0:0:0:
352,164,56911,1,0,0:0:0:0:
457,200,56995,1,8,0:0:0:0:
354,182,57078,1,8,0:0:0:0:
354,182,57161,1,0,0:0:0:0:
354,182,57328,1,0,0:0:0:0:
409,173,57495,1,8,0:0:0:0:
409,173,57661,1,8,0:0:0:0:
464,181,57745,1,0,0:0:0:0:
435,183,57828,1,8,0:0:0:0:
409,173,57911,1,0,0:0:0:0:
437,180,57995,1,8,0:0:0:0:
464,181,58078,1,8,0:0:0:0:
437,180,58161,1,0,0:0:0:0:
409,173,58328,1,8,0:0:0:0:
409,173,58661,1,0,0:0:0:0:
409,173,58745,1,0,0:0:0:0:
435,183,58828,1,8,0:0:0:0:
409,173,58995,1,8,0:0:0:0:
437,180,59078,1,8,0:0:0:0:
409,173,59161,1,0,0:0:0:0:
409,173,59245,1,0,0:0:0:0:
463,157,59328,1,8,0:0:0:0:
416,188,59495,1,0,0:0:0:0:
407,150,59661,1,8,0:0:0:0:
407,150,59745,1,8,0:0:0:0:
407,150,59828,1,0,0:0:0:0:
407,150,59995,1,0,0:0:0:0:
409,173,60161,1,8,0:0:0:0:
407,150,60328,1,0,0:0:0:0:
433,159,60411,1,8,0:0:0:0:
409,173,60495,1,0,0:0:0:0:
411,201,60578,1,0,0:0:0:0:
433,159,60661,1,8,0:0:0:0:
433,159,60745,1,8,0:0:0:0:
433,159,60828,1,0,0:0:0:0:
440,216,60995,1,4,0:0:0:0:
433,159,61328,1,8,0:0:0:0:
405,159,61411,1,0,0:0:0:0:
409,173,61495,1,8,0:0:0:0:
405,159,61578,1,8,0:0:0:0:
433,159,61661,1,0,0:0:0:0:
464,180,61745,1,8,0:0:0:0:
436,176,61828,1,0,0:0:0:0:
412,192,61911,1,0,0:0:0:0:
428,173,61995,1,8,0:0:0:0:
405,159,62161,1,0,0:0:0:0:
433,159,62245,1,8,0:0:0:0:
409,173,62328,1,8,0:0:0:0:
388,156,62411,1,0,0:0:0:0:
344,156,62495,1,0,0:0:0:0:
431,207,62661,1,0,0:0:0:0:
409,173,62828,1,8,0:0:0:0:
409,173,62911,1,8,0:0:0:0:
464,180,62995,1,0,0:0:0:0:
444,156,63078,1,0,0:0:0:0:
409,173,63161,1,8,0:0:0:0:
380,180,63328,1,0,0:0:0:0:
464,180,63411,1,8,0:0:0:0:
380,180,63495,1,8,0:0:0:0:
380,180,63661,1,12,0:0:0:0:
420,208,63828,1,0,0:0:0:0:
420,208,63911,1,0,0:0:0:0:
404,216,63995,1,8,0:0:0:0:
464,180,64161,1,0,0:0:0:0:
409,173,64328,1,8,0:0:0:0:
364,140,64411,1,0,0:0:0:0:
364,140,64495,1,8,0:0:0:0:
380,180,64578,1,8,0:0:0:0:
436,172,64661,1,0,0:0:0:0:
436,172,64828,1,8,0:0:0:0:
408,164,64995,1,8,0:0:0:0:
380,168,65078,1,8,0:0:0:0:
408,164,65161,1,0,0:0:0:0:
436,212,65328,1,0,0:0:0:0:
432,148,65411,1,8,0:0:0:0:
440,188,65495,1,0,0:0:0:0:
409,173,65661,1,0,0:0:0:0:
412,192,65828,1,0,0:0:0:0:
404,164,65911,1,8,0:0:0:0:
416,232,66328,1,12,0:0:0:0:
472,184,66661,1,0,0:0:0:0:
415,180,66828,1,8,0:0:0:0:
415,180,66995,1,0,0:0:0:0:
415,180,67078,1,0,0:0:0:0:
408,164,67161,1,8,0:0:0:0:
380,164,67245,1,0,0:0:0:0:
472,184,67328,1,8,0:0:0:0:
472,184,67495,1,0,0:0:0:0:
464,148,67661,1,8,0:0:0:0:
408,164,67745,1,8,0:0:0:0:
408,164,67828,1,0,0:0:0:0:
408,164,67995,1,0,0:0:0:0:
380,164,68078,1,0,0:0:0:0:
428,176,68161,1,8,0:0:0:0:
428,176,68328,1,8,0:0:0:0:
408,164,68411,1,0,0:0:0:0:
408,164,68495,1,8,0:0:0:0:
408,164,68578,1,0,0:0:0:0:
428,176,68661,1,8,0:0:0:0:
408,164,68745,1,8,0:0:0:0:
448,144,68828,1,0,0:0:0:0:
400,172,68995,1,8,0:0:0:0:
448,144,69328,1,0,0:0:0:0:
408,164,69495,1,8,0:0:0:0:
408,164,69661,1,0,0:0:0:0:
408,164,69745,1,0,0:0:0:0:
408,164,69828,1,8,0:0:0:0:
436,168,69911,1,0,0:0:0:0:
436,168,69995,1,8,0:0:0:0:
408,164,70161,1,0,0:0:0:0:
408,164,70328,1,8,0:0:0:0:
408,164,70411,1,8,0:0:0:0:
408,164,70495,1,0,0:0:0:0:
408,164,70661,1,0,0:0:0:0:
408,164,70745,1,0,0:0:0:0:
408,164,70828,1,8,0:0:0:0:
432,216,70995,1,0,0:0:0:0:
444,192,71078,1,8,0:0:0:0:
408,164,71161,1,0,0:0:0:0:
408,164,71245,1,8,0:0:0:0:
436,168,71328,1,8,0:0:0:0:
436,168,71411,1,8,0:0:0:0:
408,164,71495,1,0,0:0:0:0:
408,164,71661,1,4,0:0:0:0:
296,168,71995,1,8,0:0:0:0:
408,164,72078,1,0,0:0:0:0:
408,164,72161,1,8,0:0:0:0:
400,184,72328,1,0,0:0:0:0:
344,180,72495,1,8,0:0:0:0:
428,192,72578,1,8,0:0:0:0:
400,188,72661,1,0,0:0:0:0:
408,164,72828,1,0,0:0:0:0:
404,148,72911,1,8,0:0:0:0:
428,188,72995,1,8,0:0:0:0:
400,184,73078,1,0,0:0:0:0:
400,184,73161,1,0,0:0:0:0:
456,136,73328,1,0,0:0:0:0:
328,168,73495,1,8,0:0:0:0:
428,188,73578,1,8,0:0:0:0:
408,164,73661,1,0,0:0:0:0:
432,180,73745,1,0,0:0:0:0:
412,172,73828,1,8,0:0:0:0:
412,172,73911,1,0,0:0:0:0:
412,172,73995,1,8,0:0:0:0:
412,172,74078,1,8,0:0:0:0:
412,172,74161,1,0,0:0:0:0:
356,172,74328,1,12,0:0:0:0:
408,184,74495,1,0,0:0:0:0:
436,192,74578,1,0,0:0:0:0:
412,172,74661,1,8,0:0:0:0:
412,172,74828,1,0,0:0:0:0:
468,180,74995,1,8,0:0:0:0:
468,180,75078,1,8,0:0:0:0:
468,180,75161,1,0,0:0:0:0:
408,184,75245,1,8,0:0:0:0:
412,172,75328,1,0,0:0:0:0:
468,180,75495,1,0,0:0:0:0:
468,180,75578,1,0,0:0:0:0:
468,180,75661,1,8,0:0:0:0:
444,192,75745,1,8,0:0:0:0:
448,164,75828,1,0,0:0:0:0:
468,180,75995,1,0,0:0:0:0:
440,176,76078,1,8,0:0:0:0:
408,184,76161,1,0,0:0:0:0:
360,156,76328,1,0,0:0:0:0:
448,164,76495,1,0,0:0:0:0:
360,156,76578,1,8,0:0:0:0:
444,164,76828,1,8,0:0:0:0:
388,172,76995,1,4,0:0:0:0:
487,119,77328,1,0,0:0:0:0:
415,167,77411,1,0,0:0:0:0:
448,164,77495,1,8,0:0:0:0:
503,156,77661,1,0,0:0:0:0:
503,156,77745,1,0,0:0:0:0:
474,152,77828,1,8,0:0:0:0:
448,164,77911,1,0,0:0:0:0:
503,156,77995,1,8,0:0:0:0:
448,164,78161,1,0,0:0:0:0:
393,151,78328,1,8,0:0:0:0:
415,167,78411,1,8,0:0:0:0:
448,164,78495,1,0,0:0:0:0:
393,151,78661,1,0,0:0:0:0:
393,151,78745,1,0,0:0:0:0:
448,164,78828,1,8,0:0:0:0:
448,164,78995,1,8,0:0:0:0:
417,147,79078,1,0,0:0:0:0:
445,149,79161,1,8,0:0:0:0:
448,164,79245,1,0,0:0:0:0:
448,164,79328,1,8,0:0:0:0:
448,164,79411,1,8,0:0:0:0:
462,187,79495,1,0,0:0:0:0:
453,213,79578,1,0,0:0:0:0:
462,187,79661,1,8,0:0:0:0:
448,164,79995,1,0,0:0:0:0:
445,149,80078,1,0,0:0:0:0:
504,176,80161,1,8,0:0:0:0:
448,164,80328,1,8,0:0:0:0:
504,176,80411,1,0,0:0:0:0:
448,164,80495,1,8,0:0:0:0:
448,164,80578,1,8,0:0:0:0:
420,168,80661,1,0,0:0:0:0:
476,164,80828,1,8,0:0:0:0:
504,176,80995,1,0,0:0:0:0:
420,168,81078,1,8,0:0:0:0:
476,164,81161,1,0,0:0:0:0:
448,164,81328,1,0,0:0:0:0:
448,164,81411,1,0,0:0:0:0:
476,160,81495,1,8,0:0:0:0:
448,164,81661,1,0,0:0:0:0:
420,168,81745,1,8,0:0:0:0:
420,168,81828,1,0,0:0:0:0:
476,164,81911,1,8,0:0:0:0:
448,164,81995,1,8,0:0:0:0:
448,164,82078,1,8,0:0:0:0:
420,156,82161,1,0,0:0:0:0:
448,164,82328,1,4,0:0:0:0:
384,256,82661,1,0,0:0:0:0:
384,228,82745,1,0,0:0:0:0:
368,204,82828,1,8,0:0:0:0:
388,152,82995,1,0,0:0:0:0:
428,192,83161,1,0,0:0:0:0:
408,172,83245,1,0,0:0:0:0:
380,172,83328,1,8,0:0:0:0:
324,176,83495,1,8,0:0:0:0:
352,172,83578,1,8,0:0:0:0:
388,152,83661,1,0,0:0:0:0:
352,176,83745,1,8,0:0:0:0:
388,152,83828,1,0,0:0:0:0:
376,152,83995,1,0,0:0:0:0:
380,168,84161,1,8,0:0:0:0:
380,172,84245,1,0,0:0:0:0:
380,172,84328,1,0,0:0:0:0:
376,152,84411,1,0,0:0:0:0:
388,152,84495,1,8,0:0:0:0:
396,180,84578,1,0,0:0:0:0:
352,176,84661,1,8,0:0:0:0:
352,176,84745,1,8,0:0:0:0:
380,172,84828,1,0,0:0:0:0:
388,152,84995,1,12,0:0:0:0:
429,188,85161,1,0,0:0:0:0:
352,176,85245,1,0,0:0:0:0:
268,165,85328,1,8,0:0:0:0:
396,180,85495,1,8,0:0:0:0:
432,152,85661,1,4,0:0:0:0:
380,172,85828,1,8,0:0:0:0:
388,152,85911,1,8,0:0:0:0:
415,150,85995,1,0,0:0:0:0:
380,172,86161,1,12,0:0:0:0:
335,206,86328,1,8,0:0:0:0:
268,165,86495,1,0,0:0:0:0:
432,152,86661,1,0,0:0:0:0:
415,150,86745,1,8,0:0:0:0:
380,172,86995,1,0,0:0:0:0:
363,179,87161,1,0,0:0:0:0:
430,207,87245,1,0,0:0:0:0:
328,188,87495,1,12,0:0:0:0:
400,260,87828,1,0,0:0:0:0:
396,244,87884,1,0,0:0:0:0:
392,228,87939,1,0,0:0:0:0:
396,220,87995,1,8,0:0:0:0:
432,152,88161,1,0,0:0:0:0:
432,152,88245,1,0,0:0:0:0:
415,150,88328,1,8,0:0:0:0:
364,168,88411,1,0,0:0:0:0:
415,150,88495,1,8,0:0:0:0:
400,176,88578,1,8,0:0:0:0:
428,172,88661,1,0,0:0:0:0:
428,172,88828,1,12,0:0:0:0:
344,244,89161,1,4,0:0:0:0:
500,288,89660,1,0,0:0:0:0:
437,194,90160,1,0,0:0:0:0:
381,184,90327,1,8,0:0:0:0:
325,173,90494,1,8,0:0:0:0:
381,184,90994,1,8,0:0:0:0:
415,173,91327,1,0,0:0:0:0:
458,182,91494,1,0,0:0:0:0:
490,179,91660,1,8,0:0:0:0:
433,178,91827,1,4,0:0:0:0:
368,196,92327,1,8,0:0:0:0:
404,288,92827,1,8,0:0:0:0:
288,192,93160,1,0,0:0:0:0:
412,367,93827,1,8,0:0:0:0:
410,142,94494,1,0,0:0:0:0:
502,205,94827,1,0,0:0:0:0:
455,173,94994,1,0,0:0:0:0:
455,173,95160,1,8,0:0:0:0:
436,228,95327,1,0,0:0:0:0:
455,173,95410,1,0,0:0:0:0:
482,165,95494,1,8,0:0:0:0:
428,172,95660,1,8,0:0:0:0:
400,172,95744,1,8,0:0:0:0:
455,173,95827,1,0,0:0:0:0:
482,165,95994,1,0,0:0:0:0:
482,165,96160,1,8,0:0:0:0:
455,173,96327,1,0,0:0:0:0:
400,156,96494,1,8,0:0:0:0:
400,156,96660,1,8,0:0:0:0:
424,172,96744,1,0,0:0:0:0:
392,180,96827,1,8,0:0:0:0:
482,165,96994,1,0,0:0:0:0:
428,172,97160,1,12,0:0:0:0:
500,216,97410,1,0,0:0:0:0:
400,156,97494,1,8,0:0:0:0:
400,156,97660,1,8,0:0:0:0:
360,196,97827,1,4,0:0:0:0:
428,172,98077,1,8,0:0:0:0:
400,156,98160,1,0,0:0:0:0:
430,166,98327,1,0,0:0:0:0:
428,172,98494,1,8,0:0:0:0:
392,172,98577,1,0,0:0:0:0:
360,172,98660,1,8,0:0:0:0:
304,176,98827,1,0,0:0:0:0:
332,176,98910,1,8,0:0:0:0:
376,180,98994,1,8,0:0:0:0:
430,166,99160,1,0,0:0:0:0:
376,180,99216,1,0,0:0:0:0:
376,180,99272,1,0,0:0:0:0:
360,172,99327,1,8,0:0:0:0:
443,192,99410,1,0,0:0:0:0:
430,166,99494,1,8,0:0:0:0:
404,180,99577,1,8,0:0:0:0:
400,184,99660,1,0,0:0:0:0:
360,175,99827,1,4,0:0:0:0:
248,168,100160,1,0,0:0:0:0:
356,192,100494,1,0,0:0:0:0:
248,168,100827,1,0,0:0:0:0:
300,184,100994,1,8,0:0:0:0:
356,172,101160,1,0,0:0:0:0:
264,236,101494,1,0,0:0:0:0:
372,204,101827,1,0,0:0:0:0:
408,136,102160,1,0,0:0:0:0:
408,136,102327,1,0,0:0:0:0:
304,168,102494,1,12,0:0:0:0:
320,164,102827,1,0,0:0:0:0:
372,184,102994,1,8,0:0:0:0:
428,188,103160,1,0,0:0:0:0:
428,188,103494,1,0,0:0:0:0:
404,80,103827,1,8,0:0:0:0:
456,180,104160,1,0,0:0:0:0:
344,168,104494,1,8,0:0:0:0:
420,248,104827,1,0,0:0:0:0:
404,192,104994,1,0,0:0:0:0:
360,124,105160,1,12,0:0:0:0:
392,172,105327,1,0,0:0:0:0:
424,220,105494,1,0,0:0:0:0:
424,220,105660,1,0,0:0:0:0:
372,196,105827,1,0,0:0:0:0:
316,208,105994,1,0,0:0:0:0:
424,176,106160,1,0,0:0:0:0:
392,172,106327,1,0,0:0:0:0:
448,164,106494,1,12,0:0:0:0:
440,220,106660,1,0,0:0:0:0:
332,156,106827,1,0,0:0:0:0:
372,196,106994,1,0,0:0:0:0:
400,148,107160,1,0,0:0:0:0:
424,176,107327,1,0,0:0:0:0:
368,184,107494,1,0,0:0:0:0:
368,184,107660,1,0,0:0:0:0:
368,184,107827,1,8,0:0:0:0:
368,184,107910,1,0,0:0:0:0:
368,184,107994,1,8,0:0:0:0:
368,184,108077,1,0,0:0:0:0:
368,184,108160,1,0,0:0:0:0:
368,184,108244,1,0,0:0:0:0:
340,176,108327,1,8,0:0:0:0:
360,156,108410,1,0,0:0:0:0:
360,156,108494,1,0,0:0:0:0:
360,156,108577,1,0,0:0:0:0:
360,156,108660,1,8,0:0:0:0:
388,156,108744,1,0,0:0:0:0:
388,156,108827,1,0,0:0:0:0:
388,156,108910,1,0,0:0:0:0:
416,160,108994,1,8,0:0:0:0:
368,184,109077,1,0,0:0:0:0:
388,156,109160,1,0,0:0:0:0:
388,156,109244,1,0,0:0:0:0:
416,160,109327,1,8,0:0:0:0:
416,160,109410,1,0,0:0:0:0:
444,156,109494,1,0,0:0:0:0:
388,156,109577,1,0,0:0:0:0:
416,160,109660,1,8,0:0:0:0:
388,156,109744,1,0,0:0:0:0:
416,160,109827,1,8,0:0:0:0:
416,160,109910,1,8,0:0:0:0:
416,160,109994,1,0,0:0:0:0:
416,160,110077,1,0,0:0:0:0:
388,156,110160,1,8,0:0:0:0:
416,160,110244,1,8,0:0:0:0:
416,160,110327,1,0,0:0:0:0:
416,160,110410,1,0,0:0:0:0:
388,156,110494,1,8,0:0:0:0:
388,156,110577,1,0,0:0:0:0:
388,156,110660,1,8,0:0:0:0:
388,156,110744,1,0,0:0:0:0:
444,164,110827,1,0,0:0:0:0:
444,164,110910,1,0,0:0:0:0:
416,164,110994,1,8,0:0:0:0:
444,164,111077,1,0,0:0:0:0:
444,164,111160,1,0,0:0:0:0:
444,164,111244,1,0,0:0:0:0:
416,160,111327,1,8,0:0:0:0:
444,164,111410,1,0,0:0:0:0:
444,164,111494,1,0,0:0:0:0:
416,164,111577,1,0,0:0:0:0:
416,164,111660,1,8,0:0:0:0:
444,164,111744,1,0,0:0:0:0:
444,164,111827,1,8,0:0:0:0:
444,164,111910,1,8,0:0:0:0:
416,164,111994,1,0,0:0:0:0:
416,160,112077,1,0,0:0:0:0:
444,164,112160,1,8,0:0:0:0:
444,164,112244,1,8,0:0:0:0:
471,168,112327,1,0,0:0:0:0:
416,164,112410,1,0,0:0:0:0:
471,168,112494,1,8,0:0:0:0:
471,168,112549,1,8,0:0:0:0:
471,168,112605,1,8,0:0:0:0:
452,167,112660,1,0,0:0:0:0:
444,164,112716,1,0,0:0:0:0:
444,164,112772,1,0,0:0:0:0:
425,167,112827,1,8,0:0:0:0:
340,246,113160,1,4,0:0:0:0:
452,167,113409,1,4,0:0:0:0:
457,237,113659,1,0,0:0:0:0:
430,226,113743,1,8,0:0:0:0:
363,161,113826,1,8,0:0:0:0:
416,164,113909,1,8,0:0:0:0:
465,138,114076,1,8,0:0:0:0:
470,193,114243,1,8,0:0:0:0:
442,195,114326,1,8,0:0:0:0:
442,195,114409,1,0,0:0:0:0:
415,184,114493,1,0,0:0:0:0:
446,168,114659,1,12,0:0:0:0:
446,168,114909,1,0,0:0:0:0:
474,164,114993,1,8,0:0:0:0:
420,168,115159,1,4,0:0:0:0:
390,174,115409,1,12,0:0:0:0:
390,174,115659,1,4,0:0:0:0:
418,180,115909,1,0,0:0:0:0:
390,174,115993,1,8,0:0:0:0:
419,221,116159,1,0,0:0:0:0:
418,180,116326,1,8,0:0:0:0:
418,180,116409,1,8,0:0:0:0:
435,157,116493,1,0,0:0:0:0:
390,174,116576,1,8,0:0:0:0:
390,174,116743,1,8,0:0:0:0:
418,180,116909,1,0,0:0:0:0:
405,154,116993,1,8,0:0:0:0:
405,154,117076,1,8,0:0:0:0:
412,180,117159,1,0,0:0:0:0:
418,180,117243,1,8,0:0:0:0:
418,180,117409,1,0,0:0:0:0:
390,174,117576,1,8,0:0:0:0:
390,174,117743,1,0,0:0:0:0:
390,174,117826,1,0,0:0:0:0:
334,171,117909,1,8,0:0:0:0:
390,174,118076,1,8,0:0:0:0:
390,174,118159,1,8,0:0:0:0:
390,174,118243,1,8,0:0:0:0:
414,160,118326,1,0,0:0:0:0:
430,213,118493,1,12,0:0:0:0:
488,152,118743,1,12,0:0:0:0:
426,208,118993,1,0,0:0:0:0:
446,189,119076,1,0,0:0:0:0:
414,160,119159,1,8,0:0:0:0:
414,160,119243,1,8,0:0:0:0:
429,213,119409,1,8,0:0:0:0:
414,160,119576,1,8,0:0:0:0:
414,160,119659,1,0,0:0:0:0:
391,176,119743,1,8,0:0:0:0:
414,160,119826,1,0,0:0:0:0:
391,176,119993,1,12,0:0:0:0:
446,173,120243,1,0,0:0:0:0:
446,173,120326,1,8,0:0:0:0:
414,160,120493,1,4,0:0:0:0:
330,162,120743,1,12,0:0:0:0:
432,208,120993,1,12,0:0:0:0:
428,217,121159,1,0,0:0:0:0:
476,168,121243,1,0,0:0:0:0:
448,168,121326,1,8,0:0:0:0:
448,168,121493,1,0,0:0:0:0:
472,156,121576,1,0,0:0:0:0:
445,148,121659,1,8,0:0:0:0:
448,168,121743,1,0,0:0:0:0:
472,156,121826,1,8,0:0:0:0:
405,198,121993,1,0,0:0:0:0:
408,179,122076,1,0,0:0:0:0:
405,198,122159,1,8,0:0:0:0:
410,180,122215,1,8,0:0:0:0:
448,168,122271,1,8,0:0:0:0:
448,168,122326,1,0,0:0:0:0:
448,168,122493,1,8,0:0:0:0:
408,179,122576,1,8,0:0:0:0:
408,179,122659,1,8,0:0:0:0:
448,168,122743,1,0,0:0:0:0:
448,168,122826,1,8,0:0:0:0:
448,168,122937,1,8,0:0:0:0:
448,168,123048,1,0,0:0:0:0:
448,168,123159,1,8,0:0:0:0:
448,168,123243,1,8,0:0:0:0:
448,168,123326,1,0,0:0:0:0:
448,168,123409,1,0,0:0:0:0:
408,179,123493,1,8,0:0:0:0:
436,202,123604,1,8,0:0:0:0:
468,182,123715,1,0,0:0:0:0:
468,182,123826,1,12,0:0:0:0:
386,161,124076,1,12,0:0:0:0:
408,179,124326,1,0,0:0:0:0:
386,161,124409,1,0,0:0:0:0:
357,157,124493,1,8,0:0:0:0:
357,157,124576,1,0,0:0:0:0:
357,157,124743,1,12,0:0:0:0:
386,161,124909,1,0,0:0:0:0:
331,167,124993,1,8,0:0:0:0:
386,161,125076,1,0,0:0:0:0:
331,167,125159,1,8,0:0:0:0:
357,157,125243,1,8,0:0:0:0:
409,175,125409,1,0,0:0:0:0:
464,166,125576,1,8,0:0:0:0:
432,212,125743,1,8,0:0:0:0:
502,168,125826,1,0,0:0:0:0:
386,161,125909,1,8,0:0:0:0:
409,175,125993,1,0,0:0:0:0:
462,191,126159,1,12,0:0:0:0:
409,175,126326,1,0,0:0:0:0:
363,136,126493,1,4,0:0:0:0:
314,204,126743,1,4,0:0:0:0:
409,175,126993,1,0,0:0:0:0:
382,167,127076,1,0,0:0:0:0:
406,154,127159,1,8,0:0:0:0:
406,154,127243,1,0,0:0:0:0:
456,177,127409,1,0,0:0:0:0:
406,154,127576,1,8,0:0:0:0:
409,175,127743,1,0,0:0:0:0:
456,177,127826,1,8,0:0:0:0:
409,175,127909,1,0,0:0:0:0:
456,177,127993,1,8,0:0:0:0:
456,177,128159,1,0,0:0:0:0:
409,175,128243,1,8,0:0:0:0:
436,172,128326,1,0,0:0:0:0:
453,193,128409,1,0,0:0:0:0:
456,177,128493,1,8,0:0:0:0:
456,177,128604,1,8,0:0:0:0:
420,165,128715,1,0,0:0:0:0:
456,177,128826,1,8,0:0:0:0:
456,177,128937,1,8,0:0:0:0:
456,177,129048,1,8,0:0:0:0:
418,173,129159,1,4,0:0:0:0:
429,203,129409,1,4,0:0:0:0:
429,203,129659,1,12,0:0:0:0:
428,184,129909,1,0,0:0:0:0:
484,184,129993,1,0,0:0:0:0:
456,176,130076,1,0,0:0:0:0:
428,172,130159,1,8,0:0:0:0:
456,176,130243,1,0,0:0:0:0:
456,176,130326,1,8,0:0:0:0:
400,188,130493,1,4,0:0:0:0:
428,172,130743,1,4,0:0:0:0:
352,204,130993,1,12,0:0:0:0:
396,192,131243,1,0,0:0:0:0:
440,136,131326,1,0,0:0:0:0:
341,175,131409,1,8,0:0:0:0:
396,192,131493,1,8,0:0:0:0:
456,164,131576,1,0,0:0:0:0:
428,172,131659,1,8,0:0:0:0:
456,164,131826,1,4,0:0:0:0:
456,164,132076,1,4,0:0:0:0:
372,182,132326,1,0,0:0:0:0:
372,209,132409,1,0,0:0:0:0:
404,160,132493,1,8,0:0:0:0:
404,160,132576,1,8,0:0:0:0:
456,176,132659,1,0,0:0:0:0:
452,156,132743,1,8,0:0:0:0:
404,160,132826,1,0,0:0:0:0:
377,169,132909,1,0,0:0:0:0:
428,172,132993,1,8,0:0:0:0:
404,160,133076,1,0,0:0:0:0:
428,172,133159,1,8,0:0:0:0:
206,141,133826,1,12,0:0:0:0:
425,188,134493,1,4,0:0:0:0:
363,181,135993,1,8,0:0:0:0:
352,184,136048,1,0,0:0:0:0:
381,180,136104,1,0,0:0:0:0:
376,168,136159,1,8,0:0:0:0:
387,152,136243,1,0,0:0:0:0:
411,165,136326,1,8,0:0:0:0:
411,165,136409,1,0,0:0:0:0:
499,128,136493,1,8,0:0:0:0:
482,135,136548,1,8,0:0:0:0:
464,143,136604,1,8,0:0:0:0:
448,153,136659,1,0,0:0:0:0:
381,180,136826,1,12,0:0:0:0:
411,165,137159,1,4,0:0:0:0:
402,166,137326,1,0,0:0:0:0:
494,170,137409,1,0,0:0:0:0:
411,165,137493,1,8,0:0:0:0:
440,200,137659,1,0,0:0:0:0:
428,168,137826,1,8,0:0:0:0:
464,149,137909,1,0,0:0:0:0:
464,149,137993,1,8,0:0:0:0:
408,154,138159,1,0,0:0:0:0:
408,154,138326,1,8,0:0:0:0:
464,149,138659,1,0,0:0:0:0:
408,159,138826,1,8,0:0:0:0:
435,160,138909,1,0,0:0:0:0:
406,162,138993,1,8,0:0:0:0:
380,156,139076,1,8,0:0:0:0:
378,165,139159,1,0,0:0:0:0:
378,165,139326,1,0,0:0:0:0:
460,176,139409,1,0,0:0:0:0:
378,165,139493,1,8,0:0:0:0:
378,165,139659,1,8,0:0:0:0:
404,176,139993,1,12,0:0:0:0:
460,176,140159,1,0,0:0:0:0:
405,161,140326,1,8,0:0:0:0:
460,176,140409,1,8,0:0:0:0:
378,165,140493,1,0,0:0:0:0:
372,184,140659,1,8,0:0:0:0:
378,165,140743,1,0,0:0:0:0:
378,165,140826,1,8,0:0:0:0:
378,165,140993,1,8,0:0:0:0:
378,165,141159,1,0,0:0:0:0:
405,161,141326,1,8,0:0:0:0:
377,159,141409,1,0,0:0:0:0:
405,161,141493,1,8,0:0:0:0:
405,161,141659,1,0,0:0:0:0:
405,161,141743,1,0,0:0:0:0:
405,161,141826,1,8,0:0:0:0:
348,164,141993,1,0,0:0:0:0:
402,188,142076,1,0,0:0:0:0:
405,161,142159,1,8,0:0:0:0:
405,161,142243,1,8,0:0:0:0:
377,159,142326,1,0,0:0:0:0:
349,207,142493,1,12,0:0:0:0:
404,207,142659,1,12,0:0:0:0:
377,159,142826,1,0,0:0:0:0:
427,184,142993,1,12,0:0:0:0:
427,184,143326,1,12,0:0:0:0:
427,184,143659,1,4,0:0:0:0:
474,146,143993,1,0,0:0:0:0:
427,184,144159,1,0,0:0:0:0:
427,184,144243,1,0,0:0:0:0:
427,184,144326,1,8,0:0:0:0:
418,159,144409,1,0,0:0:0:0:
431,128,144493,1,8,0:0:0:0:
474,146,144659,1,8,0:0:0:0:
474,146,144715,1,8,0:0:0:0:
474,146,144771,1,8,0:0:0:0:
469,163,144826,1,0,0:0:0:0:
393,170,144993,1,0,0:0:0:0:
469,163,145159,1,8,0:0:0:0:
440,147,145243,1,0,0:0:0:0:
412,152,145326,1,8,0:0:0:0:
474,146,145409,1,8,0:0:0:0:
440,147,145493,1,0,0:0:0:0:
474,146,145659,1,4,0:0:0:0:
393,170,145993,1,12,0:0:0:0:
469,163,146326,1,12,0:0:0:0:
460,184,146493,1,0,0:0:0:0:
393,170,146659,1,8,0:0:0:0:
393,170,146743,1,0,0:0:0:0:
393,170,146826,1,8,0:0:0:0:
448,176,146993,1,0,0:0:0:0:
460,184,147159,1,8,0:0:0:0:
404,184,147326,1,0,0:0:0:0:
448,176,147409,1,8,0:0:0:0:
448,176,147493,1,0,0:0:0:0:
420,176,147576,1,0,0:0:0:0:
393,170,147659,1,8,0:0:0:0:
393,170,147826,1,4,0:0:0:0:
404,184,147993,1,0,0:0:0:0:
393,170,148076,1,0,0:0:0:0:
368,183,148159,1,8,0:0:0:0:
364,160,148326,1,0,0:0:0:0:
304,168,148493,1,8,0:0:0:0:
427,190,148576,1,0,0:0:0:0:
427,190,148659,1,8,0:0:0:0:
393,170,148826,1,0,0:0:0:0:
393,170,148993,1,8,0:0:0:0:
393,170,149326,1,0,0:0:0:0:
336,176,149493,1,8,0:0:0:0:
393,170,149576,1,0,0:0:0:0:
393,170,149659,1,8,0:0:0:0:
393,170,149743,1,8,0:0:0:0:
448,176,149826,1,0,0:0:0:0:
364,168,149909,1,0,0:0:0:0:
393,170,149993,1,0,0:0:0:0:
393,170,150076,1,0,0:0:0:0:
393,170,150159,1,8,0:0:0:0:
393,170,150243,1,8,0:0:0:0:
393,170,150326,1,8,0:0:0:0:
448,176,150493,1,4,0:0:0:0:
393,170,150659,1,0,0:0:0:0:
464,138,150826,1,12,0:0:0:0:
393,165,150993,1,0,0:0:0:0:
447,175,151159,1,12,0:0:0:0:
396,192,151326,1,0,0:0:0:0:
448,176,151493,1,0,0:0:0:0:
448,169,151659,1,12,0:0:0:0:
416,172,151993,1,8,0:0:0:0:
416,172,152243,1,8,0:0:0:0:
416,176,152493,1,0,0:0:0:0:
416,176,152743,1,8,0:0:0:0:
458,180,152993,1,8,0:0:0:0:
431,185,153159,1,0,0:0:0:0:
416,176,153243,1,0,0:0:0:0:
431,185,153326,1,0,0:0:0:0:
404,174,153493,1,12,0:0:0:0:
294,199,153826,1,8,0:0:0:0:
431,185,153909,1,0,0:0:0:0:
431,185,153993,1,0,0:0:0:0:
458,180,154076,1,8,0:0:0:0:
458,180,154159,1,0,0:0:0:0:
458,180,154243,1,0,0:0:0:0:
458,180,154326,1,8,0:0:0:0:
430,181,154409,1,0,0:0:0:0:
458,180,154493,1,8,0:0:0:0:
402,181,154659,1,8,0:0:0:0:
373,181,154743,1,8,0:0:0:0:
345,180,154826,1,0,0:0:0:0:
288,181,154993,1,0,0:0:0:0:
373,181,155076,1,8,0:0:0:0:
430,181,155159,1,0,0:0:0:0:
402,181,155243,1,0,0:0:0:0:
345,180,155326,1,8,0:0:0:0:
345,180,155409,1,8,0:0:0:0:
402,181,155493,1,0,0:0:0:0:
442,219,155659,1,0,0:0:0:0:
430,181,155826,1,12,0:0:0:0:
442,219,156076,1,0,0:0:0:0:
345,180,156159,1,8,0:0:0:0:
345,180,156326,1,0,0:0:0:0:
345,180,156409,1,0,0:0:0:0:
402,181,156493,1,8,0:0:0:0:
476,144,156743,1,0,0:0:0:0:
448,148,156826,1,8,0:0:0:0:
476,144,156993,1,0,0:0:0:0:
476,144,157076,1,0,0:0:0:0:
448,152,157159,1,8,0:0:0:0:
476,144,157326,1,0,0:0:0:0:
476,144,157409,1,0,0:0:0:0:
448,152,157493,1,8,0:0:0:0:
492,188,157659,1,0,0:0:0:0:
436,184,157826,1,8,0:0:0:0:
456,184,157882,1,8,0:0:0:0:
456,184,157937,1,8,0:0:0:0:
492,188,157993,1,0,0:0:0:0:
492,188,158048,1,0,0:0:0:0:
492,188,158104,1,0,0:0:0:0:
449,163,158159,1,8,0:0:0:0:
484,76,158493,1,4,0:0:0:0:
448,120,158659,1,0,0:0:0:0:
432,144,158743,1,0,0:0:0:0:
408,156,158826,1,8,0:0:0:0:
380,204,158993,1,0,0:0:0:0:
354,180,159159,1,8,0:0:0:0:
456,184,159243,1,0,0:0:0:0:
408,156,159326,1,8,0:0:0:0:
352,140,159493,1,0,0:0:0:0:
352,168,159659,1,8,0:0:0:0:
408,156,159993,1,0,0:0:0:0:
352,168,160159,1,8,0:0:0:0:
352,168,160243,1,8,0:0:0:0:
408,156,160326,1,0,0:0:0:0:
408,156,160409,1,8,0:0:0:0:
352,168,160493,1,0,0:0:0:0:
352,168,160576,1,0,0:0:0:0:
436,168,160659,1,8,0:0:0:0:
412,156,160743,1,0,0:0:0:0:
408,156,160826,1,8,0:0:0:0:
408,156,160993,1,8,0:0:0:0:
408,156,161326,1,12,0:0:0:0:
352,148,161493,1,0,0:0:0:0:
296,160,161659,1,8,0:0:0:0:
324,156,161743,1,8,0:0:0:0:
408,156,161826,1,0,0:0:0:0:
408,156,161993,1,8,0:0:0:0:
352,148,162159,1,0,0:0:0:0:
352,148,162243,1,0,0:0:0:0:
408,156,162326,1,8,0:0:0:0:
408,156,162409,1,8,0:0:0:0:
380,156,162493,1,0,0:0:0:0:
408,156,162659,1,8,0:0:0:0:
392,180,162743,1,0,0:0:0:0:
380,156,162826,1,8,0:0:0:0:
328,180,162993,1,0,0:0:0:0:
392,180,163076,1,0,0:0:0:0:
276,200,163159,1,8,0:0:0:0:
332,188,163326,1,0,0:0:0:0:
360,184,163409,1,0,0:0:0:0:
352,164,163493,1,8,0:0:0:0:
352,164,163576,1,8,0:0:0:0:
380,168,163659,1,0,0:0:0:0:
380,168,163826,1,12,0:0:0:0:
380,168,163993,1,12,0:0:0:0:
416,208,164159,1,0,0:0:0:0:
380,168,164326,1,12,0:0:0:0:
380,168,164659,1,12,0:0:0:0:
380,168,164993,1,4,0:0:0:0:
472,232,165326,1,0,0:0:0:0:
380,168,165493,1,8,0:0:0:0:
431,190,165576,1,8,0:0:0:0:
436,160,165659,1,0,0:0:0:0:
436,160,165743,1,0,0:0:0:0:
380,168,165826,1,8,0:0:0:0:
431,190,165993,1,8,0:0:0:0:
431,190,166048,1,8,0:0:0:0:
431,190,166104,1,8,0:0:0:0:
446,180,166159,1,0,0:0:0:0:
392,162,166326,1,0,0:0:0:0:
431,190,166493,1,8,0:0:0:0:
431,190,166576,1,0,0:0:0:0:
431,190,166659,1,8,0:0:0:0:
436,160,166743,1,8,0:0:0:0:
446,180,166826,1,0,0:0:0:0:
392,162,166993,1,4,0:0:0:0:
392,162,167326,1,12,0:0:0:0:
405,178,167659,1,12,0:0:0:0:
351,193,167826,1,0,0:0:0:0:
377,183,167993,1,8,0:0:0:0:
377,183,168076,1,0,0:0:0:0:
349,185,168159,1,8,0:0:0:0:
377,183,168326,1,0,0:0:0:0:
432,192,168493,1,8,0:0:0:0:
416,184,168576,1,8,0:0:0:0:
405,178,168659,1,0,0:0:0:0:
408,232,168743,1,8,0:0:0:0:
360,196,168826,1,0,0:0:0:0:
400,168,168909,1,0,0:0:0:0:
428,166,168993,1,8,0:0:0:0:
372,173,169159,1,4,0:0:0:0:
421,199,169326,1,0,0:0:0:0:
445,212,169409,1,0,0:0:0:0:
473,209,169493,1,8,0:0:0:0:
421,199,169659,1,0,0:0:0:0:
421,199,169743,1,0,0:0:0:0:
396,209,169826,1,8,0:0:0:0:
458,162,169909,1,8,0:0:0:0:
399,180,169993,1,8,0:0:0:0:
343,185,170159,1,0,0:0:0:0:
398,176,170326,1,8,0:0:0:0:
481,101,170659,1,0,0:0:0:0:
444,143,170826,1,8,0:0:0:0:
457,167,170909,1,0,0:0:0:0:
428,167,170993,1,8,0:0:0:0:
428,167,171076,1,8,0:0:0:0:
428,167,171159,1,0,0:0:0:0:
428,167,171243,1,8,0:0:0:0:
481,182,171326,1,0,0:0:0:0:
460,200,171409,1,0,0:0:0:0:
436,188,171493,1,8,0:0:0:0:
412,172,171576,1,8,0:0:0:0:
457,167,171659,1,8,0:0:0:0:
360,152,171826,1,4,0:0:0:0:
428,167,171993,1,0,0:0:0:0:
460,200,172159,1,12,0:0:0:0:
404,188,172326,1,0,0:0:0:0:
428,167,172493,1,12,0:0:0:0:
412,172,172659,1,0,0:0:0:0:
412,172,172826,1,0,0:0:0:0:
432,120,172993,1,12,0:0:0:0:
428,167,173326,1,8,0:0:0:0:
428,167,173576,1,8,0:0:0:0:
344,160,173826,1,0,0:0:0:0:
420,200,174076,1,8,0:0:0:0:
428,167,174326,1,8,0:0:0:0:
428,167,174493,1,0,0:0:0:0:
428,167,174576,1,0,0:0:0:0:
428,176,174659,1,0,0:0:0:0:
428,176,174826,1,12,0:0:0:0:
428,176,174993,1,0,0:0:0:0:
376,152,175159,1,8,0:0:0:0:
404,152,175243,1,0,0:0:0:0:
432,152,175326,1,0,0:0:0:0:
428,167,175409,1,8,0:0:0:0:
428,167,175493,1,0,0:0:0:0:
428,167,175576,1,0,0:0:0:0:
404,152,175659,1,8,0:0:0:0:
428,176,175826,1,8,0:0:0:0:
452,164,175909,1,0,0:0:0:0:
404,152,175993,1,8,0:0:0:0:
428,140,176076,1,0,0:0:0:0:
384,172,176159,1,8,0:0:0:0:
384,172,176243,1,8,0:0:0:0:
360,160,176326,1,0,0:0:0:0:
484,164,176409,1,0,0:0:0:0:
360,156,176493,1,8,0:0:0:0:
456,160,176576,1,0,0:0:0:0:
484,164,176659,1,8,0:0:0:0:
484,164,176743,1,8,0:0:0:0:
484,164,176826,1,0,0:0:0:0:
484,164,176909,1,0,0:0:0:0:
476,192,176993,1,8,0:0:0:0:
420,196,177159,1,4,0:0:0:0:
420,196,177409,1,0,0:0:0:0:
360,156,177493,1,8,0:0:0:0:
416,164,177659,1,0,0:0:0:0:
444,164,177743,1,0,0:0:0:0:
444,164,177826,1,8,0:0:0:0:
444,164,178076,1,0,0:0:0:0:
472,164,178159,1,8,0:0:0:0:
444,164,178326,1,0,0:0:0:0:
444,164,178409,1,0,0:0:0:0:
444,164,178493,1,8,0:0:0:0:
472,164,178659,1,0,0:0:0:0:
472,164,178743,1,0,0:0:0:0:
444,164,178826,1,8,0:0:0:0:
452,220,178993,1,0,0:0:0:0:
444,164,179076,1,0,0:0:0:0:
428,140,179159,1,8,0:0:0:0:
416,124,179215,1,8,0:0:0:0:
416,124,179271,1,8,0:0:0:0:
472,164,179326,1,0,0:0:0:0:
472,164,179382,1,0,0:0:0:0:
472,164,179437,1,0,0:0:0:0:
472,164,179493,1,8,0:0:0:0:
472,164,179826,1,4,0:0:0:0:
444,164,180076,1,12,0:0:0:0:
360,148,180326,1,4,0:0:0:0:
444,164,180576,1,12,0:0:0:0:
360,156,180826,1,12,0:0:0:0:
464,192,181159,1,0,0:0:0:0:
436,184,181243,1,0,0:0:0:0:
436,184,181326,1,0,0:0:0:0:
436,184,181409,1,0,0:0:0:0:
464,180,181493,1,8,0:0:0:0:
436,184,181576,1,0,0:0:0:0:
464,180,181659,1,8,0:0:0:0:
464,180,181743,1,8,0:0:0:0:
464,180,181826,1,0,0:0:0:0:
436,180,181909,1,0,0:0:0:0:
408,176,181993,1,8,0:0:0:0:
408,176,182076,1,0,0:0:0:0:
408,176,182159,1,8,0:0:0:0:
408,176,182243,1,8,0:0:0:0:
464,180,182326,1,0,0:0:0:0:
436,184,182493,1,4,0:0:0:0:
360,221,182743,1,12,0:0:0:0:
436,184,182993,1,4,0:0:0:0:
464,180,183243,1,12,0:0:0:0:
436,184,183493,1,12,0:0:0:0:
464,180,183826,1,0,0:0:0:0:
464,180,183909,1,0,0:0:0:0:
464,180,183993,1,0,0:0:0:0:
464,180,184076,1,0,0:0:0:0:
464,180,184159,1,8,0:0:0:0:
464,180,184326,1,8,0:0:0:0:
464,180,184409,1,8,0:0:0:0:
440,164,184493,1,0,0:0:0:0:
440,164,184576,1,8,0:0:0:0:
412,172,184659,1,0,0:0:0:0:
356,172,184826,1,12,0:0:0:0:
464,180,185159,1,4,0:0:0:0:
356,172,185409,1,12,0:0:0:0:
412,172,185659,1,4,0:0:0:0:
464,180,185909,1,12,0:0:0:0:
384,200,186159,1,4,0:0:0:0:
464,180,186493,1,0,0:0:0:0:
464,180,186576,1,0,0:0:0:0:
436,176,186659,1,8,0:0:0:0:
464,180,186743,1,0,0:0:0:0:
436,176,186826,1,8,0:0:0:0:
408,172,186909,1,8,0:0:0:0:
436,168,186993,1,0,0:0:0:0:
464,164,187076,1,0,0:0:0:0:
436,176,187159,1,8,0:0:0:0:
436,176,187326,1,8,0:0:0:0:
384,156,187493,1,0,0:0:0:0:
436,176,187659,1,12,0:0:0:0:
436,168,187993,1,0,0:0:0:0:
492,168,188159,1,8,0:0:0:0:
492,168,188326,1,0,0:0:0:0:
492,168,188409,1,0,0:0:0:0:
468,180,188493,1,8,0:0:0:0:
412,180,188659,1,0,0:0:0:0:
436,168,188826,1,8,0:0:0:0:
412,180,188993,1,8,0:0:0:0:
468,180,189326,1,4,0:0:0:0:
468,180,189659,1,4,0:0:0:0:
444,200,189826,1,8,0:0:0:0:
444,172,189909,1,0,0:0:0:0:
468,184,189993,1,8,0:0:0:0:
416,168,190076,1,8,0:0:0:0:
492,168,190159,1,0,0:0:0:0:
416,168,190243,1,0,0:0:0:0:
492,168,190326,1,8,0:0:0:0:
436,164,190493,1,4,0:0:0:0:
320,192,193159,1,0,0:0:0:0:
376,224,195826,1,8,0:0:0:0:
240,184,198493,1,0,0:0:0:0:
336,184,201159,1,0,0:0:0:0:
344,164,201493,1,0,0:0:0:0:
336,168,201826,1,8,0:0:0:0:
392,168,202159,1,8,0:0:0:0:
336,172,202326,1,0,0:0:0:0:
392,168,202659,1,8,0:0:0:0:
504,172,202826,1,0,0:0:0:0:
448,176,202993,1,0,0:0:0:0:
392,168,203159,1,8,0:0:0:0:
504,160,203493,1,0,0:0:0:0:
448,176,203659,1,8,0:0:0:0:
504,172,203826,1,0,0:0:0:0:
392,168,204159,1,0,0:0:0:0:
448,176,204493,1,8,0:0:0:0:
392,168,204826,1,8,0:0:0:0:
392,168,204993,1,0,0:0:0:0:
392,168,205326,1,0,0:0:0:0:
342,194,205493,1,8,0:0:0:0:
392,168,205826,1,0,0:0:0:0:
447,175,205993,1,0,0:0:0:0:
493,214,206159,1,8,0:0:0:0:
448,168,206326,1,0,0:0:0:0:
448,168,206493,1,8,0:0:0:0:
448,168,206826,1,0,0:0:0:0:
448,168,207159,1,8,0:0:0:0:
344,160,207493,1,8,0:0:0:0:
394,168,207659,1,0,0:0:0:0:
343,178,207993,1,8,0:0:0:0:
373,220,208159,1,0,0:0:0:0:
373,220,208326,1,0,0:0:0:0:
492,157,208493,1,8,0:0:0:0:
480,268,208826,1,8,0:0:0:0:
437,231,208993,1,8,0:0:0:0:
396,196,209159,1,0,0:0:0:0:
396,196,209493,1,0,0:0:0:0:
285,178,209826,1,8,0:0:0:0:
396,186,210159,1,0,0:0:0:0:
451,177,210326,1,8,0:0:0:0:
394,179,210493,1,0,0:0:0:0:
414,198,210659,1,8,0:0:0:0:
372,172,210826,1,0,0:0:0:0:
388,204,210882,1,0,0:0:0:0:
388,204,210937,1,0,0:0:0:0:
396,186,210993,1,8,0:0:0:0:
320,208,211159,1,8,0:0:0:0:
396,184,211243,1,8,0:0:0:0:
384,176,211326,1,0,0:0:0:0:
424,172,211382,1,0,0:0:0:0:
424,172,211437,1,0,0:0:0:0:
432,168,211493,1,8,0:0:0:0:
344,176,211576,1,0,0:0:0:0:
408,176,211659,1,8,0:0:0:0:
272,180,211826,1,4,0:0:0:0:
362,175,212159,1,8,0:0:0:0:
384,176,212326,1,0,0:0:0:0:
332,176,212493,1,8,0:0:0:0:
415,196,212826,1,8,0:0:0:0:
362,175,212993,1,0,0:0:0:0:
362,175,213326,1,8,0:0:0:0:
362,175,213493,1,8,0:0:0:0:
362,175,213659,1,0,0:0:0:0:
415,196,213826,1,0,0:0:0:0:
415,196,213909,1,0,0:0:0:0:
415,196,213993,1,0,0:0:0:0:
415,196,214076,1,0,0:0:0:0:
256,137,214159,1,8,0:0:0:0:
404,186,214326,1,8,0:0:0:0:
460,182,214493,1,0,0:0:0:0:
460,182,214826,1,0,0:0:0:0:
404,168,214993,1,8,0:0:0:0:
460,182,215159,1,0,0:0:0:0:
460,182,215493,1,8,0:0:0:0:
404,186,215659,1,0,0:0:0:0:
460,182,215826,1,0,0:0:0:0:
460,182,215909,1,0,0:0:0:0:
296,154,215993,1,8,0:0:0:0:
404,186,216159,1,0,0:0:0:0:
460,182,216326,1,8,0:0:0:0:
460,182,216409,1,8,0:0:0:0:
403,174,216493,1,8,0:0:0:0:
376,168,216576,1,8,0:0:0:0:
292,160,216659,1,8,0:0:0:0:
292,160,216743,1,8,0:0:0:0:
355,202,216826,1,8,0:0:0:0:
376,168,216993,1,8,0:0:0:0:
320,184,217159,1,0,0:0:0:0:
360,176,217326,1,0,0:0:0:0:
322,169,217493,1,8,0:0:0:0:
404,186,217659,1,0,0:0:0:0:
355,202,217826,1,8,0:0:0:0:
401,162,218159,1,8,0:0:0:0:
440,201,218326,1,0,0:0:0:0:
440,201,218659,1,0,0:0:0:0:
403,174,218826,1,8,0:0:0:0:
346,170,218993,1,0,0:0:0:0:
346,170,219076,1,0,0:0:0:0:
346,170,219159,1,8,0:0:0:0:
401,160,219326,1,0,0:0:0:0:
403,174,219493,1,8,0:0:0:0:
403,174,219659,1,8,0:0:0:0:
459,177,219826,1,0,0:0:0:0:
424,221,219993,1,8,0:0:0:0:
459,177,220159,1,0,0:0:0:0:
459,177,220326,1,0,0:0:0:0:
459,177,220493,1,8,0:0:0:0:
459,177,220659,1,8,0:0:0:0:
459,177,220743,1,8,0:0:0:0:
431,177,220826,1,0,0:0:0:0:
374,174,220993,1,8,0:0:0:0:
431,177,221159,1,0,0:0:0:0:
431,177,221243,1,0,0:0:0:0:
431,177,221326,1,8,0:0:0:0:
431,177,221493,1,0,0:0:0:0:
431,177,221659,1,8,0:0:0:0:
431,177,221743,1,8,0:0:0:0:
431,177,221826,1,0,0:0:0:0:
406,227,221993,1,0,0:0:0:0:
406,227,222076,1,0,0:0:0:0:
383,210,222159,1,8,0:0:0:0:
486,172,222243,1,0,0:0:0:0:
486,172,222326,1,8,0:0:0:0:
431,186,222493,1,4,0:0:0:0:
383,210,222659,1,8,0:0:0:0:
431,177,222826,1,0,0:0:0:0:
433,157,222993,1,0,0:0:0:0:
383,210,223159,1,8,0:0:0:0:
431,186,223326,1,0,0:0:0:0:
386,188,223493,1,8,0:0:0:0:
386,188,223659,1,0,0:0:0:0:
424,248,223743,1,0,0:0:0:0:
386,188,223826,1,0,0:0:0:0:
383,210,223993,1,8,0:0:0:0:
431,186,224159,1,0,0:0:0:0:
433,157,224326,1,0,0:0:0:0:
408,148,224409,1,0,0:0:0:0:
386,188,224493,1,8,0:0:0:0:
431,186,224659,1,0,0:0:0:0:
376,184,224826,1,8,0:0:0:0:
454,167,224993,1,8,0:0:0:0:
403,142,225159,1,4,0:0:0:0:
398,165,225326,1,8,0:0:0:0:
398,165,225493,1,8,0:0:0:0:
398,165,225659,1,0,0:0:0:0:
440,180,225743,1,0,0:0:0:0:
445,135,225826,1,8,0:0:0:0:
398,166,225993,1,8,0:0:0:0:
398,166,226159,1,0,0:0:0:0:
342,155,226326,1,8,0:0:0:0:
342,155,226493,1,0,0:0:0:0:
384,190,226659,1,8,0:0:0:0:
408,164,226743,1,0,0:0:0:0:
384,190,226826,1,8,0:0:0:0:
342,155,226993,1,0,0:0:0:0:
398,166,227159,1,8,0:0:0:0:
398,166,227326,1,8,0:0:0:0:
452,154,227493,1,0,0:0:0:0:
398,166,227659,1,8,0:0:0:0:
451,148,227826,1,0,0:0:0:0:
451,148,227909,1,0,0:0:0:0:
451,148,227993,1,0,0:0:0:0:
451,148,228076,1,0,0:0:0:0:
398,166,228159,1,8,0:0:0:0:
423,179,228243,1,0,0:0:0:0:
423,179,228326,1,8,0:0:0:0:
423,179,228409,1,0,0:0:0:0:
452,154,228493,1,8,0:0:0:0:
423,179,228576,1,0,0:0:0:0:
423,179,228659,1,0,0:0:0:0:
423,179,228743,1,0,0:0:0:0:
396,188,228826,1,8,0:0:0:0:
398,166,228909,1,0,0:0:0:0:
398,166,228993,1,8,0:0:0:0:
398,166,229076,1,0,0:0:0:0:
423,179,229159,1,8,0:0:0:0:
423,179,229243,1,8,0:0:0:0:
448,196,229326,1,0,0:0:0:0:
448,196,229409,1,0,0:0:0:0:
423,179,229493,1,8,0:0:0:0:
423,179,229576,1,8,0:0:0:0:
423,179,229659,1,0,0:0:0:0:
423,179,229743,1,0,0:0:0:0:
448,172,229826,1,8,0:0:0:0:
423,181,229909,1,0,0:0:0:0:
448,172,229993,1,8,0:0:0:0:
423,179,230076,1,0,0:0:0:0:
396,176,230159,1,8,0:0:0:0:
384,180,230326,1,8,0:0:0:0:
396,176,230493,1,4,0:0:0:0:
396,176,231493,1,0,0:0:0:0:
436,214,231659,1,8,0:0:0:0:
436,172,231826,1,0,0:0:0:0:
436,172,232159,1,0,0:0:0:0:
472,180,232326,1,0,0:0:0:0:
415,181,232493,1,8,0:0:0:0:
463,153,232659,1,0,0:0:0:0:
415,181,232826,1,8,0:0:0:0:
463,153,232993,1,0,0:0:0:0:
477,170,237326,5,8,0:0:0:0:
477,170,237409,1,8,0:0:0:0:
477,170,237493,1,8,0:0:0:0:
504,171,237576,1,0,0:0:0:0:
448,167,237659,1,8,0:0:0:0:
419,167,237743,1,0,0:0:0:0:
392,157,237826,1,8,0:0:0:0:
391,171,237909,1,8,0:0:0:0:
419,167,237993,1,0,0:0:0:0:
393,179,238159,1,4,0:0:0:0:
393,179,238409,1,0,0:0:0:0:
469,213,238659,1,8,0:0:0:0:
419,167,238993,1,0,0:0:0:0:
419,167,239076,1,0,0:0:0:0:
430,192,239159,1,0,0:0:0:0:
448,192,239326,1,0,0:0:0:0:
469,213,239493,1,8,0:0:0:0:
512,176,239659,1,0,0:0:0:0:
512,176,239743,1,0,0:0:0:0:
484,184,239826,1,8,0:0:0:0:
419,167,239909,1,0,0:0:0:0:
484,184,239993,1,8,0:0:0:0:
432,168,240159,1,0,0:0:0:0:
348,184,240409,1,0,0:0:0:0:
488,168,240493,1,0,0:0:0:0:
460,168,240659,1,8,0:0:0:0:
460,168,240826,1,0,0:0:0:0:
460,168,240909,1,0,0:0:0:0:
484,184,240993,1,8,0:0:0:0:
488,168,241159,1,0,0:0:0:0:
454,213,241326,1,0,0:0:0:0:
488,168,241409,1,0,0:0:0:0:
460,168,241493,1,8,0:0:0:0:
460,168,241659,1,0,0:0:0:0:
460,168,241826,1,8,0:0:0:0:
484,184,241909,1,0,0:0:0:0:
460,168,241993,1,8,0:0:0:0:
460,168,242159,1,0,0:0:0:0:
424,160,242271,1,0,0:0:0:0:
388,152,242382,1,0,0:0:0:0:
416,208,242493,1,8,0:0:0:0:
408,204,242659,1,0,0:0:0:0:
448,192,242826,1,8,0:0:0:0:
460,168,242937,1,8,0:0:0:0:
424,172,243048,1,0,0:0:0:0:
388,172,243159,1,8,0:0:0:0:
408,204,243271,1,8,0:0:0:0:
478,186,243382,1,8,0:0:0:0:
484,168,243493,1,0,0:0:0:0:
460,168,243659,1,0,0:0:0:0:
432,176,243826,1,8,0:0:0:0:
424,172,243909,1,8,0:0:0:0:
424,172,243993,1,0,0:0:0:0:
408,204,244159,1,0,0:0:0:0:
424,172,244326,1,0,0:0:0:0:
424,172,244409,1,0,0:0:0:0:
396,168,244493,1,8,0:0:0:0:
396,168,244576,1,0,0:0:0:0:
432,176,244659,1,8,0:0:0:0:
432,176,244743,1,8,0:0:0:0:
432,176,244826,1,8,0:0:0:0:
460,172,244909,1,0,0:0:0:0:
424,172,244993,1,0,0:0:0:0:
424,172,245076,1,0,0:0:0:0:
396,168,245159,1,8,0:0:0:0:
396,168,245243,1,8,0:0:0:0:
416,188,245326,1,0,0:0:0:0:
368,168,245409,1,8,0:0:0:0:
368,168,245493,1,8,0:0:0:0:
368,168,245576,1,0,0:0:0:0:
460,172,245659,1,8,0:0:0:0:
424,172,245743,1,0,0:0:0:0:
424,172,245826,1,0,0:0:0:0:
424,172,245909,1,8,0:0:0:0:
396,168,245993,1,8,0:0:0:0:
340,172,246159,1,0,0:0:0:0:
312,172,246242,1,0,0:0:0:0:
340,172,246408,1,0,0:0:0:0:
340,172,246575,1,0,0:0:0:0:
340,172,246742,1,0,0:0:0:0:
312,168,246825,1,0,0:0:0:0:
312,168,246992,1,0,0:0:0:0:
368,172,247158,1,8,0:0:0:0:
424,172,247242,1,8,0:0:0:0:
372,148,247408,1,8,0:0:0:0:
372,148,247575,1,8,0:0:0:0:
372,148,247742,1,8,0:0:0:0:
372,148,247825,1,8,0:0:0:0:
428,160,247992,1,8,0:0:0:0:
424,172,248158,1,0,0:0:0:0:
424,172,248242,1,0,0:0:0:0:
424,172,248408,1,0,0:0:0:0:
424,172,248575,1,0,0:0:0:0:
424,172,248742,1,0,0:0:0:0:
424,172,248825,1,0,0:0:0:0:
424,172,248992,1,0,0:0:0:0:
480,180,249158,1,8,0:0:0:0:
452,176,249242,1,8,0:0:0:0:
452,176,249325,1,8,0:0:0:0:
424,172,249408,1,0,0:0:0:0:
396,176,249492,1,8,0:0:0:0:
424,172,249575,1,0,0:0:0:0:
480,180,249658,1,8,0:0:0:0:
480,180,249742,1,8,0:0:0:0:
424,172,249825,1,0,0:0:0:0:
432,200,249908,1,8,0:0:0:0:
452,176,250075,1,0,0:0:0:0:
452,176,250242,1,8,0:0:0:0:
452,176,250325,1,8,0:0:0:0:
480,180,250408,1,0,0:0:0:0:
452,176,250492,1,8,0:0:0:0:
424,172,250575,1,0,0:0:0:0:
424,172,250658,1,8,0:0:0:0:
396,172,250742,1,8,0:0:0:0:
452,176,250825,1,0,0:0:0:0:
396,172,250992,1,0,0:0:0:0:
376,172,251047,1,0,0:0:0:0:
376,172,251103,1,0,0:0:0:0:
424,172,251158,1,8,0:0:0:0:
424,172,251325,1,12,0:0:0:0:
384,176,253490,5,8,0:0:0:0:
384,176,253574,1,8,0:0:0:0:
384,176,253740,1,8,0:0:0:0:
332,244,253990,1,4,0:0:0:0:
256,192,254157,12,0,256657,0:0:0:0:
452,188,256824,5,8,0:0:0:0:
452,188,256865,1,8,0:0:0:0:
480,180,257323,1,0,0:0:0:0:
480,180,257365,1,0,0:0:0:0:
480,180,257823,1,0,0:0:0:0:
480,180,257865,1,0,0:0:0:0:
480,180,258323,1,8,0:0:0:0:
472,192,258365,1,8,0:0:0:0:
480,180,258823,1,0,0:0:0:0:
480,180,258865,1,0,0:0:0:0:
386,150,259157,1,0,0:0:0:0:
408,216,259323,1,0,0:0:0:0:
438,167,259490,1,8,0:0:0:0:
336,176,259532,1,8,0:0:0:0:
489,170,259990,1,0,0:0:0:0:
473,197,260032,1,0,0:0:0:0:
358,97,260490,1,0,0:0:0:0:
368,106,260532,1,0,0:0:0:0:
213,115,260657,2,0,L|286:82,5,66.499996638775
456,200,261823,1,0,0:0:0:0:
446,191,261879,1,0,0:0:0:0:
433,176,261935,1,0,0:0:0:0:
422,180,261990,1,8,0:0:0:0:
460,178,262157,1,4,0:0:0:0:
460,178,262323,1,0,0:0:0:0:
460,178,262407,1,0,0:0:0:0:
351,151,262490,1,8,0:0:0:0:
460,178,262657,1,0,0:0:0:0:
441,179,262823,1,0,0:0:0:0:
422,180,262990,1,0,0:0:0:0:
441,179,263073,1,0,0:0:0:0:
441,179,263157,1,8,0:0:0:0:
441,179,263323,1,4,0:0:0:0:
460,178,263657,1,8,0:0:0:0:
441,179,263740,1,8,0:0:0:0:
412,178,263823,1,0,0:0:0:0:
422,180,263990,1,4,0:0:0:0:
460,178,264323,1,0,0:0:0:0:
460,178,264490,1,8,0:0:0:0:
423,135,264657,1,4,0:0:0:0:
460,178,264823,1,0,0:0:0:0:
460,178,265073,1,0,0:0:0:0:
431,176,265157,1,8,0:0:0:0:
483,194,265323,1,0,0:0:0:0:
483,194,265490,1,0,0:0:0:0:
431,176,265573,1,8,0:0:0:0:
500,180,265823,1,8,0:0:0:0:
344,171,265990,1,8,0:0:0:0:
398,184,266157,1,0,0:0:0:0:
398,184,266323,1,8,0:0:0:0:
431,176,266490,1,0,0:0:0:0:
431,176,266657,1,8,0:0:0:0:
398,184,266823,1,0,0:0:0:0:
398,184,266907,1,0,0:0:0:0:
398,184,266990,1,0,0:0:0:0:
398,184,267073,1,0,0:0:0:0:
431,176,267157,1,8,0:0:0:0:
398,184,267323,1,4,0:0:0:0:
480,172,267657,1,8,0:0:0:0:
480,172,267740,1,8,0:0:0:0:
512,176,267823,1,0,0:0:0:0:
398,184,267990,1,8,0:0:0:0:
447,210,268073,1,0,0:0:0:0:
398,184,268157,1,8,0:0:0:0:
398,184,268240,1,8,0:0:0:0:
405,165,268323,1,0,0:0:0:0:
391,219,268490,1,8,0:0:0:0:
425,180,268657,1,0,0:0:0:0:
425,180,268740,1,0,0:0:0:0:
397,175,268823,1,8,0:0:0:0:
397,175,268990,1,8,0:0:0:0:
405,165,269073,1,0,0:0:0:0:
397,175,269157,1,8,0:0:0:0:
405,165,269323,1,0,0:0:0:0:
425,180,269490,1,0,0:0:0:0:
397,175,269573,1,8,0:0:0:0:
397,175,269657,1,0,0:0:0:0:
425,180,269740,1,0,0:0:0:0:
410,183,269823,1,8,0:0:0:0:
451,221,269990,1,4,0:0:0:0:
451,221,270323,1,0,0:0:0:0:
425,180,270490,1,8,0:0:0:0:
425,180,270601,1,8,0:0:0:0:
425,180,270712,1,8,0:0:0:0:
457,197,270823,1,0,0:0:0:0:
457,197,270990,1,0,0:0:0:0:
430,204,271073,1,0,0:0:0:0:
400,195,271157,1,8,0:0:0:0:
451,221,271323,1,0,0:0:0:0:
457,197,271490,1,8,0:0:0:0:
457,197,271657,1,0,0:0:0:0:
459,169,271740,1,0,0:0:0:0:
459,169,271823,1,0,0:0:0:0:
464,196,271907,1,0,0:0:0:0:
430,204,271990,1,8,0:0:0:0:
451,221,272323,1,0,0:0:0:0:
457,197,272490,1,8,0:0:0:0:
346,212,272822,1,4,0:0:0:0:
457,200,273155,1,8,0:0:0:0:
457,200,273266,1,8,0:0:0:0:
457,200,273377,1,8,0:0:0:0:
433,229,273488,1,8,0:0:0:0:
382,174,273710,1,8,0:0:0:0:
441,219,273933,1,8,0:0:0:0:
457,200,274155,1,4,0:0:0:0:
420,196,274488,1,0,0:0:0:0:
457,200,274599,1,8,0:0:0:0:
457,200,274710,1,8,0:0:0:0:
457,200,274821,1,8,0:0:0:0:
457,200,275044,1,8,0:0:0:0:
392,160,275266,1,8,0:0:0:0:
352,224,275488,1,4,0:0:0:0:
452,182,275655,1,0,0:0:0:0:
457,200,275821,1,8,0:0:0:0:
452,182,275988,1,0,0:0:0:0:
443,208,276071,1,0,0:0:0:0:
507,192,276155,1,8,0:0:0:0:
452,182,276321,1,0,0:0:0:0:
506,170,276488,1,8,0:0:0:0:
450,173,276655,1,0,0:0:0:0:
448,200,276738,1,0,0:0:0:0:
505,178,276821,1,8,0:0:0:0:
489,201,276905,1,0,0:0:0:0:
452,182,276988,1,8,0:0:0:0:
452,182,277071,1,8,0:0:0:0:
506,170,277155,1,0,0:0:0:0:
506,170,277238,1,0,0:0:0:0:
452,182,277321,1,8,0:0:0:0:
479,177,277405,1,0,0:0:0:0:
506,170,277488,1,8,0:0:0:0:
505,178,277544,1,8,0:0:0:0:
505,178,277599,1,8,0:0:0:0:
450,173,277655,1,0,0:0:0:0:
506,170,277738,1,0,0:0:0:0:
479,177,277821,1,8,0:0:0:0:
462,168,277877,1,8,0:0:0:0:
450,173,277933,1,0,0:0:0:0:
450,173,277988,1,0,0:0:0:0:
394,178,278155,1,4,0:0:0:0:
432,171,278404,1,0,0:0:0:0:
432,171,278488,1,0,0:0:0:0:
450,173,278654,1,8,0:0:0:0:
432,171,278821,1,0,0:0:0:0:
432,171,278988,1,0,0:0:0:0:
432,171,279154,1,8,0:0:0:0:
432,171,279321,1,0,0:0:0:0:
432,171,279488,1,8,0:0:0:0:
408,192,279821,1,0,0:0:0:0:
464,188,279988,1,8,0:0:0:0:
403,176,280154,1,0,0:0:0:0:
373,174,280321,1,0,0:0:0:0:
371,117,280488,1,8,0:0:0:0:
433,173,280738,1,0,0:0:0:0:
412,154,280821,1,0,0:0:0:0:
467,163,280988,1,8,0:0:0:0:
467,163,281154,1,0,0:0:0:0:
467,163,281321,1,0,0:0:0:0:
467,163,281488,1,8,0:0:0:0:
467,163,281654,1,0,0:0:0:0:
467,163,281821,1,8,0:0:0:0:
392,174,282154,1,0,0:0:0:0:
300,182,282321,1,0,0:0:0:0:
355,177,282488,1,8,0:0:0:0:
392,174,282599,1,8,0:0:0:0:
428,182,282710,1,0,0:0:0:0:
391,188,282821,1,8,0:0:0:0:
428,182,283321,1,0,0:0:0:0:
391,188,283488,1,8,0:0:0:0:
428,182,283821,1,0,0:0:0:0:
428,182,284154,1,8,0:0:0:0:
433,165,284821,1,0,0:0:0:0:
457,173,285154,1,0,0:0:0:0:
412,156,285738,1,0,0:0:0:0:
328,167,285821,1,8,0:0:0:0:
328,167,286154,1,8,0:0:0:0:
439,154,286488,1,0,0:0:0:0:
423,168,286821,1,0,0:0:0:0:
423,168,286904,1,0,0:0:0:0:
398,180,286988,1,0,0:0:0:0:
401,163,287071,1,0,0:0:0:0:
457,159,287154,1,8,0:0:0:0:
423,168,287487,1,0,0:0:0:0:
367,168,287653,1,8,0:0:0:0:
374,163,287820,1,0,0:0:0:0:
374,163,287987,1,0,0:0:0:0:
374,163,288070,1,0,0:0:0:0:
401,163,288153,1,8,0:0:0:0:
457,159,288320,1,0,0:0:0:0:
457,159,288487,1,8,0:0:0:0:
401,163,288570,1,8,0:0:0:0:
484,152,288653,1,0,0:0:0:0:
401,151,288820,1,8,0:0:0:0:
456,146,288987,1,0,0:0:0:0:
457,159,289153,1,8,0:0:0:0:
484,152,289237,1,0,0:0:0:0:
484,152,289320,1,0,0:0:0:0:
484,152,289403,1,0,0:0:0:0:
455,154,289487,1,8,0:0:0:0:
368,157,289737,1,0,0:0:0:0:
454,152,289987,1,8,0:0:0:0:
446,207,290237,1,0,0:0:0:0:
455,154,290320,1,0,0:0:0:0:
455,154,290487,1,8,0:0:0:0:
454,152,290653,1,0,0:0:0:0:
454,152,290737,1,0,0:0:0:0:
426,152,290820,1,8,0:0:0:0:
369,151,290987,1,8,0:0:0:0:
455,154,291153,1,0,0:0:0:0:
425,201,291320,1,8,0:0:0:0:
427,166,291403,1,0,0:0:0:0:
451,182,291487,1,8,0:0:0:0:
454,219,291598,1,8,0:0:0:0:
451,182,291709,1,0,0:0:0:0:
414,188,291820,1,12,0:0:0:0:
414,188,292153,1,0,0:0:0:0:
362,208,292319,1,8,0:0:0:0:
454,219,292486,1,0,0:0:0:0:
454,219,292653,1,0,0:0:0:0:
454,219,292736,1,0,0:0:0:0:
428,208,292819,1,8,0:0:0:0:
428,208,292986,1,0,0:0:0:0:
444,264,293153,1,12,0:0:0:0:
396,180,293486,1,0,0:0:0:0:
368,185,293569,1,8,0:0:0:0:
387,173,293653,1,8,0:0:0:0:
387,173,293736,1,8,0:0:0:0:
388,160,293819,1,0,0:0:0:0:
396,180,293986,1,0,0:0:0:0:
374,197,294069,1,0,0:0:0:0:
350,181,294153,1,8,0:0:0:0:
396,180,294486,1,4,0:0:0:0:
256,192,294653,12,8,297653,0:0:0:0:
408,224,297822,5,8,0:0:0:0:
411,186,298071,1,8,0:0:0:0:
408,224,298321,1,0,0:0:0:0:
356,208,298488,1,8,0:0:0:0:
408,224,298655,1,0,0:0:0:0:
409,205,298710,1,8,0:0:0:0:
411,186,298766,1,8,0:0:0:0:
392,172,298821,1,0,0:0:0:0:
468,200,299155,1,8,0:0:0:0:
364,164,299238,1,8,0:0:0:0:
392,172,299405,1,8,0:0:0:0:
418,163,299488,1,0,0:0:0:0:
408,200,299655,1,0,0:0:0:0:
408,200,299738,1,0,0:0:0:0:
436,192,299821,1,8,0:0:0:0:
436,192,299877,1,0,0:0:0:0:
436,192,299933,1,0,0:0:0:0:
416,192,299988,1,8,0:0:0:0:
408,200,300071,1,0,0:0:0:0:
364,164,300155,1,8,0:0:0:0:
436,192,300405,1,8,0:0:0:0:
397,266,300655,1,0,0:0:0:0:
399,210,300821,1,8,0:0:0:0:
454,214,300988,1,0,0:0:0:0:
392,166,301155,1,8,0:0:0:0:
419,164,301238,1,0,0:0:0:0:
446,162,301321,1,0,0:0:0:0:
446,162,301405,1,0,0:0:0:0:
419,164,301488,1,8,0:0:0:0:
446,162,301655,1,0,0:0:0:0:
446,162,301738,1,0,0:0:0:0:
392,166,301821,1,8,0:0:0:0:
392,166,301905,1,0,0:0:0:0:
392,166,301988,1,8,0:0:0:0:
364,165,302071,1,0,0:0:0:0:
392,166,302155,1,8,0:0:0:0:
392,166,302238,1,8,0:0:0:0:
419,164,302321,1,0,0:0:0:0:
484,220,302405,1,0,0:0:0:0:
364,164,302488,1,8,0:0:0:0:
447,170,302737,1,8,0:0:0:0:
364,165,302987,1,0,0:0:0:0:
392,166,303154,1,8,0:0:0:0:
392,166,303237,1,8,0:0:0:0:
419,164,303321,1,0,0:0:0:0:
363,154,303487,1,12,0:0:0:0:
447,170,303654,1,8,0:0:0:0:
419,164,303821,1,0,0:0:0:0:
419,164,303904,1,0,0:0:0:0:
392,166,304071,1,8,0:0:0:0:
363,154,304154,1,8,0:0:0:0:
392,166,304321,1,0,0:0:0:0:
392,166,304404,1,0,0:0:0:0:
447,170,304571,1,8,0:0:0:0:
447,170,304654,1,8,0:0:0:0:
419,164,304821,1,0,0:0:0:0:
419,164,304904,1,0,0:0:0:0:
392,166,305154,1,8,0:0:0:0:
419,164,305404,1,0,0:0:0:0:
447,170,305654,1,8,0:0:0:0:
472,89,305904,1,0,0:0:0:0:
464,115,305987,1,0,0:0:0:0:
392,166,306154,1,8,0:0:0:0:
401,185,306321,1,0,0:0:0:0:
418,167,306404,1,0,0:0:0:0:
390,167,306487,1,8,0:0:0:0:
417,169,306571,1,0,0:0:0:0:
447,170,306654,1,8,0:0:0:0:
447,170,306737,1,8,0:0:0:0:
419,164,306821,1,0,0:0:0:0:
419,164,306904,1,0,0:0:0:0:
392,166,306987,1,8,0:0:0:0:
419,164,307071,1,0,0:0:0:0:
426,191,307154,1,8,0:0:0:0:
419,164,307237,1,8,0:0:0:0:
390,167,307321,1,0,0:0:0:0:
418,167,307404,1,8,0:0:0:0:
447,170,307487,1,0,0:0:0:0:
417,169,307571,1,0,0:0:0:0:
388,171,307654,1,8,0:0:0:0:
360,173,307737,1,0,0:0:0:0:
340,192,307821,1,8,0:0:0:0:
256,192,307987,12,0,310321,0:0:0:0:
480,79,310487,5,8,0:0:0:0:
441,184,310571,1,0,0:0:0:0:
460,131,310654,1,8,0:0:0:0:
450,157,310737,1,8,0:0:0:0:
463,181,310821,1,0,0:0:0:0:
441,184,311154,1,0,0:0:0:0:
418,200,311237,1,0,0:0:0:0:
392,192,311321,1,8,0:0:0:0:
441,184,311404,1,8,0:0:0:0:
450,157,311487,1,0,0:0:0:0:
480,180,311599,1,0,0:0:0:0:
456,208,311710,1,0,0:0:0:0:
414,168,311821,1,8,0:0:0:0:
441,184,312154,1,0,0:0:0:0:
414,168,312487,1,8,0:0:0:0:
441,184,312654,1,8,0:0:0:0:
441,184,312710,1,8,0:0:0:0:
441,184,312765,1,8,0:0:0:0:
414,168,312821,1,0,0:0:0:0:
441,184,312987,1,8,0:0:0:0:
441,184,313154,1,4,0:0:0:0:
441,184,313321,1,0,0:0:0:0:
387,168,313487,1,8,0:0:0:0:
414,168,313821,1,0,0:0:0:0:
414,168,313904,1,0,0:0:0:0:
387,168,314071,1,0,0:0:0:0:
387,168,314154,1,0,0:0:0:0:
414,168,314321,1,12,0:0:0:0:
449,151,314654,1,0,0:0:0:0:
393,153,314821,1,8,0:0:0:0:
367,164,314904,1,0,0:0:0:0:
387,168,315071,1,8,0:0:0:0:
414,168,315321,1,8,0:0:0:0:
451,204,315404,1,0,0:0:0:0:
450,176,315487,1,8,0:0:0:0:
387,168,315571,1,8,0:0:0:0:
367,164,315654,1,0,0:0:0:0:
450,176,315821,1,4,0:0:0:0:
423,166,315987,1,8,0:0:0:0:
423,166,316071,1,8,0:0:0:0:
452,200,316154,1,8,0:0:0:0:
423,166,316321,1,4,0:0:0:0:
497,160,316654,1,8,0:0:0:0:
452,200,316737,1,8,0:0:0:0:
452,200,316821,1,8,0:0:0:0:
423,166,316987,1,4,0:0:0:0:
469,160,317321,1,8,0:0:0:0:
352,180,317404,1,8,0:0:0:0:
469,160,317487,1,0,0:0:0:0:
371,215,317821,1,0,0:0:0:0:
352,162,317987,1,0,0:0:0:0:
406,174,318154,1,0,0:0:0:0:
462,172,318321,1,8,0:0:0:0:
406,174,318487,1,4,0:0:0:0:
406,174,318654,1,8,0:0:0:0:
462,172,318737,1,0,0:0:0:0:
406,174,318821,1,8,0:0:0:0:
460,159,318987,1,0,0:0:0:0:
406,174,319154,1,0,0:0:0:0:
378,170,319237,1,8,0:0:0:0:
432,167,319321,1,0,0:0:0:0:
432,167,319404,1,0,0:0:0:0:
432,167,319487,1,8,0:0:0:0:
406,174,319654,1,4,0:0:0:0:
432,167,319987,1,8,0:0:0:0:
432,167,320071,1,8,0:0:0:0:
404,172,320154,1,0,0:0:0:0:
460,160,320321,1,8,0:0:0:0:
404,160,320487,1,8,0:0:0:0:
404,160,320571,1,8,0:0:0:0:
424,180,320654,1,0,0:0:0:0:
404,172,320737,1,0,0:0:0:0:
424,180,320821,1,8,0:0:0:0:
368,184,320987,1,0,0:0:0:0:
312,180,321154,1,12,0:0:0:0:
392,204,321321,1,0,0:0:0:0:
392,204,321404,1,0,0:0:0:0:
424,180,321487,1,8,0:0:0:0:
436,236,321654,1,0,0:0:0:0:
424,220,321821,1,8,0:0:0:0:
392,204,321904,1,0,0:0:0:0:
424,220,321987,1,8,0:0:0:0:
436,196,322071,1,8,0:0:0:0:
368,184,322154,1,0,0:0:0:0:
328,224,322321,1,12,0:0:0:0:
440,228,322654,1,8,0:0:0:0:
424,204,322737,1,8,0:0:0:0:
368,188,322904,1,8,0:0:0:0:
436,196,322987,1,0,0:0:0:0:
424,204,323154,1,0,0:0:0:0:
368,212,323237,1,0,0:0:0:0:
424,204,323404,1,8,0:0:0:0:
404,184,323487,1,0,0:0:0:0:
348,172,323654,1,8,0:0:0:0:
368,212,323821,1,12,0:0:0:0:
424,204,324071,1,0,0:0:0:0:
348,172,324154,1,0,0:0:0:0:
404,176,324321,1,8,0:0:0:0:
404,184,324487,1,0,0:0:0:0:
424,204,324571,1,0,0:0:0:0:
404,176,324654,1,8,0:0:0:0:
404,176,324737,1,8,0:0:0:0:
404,176,324821,1,0,0:0:0:0:
360,212,324987,1,12,0:0:0:0:
472,204,325321,1,0,0:0:0:0:
416,200,325487,1,8,0:0:0:0:
432,176,325571,1,0,0:0:0:0:
432,176,325654,1,0,0:0:0:0:
460,180,325737,1,8,0:0:0:0:
404,180,325904,1,0,0:0:0:0:
432,176,325987,1,8,0:0:0:0:
444,200,326071,1,0,0:0:0:0:
404,180,326154,1,8,0:0:0:0:
416,200,326237,1,8,0:0:0:0:
416,196,326321,1,0,0:0:0:0:
404,180,326487,1,4,0:0:0:0:
460,180,326654,1,8,0:0:0:0:
460,180,326737,1,8,0:0:0:0:
404,180,326821,1,8,0:0:0:0:
460,180,326987,1,4,0:0:0:0:
404,180,327321,1,8,0:0:0:0:
404,180,327404,1,8,0:0:0:0:
408,180,327487,1,8,0:0:0:0:
488,132,327654,1,4,0:0:0:0:
480,244,327987,1,8,0:0:0:0:
480,216,328071,1,8,0:0:0:0:
480,216,328154,1,0,0:0:0:0:
451,209,328237,1,0,0:0:0:0:
422,202,328321,1,0,0:0:0:0:
428,232,328487,1,0,0:0:0:0:
468,192,328654,1,8,0:0:0:0:
468,192,328737,1,8,0:0:0:0:
380,184,328821,1,0,0:0:0:0:
380,184,328987,1,8,0:0:0:0:
436,172,329154,1,4,0:0:0:0:
408,172,329321,1,8,0:0:0:0:
436,172,329404,1,0,0:0:0:0:
408,172,329487,1,8,0:0:0:0:
436,172,329654,1,0,0:0:0:0:
484,200,329821,1,0,0:0:0:0:
408,172,329904,1,8,0:0:0:0:
379,178,329987,1,0,0:0:0:0:
436,172,330071,1,0,0:0:0:0:
460,188,330154,1,8,0:0:0:0:
416,224,330321,1,4,0:0:0:0:
324,156,330654,1,0,0:0:0:0:
436,172,330737,1,0,0:0:0:0:
377,171,330821,1,8,0:0:0:0:
430,186,330987,1,8,0:0:0:0:
436,172,331071,1,0,0:0:0:0:
433,169,331154,1,8,0:0:0:0:
430,186,331237,1,8,0:0:0:0:
430,186,331321,1,0,0:0:0:0:
430,186,331404,1,0,0:0:0:0:
436,172,331487,1,8,0:0:0:0:
428,228,331654,1,0,0:0:0:0:
430,186,331821,1,8,0:0:0:0:
456,192,331904,1,8,0:0:0:0:
430,186,331987,1,0,0:0:0:0:
436,172,332071,1,0,0:0:0:0:
407,173,332154,1,8,0:0:0:0:
440,192,332237,1,0,0:0:0:0:
430,186,332321,1,0,0:0:0:0:
440,192,332404,1,0,0:0:0:0:
407,173,332487,1,8,0:0:0:0:
407,173,332571,1,0,0:0:0:0:
430,186,332654,1,8,0:0:0:0:
384,200,332737,1,8,0:0:0:0:
407,173,332821,1,0,0:0:0:0:
430,186,332987,1,12,0:0:0:0:
456,296,333321,1,8,0:0:0:0:
456,184,333654,1,8,0:0:0:0:
500,220,333821,1,8,0:0:0:0:
500,220,333904,1,8,0:0:0:0:
500,220,333987,1,8,0:0:0:0:
492,193,334071,1,0,0:0:0:0:
463,192,334154,1,8,0:0:0:0:
437,181,334237,1,0,0:0:0:0:
437,181,334321,1,8,0:0:0:0:
437,181,334404,1,8,0:0:0:0:
456,184,334487,1,0,0:0:0:0:
456,184,334571,1,0,0:0:0:0:
427,184,334654,1,8,0:0:0:0:
437,181,334737,1,0,0:0:0:0:
437,181,334821,1,8,0:0:0:0:
437,181,334904,1,8,0:0:0:0:
410,172,334987,1,0,0:0:0:0:
409,186,335071,1,8,0:0:0:0:
409,186,335154,1,0,0:0:0:0:
353,188,335321,2,0,L|222:117,1,140
266,163,335821,1,4,0:0:0:0:
349,172,336069,1,0,0:0:0:0:
265,175,336319,1,8,0:0:0:0:
419,167,336653,1,0,0:0:0:0:
419,167,336736,1,0,0:0:0:0:
405,191,336819,1,8,0:0:0:0:
448,192,336986,1,0,0:0:0:0:
469,213,337153,1,8,0:0:0:0:
512,176,337319,1,0,0:0:0:0:
512,176,337403,1,0,0:0:0:0:
484,184,337486,1,8,0:0:0:0:
419,167,337569,1,0,0:0:0:0:
484,184,337653,1,8,0:0:0:0:
453,230,337819,1,4,0:0:0:0:
348,184,338069,1,0,0:0:0:0:
488,168,338153,1,0,0:0:0:0:
460,168,338319,1,8,0:0:0:0:
460,168,338486,1,0,0:0:0:0:
460,168,338569,1,0,0:0:0:0:
484,184,338653,1,8,0:0:0:0:
438,182,338819,1,8,0:0:0:0:
431,168,338986,1,0,0:0:0:0:
451,149,339069,1,8,0:0:0:0:
431,168,339153,1,0,0:0:0:0:
460,168,339319,1,0,0:0:0:0:
460,168,339486,1,8,0:0:0:0:
484,184,339569,1,0,0:0:0:0:
460,168,339653,1,8,0:0:0:0:
460,168,339819,1,0,0:0:0:0:
424,160,339931,1,0,0:0:0:0:
388,152,340042,1,0,0:0:0:0:
440,184,340153,1,8,0:0:0:0:
424,160,340264,1,0,0:0:0:0:
424,160,340375,1,0,0:0:0:0:
448,192,340486,1,8,0:0:0:0:
460,168,340597,1,8,0:0:0:0:
424,172,340708,1,0,0:0:0:0:
388,172,340819,1,8,0:0:0:0:
408,204,340931,1,8,0:0:0:0:
412,168,341042,1,8,0:0:0:0:
392,140,341153,1,0,0:0:0:0:
460,168,341319,1,0,0:0:0:0:
432,176,341486,1,8,0:0:0:0:
424,172,341569,1,8,0:0:0:0:
424,172,341653,1,0,0:0:0:0:
396,172,341819,1,4,0:0:0:0:
424,172,341986,1,0,0:0:0:0:
424,172,342069,1,0,0:0:0:0:
396,168,342153,1,8,0:0:0:0:
396,168,342236,1,0,0:0:0:0:
432,176,342319,1,8,0:0:0:0:
432,176,342403,1,8,0:0:0:0:
432,176,342486,1,8,0:0:0:0:
460,172,342569,1,0,0:0:0:0:
424,172,342653,1,0,0:0:0:0:
424,172,342736,1,0,0:0:0:0:
396,168,342819,1,8,0:0:0:0:
396,168,342903,1,8,0:0:0:0:
416,188,342986,1,0,0:0:0:0:
368,168,343069,1,8,0:0:0:0:
368,168,343153,1,8,0:0:0:0:
368,168,343236,1,0,0:0:0:0:
460,172,343319,1,8,0:0:0:0:
424,172,343403,1,0,0:0:0:0:
424,172,343486,1,0,0:0:0:0:
424,172,343569,1,8,0:0:0:0:
396,168,343653,1,8,0:0:0:0:
424,172,343819,1,4,0:0:0:0:
403,244,345819,5,0,0:0:0:0:
403,244,345902,1,0,0:0:0:0:
403,244,345985,1,0,0:0:0:0:
403,244,346068,1,0,0:0:0:0:
403,244,346152,1,0,0:0:0:0:
403,244,346235,1,0,0:0:0:0:
403,244,346318,1,0,0:0:0:0:
403,244,346402,1,0,0:0:0:0:
403,244,346485,1,0,0:0:0:0:
403,244,346568,1,0,0:0:0:0:
403,244,346652,1,0,0:0:0:0:
403,244,346735,1,0,0:0:0:0:
413,218,346818,1,8,0:0:0:0:
423,191,346902,1,8,0:0:0:0:
423,191,346985,1,8,0:0:0:0:
423,191,347068,1,8,0:0:0:0:
423,191,347152,1,8,0:0:0:0:
423,191,347235,1,8,0:0:0:0:
423,191,347318,1,8,0:0:0:0:
423,191,347402,1,8,0:0:0:0:
423,191,347485,1,8,0:0:0:0:
423,191,347568,1,8,0:0:0:0:
423,191,347652,1,8,0:0:0:0:
423,191,347735,1,8,0:0:0:0:
423,191,347818,1,0,0:0:0:0:
423,191,347902,1,0,0:0:0:0:
423,191,347985,1,0,0:0:0:0:
423,191,348068,1,0,0:0:0:0:
423,191,348152,1,0,0:0:0:0:
423,191,348235,1,0,0:0:0:0:
423,191,348318,1,0,0:0:0:0:
423,191,348402,1,0,0:0:0:0:
423,191,348485,1,0,0:0:0:0:
423,191,348568,1,0,0:0:0:0:
423,191,348652,1,0,0:0:0:0:
423,191,348735,1,0,0:0:0:0:
396,183,348818,1,8,0:0:0:0:
495,275,350502,1,4,0:0:0:0:
385,197,351168,1,0,0:0:0:0:
358,209,351835,1,0,0:0:0:0:
376,298,352835,1,8,0:0:0:0:
256,192,353002,12,8,355502,0:0:0:0:
395,203,355885,5,8,0:0:0:0:
341,191,356185,1,8,0:0:0:0:
436,230,356498,1,0,0:0:0:0:
282,121,356948,1,0,0:0:0:0:
219,163,357435,1,8,0:0:0:0:
353,178,357923,1,0,0:0:0:0:
369,234,358260,1,8,0:0:0:0:
342,216,358898,1,0,0:0:0:0:
248,212,360698,1,8,0:0:0:0:
324,164,360998,1,8,0:0:0:0:
344,210,361298,1,0,0:0:0:0:
356,160,361335,1,0,0:0:0:0:
363,229,361748,1,0,0:0:0:0:
362,145,362198,1,8,0:0:0:0:
395,207,362798,1,0,0:0:0:0:
404,191,363098,1,8,0:0:0:0:
357,201,363698,1,0,0:0:0:0:
376,252,364898,1,8,0:0:0:0:
300,168,364935,1,8,0:0:0:0:
285,116,365198,1,0,0:0:0:0:
342,158,365498,1,8,0:0:0:0:
333,154,365798,1,8,0:0:0:0:
358,170,366098,1,0,0:0:0:0:
316,132,366548,1,0,0:0:0:0:
314,174,366998,1,8,0:0:0:0:
326,210,367598,1,0,0:0:0:0:
335,183,367879,1,8,0:0:0:0:
412,227,368185,1,8,0:0:0:0:
375,168,368498,1,0,0:0:0:0:
408,216,368535,1,0,0:0:0:0:
417,154,368798,1,8,0:0:0:0:
417,154,368948,1,8,0:0:0:0:
417,154,369098,1,8,0:0:0:0:
395,148,369398,1,0,0:0:0:0:
472,180,369698,1,8,0:0:0:0:
363,209,370098,1,8,0:0:0:0:
431,183,370198,1,8,0:0:0:0:
349,197,370298,1,0,0:0:0:0:
431,183,370598,1,0,0:0:0:0:
414,234,370898,1,0,0:0:0:0:
354,149,370948,1,0,0:0:0:0:
446,162,372023,1,0,0:0:0:0:
324,180,372098,1,8,0:0:0:0:
224,160,372923,1,0,0:0:0:0:
344,171,372998,1,8,0:0:0:0:
256,192,373148,12,0,375998,0:0:0:0:
372,192,376296,5,8,0:0:0:0:
354,161,376446,1,0,0:0:0:0:
354,161,376521,1,0,0:0:0:0:
395,158,376596,1,8,0:0:0:0:
402,163,376671,1,0,0:0:0:0:
395,158,376746,1,8,0:0:0:0:
397,181,376894,1,4,0:0:0:0:
393,186,377194,1,8,0:0:0:0:
416,173,377344,1,0,0:0:0:0:
500,92,377644,1,0,0:0:0:0:
480,112,377719,1,0,0:0:0:0:
460,132,377794,1,8,0:0:0:0:
436,184,377944,1,8,0:0:0:0:
380,172,378094,1,4,0:0:0:0:
409,280,378394,1,0,0:0:0:0:
436,184,378544,1,0,0:0:0:0:
392,152,378694,1,8,0:0:0:0:
356,196,378844,1,0,0:0:0:0:
356,196,378919,1,0,0:0:0:0:
404,216,378994,1,8,0:0:0:0:
385,163,379144,1,0,0:0:0:0:
436,184,379294,1,4,0:0:0:0:
392,152,379594,1,8,0:0:0:0:
444,176,379744,1,0,0:0:0:0:
444,176,380044,1,0,0:0:0:0:
472,172,380119,1,0,0:0:0:0:
388,164,380194,1,8,0:0:0:0:
432,196,380344,1,8,0:0:0:0:
376,187,380494,1,4,0:0:0:0:
432,196,380644,1,0,0:0:0:0:
336,188,380794,1,8,0:0:0:0:
452,300,380869,1,0,0:0:0:0:
336,188,380944,1,8,0:0:0:0:
388,164,381019,1,8,0:0:0:0:
336,188,381094,1,0,0:0:0:0:
388,164,381244,1,8,0:0:0:0:
408,180,381394,1,0,0:0:0:0:
352,184,381694,1,12,0:0:0:0:
240,196,381994,1,0,0:0:0:0:
388,164,382144,1,8,0:0:0:0:
332,165,382294,1,4,0:0:0:0:
388,164,382594,1,8,0:0:0:0:
444,168,382744,1,8,0:0:0:0:
388,164,382894,1,4,0:0:0:0:
500,176,383194,1,0,0:0:0:0:
500,176,383344,1,0,0:0:0:0:
444,184,383494,1,8,0:0:0:0:
324,216,383569,1,8,0:0:0:0:
444,184,383644,1,0,0:0:0:0:
444,184,383719,1,0,0:0:0:0:
444,184,383794,1,8,0:0:0:0:
389,172,383944,1,0,0:0:0:0:
351,213,384094,1,12,0:0:0:0:
370,102,384394,1,12,0:0:0:0:
389,172,384694,1,12,0:0:0:0:
389,172,384994,1,12,0:0:0:0:
496,140,385294,1,12,0:0:0:0:
385,159,385594,1,12,0:0:0:0:
495,140,385894,1,12,0:0:0:0:
393,188,386194,1,12,0:0:0:0:
427,160,386494,1,12,0:0:0:0:
485,198,386644,1,12,0:0:0:0:
475,170,386794,1,12,0:0:0:0:
430,203,386944,1,12,0:0:0:0:
475,170,387094,1,12,0:0:0:0:
430,203,387244,1,12,0:0:0:0:
475,170,387394,1,12,0:0:0:0:
428,200,387544,1,12,0:0:0:0:
458,181,387844,1,8,0:0:0:0:
458,181,387919,1,8,0:0:0:0:
453,153,387994,1,0,0:0:0:0:
475,170,388069,1,8,0:0:0:0:
453,153,388144,1,0,0:0:0:0:
453,153,388219,1,8,0:0:0:0:
475,170,388294,1,8,0:0:0:0:
475,170,388369,1,0,0:0:0:0:
475,170,388444,1,8,0:0:0:0:
451,184,388519,1,0,0:0:0:0:
400,195,388594,1,8,0:0:0:0:
460,208,388669,1,8,0:0:0:0:
400,195,388744,1,0,0:0:0:0:
400,195,388819,1,0,0:0:0:0:
406,189,388894,1,8,0:0:0:0:
406,189,388969,1,8,0:0:0:0:
406,189,389044,1,8,0:0:0:0:
458,181,389119,1,0,0:0:0:0:
458,181,389194,1,8,0:0:0:0:
458,181,389269,1,0,0:0:0:0:
400,195,389344,1,8,0:0:0:0:
400,195,389419,1,8,0:0:0:0:
458,181,389494,1,0,0:0:0:0:
504,232,389794,5,8,0:0:0:0:
400,195,390094,1,12,0:0:0:0:
432,144,390994,1,0,0:0:0:0:
432,144,391144,1,0,0:0:0:0:
474,172,391594,1,8,0:0:0:0:
474,172,391669,1,8,0:0:0:0:
474,172,391744,1,8,0:0:0:0:
446,172,391819,1,0,0:0:0:0:
446,172,391894,1,8,0:0:0:0:
420,159,391969,1,8,0:0:0:0:
420,159,392044,1,0,0:0:0:0:
420,159,392119,1,0,0:0:0:0:
420,159,392194,1,8,0:0:0:0:
447,153,392269,1,0,0:0:0:0:
420,159,392344,1,8,0:0:0:0:
447,153,392419,1,8,0:0:0:0:
474,155,392494,1,0,0:0:0:0:
474,155,392569,1,0,0:0:0:0:
474,155,392644,1,0,0:0:0:0:
474,155,392719,1,0,0:0:0:0:
446,151,392794,1,8,0:0:0:0:
510,365,393394,1,0,0:0:0:0:
454,267,393694,1,8,0:0:0:0:
442,342,394294,1,8,0:0:0:0:
473,253,394894,1,8,0:0:0:0:
344,96,395794,1,0,0:0:0:0:
372,144,395944,1,0,0:0:0:0:
424,160,396094,1,8,0:0:0:0:
480,176,396694,1,8,0:0:0:0:
479,173,397294,1,8,0:0:0:0:
150,241,398194,1,0,0:0:0:0:
256,192,398494,12,0,399544,0:0:0:0:
333,188,399694,5,12,0:0:0:0:
444,199,399994,1,0,0:0:0:0:
402,161,400144,1,8,0:0:0:0:
402,161,400294,1,0,0:0:0:0:
402,161,400444,1,0,0:0:0:0:
402,161,400519,1,0,0:0:0:0:
374,163,400594,1,8,0:0:0:0:
374,163,400744,1,8,0:0:0:0:
327,193,400894,1,0,0:0:0:0:
379,211,401194,1,8,0:0:0:0:
437,207,401344,1,0,0:0:0:0:
412,192,401419,1,0,0:0:0:0:
437,207,401494,1,8,0:0:0:0:
484,177,401644,1,0,0:0:0:0:
432,196,401794,1,8,0:0:0:0:
448,172,401869,1,0,0:0:0:0:
456,184,401944,1,8,0:0:0:0:
432,168,402019,1,8,0:0:0:0:
437,207,402094,1,0,0:0:0:0:
356,192,402394,1,8,0:0:0:0:
432,168,402544,1,0,0:0:0:0:
448,172,402694,1,0,0:0:0:0:
448,172,402769,1,0,0:0:0:0:
448,172,402844,1,8,0:0:0:0:
432,168,402919,1,8,0:0:0:0:
432,168,402994,1,0,0:0:0:0:
485,182,403144,1,8,0:0:0:0:
432,168,403294,1,0,0:0:0:0:
432,168,403444,1,0,0:0:0:0:
485,182,403594,1,8,0:0:0:0:
471,236,403744,1,0,0:0:0:0:
432,168,403819,1,0,0:0:0:0:
485,182,403894,1,8,0:0:0:0:
373,179,404194,1,8,0:0:0:0:
485,182,404344,1,8,0:0:0:0:
429,178,404494,1,4,0:0:0:0:
467,218,404644,1,0,0:0:0:0:
411,211,404794,1,8,0:0:0:0:
429,178,404944,1,0,0:0:0:0:
411,211,405019,1,0,0:0:0:0:
429,178,405094,1,8,0:0:0:0:
376,200,405244,1,0,0:0:0:0:
424,168,405394,1,8,0:0:0:0:
376,196,405544,1,8,0:0:0:0:
320,208,405694,1,4,0:0:0:0:
376,216,405844,1,0,0:0:0:0:
336,176,405994,1,8,0:0:0:0:
336,176,406144,1,0,0:0:0:0:
376,196,406294,1,12,0:0:0:0:
424,167,406444,1,8,0:0:0:0:
383,175,406594,1,0,0:0:0:0:
439,177,406744,1,0,0:0:0:0:
439,177,406894,1,8,0:0:0:0:
383,175,406969,1,8,0:0:0:0:
439,177,407044,1,0,0:0:0:0:
439,177,407119,1,0,0:0:0:0:
383,175,407194,1,8,0:0:0:0:
424,167,407269,1,8,0:0:0:0:
424,167,407344,1,0,0:0:0:0:
424,167,407419,1,0,0:0:0:0:
395,206,407494,1,8,0:0:0:0:
439,177,407569,1,0,0:0:0:0:
442,176,407644,1,8,0:0:0:0:
439,177,407719,1,0,0:0:0:0:
442,176,407794,1,8,0:0:0:0:
439,177,407869,1,0,0:0:0:0:
395,206,407944,1,8,0:0:0:0:
443,231,408019,1,0,0:0:0:0:
318,104,408394,1,8,0:0:0:0:
383,175,408431,1,8,0:0:0:0:
421,143,408694,1,0,0:0:0:0:
439,177,408731,1,0,0:0:0:0:
439,177,408994,1,8,0:0:0:0:
439,177,409044,1,8,0:0:0:0:
439,177,409094,1,8,0:0:0:0:
400,180,409144,1,8,0:0:0:0:
423,135,409294,1,4,0:0:0:0:
419,190,409444,1,0,0:0:0:0:
439,177,409594,1,0,0:0:0:0:
383,169,409744,1,8,0:0:0:0:
284,204,410044,1,0,0:0:0:0:
419,190,410194,1,8,0:0:0:0:
364,192,410344,1,8,0:0:0:0:
383,169,410644,1,0,0:0:0:0:
419,190,411094,1,8,0:0:0:0:
216,208,411244,1,8,0:0:0:0:
216,208,411319,1,8,0:0:0:0:
408,172,411394,1,0,0:0:0:0:
448,176,411544,1,0,0:0:0:0:
448,176,411694,1,8,0:0:0:0:
419,190,411994,1,0,0:0:0:0:
468,204,412144,1,8,0:0:0:0:
448,176,412444,1,0,0:0:0:0:
419,190,412744,1,8,0:0:0:0:
312,180,413044,1,0,0:0:0:0:
364,184,413194,1,8,0:0:0:0:
408,301,413494,1,8,0:0:0:0:
476,184,413644,1,0,0:0:0:0:
476,184,413794,1,8,0:0:0:0:
312,180,413944,1,8,0:0:0:0:
308,199,414394,1,0,0:0:0:0:
252,203,414544,1,0,0:0:0:0:
252,203,414694,1,0,0:0:0:0:
308,204,414844,1,8,0:0:0:0:
416,172,415144,1,8,0:0:0:0:
464,184,415444,1,0,0:0:0:0:
416,172,415744,1,8,0:0:0:0:
304,180,416044,1,0,0:0:0:0:
304,180,416194,1,8,0:0:0:0:
388,168,416344,1,8,0:0:0:0:
380,172,416394,1,0,0:0:0:0:
384,192,416444,1,8,0:0:0:0:
364,164,416494,1,0,0:0:0:0:
416,172,416794,1,8,0:0:0:0:
392,160,417094,1,0,0:0:0:0:
416,172,417194,1,8,0:0:0:0:
416,172,417294,1,8,0:0:0:0:
452,160,417394,1,0,0:0:0:0:
416,172,417494,1,8,0:0:0:0:
416,172,417594,1,8,0:0:0:0:
416,172,417694,1,0,0:0:0:0:
416,172,417994,1,0,0:0:0:0:
456,212,418144,1,8,0:0:0:0:
416,172,418294,1,8,0:0:0:0:
497,164,418594,1,8,0:0:0:0:
497,164,418669,1,8,0:0:0:0:
497,164,418744,1,8,0:0:0:0:
497,164,418819,1,8,0:0:0:0:
388,184,418894,1,4,0:0:0:0:
423,146,419044,1,0,0:0:0:0:
423,146,419194,1,0,0:0:0:0:
367,154,419344,1,8,0:0:0:0:
416,224,419569,1,0,0:0:0:0:
468,204,419644,1,8,0:0:0:0:
412,204,419794,1,0,0:0:0:0:
428,152,419944,1,8,0:0:0:0:
408,264,420244,1,8,0:0:0:0:
448,174,420544,1,0,0:0:0:0:
448,174,420694,1,8,0:0:0:0:
448,174,420844,1,8,0:0:0:0:
428,172,420894,1,8,0:0:0:0:
408,168,420944,1,8,0:0:0:0:
448,172,420994,1,0,0:0:0:0:
448,174,421144,1,8,0:0:0:0:
504,168,421294,1,0,0:0:0:0:
420,180,421519,1,0,0:0:0:0:
420,180,421594,1,8,0:0:0:0:
448,174,421744,1,0,0:0:0:0:
444,256,421969,1,0,0:0:0:0:
420,180,422044,1,0,0:0:0:0:
460,220,422194,1,0,0:0:0:0:
420,180,422344,1,8,0:0:0:0:
420,180,422644,1,0,0:0:0:0:
420,180,422794,1,8,0:0:0:0:
420,180,422944,1,0,0:0:0:0:
508,248,423094,1,8,0:0:0:0:
464,212,423244,1,8,0:0:0:0:
440,196,423319,1,8,0:0:0:0:
420,180,423394,1,0,0:0:0:0:
460,180,423544,1,8,0:0:0:0:
404,188,423694,1,4,0:0:0:0:
448,224,423844,1,0,0:0:0:0:
404,188,423919,1,0,0:0:0:0:
420,180,423994,1,8,0:0:0:0:
464,212,424144,1,0,0:0:0:0:
460,180,424219,1,8,0:0:0:0:
404,188,424294,1,0,0:0:0:0:
431,184,424369,1,0,0:0:0:0:
460,180,424444,1,8,0:0:0:0:
420,180,424519,1,0,0:0:0:0:
436,176,424594,1,8,0:0:0:0:
460,180,424744,1,8,0:0:0:0:
433,208,424819,1,8,0:0:0:0:
420,180,424894,1,0,0:0:0:0:
420,180,424969,1,0,0:0:0:0:
420,180,425044,1,8,0:0:0:0:
448,224,425119,1,0,0:0:0:0:
464,176,425194,1,8,0:0:0:0:
464,176,425269,1,8,0:0:0:0:
436,176,425344,1,8,0:0:0:0:
448,224,425419,1,0,0:0:0:0:
464,176,425494,1,8,0:0:0:0:
384,160,425569,1,0,0:0:0:0:
344,172,425644,1,8,0:0:0:0:
360,208,425719,1,8,0:0:0:0:
368,200,425794,1,0,0:0:0:0:
376,168,425869,1,8,0:0:0:0:
316,196,425944,1,0,0:0:0:0:
436,173,426019,1,0,0:0:0:0:
408,176,426094,1,8,0:0:0:0:
352,168,426244,1,8,0:0:0:0:
392,160,426394,1,0,0:0:0:0:
420,160,426469,1,0,0:0:0:0:
420,160,426544,1,0,0:0:0:0:
420,160,426619,1,0,0:0:0:0:
464,176,426694,1,8,0:0:0:0:
464,176,426844,1,8,0:0:0:0:
436,176,426994,1,0,0:0:0:0:
436,176,427069,1,0,0:0:0:0:
436,176,427144,1,0,0:0:0:0:
368,176,427219,1,0,0:0:0:0:
459,160,427294,1,12,0:0:0:0:
420,160,427519,1,12,0:0:0:0:
360,172,427744,1,12,0:0:0:0:
388,176,427969,1,4,0:0:0:0:
360,172,428194,1,12,0:0:0:0:
388,176,428344,1,12,0:0:0:0:
245,216,428494,1,4,0:0:0:0:
364,216,429394,1,0,0:0:0:0:
368,188,429694,1,8,0:0:0:0:
368,188,430294,1,8,0:0:0:0:
343,188,430894,1,0,0:0:0:0:
391,196,432094,1,8,0:0:0:0:
391,196,432694,1,8,0:0:0:0:
481,54,433144,1,0,0:0:0:0:
470,69,433194,1,0,0:0:0:0:
459,84,433244,1,0,0:0:0:0:
447,98,433294,1,8,0:0:0:0:
412,141,433444,1,8,0:0:0:0:
377,185,433594,1,8,0:0:0:0:
377,185,433744,1,8,0:0:0:0:
377,185,433894,1,8,0:0:0:0:
377,185,434044,1,8,0:0:0:0:
377,185,434194,1,8,0:0:0:0:
377,185,434344,1,8,0:0:0:0:
350,176,434419,1,8,0:0:0:0:
350,176,434494,1,0,0:0:0:0:
294,173,434644,1,8,0:0:0:0:
349,179,434794,1,8,0:0:0:0:
293,173,434944,1,8,0:0:0:0:
348,178,435094,1,8,0:0:0:0:
292,173,435244,1,8,0:0:0:0:
347,178,435394,1,8,0:0:0:0:
291,173,435544,1,8,0:0:0:0:
318,175,435619,1,8,0:0:0:0:
345,176,435694,1,0,0:0:0:0:
372,177,435769,1,0,0:0:0:0:
399,179,435844,1,0,0:0:0:0:
348,178,435919,1,0,0:0:0:0:
399,179,435994,1,8,0:0:0:0:
399,179,436069,1,8,0:0:0:0:
399,179,436144,1,0,0:0:0:0:
399,179,436219,1,0,0:0:0:0:
419,159,436294,1,8,0:0:0:0:
446,153,436369,1,0,0:0:0:0:
399,179,436444,1,8,0:0:0:0:
399,179,436519,1,8,0:0:0:0:
419,159,436594,1,0,0:0:0:0:
399,178,436669,1,0,0:0:0:0:
372,177,436744,1,8,0:0:0:0:
399,179,436819,1,8,0:0:0:0:
399,179,436894,1,0,0:0:0:0:
399,179,436944,1,0,0:0:0:0:
399,179,436994,1,0,0:0:0:0:
399,179,437044,1,8,0:0:0:0:
399,179,437119,1,8,0:0:0:0:
399,179,437194,1,0,0:0:0:0:
406,161,437244,1,0,0:0:0:0:
414,144,437294,1,0,0:0:0:0:
399,179,437344,1,8,0:0:0:0:
424,176,437419,1,8,0:0:0:0:
371,179,437494,2,0,L|171:98,1,210
300,164,438094,1,4,0:0:0:0:
354,175,438244,1,8,0:0:0:0:
384,172,438319,1,8,0:0:0:0:
407,186,438394,1,0,0:0:0:0:
352,188,438544,1,0,0:0:0:0:
384,172,438619,1,8,0:0:0:0:
354,175,438694,1,0,0:0:0:0:
357,122,438844,1,0,0:0:0:0:
440,176,438919,1,8,0:0:0:0:
464,191,438994,1,8,0:0:0:0:
407,186,439144,1,0,0:0:0:0:
492,192,439294,1,8,0:0:0:0:
464,191,439369,1,0,0:0:0:0:
440,176,439444,1,8,0:0:0:0:
412,176,439519,1,0,0:0:0:0:
464,184,439594,1,8,0:0:0:0:
407,186,439669,1,8,0:0:0:0:
464,184,439744,1,0,0:0:0:0:
439,197,439819,1,0,0:0:0:0:
492,192,439894,1,8,0:0:0:0:
384,164,440044,1,8,0:0:0:0:
407,186,440119,1,0,0:0:0:0:
464,191,440194,1,8,0:0:0:0:
492,192,440344,1,8,0:0:0:0:
464,184,440494,1,4,0:0:0:0:
464,184,440644,1,8,0:0:0:0:
464,184,440719,1,8,0:0:0:0:
436,182,440794,1,0,0:0:0:0:
384,176,440944,1,0,0:0:0:0:
436,182,441019,1,8,0:0:0:0:
388,168,441094,1,0,0:0:0:0:
384,164,441244,1,0,0:0:0:0:
384,164,441394,1,8,0:0:0:0:
464,184,441544,1,0,0:0:0:0:
384,164,441694,1,8,0:0:0:0:
407,193,441769,1,8,0:0:0:0:
384,164,441844,1,0,0:0:0:0:
404,160,441919,1,0,0:0:0:0:
384,164,441994,1,8,0:0:0:0:
436,182,442069,1,0,0:0:0:0:
436,182,442144,1,8,0:0:0:0:
436,182,442219,1,8,0:0:0:0:
407,193,442294,1,0,0:0:0:0:
377,191,442444,1,8,0:0:0:0:
397,212,442519,1,0,0:0:0:0:
422,201,442594,1,0,0:0:0:0:
379,192,442894,1,4,0:0:0:0:
380,189,443044,1,0,0:0:0:0:
380,189,443119,1,0,0:0:0:0:
380,189,443194,1,8,0:0:0:0:
407,193,443344,1,0,0:0:0:0:
376,144,443494,1,8,0:0:0:0:
376,144,443644,1,8,0:0:0:0:
380,189,443944,1,4,0:0:0:0:
407,193,444244,1,0,0:0:0:0:
407,193,444319,1,0,0:0:0:0:
380,189,444394,1,8,0:0:0:0:
407,193,444544,1,8,0:0:0:0:
464,200,444694,1,0,0:0:0:0:
380,189,444844,1,8,0:0:0:0:
380,189,445144,1,4,0:0:0:0:
490,171,445444,1,0,0:0:0:0:
434,168,445594,1,8,0:0:0:0:
434,168,445744,1,0,0:0:0:0:
434,168,445819,1,0,0:0:0:0:
406,171,445894,1,8,0:0:0:0:
380,189,446044,1,0,0:0:0:0:
406,171,446194,1,8,0:0:0:0:
406,171,446344,1,8,0:0:0:0:
406,171,446419,1,8,0:0:0:0:
406,171,446494,1,0,0:0:0:0:
412,200,446569,1,0,0:0:0:0:
406,171,446644,1,0,0:0:0:0:
406,171,446719,1,0,0:0:0:0:
406,171,446794,1,8,0:0:0:0:
388,149,446869,1,8,0:0:0:0:
380,189,446944,1,0,0:0:0:0:
435,184,447019,1,0,0:0:0:0:
435,184,447094,1,8,0:0:0:0:
435,184,447169,1,0,0:0:0:0:
430,156,447244,1,8,0:0:0:0:
378,173,447319,1,8,0:0:0:0:
380,189,447394,1,0,0:0:0:0:
435,184,447469,1,0,0:0:0:0:
435,184,447544,1,8,0:0:0:0:
350,162,447694,1,4,0:0:0:0:
448,216,447994,1,8,0:0:0:0:
423,202,448069,1,8,0:0:0:0:
423,202,448144,1,0,0:0:0:0:
423,202,448219,1,8,0:0:0:0:
447,189,448294,1,0,0:0:0:0:
447,189,448369,1,8,0:0:0:0:
447,189,448444,1,0,0:0:0:0:
461,165,448519,1,8,0:0:0:0:
461,165,448594,1,0,0:0:0:0:
461,165,448669,1,0,0:0:0:0:
488,171,448744,1,8,0:0:0:0:
447,189,448819,1,8,0:0:0:0:
423,202,448894,1,0,0:0:0:0:
472,180,449044,1,8,0:0:0:0:
472,180,449119,1,8,0:0:0:0:
423,202,449194,1,0,0:0:0:0:
423,202,449344,1,0,0:0:0:0:
424,176,449419,1,8,0:0:0:0:
400,192,449494,1,0,0:0:0:0:
472,180,449644,1,8,0:0:0:0:
447,189,449719,1,8,0:0:0:0:
444,179,449794,1,0,0:0:0:0:
444,179,449869,1,0,0:0:0:0:
472,180,449944,1,8,0:0:0:0:
472,180,450019,1,8,0:0:0:0:
472,180,450094,1,0,0:0:0:0:
444,179,450394,1,0,0:0:0:0:
388,171,450544,1,8,0:0:0:0:
461,255,450769,1,0,0:0:0:0:
461,255,450844,1,0,0:0:0:0:
444,179,450994,1,8,0:0:0:0:
499,175,451144,1,8,0:0:0:0:
499,175,451294,1,0,0:0:0:0:
452,205,451444,1,0,0:0:0:0:
410,166,451594,1,8,0:0:0:0:
499,175,451744,1,0,0:0:0:0:
499,175,451894,1,0,0:0:0:0:
472,183,451969,1,8,0:0:0:0:
499,175,452044,1,0,0:0:0:0:
443,177,452194,1,8,0:0:0:0:
443,177,452344,1,8,0:0:0:0:
443,177,452494,1,0,0:0:0:0:
443,177,452794,1,0,0:0:0:0:
498,186,452944,1,8,0:0:0:0:
418,158,453169,1,0,0:0:0:0:
418,158,453244,1,0,0:0:0:0:
418,158,453394,1,8,0:0:0:0:
418,158,453544,1,8,0:0:0:0:
418,158,453694,1,0,0:0:0:0:
418,158,453844,1,0,0:0:0:0:
388,160,453919,1,0,0:0:0:0:
362,163,453994,1,8,0:0:0:0:
410,191,454144,1,0,0:0:0:0:
416,177,454294,1,0,0:0:0:0:
362,163,454369,1,8,0:0:0:0:
360,185,454444,1,0,0:0:0:0:
410,191,454594,1,8,0:0:0:0:
436,181,454669,1,0,0:0:0:0:
457,162,454744,1,8,0:0:0:0:
457,162,454819,1,8,0:0:0:0:
484,161,454894,1,0,0:0:0:0:
430,259,455194,1,0,0:0:0:0:
449,206,455344,1,8,0:0:0:0:
449,206,455569,1,0,0:0:0:0:
410,191,455644,1,0,0:0:0:0:
457,162,455794,1,0,0:0:0:0:
464,188,455944,1,8,0:0:0:0:
439,167,456094,1,4,0:0:0:0:
439,167,456394,1,8,0:0:0:0:
439,167,456544,1,0,0:0:0:0:
383,176,456694,1,0,0:0:0:0:
410,176,456769,1,8,0:0:0:0:
383,176,456844,1,0,0:0:0:0:
410,176,456994,1,8,0:0:0:0:
410,176,457144,1,8,0:0:0:0:
457,145,457294,1,4,0:0:0:0:
478,226,457519,1,0,0:0:0:0:
455,209,457594,1,8,0:0:0:0:
455,209,457744,1,0,0:0:0:0:
399,199,457894,1,12,0:0:0:0:
432,244,458044,1,0,0:0:0:0:
376,120,458119,1,8,0:0:0:0:
480,178,458194,1,0,0:0:0:0:
480,178,458344,1,0,0:0:0:0:
424,172,458494,1,8,0:0:0:0:
424,172,458569,1,8,0:0:0:0:
424,172,458644,1,8,0:0:0:0:
396,176,458719,1,0,0:0:0:0:
480,178,458794,1,8,0:0:0:0:
452,188,458869,1,8,0:0:0:0:
480,178,458944,1,0,0:0:0:0:
480,178,459019,1,0,0:0:0:0:
480,178,459094,1,8,0:0:0:0:
452,176,459169,1,0,0:0:0:0:
428,224,459244,1,0,0:0:0:0:
428,224,459319,1,0,0:0:0:0:
396,176,459394,1,8,0:0:0:0:
424,168,459544,1,8,0:0:0:0:
368,172,459619,1,8,0:0:0:0:
428,224,459693,1,4,0:0:0:0:
350,192,459843,1,0,0:0:0:0:
350,192,459918,1,0,0:0:0:0:
450,177,459993,1,8,0:0:0:0:
370,189,460143,1,0,0:0:0:0:
424,172,460293,1,8,0:0:0:0:
368,176,460443,1,0,0:0:0:0:
368,176,460518,1,0,0:0:0:0:
368,176,460593,1,8,0:0:0:0:
323,210,460743,1,0,0:0:0:0:
368,176,460893,1,8,0:0:0:0:
392,192,460968,1,8,0:0:0:0:
392,164,461043,1,0,0:0:0:0:
392,192,461193,1,8,0:0:0:0:
420,200,461268,1,0,0:0:0:0:
392,192,461343,1,8,0:0:0:0:
392,192,461418,1,8,0:0:0:0:
420,200,461493,1,0,0:0:0:0:
420,200,461643,1,0,0:0:0:0:
444,184,461718,1,0,0:0:0:0:
392,192,461793,1,8,0:0:0:0:
392,192,461943,1,0,0:0:0:0:
444,184,462093,1,8,0:0:0:0:
392,192,462243,1,0,0:0:0:0:
400,164,462318,1,0,0:0:0:0:
420,200,462393,1,8,0:0:0:0:
344,162,462543,1,8,0:0:0:0:
425,176,462618,1,0,0:0:0:0:
344,162,462693,1,8,0:0:0:0:
367,177,462768,1,8,0:0:0:0:
392,192,462843,1,0,0:0:0:0:
400,164,462993,1,8,0:0:0:0:
425,176,463143,1,0,0:0:0:0:
400,164,463293,1,8,0:0:0:0:
371,167,463368,1,0,0:0:0:0:
371,160,463443,1,0,0:0:0:0:
425,176,463518,1,0,0:0:0:0:
367,177,463593,1,8,0:0:0:0:
372,212,463743,1,0,0:0:0:0:
425,176,463893,1,8,0:0:0:0:
371,160,464043,1,0,0:0:0:0:
324,148,464118,1,0,0:0:0:0:
371,160,464193,1,8,0:0:0:0:
345,171,464268,1,0,0:0:0:0:
392,174,464343,1,8,0:0:0:0:
400,164,464493,1,4,0:0:0:0:
344,167,464643,1,0,0:0:0:0:
316,169,464718,1,0,0:0:0:0:
288,176,464793,1,8,0:0:0:0:
343,177,464943,1,0,0:0:0:0:
396,194,465093,1,8,0:0:0:0:
453,156,465243,1,0,0:0:0:0:
425,158,465318,1,0,0:0:0:0:
344,167,465393,1,8,0:0:0:0:
399,170,465543,1,0,0:0:0:0:
425,158,465693,1,8,0:0:0:0:
425,158,465768,1,8,0:0:0:0:
425,158,465843,1,0,0:0:0:0:
436,184,465993,1,8,0:0:0:0:
436,184,466068,1,0,0:0:0:0:
372,178,466143,1,8,0:0:0:0:
436,184,466218,1,8,0:0:0:0:
436,184,466293,1,0,0:0:0:0:
452,165,466443,1,0,0:0:0:0:
452,165,466518,1,0,0:0:0:0:
372,178,466593,1,8,0:0:0:0:
456,204,466743,1,0,0:0:0:0:
454,174,466893,1,8,0:0:0:0:
399,176,467043,1,0,0:0:0:0:
399,176,467118,1,0,0:0:0:0:
454,174,467193,1,8,0:0:0:0:
454,174,467343,1,0,0:0:0:0:
344,176,467493,1,8,0:0:0:0:
432,192,467568,1,8,0:0:0:0:
372,176,467643,1,0,0:0:0:0:
400,176,467718,1,0,0:0:0:0:
428,172,467793,1,8,0:0:0:0:
399,176,467868,1,0,0:0:0:0:
454,174,467943,1,8,0:0:0:0:
432,192,468018,1,8,0:0:0:0:
344,176,468093,1,0,0:0:0:0:
400,176,468243,1,0,0:0:0:0:
428,172,468393,1,8,0:0:0:0:
400,176,468543,1,8,0:0:0:0:
400,176,468618,1,8,0:0:0:0:
400,176,468693,1,0,0:0:0:0:
344,176,468843,1,0,0:0:0:0:
432,192,468918,1,8,0:0:0:0:
428,172,468993,1,0,0:0:0:0:
400,176,469068,1,0,0:0:0:0:
400,172,469143,1,8,0:0:0:0:
428,172,469293,1,4,0:0:0:0:
400,172,469443,1,0,0:0:0:0:
400,172,469518,1,0,0:0:0:0:
426,180,469593,1,8,0:0:0:0:
476,204,469743,1,0,0:0:0:0:
420,213,469893,1,8,0:0:0:0:
476,204,470043,1,0,0:0:0:0:
476,204,470118,1,0,0:0:0:0:
460,180,470193,1,8,0:0:0:0:
426,180,470343,1,0,0:0:0:0:
348,192,470493,1,8,0:0:0:0:
400,188,470568,1,8,0:0:0:0:
426,180,470643,1,0,0:0:0:0:
426,180,470793,1,8,0:0:0:0:
400,160,470868,1,0,0:0:0:0:
348,192,470943,1,8,0:0:0:0:
480,168,471018,1,8,0:0:0:0:
452,168,471093,1,0,0:0:0:0:
426,180,471243,1,0,0:0:0:0:
400,188,471318,1,0,0:0:0:0:
348,192,471393,1,8,0:0:0:0:
404,188,471543,1,0,0:0:0:0:
400,160,471693,1,8,0:0:0:0:
426,180,471768,1,8,0:0:0:0:
348,140,471843,1,0,0:0:0:0:
372,184,471993,1,8,0:0:0:0:
348,192,472068,1,0,0:0:0:0:
426,180,472143,1,8,0:0:0:0:
426,180,472218,1,8,0:0:0:0:
400,188,472293,1,0,0:0:0:0:
456,176,472443,1,0,0:0:0:0:
372,184,472518,1,0,0:0:0:0:
400,160,472593,1,8,0:0:0:0:
456,176,472743,1,0,0:0:0:0:
404,192,472893,1,12,0:0:0:0:
472,208,473093,1,4,0:0:0:0:
400,180,473293,1,12,0:0:0:0:
400,188,473493,1,12,0:0:0:0:
400,188,473693,1,4,0:0:0:0:
400,180,473893,1,12,0:0:0:0:
474,185,474093,1,4,0:0:0:0:
388,167,474693,1,8,0:0:0:0:
404,185,474993,1,4,0:0:0:0:
436,216,475593,1,0,0:0:0:0:
388,188,475743,1,0,0:0:0:0:
347,199,475893,1,12,0:0:0:0:
400,180,476043,1,4,0:0:0:0:
400,180,476193,1,0,0:0:0:0:
400,180,476268,1,0,0:0:0:0:
400,180,476343,1,0,0:0:0:0:
400,180,476418,1,0,0:0:0:0:
424,164,476493,1,8,0:0:0:0:
400,180,476643,1,0,0:0:0:0:
348,164,476793,1,8,0:0:0:0:
400,180,476943,1,0,0:0:0:0:
372,176,477018,1,0,0:0:0:0:
376,168,477093,1,8,0:0:0:0:
376,168,477243,1,0,0:0:0:0:
320,156,477393,1,8,0:0:0:0:
376,168,477543,1,0,0:0:0:0:
356,184,477618,1,0,0:0:0:0:
376,168,477693,1,8,0:0:0:0:
428,184,477768,1,8,0:0:0:0:
400,180,477843,1,0,0:0:0:0:
400,180,477918,1,0,0:0:0:0:
376,168,477993,1,8,0:0:0:0:
404,164,478068,1,8,0:0:0:0:
376,168,478143,1,0,0:0:0:0:
400,180,478218,1,0,0:0:0:0:
428,184,478293,1,8,0:0:0:0:
400,180,478368,1,0,0:0:0:0:
388,188,478443,1,8,0:0:0:0:
400,180,478518,1,0,0:0:0:0:
388,188,478593,1,8,0:0:0:0:
388,188,478893,1,4,0:0:0:0:
412,236,479043,1,0,0:0:0:0:
424,264,479118,1,0,0:0:0:0:
388,188,479193,1,8,0:0:0:0:
360,180,479343,1,0,0:0:0:0:
400,180,479493,1,8,0:0:0:0:
400,180,479568,1,0,0:0:0:0:
388,188,479643,1,0,0:0:0:0:
388,188,479718,1,0,0:0:0:0:
388,188,479793,1,8,0:0:0:0:
376,132,479943,1,0,0:0:0:0:
420,168,480093,1,8,0:0:0:0:
400,180,480243,1,0,0:0:0:0:
400,180,480318,1,0,0:0:0:0:
372,172,480393,1,8,0:0:0:0:
420,168,480543,1,8,0:0:0:0:
420,168,480618,1,0,0:0:0:0:
372,172,480693,1,8,0:0:0:0:
388,188,480768,1,8,0:0:0:0:
396,160,480843,1,0,0:0:0:0:
396,160,480918,1,0,0:0:0:0:
368,160,480993,1,8,0:0:0:0:
396,160,481143,1,0,0:0:0:0:
372,172,481293,1,8,0:0:0:0:
428,172,481443,1,0,0:0:0:0:
456,172,481518,1,0,0:0:0:0:
420,168,481593,1,8,0:0:0:0:
428,172,481743,1,8,0:0:0:0:
455,170,481818,1,0,0:0:0:0:
456,172,481893,1,8,0:0:0:0:
456,172,481968,1,8,0:0:0:0:
396,160,482043,1,0,0:0:0:0:
396,160,482118,1,0,0:0:0:0:
428,172,482193,1,8,0:0:0:0:
456,172,482343,1,0,0:0:0:0:
500,208,482493,1,8,0:0:0:0:
449,231,482568,1,0,0:0:0:0:
456,172,482643,1,0,0:0:0:0:
438,193,482718,1,0,0:0:0:0:
400,180,482793,1,8,0:0:0:0:
428,172,482943,1,0,0:0:0:0:
456,172,483093,1,8,0:0:0:0:
456,172,483243,1,0,0:0:0:0:
456,172,483318,1,0,0:0:0:0:
456,172,483393,1,8,0:0:0:0:
456,172,483468,1,0,0:0:0:0:
484,172,483543,1,8,0:0:0:0:
456,172,483693,1,4,0:0:0:0:
456,172,483843,1,0,0:0:0:0:
456,172,483918,1,0,0:0:0:0:
456,172,483993,1,8,0:0:0:0:
484,172,484143,1,0,0:0:0:0:
428,168,484293,1,8,0:0:0:0:
399,171,484368,1,0,0:0:0:0:
372,158,484443,1,0,0:0:0:0:
399,163,484518,1,0,0:0:0:0:
371,161,484593,1,8,0:0:0:0:
378,105,484743,1,0,0:0:0:0:
382,160,484893,1,12,0:0:0:0:
372,158,485043,1,0,0:0:0:0:
399,163,485193,1,8,0:0:0:0:
371,167,485268,1,0,0:0:0:0:
372,158,485343,1,8,0:0:0:0:
372,158,485418,1,8,0:0:0:0:
399,163,485493,1,0,0:0:0:0:
382,160,485643,1,0,0:0:0:0:
402,202,485718,1,0,0:0:0:0:
344,200,485793,1,8,0:0:0:0:
400,212,485943,1,0,0:0:0:0:
375,186,486093,1,4,0:0:0:0:
430,195,486243,1,0,0:0:0:0:
430,195,486318,1,0,0:0:0:0:
375,186,486393,1,8,0:0:0:0:
399,163,486543,1,0,0:0:0:0:
375,186,486693,1,12,0:0:0:0:
430,195,486843,1,8,0:0:0:0:
402,202,486918,1,0,0:0:0:0:
430,195,486993,1,8,0:0:0:0:
378,172,487143,1,8,0:0:0:0:
407,219,487293,1,4,0:0:0:0:
430,195,487443,1,0,0:0:0:0:
430,195,487518,1,0,0:0:0:0:
456,187,487593,1,8,0:0:0:0:
430,195,487743,1,8,0:0:0:0:
407,143,487893,1,0,0:0:0:0:
352,184,487968,1,8,0:0:0:0:
456,187,488043,1,0,0:0:0:0:
456,187,488118,1,0,0:0:0:0:
430,195,488193,1,8,0:0:0:0:
456,185,488268,1,0,0:0:0:0:
430,195,488343,1,8,0:0:0:0:
430,195,488493,1,4,0:0:0:0:
430,195,488643,1,0,0:0:0:0:
430,195,488718,1,0,0:0:0:0:
404,196,488793,1,8,0:0:0:0:
348,192,488943,1,0,0:0:0:0:
430,195,489093,1,8,0:0:0:0:
432,200,489168,1,0,0:0:0:0:
456,185,489243,1,0,0:0:0:0:
430,195,489318,1,0,0:0:0:0:
430,195,489393,1,8,0:0:0:0:
404,196,489543,1,0,0:0:0:0:
456,185,489693,1,8,0:0:0:0:
408,161,489768,1,8,0:0:0:0:
348,192,489843,1,0,0:0:0:0:
404,196,489993,1,8,0:0:0:0:
408,161,490068,1,0,0:0:0:0:
384,143,490143,1,8,0:0:0:0:
405,161,490218,1,8,0:0:0:0:
382,177,490293,1,0,0:0:0:0:
348,192,490443,1,0,0:0:0:0:
348,192,490518,1,0,0:0:0:0:
372,204,490593,1,8,0:0:0:0:
408,161,490743,1,0,0:0:0:0:
358,186,490893,1,8,0:0:0:0:
382,177,490968,1,8,0:0:0:0:
372,204,491043,1,0,0:0:0:0:
430,195,491193,1,8,0:0:0:0:
428,188,491268,1,0,0:0:0:0:
382,224,491343,1,8,0:0:0:0:
396,200,491418,1,8,0:0:0:0:
383,175,491493,1,0,0:0:0:0:
358,186,491643,1,0,0:0:0:0:
358,186,491718,1,0,0:0:0:0:
430,195,491793,1,8,0:0:0:0:
484,188,491943,1,0,0:0:0:0:
428,188,492093,1,12,0:0:0:0:
382,224,492293,1,4,0:0:0:0:
392,198,492493,1,12,0:0:0:0:
392,198,492693,1,12,0:0:0:0:
335,148,492893,1,4,0:0:0:0:
381,206,493093,1,12,0:0:0:0:
424,267,493293,1,4,0:0:0:0:
364,170,493893,1,8,0:0:0:0:
370,152,494193,1,4,0:0:0:0:
141,140,494793,1,0,0:0:0:0:
196,147,494943,1,0,0:0:0:0:
251,153,495093,1,12,0:0:0:0:
304,168,495243,1,4,0:0:0:0:
360,176,495393,1,0,0:0:0:0:
388,176,495468,1,0,0:0:0:0:
388,176,495543,1,0,0:0:0:0:
388,176,495618,1,0,0:0:0:0:
360,176,495693,1,8,0:0:0:0:
412,156,495843,1,0,0:0:0:0:
360,176,495993,1,8,0:0:0:0:
388,176,496143,1,0,0:0:0:0:
388,176,496218,1,0,0:0:0:0:
412,156,496293,1,8,0:0:0:0:
356,161,496443,1,0,0:0:0:0:
411,171,496593,1,8,0:0:0:0:
412,156,496743,1,0,0:0:0:0:
356,161,496818,1,0,0:0:0:0:
369,185,496893,1,8,0:0:0:0:
369,185,496968,1,8,0:0:0:0:
336,161,497043,1,0,0:0:0:0:
388,176,497118,1,0,0:0:0:0:
388,176,497193,1,8,0:0:0:0:
369,185,497268,1,8,0:0:0:0:
411,171,497343,1,0,0:0:0:0:
411,171,497418,1,0,0:0:0:0:
383,164,497493,1,8,0:0:0:0:
388,176,497568,1,0,0:0:0:0:
388,176,497643,1,8,0:0:0:0:
360,181,497718,1,0,0:0:0:0:
388,176,497793,1,8,0:0:0:0:
408,218,498093,1,0,0:0:0:0:
408,218,498393,1,0,0:0:0:0:
408,218,498543,1,0,0:0:0:0:
442,173,498693,1,8,0:0:0:0:
338,215,498993,1,8,0:0:0:0:
388,190,499143,1,0,0:0:0:0:
477,122,499443,1,0,0:0:0:0:
432,156,499593,1,0,0:0:0:0:
487,160,499743,1,0,0:0:0:0:
441,193,499893,1,8,0:0:0:0:
330,177,500193,1,0,0:0:0:0:
351,228,500343,1,8,0:0:0:0:
432,156,500493,1,0,0:0:0:0:
458,158,500793,1,0,0:0:0:0:
458,158,500943,1,0,0:0:0:0:
465,176,501093,1,8,0:0:0:0:
355,199,501393,1,8,0:0:0:0:
409,187,501543,1,0,0:0:0:0:
458,158,501843,1,0,0:0:0:0:
409,187,501993,1,8,0:0:0:0:
460,164,502143,1,0,0:0:0:0:
460,164,502293,1,8,0:0:0:0:
352,195,502593,1,8,0:0:0:0:
409,187,502743,1,8,0:0:0:0:
444,258,502893,1,0,0:0:0:0:
392,232,503193,1,0,0:0:0:0:
380,176,503343,1,0,0:0:0:0:
364,124,503493,1,8,0:0:0:0:
452,192,503793,1,8,0:0:0:0:
400,172,503943,1,0,0:0:0:0:
504,132,504243,1,0,0:0:0:0:
456,164,504393,1,0,0:0:0:0:
408,192,504543,1,0,0:0:0:0:
400,172,504693,1,8,0:0:0:0:
450,271,504993,1,0,0:0:0:0:
406,235,505143,1,8,0:0:0:0:
400,172,505293,1,0,0:0:0:0:
511,166,505593,1,0,0:0:0:0:
455,169,505743,1,0,0:0:0:0:
511,166,505893,1,8,0:0:0:0:
455,169,506193,1,8,0:0:0:0:
399,171,506343,1,0,0:0:0:0:
399,171,506643,1,0,0:0:0:0:
454,176,506793,1,8,0:0:0:0:
400,158,506943,1,0,0:0:0:0:
399,171,507093,1,8,0:0:0:0:
454,176,507393,1,0,0:0:0:0:
454,176,507468,1,0,0:0:0:0:
426,170,507543,1,8,0:0:0:0:
398,165,507618,1,8,0:0:0:0:
400,158,507693,1,0,0:0:0:0:
494,218,507993,1,0,0:0:0:0:
446,187,508143,1,0,0:0:0:0:
446,187,508293,1,8,0:0:0:0:
391,174,508443,1,8,0:0:0:0:
446,187,508593,1,8,0:0:0:0:
446,187,508743,1,0,0:0:0:0:
455,75,509043,1,0,0:0:0:0:
432,126,509193,1,8,0:0:0:0:
446,187,509343,1,0,0:0:0:0:
391,174,509493,1,8,0:0:0:0:
446,187,509793,1,0,0:0:0:0:
391,174,509943,1,0,0:0:0:0:
390,189,510093,1,8,0:0:0:0:
496,224,510393,1,0,0:0:0:0:
439,159,510543,1,0,0:0:0:0:
383,167,510693,1,8,0:0:0:0:
383,167,510843,1,8,0:0:0:0:
383,167,510993,1,8,0:0:0:0:
433,141,511143,1,0,0:0:0:0:
364,262,511443,1,0,0:0:0:0:
396,216,511593,1,8,0:0:0:0:
408,161,511743,1,0,0:0:0:0:
433,141,511893,1,8,0:0:0:0:
411,250,512193,1,0,0:0:0:0:
382,201,512343,1,0,0:0:0:0:
460,154,512493,1,8,0:0:0:0:
350,177,512793,1,8,0:0:0:0:
350,177,512943,1,0,0:0:0:0:
404,168,513093,1,8,0:0:0:0:
404,168,513243,1,8,0:0:0:0:
404,168,513393,1,8,0:0:0:0:
460,156,513543,1,0,0:0:0:0:
476,136,513843,1,0,0:0:0:0:
424,152,513993,1,8,0:0:0:0:
368,160,514143,1,0,0:0:0:0:
404,168,514293,1,8,0:0:0:0:
368,160,514443,1,8,0:0:0:0:
368,160,514593,1,0,0:0:0:0:
317,168,514743,1,0,0:0:0:0:
312,152,514893,1,8,0:0:0:0:
420,172,515193,1,0,0:0:0:0:
392,220,515343,1,8,0:0:0:0:
364,164,515493,1,8,0:0:0:0:
308,156,515643,1,8,0:0:0:0:
364,164,515793,1,8,0:0:0:0:
316,136,515943,1,0,0:0:0:0:
364,168,516093,1,8,0:0:0:0:
404,208,516243,1,8,0:0:0:0:
452,200,516318,1,8,0:0:0:0:
400,152,516393,1,0,0:0:0:0:
404,208,516543,1,0,0:0:0:0:
404,208,516693,1,8,0:0:0:0:
424,156,516843,1,0,0:0:0:0:
424,156,516918,1,8,0:0:0:0:
408,208,516993,1,0,0:0:0:0:
428,156,517143,1,0,0:0:0:0:
376,180,517293,1,12,0:0:0:0:
256,192,517443,12,0,522093,0:0:0:0:
386,242,524498,5,0,0:0:0:0:
358,182,525250,1,0,0:0:0:0:
331,142,525697,1,8,0:0:0:0:
414,177,526222,1,8,0:0:0:0:
366,176,526887,1,0,0:0:0:0:
438,172,527556,1,8,0:0:0:0:
412,201,528002,1,0,0:0:0:0:
362,145,528460,1,8,0:0:0:0:
401,188,528833,1,8,0:0:0:0:
479,172,529207,1,8,0:0:0:0:
431,197,529364,1,0,0:0:0:0:
332,108,529538,1,0,0:0:0:0:
377,149,529819,1,0,0:0:0:0:
404,189,530200,1,8,0:0:0:0:
340,153,530543,1,8,0:0:0:0:
364,131,530692,1,8,0:0:0:0:
326,125,530905,1,8,0:0:0:0:
332,168,531293,1,8,0:0:0:0:
246,32,531716,1,0,0:0:0:0:
313,86,532191,1,0,0:0:0:0:
376,130,532670,1,8,0:0:0:0:
398,156,533303,1,8,0:0:0:0:
389,110,534296,1,0,0:0:0:0:
389,110,534359,1,0,0:0:0:0:
349,167,534422,1,8,0:0:0:0:
322,149,534905,1,8,0:0:0:0:
505,223,535301,1,0,0:0:0:0:
389,192,535636,1,8,0:0:0:0:
306,112,535987,1,8,0:0:0:0:
360,143,536322,1,8,0:0:0:0:
339,139,536472,1,0,0:0:0:0:
363,160,536671,1,0,0:0:0:0:
296,143,536995,1,0,0:0:0:0:
339,175,537384,1,8,0:0:0:0:
327,141,537762,1,8,0:0:0:0:
371,180,538261,1,8,0:0:0:0:
404,143,538806,1,0,0:0:0:0:
384,168,539678,1,8,0:0:0:0:
384,168,539974,1,8,0:0:0:0:
360,160,540967,1,0,0:0:0:0:
399,222,541608,1,8,0:0:0:0:
399,222,541663,1,8,0:0:0:0:
410,227,542139,1,8,0:0:0:0:
378,204,542509,1,0,0:0:0:0:
337,171,542883,1,8,0:0:0:0:
391,195,543218,1,8,0:0:0:0:
418,154,543570,1,8,0:0:0:0:
357,142,543757,1,0,0:0:0:0:
384,163,544009,1,0,0:0:0:0:
418,151,544382,1,0,0:0:0:0:
423,178,544775,1,8,0:0:0:0:
452,179,545243,1,8,0:0:0:0:
452,179,545473,1,8,0:0:0:0:
452,179,545699,1,8,0:0:0:0:
341,188,546090,1,0,0:0:0:0:
393,145,546445,1,0,0:0:0:0:
267,62,546699,1,8,0:0:0:0:
309,188,547020,1,8,0:0:0:0:
345,199,547334,1,8,0:0:0:0:
345,201,547675,1,0,0:0:0:0:
249,149,548052,1,8,0:0:0:0:
222,157,548645,1,0,0:0:0:0:
283,128,549469,1,0,0:0:0:0:
300,198,550514,1,0,0:0:0:0:
269,147,551798,1,4,0:0:0:0:
333,163,553246,1,8,0:0:0:0:
404,194,553736,1,0,0:0:0:0:
444,174,554273,1,8,0:0:0:0:
280,74,554846,1,0,0:0:0:0:
354,118,555649,1,8,0:0:0:0:
354,118,555697,1,8,0:0:0:0:
481,175,564096,5,8,0:0:0:0:
433,204,564246,1,0,0:0:0:0:
406,168,564321,1,0,0:0:0:0:
481,175,564396,1,8,0:0:0:0:
433,204,564471,1,0,0:0:0:0:
425,168,564546,1,8,0:0:0:0:
453,174,564596,1,8,0:0:0:0:
400,208,564646,1,8,0:0:0:0:
332,208,564696,1,0,0:0:0:0:
388,136,564771,1,8,0:0:0:0:
481,175,564846,1,8,0:0:0:0:
406,168,564921,1,0,0:0:0:0:
425,168,564996,5,8,0:0:0:0:
425,168,565071,1,8,0:0:0:0:
443,154,565146,1,0,0:0:0:0:
400,168,565296,1,4,0:0:0:0:
444,278,565596,1,8,0:0:0:0:
425,168,565896,1,0,0:0:0:0:
425,168,566196,1,8,0:0:0:0:
447,161,566496,1,8,0:0:0:0:
447,161,566796,1,8,0:0:0:0:
447,161,566946,1,8,0:0:0:0:
391,163,567096,1,0,0:0:0:0:
279,169,567396,1,0,0:0:0:0:
391,163,567696,1,8,0:0:0:0:
399,274,567996,1,8,0:0:0:0:
395,218,568146,1,8,0:0:0:0:
344,193,568296,1,0,0:0:0:0:
456,193,568596,1,8,0:0:0:0:
456,193,568896,1,0,0:0:0:0:
345,176,569196,1,8,0:0:0:0:
455,193,569496,1,8,0:0:0:0:
507,188,569796,1,0,0:0:0:0:
423,187,569871,1,0,0:0:0:0:
451,182,569946,1,8,0:0:0:0:
455,193,570021,1,8,0:0:0:0:
423,187,570096,1,0,0:0:0:0:
431,220,570246,1,0,0:0:0:0:
451,182,570396,1,8,0:0:0:0:
451,182,570546,1,8,0:0:0:0:
451,182,570696,1,0,0:0:0:0:
451,182,570846,1,0,0:0:0:0:
451,182,570996,1,8,0:0:0:0:
421,171,571071,1,8,0:0:0:0:
423,187,571146,1,0,0:0:0:0:
395,184,571221,1,0,0:0:0:0:
451,182,571296,1,8,0:0:0:0:
428,164,571371,1,0,0:0:0:0:
421,171,571446,1,0,0:0:0:0:
421,171,571521,1,0,0:0:0:0:
395,159,571596,1,8,0:0:0:0:
451,182,571671,1,0,0:0:0:0:
423,187,571746,1,8,0:0:0:0:
421,171,571821,1,0,0:0:0:0:
421,171,571896,1,8,0:0:0:0:
428,164,571971,1,0,0:0:0:0:
421,171,572046,1,0,0:0:0:0:
339,172,572121,1,0,0:0:0:0:
428,164,572196,1,8,0:0:0:0:
348,152,572246,1,8,0:0:0:0:
352,152,572296,1,8,0:0:0:0:
352,152,572346,1,8,0:0:0:0:
348,152,572396,1,8,0:0:0:0:
348,152,572446,1,8,0:0:0:0:
423,187,572496,1,0,0:0:0:0:
0,184,573696,1,8,0:0:0:0:
56,161,573846,1,0,0:0:0:0:
111,164,573996,1,8,0:0:0:0:
168,172,574146,1,0,0:0:0:0:
223,174,574296,1,8,0:0:0:0:
277,171,574446,1,0,0:0:0:0:
277,171,574521,1,0,0:0:0:0:
304,172,574596,1,8,0:0:0:0:
332,165,574671,1,0,0:0:0:0:
359,167,574746,1,8,0:0:0:0:
360,170,574894,1,4,0:0:0:0:
312,192,575194,1,8,0:0:0:0:
492,136,575494,1,0,0:0:0:0:
396,192,575794,1,8,0:0:0:0:
492,136,576094,1,8,0:0:0:0:
440,236,576394,1,8,0:0:0:0:
468,188,576544,1,8,0:0:0:0:
416,172,576694,1,0,0:0:0:0:
468,188,576994,1,8,0:0:0:0:
420,220,577144,1,0,0:0:0:0:
484,164,577294,1,8,0:0:0:0:
484,164,577594,1,8,0:0:0:0:
484,164,577744,1,8,0:0:0:0:
484,164,577894,1,0,0:0:0:0:
484,164,578194,1,0,0:0:0:0:
420,168,578494,1,12,0:0:0:0:
428,136,578694,1,4,0:0:0:0:
448,160,578894,1,12,0:0:0:0:
364,148,579094,1,12,0:0:0:0:
408,164,579294,1,4,0:0:0:0:
396,172,579494,1,12,0:0:0:0:
432,180,579694,1,4,0:0:0:0:
451,174,580294,1,8,0:0:0:0:
348,173,580594,1,4,0:0:0:0:
468,44,581194,1,0,0:0:0:0:
468,100,581344,1,0,0:0:0:0:
444,192,581494,1,12,0:0:0:0:
400,128,581644,1,4,0:0:0:0:
444,168,581794,1,0,0:0:0:0:
444,168,581869,1,0,0:0:0:0:
444,168,581944,1,0,0:0:0:0:
444,168,582019,1,0,0:0:0:0:
468,182,582094,1,8,0:0:0:0:
444,168,582244,1,0,0:0:0:0:
468,182,582394,1,8,0:0:0:0:
415,161,582544,1,0,0:0:0:0:
415,161,582619,1,0,0:0:0:0:
387,164,582694,1,8,0:0:0:0:
387,164,582844,1,0,0:0:0:0:
415,161,582994,1,8,0:0:0:0:
387,164,583144,1,0,0:0:0:0:
384,208,583219,1,0,0:0:0:0:
412,172,583294,1,8,0:0:0:0:
412,172,583369,1,8,0:0:0:0:
387,164,583444,1,0,0:0:0:0:
387,164,583519,1,0,0:0:0:0:
436,184,583594,1,8,0:0:0:0:
412,172,583669,1,8,0:0:0:0:
436,184,583744,1,0,0:0:0:0:
436,184,583819,1,0,0:0:0:0:
408,180,583894,1,8,0:0:0:0:
436,180,583969,1,0,0:0:0:0:
412,172,584044,1,8,0:0:0:0:
436,180,584119,1,0,0:0:0:0:
387,164,584194,1,8,0:0:0:0:
444,256,584494,1,4,0:0:0:0:
488,165,584644,1,0,0:0:0:0:
488,165,584719,1,0,0:0:0:0:
436,184,584794,1,8,0:0:0:0:
387,164,584944,1,0,0:0:0:0:
387,164,585094,1,8,0:0:0:0:
414,159,585169,1,0,0:0:0:0:
441,154,585244,1,0,0:0:0:0:
468,149,585319,1,0,0:0:0:0:
441,154,585394,1,8,0:0:0:0:
414,159,585544,1,0,0:0:0:0:
441,154,585694,1,8,0:0:0:0:
468,149,585844,1,0,0:0:0:0:
468,149,585919,1,0,0:0:0:0:
441,154,585994,1,8,0:0:0:0:
441,154,586069,1,0,0:0:0:0:
385,163,586144,1,8,0:0:0:0:
385,163,586219,1,8,0:0:0:0:
441,154,586294,1,0,0:0:0:0:
414,159,586444,1,0,0:0:0:0:
414,159,586519,1,0,0:0:0:0:
386,163,586594,1,8,0:0:0:0:
468,149,586744,1,0,0:0:0:0:
445,200,586894,1,8,0:0:0:0:
457,174,587044,1,0,0:0:0:0:
457,174,587119,1,0,0:0:0:0:
385,163,587194,1,8,0:0:0:0:
396,180,587269,1,0,0:0:0:0:
428,184,587344,1,8,0:0:0:0:
357,165,587419,1,8,0:0:0:0:
428,184,587494,1,0,0:0:0:0:
457,174,587644,1,0,0:0:0:0:
457,174,587719,1,0,0:0:0:0:
385,163,587794,1,8,0:0:0:0:
457,174,587944,1,0,0:0:0:0:
428,184,588094,1,8,0:0:0:0:
428,184,588169,1,8,0:0:0:0:
357,165,588244,1,0,0:0:0:0:
385,163,588319,1,0,0:0:0:0:
428,184,588394,1,8,0:0:0:0:
428,184,588469,1,0,0:0:0:0:
468,160,588544,1,0,0:0:0:0:
385,163,588619,1,0,0:0:0:0:
436,140,588694,1,8,0:0:0:0:
428,184,588844,1,0,0:0:0:0:
428,184,588919,1,0,0:0:0:0:
404,200,588994,1,8,0:0:0:0:
376,192,589069,1,0,0:0:0:0:
439,159,589144,1,8,0:0:0:0:
456,248,589294,1,4,0:0:0:0:
496,160,589444,1,0,0:0:0:0:
468,160,589519,1,0,0:0:0:0:
385,163,589594,1,8,0:0:0:0:
496,160,589744,1,0,0:0:0:0:
412,161,589894,1,8,0:0:0:0:
300,200,589969,1,0,0:0:0:0:
356,152,590044,1,0,0:0:0:0:
356,152,590119,1,0,0:0:0:0:
328,152,590194,1,8,0:0:0:0:
384,156,590344,1,0,0:0:0:0:
400,240,590494,1,12,0:0:0:0:
404,188,590644,1,0,0:0:0:0:
412,161,590794,1,8,0:0:0:0:
452,156,590869,1,0,0:0:0:0:
352,168,590944,1,8,0:0:0:0:
348,200,591019,1,8,0:0:0:0:
412,161,591094,1,0,0:0:0:0:
452,156,591244,1,0,0:0:0:0:
492,184,591319,1,0,0:0:0:0:
412,161,591394,1,8,0:0:0:0:
468,160,591544,1,0,0:0:0:0:
436,168,591694,1,4,0:0:0:0:
416,140,591844,1,8,0:0:0:0:
468,160,591919,1,0,0:0:0:0:
416,140,591994,1,8,0:0:0:0:
412,161,592144,1,0,0:0:0:0:
432,156,592294,1,12,0:0:0:0:
468,160,592444,1,8,0:0:0:0:
468,160,592519,1,8,0:0:0:0:
468,160,592594,1,8,0:0:0:0:
412,161,592744,1,8,0:0:0:0:
476,216,592894,1,4,0:0:0:0:
412,161,593044,1,8,0:0:0:0:
412,161,593119,1,8,0:0:0:0:
428,184,593194,1,0,0:0:0:0:
412,161,593344,1,8,0:0:0:0:
412,132,593494,1,0,0:0:0:0:
412,161,593569,1,0,0:0:0:0:
428,184,593644,1,8,0:0:0:0:
456,176,593719,1,0,0:0:0:0:
412,161,593794,1,8,0:0:0:0:
456,176,593869,1,8,0:0:0:0:
412,161,593944,1,8,0:0:0:0:
460,156,594094,1,4,0:0:0:0:
473,208,594244,1,0,0:0:0:0:
473,208,594319,1,0,0:0:0:0:
456,176,594394,1,8,0:0:0:0:
456,176,594544,1,0,0:0:0:0:
400,165,594694,1,8,0:0:0:0:
412,161,594769,1,0,0:0:0:0:
372,162,594844,1,0,0:0:0:0:
372,162,594919,1,0,0:0:0:0:
400,165,594994,1,8,0:0:0:0:
400,165,595144,1,0,0:0:0:0:
400,165,595294,1,8,0:0:0:0:
423,180,595369,1,8,0:0:0:0:
400,165,595444,1,0,0:0:0:0:
400,165,595594,1,8,0:0:0:0:
423,180,595669,1,0,0:0:0:0:
395,173,595744,1,8,0:0:0:0:
367,166,595819,1,8,0:0:0:0:
372,162,595894,1,0,0:0:0:0:
400,165,596044,1,0,0:0:0:0:
400,165,596119,1,0,0:0:0:0:
400,165,596194,1,8,0:0:0:0:
400,165,596344,1,0,0:0:0:0:
400,165,596494,1,8,0:0:0:0:
400,165,596569,1,8,0:0:0:0:
372,162,596644,1,0,0:0:0:0:
367,166,596794,1,8,0:0:0:0:
394,163,596869,1,0,0:0:0:0:
372,162,596944,1,8,0:0:0:0:
372,162,597019,1,8,0:0:0:0:
398,169,597094,1,0,0:0:0:0:
450,183,597244,1,0,0:0:0:0:
450,183,597319,1,0,0:0:0:0:
450,183,597394,1,8,0:0:0:0:
424,176,597544,1,0,0:0:0:0:
412,172,597694,1,12,0:0:0:0:
384,172,597894,1,4,0:0:0:0:
408,176,598094,1,12,0:0:0:0:
408,176,598294,1,12,0:0:0:0:
416,176,598494,1,4,0:0:0:0:
392,176,598694,1,12,0:0:0:0:
416,176,598894,1,4,0:0:0:0:
372,192,599494,1,8,0:0:0:0:
328,184,599794,1,4,0:0:0:0:
227,155,600394,1,0,0:0:0:0:
282,159,600544,1,0,0:0:0:0:
484,192,600694,1,12,0:0:0:0:
384,168,600844,1,4,0:0:0:0:
391,174,600994,1,0,0:0:0:0:
391,174,601069,1,0,0:0:0:0:
391,174,601144,1,0,0:0:0:0:
391,174,601219,1,0,0:0:0:0:
363,176,601294,1,8,0:0:0:0:
417,163,601444,1,0,0:0:0:0:
417,163,601594,1,8,0:0:0:0:
391,174,601744,1,0,0:0:0:0:
391,174,601819,1,0,0:0:0:0:
418,169,601894,1,8,0:0:0:0:
473,163,602044,1,0,0:0:0:0:
473,163,602194,1,8,0:0:0:0:
418,175,602344,1,0,0:0:0:0:
445,169,602419,1,0,0:0:0:0:
445,169,602494,1,8,0:0:0:0:
445,169,602569,1,8,0:0:0:0:
417,169,602644,1,0,0:0:0:0:
389,170,602719,1,0,0:0:0:0:
389,170,602794,1,8,0:0:0:0:
389,170,602869,1,8,0:0:0:0:
417,169,602944,1,0,0:0:0:0:
417,169,603019,1,0,0:0:0:0:
473,163,603094,1,8,0:0:0:0:
445,169,603169,1,0,0:0:0:0:
473,163,603244,1,8,0:0:0:0:
445,169,603319,1,0,0:0:0:0:
473,163,603394,1,8,0:0:0:0:
444,260,603694,1,4,0:0:0:0:
458,223,603844,1,0,0:0:0:0:
451,195,603919,1,0,0:0:0:0:
477,187,603994,1,8,0:0:0:0:
393,182,604144,1,8,0:0:0:0:
436,228,604219,1,0,0:0:0:0:
393,182,604294,1,0,0:0:0:0:
337,182,604444,1,0,0:0:0:0:
451,195,604744,1,8,0:0:0:0:
451,195,605044,1,0,0:0:0:0:
421,184,605194,1,8,0:0:0:0:
372,156,605344,1,0,0:0:0:0:
451,195,605419,1,0,0:0:0:0:
424,175,605494,1,8,0:0:0:0:
451,195,605569,1,8,0:0:0:0:
397,165,605644,1,0,0:0:0:0:
372,156,605794,1,8,0:0:0:0:
372,156,605944,1,8,0:0:0:0:
372,156,606094,1,0,0:0:0:0:
397,165,606244,1,0,0:0:0:0:
424,175,606319,1,0,0:0:0:0:
341,166,606394,1,8,0:0:0:0:
341,166,606544,1,8,0:0:0:0:
369,179,606619,1,8,0:0:0:0:
369,165,606694,1,0,0:0:0:0:
369,165,606844,1,0,0:0:0:0:
480,172,607144,1,8,0:0:0:0:
368,173,607444,1,0,0:0:0:0:
424,173,607594,1,8,0:0:0:0:
424,173,607744,1,0,0:0:0:0:
424,173,607894,1,8,0:0:0:0:
399,159,607969,1,0,0:0:0:0:
399,159,608044,1,8,0:0:0:0:
399,159,608119,1,8,0:0:0:0:
424,173,608194,1,0,0:0:0:0:
424,173,608269,1,0,0:0:0:0:
395,157,608344,1,8,0:0:0:0:
436,244,608494,1,4,0:0:0:0:
445,121,608644,1,0,0:0:0:0:
424,173,608719,1,0,0:0:0:0:
451,148,608794,1,8,0:0:0:0:
451,148,608944,1,8,0:0:0:0:
451,148,609019,1,8,0:0:0:0:
424,173,609094,1,0,0:0:0:0:
479,182,609244,1,0,0:0:0:0:
424,173,609544,1,8,0:0:0:0:
479,162,609844,1,0,0:0:0:0:
424,173,609994,1,8,0:0:0:0:
424,173,610144,1,0,0:0:0:0:
479,162,610219,1,0,0:0:0:0:
451,164,610294,1,8,0:0:0:0:
479,162,610369,1,8,0:0:0:0:
479,162,610444,1,8,0:0:0:0:
479,162,610519,1,8,0:0:0:0:
424,173,610594,1,0,0:0:0:0:
424,173,610744,1,8,0:0:0:0:
460,236,610894,1,4,0:0:0:0:
479,162,611044,1,0,0:0:0:0:
479,162,611119,1,0,0:0:0:0:
451,164,611194,1,8,0:0:0:0:
451,164,611344,1,8,0:0:0:0:
451,164,611419,1,8,0:0:0:0:
479,162,611494,1,0,0:0:0:0:
479,162,611644,1,0,0:0:0:0:
369,186,611944,1,8,0:0:0:0:
400,176,612244,1,12,0:0:0:0:
337,189,612394,1,0,0:0:0:0:
462,129,612544,1,0,0:0:0:0:
436,139,612619,1,8,0:0:0:0:
410,148,612694,1,0,0:0:0:0:
410,148,612769,1,0,0:0:0:0:
410,148,612844,1,8,0:0:0:0:
386,162,612919,1,0,0:0:0:0:
410,148,612994,1,8,0:0:0:0:
354,145,613144,1,8,0:0:0:0:
464,168,613294,1,4,0:0:0:0:
453,254,613594,1,0,0:0:0:0:
448,198,613744,1,8,0:0:0:0:
448,198,613894,1,0,0:0:0:0:
422,187,613969,1,0,0:0:0:0:
448,198,614044,1,0,0:0:0:0:
448,198,614194,1,0,0:0:0:0:
448,198,614344,1,8,0:0:0:0:
405,160,614494,1,0,0:0:0:0:
422,187,614644,1,0,0:0:0:0:
422,187,614794,1,8,0:0:0:0:
477,190,614944,1,0,0:0:0:0:
477,190,615019,1,0,0:0:0:0:
448,184,615094,1,8,0:0:0:0:
420,180,615169,1,8,0:0:0:0:
408,192,615244,1,0,0:0:0:0:
405,160,615394,1,0,0:0:0:0:
448,184,615544,1,0,0:0:0:0:
468,164,615619,1,8,0:0:0:0:
372,176,615844,1,12,0:0:0:0:
448,184,615994,1,0,0:0:0:0:
448,184,616069,1,0,0:0:0:0:
448,184,616144,1,0,0:0:0:0:
448,184,616219,1,0,0:0:0:0:
420,184,616294,1,8,0:0:0:0:
472,208,616444,1,0,0:0:0:0:
472,208,616519,1,0,0:0:0:0:
420,180,616594,1,8,0:0:0:0:
420,180,616669,1,0,0:0:0:0:
420,180,616744,1,8,0:0:0:0:
420,180,616894,1,8,0:0:0:0:
420,180,616931,1,8,0:0:0:0:
428,221,617044,1,0,0:0:0:0:
428,221,617081,1,0,0:0:0:0:
472,208,617194,1,8,0:0:0:0:
472,208,617231,1,8,0:0:0:0:
420,180,617344,1,0,0:0:0:0:
420,180,617381,1,0,0:0:0:0:
377,172,617494,1,8,0:0:0:0:
392,183,617569,1,8,0:0:0:0:
354,183,617644,1,0,0:0:0:0:
420,228,617719,1,0,0:0:0:0:
420,180,617794,1,8,0:0:0:0:
354,183,617869,1,0,0:0:0:0:
420,180,617944,1,8,0:0:0:0:
420,180,618019,1,8,0:0:0:0:
418,208,618094,1,0,0:0:0:0:
392,183,618294,1,0,0:0:0:0:
354,183,618394,1,8,0:0:0:0:
279,185,618594,1,8,0:0:0:0:
315,179,618694,1,0,0:0:0:0:
392,183,618894,1,8,0:0:0:0:
419,189,618994,1,0,0:0:0:0:
387,167,619094,1,8,0:0:0:0:
387,167,619194,1,8,0:0:0:0:
419,189,619294,1,0,0:0:0:0:
387,167,619494,1,0,0:0:0:0:
353,151,619594,1,8,0:0:0:0:
353,151,619794,1,8,0:0:0:0:
387,167,619894,1,0,0:0:0:0:
387,167,619994,1,8,0:0:0:0:
387,167,620094,1,8,0:0:0:0:
424,172,620194,1,0,0:0:0:0:
421,209,620294,1,8,0:0:0:0:
352,188,620394,1,8,0:0:0:0:
380,172,620494,1,0,0:0:0:0:
342,169,620594,1,0,0:0:0:0:
424,172,620694,1,0,0:0:0:0:
353,151,620794,1,8,0:0:0:0:
353,151,620894,1,8,0:0:0:0:
387,167,620994,1,8,0:0:0:0:
424,172,621094,1,0,0:0:0:0:
424,172,621194,1,0,0:0:0:0:
424,172,621294,1,0,0:0:0:0:
424,172,621394,1,8,0:0:0:0:
424,172,621494,1,8,0:0:0:0:
424,172,621594,1,8,0:0:0:0:
424,172,621694,1,0,0:0:0:0:
424,172,621794,1,0,0:0:0:0:
424,172,621894,1,0,0:0:0:0:
388,172,621994,1,8,0:0:0:0:
388,172,622094,1,0,0:0:0:0:
388,172,622194,1,0,0:0:0:0:
388,172,622294,1,8,0:0:0:0:
404,196,622369,1,8,0:0:0:0:
420,220,622444,1,8,0:0:0:0:
388,172,622519,1,0,0:0:0:0:
360,180,622594,1,8,0:0:0:0:
346,162,622669,1,8,0:0:0:0:
392,162,622744,1,0,0:0:0:0:
392,162,622819,1,0,0:0:0:0:
412,168,623194,1,4,0:0:0:0:
444,184,623494,1,8,0:0:0:0:
444,184,623794,1,0,0:0:0:0:
496,208,623944,1,8,0:0:0:0:
440,212,624094,1,8,0:0:0:0:
388,176,624244,1,0,0:0:0:0:
444,184,624394,1,8,0:0:0:0:
388,176,624544,1,8,0:0:0:0:
444,184,624694,1,0,0:0:0:0:
388,176,624844,1,8,0:0:0:0:
440,212,624994,1,8,0:0:0:0:
384,180,625144,1,0,0:0:0:0:
388,176,625294,1,0,0:0:0:0:
388,176,625594,1,0,0:0:0:0:
388,176,625744,1,8,0:0:0:0:
480,240,626044,1,0,0:0:0:0:
392,172,626344,1,8,0:0:0:0:
432,92,627094,1,8,0:0:0:0:
432,92,627131,1,8,0:0:0:0:
368,164,627394,1,0,0:0:0:0:
368,164,627431,1,0,0:0:0:0:
368,164,627694,1,8,0:0:0:0:
448,176,628144,1,0,0:0:0:0:
472,344,628594,1,8,0:0:0:0:
424,172,628744,1,8,0:0:0:0:
448,176,628894,1,8,0:0:0:0:
240,88,629494,1,0,0:0:0:0:
464,188,630094,1,12,0:0:0:0:
464,188,630544,1,4,0:0:0:0:
464,188,630844,1,0,0:0:0:0:
464,188,630919,1,0,0:0:0:0:
436,180,630994,1,8,0:0:0:0:
436,208,631069,1,0,0:0:0:0:
412,193,631144,1,8,0:0:0:0:
436,180,631294,1,12,0:0:0:0:
412,193,631594,1,0,0:0:0:0:
424,252,631894,1,4,0:0:0:0:
420,168,632044,1,8,0:0:0:0:
420,168,632119,1,8,0:0:0:0:
436,180,632194,1,8,0:0:0:0:
436,180,632269,1,8,0:0:0:0:
436,180,632344,1,8,0:0:0:0:
436,180,632419,1,8,0:0:0:0:
412,196,632494,1,4,0:0:0:0:
490,226,632719,1,0,0:0:0:0:
464,214,632794,1,8,0:0:0:0:
413,189,632944,1,0,0:0:0:0:
436,180,633094,1,0,0:0:0:0:
436,180,633169,1,0,0:0:0:0:
436,180,633244,1,8,0:0:0:0:
436,180,633319,1,8,0:0:0:0:
412,196,633394,1,0,0:0:0:0:
359,214,633544,1,8,0:0:0:0:
436,180,633694,1,0,0:0:0:0:
396,140,633844,1,0,0:0:0:0:
396,140,633919,1,0,0:0:0:0:
477,194,633994,1,8,0:0:0:0:
436,180,634144,1,0,0:0:0:0:
412,196,634294,1,8,0:0:0:0:
427,142,634444,1,0,0:0:0:0:
408,172,634519,1,0,0:0:0:0:
436,180,634594,1,8,0:0:0:0:
408,172,634669,1,0,0:0:0:0:
436,180,634744,1,8,0:0:0:0:
380,176,634894,1,4,0:0:0:0:
324,272,635194,1,8,0:0:0:0:
356,224,635344,1,8,0:0:0:0:
300,208,635494,1,0,0:0:0:0:
436,180,635644,1,0,0:0:0:0:
436,180,635719,1,0,0:0:0:0:
436,180,635794,1,8,0:0:0:0:
492,168,635944,1,8,0:0:0:0:
436,168,636094,1,0,0:0:0:0:
409,158,636169,1,0,0:0:0:0:
380,168,636244,1,0,0:0:0:0:
408,168,636394,1,8,0:0:0:0:
380,168,636544,1,0,0:0:0:0:
436,156,636694,1,8,0:0:0:0:
436,168,636769,1,8,0:0:0:0:
408,168,636844,1,0,0:0:0:0:
423,190,636919,1,0,0:0:0:0:
464,168,636994,1,8,0:0:0:0:
372,228,637294,1,4,0:0:0:0:
316,224,637444,1,0,0:0:0:0:
368,204,637594,1,8,0:0:0:0:
420,184,637744,1,8,0:0:0:0:
364,184,637894,1,0,0:0:0:0:
420,184,638044,1,0,0:0:0:0:
392,180,638119,1,0,0:0:0:0:
392,180,638194,1,8,0:0:0:0:
420,184,638344,1,8,0:0:0:0:
364,184,638494,1,4,0:0:0:0:
420,184,638644,1,8,0:0:0:0:
420,184,638719,1,8,0:0:0:0:
392,180,638794,1,0,0:0:0:0:
392,180,638944,1,0,0:0:0:0:
418,173,639094,1,12,0:0:0:0:
392,188,639244,1,0,0:0:0:0:
392,188,639319,1,0,0:0:0:0:
400,200,639394,1,8,0:0:0:0:
418,173,639544,1,0,0:0:0:0:
472,208,639694,1,8,0:0:0:0:
448,196,639769,1,8,0:0:0:0:
420,192,639844,1,0,0:0:0:0:
392,188,639919,1,0,0:0:0:0:
392,188,639994,1,8,0:0:0:0:
392,188,640069,1,8,0:0:0:0:
368,164,640144,1,0,0:0:0:0:
368,164,640219,1,0,0:0:0:0:
420,184,640294,1,8,0:0:0:0:
392,188,640369,1,0,0:0:0:0:
368,172,640444,1,8,0:0:0:0:
341,163,640519,1,0,0:0:0:0:
341,163,640594,1,8,0:0:0:0:
313,163,640669,1,0,0:0:0:0:
341,163,640744,1,8,0:0:0:0:
424,178,640819,1,0,0:0:0:0:
395,162,640894,1,8,0:0:0:0:
368,164,641194,1,8,0:0:0:0:
368,164,641231,1,8,0:0:0:0:
461,134,641494,1,0,0:0:0:0:
447,138,641531,1,0,0:0:0:0:
424,178,641794,1,8,0:0:0:0:
379,181,641844,1,8,0:0:0:0:
394,171,641894,1,8,0:0:0:0:
416,212,641944,1,0,0:0:0:0:
379,181,641994,1,0,0:0:0:0:
344,188,642044,1,0,0:0:0:0:
424,178,642394,1,4,0:0:0:0:
256,192,642538,12,0,652945,0:0:0:0:
