osu file format v14

[General]
AudioFilename: audio.mp3
AudioLeadIn: 0
PreviewTime: 584496
Countdown: 0
SampleSet: Soft
StackLeniency: 0.7
Mode: 3
LetterboxInBreaks: 0
SpecialStyle: 0
WidescreenStoryboard: 1

[Editor]
Bookmarks: 21162,44995,55661,66332,76994,89161,113163,123827,137163,147827,158497,169160,179830,190497,201163,211830,222497,238160,323819,390103,409303
DistanceSpacing: 0.8
BeatDivisor: 4
GridSize: 4
TimelineZoom: 3.900001

[Metadata]
Title:World Fragments
TitleUnicode:World Fragments
Artist:xi
ArtistUnicode:xi
Creator:Ichigaki
Version:Serpihan Dunia
Source:
Tags:Diverse System album Comiket 89 C89 marathon electronic instrumental I II III DVSP-0145 happy renaissance Featured Artist FA
BeatmapID:1037573
BeatmapSetID:486590

[Difficulty]
HPDrainRate:8.2
CircleSize:4
OverallDifficulty:8
ApproachRate:5
SliderMultiplier:1.4
SliderTickRate:1

[Events]
//Background and Video events
0,0,"worldfragments.jpg",0,0
//Break Periods
2,555897,562896
//Storyboard Layer 0 (Background)
//Storyboard Layer 1 (Fail)
//Storyboard Layer 2 (Pass)
//Storyboard Layer 3 (Foreground)
//Storyboard Layer 4 (Overlay)
//Storyboard Sound Samples
Sample,37161,0,"soft-hitclap.wav",0
Sample,98744,0,"soft-hitwhistle.wav",0
Sample,113994,0,"soft-hitwhistle.wav",0
Sample,150577,0,"soft-hitwhistle.wav",0
Sample,151077,0,"soft-hitwhistle.wav",0
Sample,151244,0,"soft-hitwhistle.wav",0
Sample,171910,0,"soft-hitwhistle.wav",0
Sample,172410,0,"soft-hitwhistle.wav",0
Sample,172577,0,"soft-hitwhistle.wav",0
Sample,242076,0,"soft-hitclap.wav",0
Sample,247075,0,"soft-hitclap.wav",0
Sample,248075,0,"soft-hitclap.wav",0
Sample,276740,0,"soft-hitwhistle.wav",0
Sample,277573,0,"soft-hitwhistle.wav",0
Sample,277740,0,"soft-hitwhistle.wav",0
Sample,278073,0,"soft-hitwhistle.wav",0
Sample,291655,0,"soft-hitwhistle.wav",0
Sample,291739,0,"soft-hitwhistle.wav",0
Sample,297821,0,"soft-hitwhistle.wav",0
Sample,297821,0,"soft-hitclap.wav",0
Sample,297821,0,"soft-hitfinish.wav",0
Sample,303402,0,"soft-hitclap.wav",0
Sample,324569,0,"soft-hitclap.wav",0
Sample,329069,0,"soft-hitclap.wav",0
Sample,329402,0,"soft-hitwhistle.wav",0
Sample,331735,0,"soft-hitwhistle.wav",0
Sample,385673,0,"soft-hitclap.wav",0
Sample,461423,0,"soft-hitclap.wav",0
Sample,463823,0,"soft-hitclap.wav",0
Sample,466223,0,"soft-hitclap.wav",0
Sample,468623,0,"soft-hitclap.wav",0
Sample,468773,0,"soft-hitclap.wav",0
Sample,471023,0,"soft-hitclap.wav",0
Sample,492023,0,"soft-hitwhistle.wav",0
Sample,587421,0,"soft-hitclap.wav",0
Sample,592971,0,"soft-hitclap.wav",0
Sample,593421,0,"soft-hitclap.wav",0
Sample,593571,0,"soft-hitclap.wav",0

[TimingPoints]
546,874.676,4,2,1,50,1,8
546,-34.3642611683849,4,2,1,50,0,0
965,845.366,4,2,1,50,1,8
965,-35.4609929078014,4,2,1,50,0,0
1406,957.083,4,2,1,50,1,8
1406,-31.3577924114142,4,2,1,50,0,0
1904,983.994,4,2,1,50,1,8
1904,-30.4878048780488,4,2,1,50,0,0
2376,948.527,4,2,1,50,1,0
2376,-31.6285542587848,4,2,1,50,0,0
3324,979.298,4,2,1,50,1,8
3324,-30.6372549019608,4,2,1,50,0,0
4303,943.288,4,2,1,50,1,8
4303,-31.8066157760814,4,2,1,50,0,0
5246,949.388,4,2,1,50,1,8
5246,-31.6055625790139,4,2,1,50,0,0
6196,965.215,4,2,1,50,1,0
6196,-31.055900621118,4,2,1,50,0,0
7161,973.25,4,2,1,50,1,8
7161,-30.826140567201,4,2,1,50,0,0
7628,979.984,4,2,1,50,1,8
7628,-30.612869650401,4,2,1,50,0,0
8138,1073.9,4,2,1,50,1,8
8138,-27.9407655769768,4,2,1,50,0,0
9211,1183.33,4,2,1,50,1,8
9211,-25.3504702512232,4,2,1,50,0,0
10395,549.9441,4,2,1,50,1,0
10395,-54.5553737043099,4,2,1,50,0,0
11495,885.623,4,2,1,50,1,8
11495,-33.8983050847458,4,2,1,50,0,0
11938,895.782,4,2,1,50,1,8
11938,-33.4907398104424,4,2,1,50,0,0
12386,865.918,4,2,1,50,1,8
12386,-34.6452328159645,4,2,1,50,0,0
13251,843.583,4,2,1,50,1,8
13251,-35.5871886120996,4,2,1,50,0,0
14095,1092.2,4,2,1,50,1,8
14095,-27.4725274725275,4,2,1,50,0,0
15187,1028.77,4,2,1,50,1,8
15187,-29.1630212890055,4,2,1,50,0,0
16215,1919.75427145325,4,2,1,50,1,8
16215,-250,4,2,1,50,0,0
16454,-125,4,2,1,50,0,0
16694,-83.3333333333333,4,2,1,50,0,0
16934,-62.5,4,2,1,50,0,0
17174,-50,4,2,1,50,0,0
17414,-41.6666666666667,4,2,1,50,0,0
17654,-35.7142857142857,4,2,1,50,0,0
17894,-31.25,4,2,1,50,0,0
18134,-27.7777777777778,4,2,1,50,0,0
18374,-25,4,2,1,50,0,0
18614,-22.7272727272727,4,2,1,50,0,0
18854,-20.8333333333333,4,2,1,50,0,0
19094,-19.2307692307692,4,2,1,50,0,0
19334,-17.8571428571429,4,2,1,50,0,0
19574,-16.6666666666667,4,2,1,50,0,0
19814,-15.625,4,2,1,50,0,0
19996,333.333,4,2,1,50,1,0
19996,-90.0900900900901,4,2,1,50,0,0
31662,333.333333333333,4,2,1,50,1,8
31662,-90.0900900900901,4,2,1,50,0,8
37162,333.333333333333,4,2,1,50,1,8
37162,-90.0900900900901,4,2,1,50,0,8
44995,333.333333333333,4,2,1,60,1,8
44995,-90.0900900900901,4,2,1,60,0,8
89161,333.333333333333,4,2,1,60,1,8
89161,-90.0900900900901,4,2,1,60,0,8
113160,-90.0900900900901,4,2,1,65,0,8
137160,-90.0900900900901,4,2,1,75,0,1
179827,-90.0900900900901,4,2,1,65,0,0
190494,-100,4,2,1,50,0,0
200660,-99.009900990099,4,2,1,50,0,0
200744,-97.0873786407767,4,2,1,50,0,0
200827,-95.2380952380952,4,2,1,50,0,0
200910,-93.4579439252336,4,2,1,50,0,0
200994,-92.5925925925926,4,2,1,50,0,0
201077,-91.743119266055,4,2,1,50,0,0
201160,-90.0900900900901,4,2,1,55,0,0
211827,-90.0900900900901,4,2,1,60,0,0
230494,-90.0900900900901,4,2,1,50,0,0
238160,333.333,6,2,1,60,1,0
238160,-90.0900900900901,6,2,1,60,0,0
246159,333.333,3,2,1,65,1,0
246159,-90.0900900900901,3,2,1,65,0,0
251325,333.333,4,2,1,55,1,8
251325,-90.0900900900901,4,2,1,55,0,8
253991,-909.090909090909,4,2,1,50,0,0
254074,-693.000693000693,4,2,1,50,0,0
254158,-600.600600600601,4,2,1,50,0,0
254241,-500,4,2,1,50,0,0
254324,-434.782608695652,4,2,1,50,0,0
254408,-384.615384615385,4,2,1,50,0,0
254491,-344.827586206897,4,2,1,50,0,0
254574,-312.5,4,2,1,50,0,0
254658,-285.714285714286,4,2,1,50,0,0
254741,-263.157894736842,4,2,1,50,0,0
254824,-243.90243902439,4,2,1,50,0,0
254908,-227.272727272727,4,2,1,50,0,0
254991,-212.765957446809,4,2,1,50,0,0
255074,-200,4,2,1,50,0,0
255158,-188.679245283019,4,2,1,50,0,0
255241,-178.571428571429,4,2,1,50,0,0
255324,-169.491525423729,4,2,1,50,0,0
255408,-161.290322580645,4,2,1,50,0,0
255491,-153.846153846154,4,2,1,50,0,0
255574,-147.058823529412,4,2,1,50,0,0
255658,-140.845070422535,4,2,1,50,0,0
255741,-135.135135135135,4,2,1,50,0,0
255824,-129.87012987013,4,2,1,50,0,0
255908,-125,4,2,1,50,0,0
255991,-120.481927710843,4,2,1,50,0,0
256074,-116.279069767442,4,2,1,50,0,0
256158,-112.359550561798,4,2,1,50,0,0
256241,-108.695652173913,4,2,1,50,0,0
256324,-105.263157894737,4,2,1,50,0,0
256408,-102.040816326531,4,2,1,50,0,0
256491,-99.009900990099,4,2,1,50,0,0
256574,-96.1538461538461,4,2,1,50,0,0
256658,-93.4579439252336,4,2,1,50,0,0
256741,-90.0900900900901,4,2,1,50,0,0
256824,333.333,4,2,1,50,1,0
256824,-90.0900900900901,4,2,1,50,0,0
262157,-90.0900900900901,4,2,1,55,0,0
267323,-90.0900900900901,4,2,1,60,0,0
278157,333.333,7,2,1,55,1,0
278157,-100,7,2,1,55,0,0
282823,-94.8316737790422,7,2,1,55,0,0
287156,333.333,7,2,1,60,1,0
287156,-90.0900900900901,7,2,1,60,0,0
291822,333.333,4,2,1,60,1,0
291822,-90.0900900900901,4,2,1,60,0,0
297820,333.333,7,2,1,60,1,8
297820,-90.0900900900901,7,2,1,60,0,8
302486,333.333,4,2,1,60,1,0
302486,-90.0900900900901,4,2,1,60,0,0
313152,-90.0900900900901,4,2,1,75,0,1
335819,333.333,6,2,1,60,1,0
335819,-90.0900900900901,6,2,1,60,0,0
345818,333.333,3,2,1,60,1,0
345818,-90.0900900900901,3,2,1,60,0,0
350502,666.667,4,2,1,50,1,0
350502,-45.045045045045,4,2,1,50,0,0
352835,-59.8802395209581,4,2,1,50,0,0
355885,600,4,2,1,50,1,8
355885,-66.6666666666667,4,2,1,50,0,0
356498,600,4,2,1,50,1,0
356498,-66.6666666666667,4,2,1,50,0,0
367879,600,4,2,1,50,1,8
367879,-66.6666666666667,4,2,1,50,0,0
368185,600,4,2,1,50,1,8
368185,-66.6666666666667,4,2,1,50,0,8
368498,600,4,2,1,50,1,0
368498,-66.6666666666667,4,2,1,50,0,0
373298,-100,4,2,1,50,0,0
373598,-90.9090909090909,4,2,1,50,0,0
373898,-83.3333333333333,4,2,1,50,0,0
374198,-76.9230769230769,4,2,1,50,0,0
374498,-71.4285714285714,4,2,1,50,0,0
374798,-66.6666666666667,4,2,1,50,0,0
375098,-62.5,4,2,1,50,0,0
375398,-58.8235294117647,4,2,1,50,0,0
375698,-55.5555555555556,4,2,1,50,0,0
375998,-52.6315789473684,4,2,1,50,0,0
376298,300,4,2,1,60,1,8
376298,-100,4,2,1,60,0,0
376898,300,4,2,1,60,1,0
376898,-100,4,2,1,60,0,0
409298,-111.111111111111,4,2,1,50,0,0
414098,-105.263157894737,4,2,1,55,0,0
418898,-100,4,2,1,60,0,0
447698,-101.010101010101,4,2,1,55,0,0
447998,-102.040816326531,4,2,1,55,0,0
448298,-104.166666666667,4,2,1,55,0,0
448598,-105.263157894737,4,2,1,55,0,0
448898,-106.382978723404,4,2,1,55,0,0
449198,-107.52688172043,4,2,1,55,0,0
449498,-109.89010989011,4,2,1,55,0,0
449798,-111.111111111111,4,2,1,55,0,0
450098,-112.359550561798,4,2,1,55,0,0
452498,-111.111111111111,4,2,1,60,0,0
454898,-106.382978723404,4,2,1,65,0,0
457298,-103.092783505155,4,2,1,70,0,0
459698,-100,4,2,1,75,0,1
459998,-50,4,2,1,75,0,1
460016,-100,4,2,1,75,0,1
460598,-50,4,2,1,75,0,1
460616,-100,4,2,1,75,0,1
461198,-50,4,2,1,75,0,1
461216,-100,4,2,1,75,0,1
461798,-50,4,2,1,75,0,1
461816,-100,4,2,1,75,0,1
462398,-50,4,2,1,75,0,1
462416,-100,4,2,1,75,0,1
462998,-50,4,2,1,75,0,1
463016,-100,4,2,1,75,0,1
463598,-50,4,2,1,75,0,1
463616,-100,4,2,1,75,0,1
464198,-50,4,2,1,75,0,1
464216,-100,4,2,1,75,0,1
464798,-50,4,2,1,75,0,1
464816,-100,4,2,1,75,0,1
465398,-50,4,2,1,75,0,1
465416,-100,4,2,1,75,0,1
465998,-50,4,2,1,75,0,1
466016,-100,4,2,1,75,0,1
466598,-50,4,2,1,75,0,1
466616,-100,4,2,1,75,0,1
467198,-50,4,2,1,75,0,1
467216,-100,4,2,1,75,0,1
467798,-50,4,2,1,75,0,1
467816,-100,4,2,1,75,0,1
468398,-50,4,2,1,75,0,1
468416,-100,4,2,1,75,0,1
468998,-50,4,2,1,75,0,1
469016,-100,4,2,1,75,0,1
469598,-50,4,2,1,75,0,1
469616,-100,4,2,1,75,0,1
470198,-50,4,2,1,75,0,1
470216,-100,4,2,1,75,0,1
470798,-50,4,2,1,75,0,1
470816,-100,4,2,1,75,0,1
471398,-50,4,2,1,75,0,1
471416,-100,4,2,1,75,0,1
471998,-50,4,2,1,75,0,1
472016,-100,4,2,1,75,0,1
472598,-50,4,2,1,75,0,1
472616,-100,4,2,1,75,0,1
472898,-57.1428571428571,4,2,1,75,0,1
472948,-133.333333333333,4,2,1,75,0,1
472998,-100,4,2,1,75,0,1
473098,-57.1428571428571,4,2,1,75,0,1
473148,-133.333333333333,4,2,1,75,0,1
473198,-100,4,2,1,75,0,1
473298,-57.1428571428571,4,2,1,75,0,1
473348,-133.333333333333,4,2,1,75,0,1
473398,-100,4,2,1,75,0,1
473498,-57.1428571428571,4,2,1,75,0,1
473548,-133.333333333333,4,2,1,75,0,1
473598,-100,4,2,1,75,0,1
473698,-57.1428571428571,4,2,1,75,0,1
473748,-133.333333333333,4,2,1,75,0,1
473798,-100,4,2,1,75,0,1
473898,-57.1428571428571,4,2,1,75,0,1
473948,-133.333333333333,4,2,1,75,0,1
473998,-100,4,2,1,75,0,1
474098,-100,4,2,1,75,0,0
478898,-100,4,2,1,75,0,1
479198,-50,4,2,1,75,0,1
479216,-100,4,2,1,75,0,1
479798,-50,4,2,1,75,0,1
479816,-100,4,2,1,75,0,1
480398,-50,4,2,1,75,0,1
480416,-100,4,2,1,75,0,1
480998,-50,4,2,1,75,0,1
481016,-100,4,2,1,75,0,1
481598,-50,4,2,1,75,0,1
481616,-100,4,2,1,75,0,1
482198,-50,4,2,1,75,0,1
482216,-100,4,2,1,75,0,1
482798,-50,4,2,1,75,0,1
482816,-100,4,2,1,75,0,1
483398,-50,4,2,1,75,0,1
483416,-100,4,2,1,75,0,1
483998,-50,4,2,1,75,0,1
484016,-100,4,2,1,75,0,1
484598,-50,4,2,1,75,0,1
484616,-100,4,2,1,75,0,1
485198,-50,4,2,1,75,0,1
485216,-100,4,2,1,75,0,1
485798,-50,4,2,1,75,0,1
485816,-100,4,2,1,75,0,1
486398,-50,4,2,1,75,0,1
486416,-100,4,2,1,75,0,1
486998,-50,4,2,1,75,0,1
487016,-100,4,2,1,75,0,1
487598,-50,4,2,1,75,0,1
487616,-100,4,2,1,75,0,1
488198,-50,4,2,1,75,0,1
488216,-100,4,2,1,75,0,1
488798,-50,4,2,1,75,0,1
488816,-100,4,2,1,75,0,1
489398,-50,4,2,1,75,0,1
489416,-100,4,2,1,75,0,1
489998,-50,4,2,1,75,0,1
490016,-100,4,2,1,75,0,1
490598,-50,4,2,1,75,0,1
490616,-100,4,2,1,75,0,1
491198,-50,4,2,1,75,0,1
491216,-100,4,2,1,75,0,1
491798,-50,4,2,1,75,0,1
491816,-100,4,2,1,75,0,1
492098,-57.1428571428571,4,2,1,75,0,1
492148,-133.333333333333,4,2,1,75,0,1
492198,-100,4,2,1,75,0,1
492298,-57.1428571428571,4,2,1,75,0,1
492348,-133.333333333333,4,2,1,75,0,1
492398,-100,4,2,1,75,0,1
492498,-57.1428571428571,4,2,1,75,0,1
492548,-133.333333333333,4,2,1,75,0,1
492598,-100,4,2,1,75,0,1
492698,-57.1428571428571,4,2,1,75,0,1
492748,-133.333333333333,4,2,1,75,0,1
492798,-100,4,2,1,75,0,1
492898,-57.1428571428571,4,2,1,75,0,1
492948,-133.333333333333,4,2,1,75,0,1
492998,-100,4,2,1,75,0,1
493098,-57.1428571428571,4,2,1,75,0,1
493148,-133.333333333333,4,2,1,75,0,1
493198,-100,4,2,1,75,0,1
493298,-100,4,2,1,75,0,0
498098,-111.111111111111,4,2,1,60,0,0
517298,-125,4,2,1,50,0,0
522098,-142.857142857143,4,2,1,50,0,0
524498,1193.72,4,2,1,50,1,8
524498,-35.9712230215827,4,2,1,50,0,0
525250,1207.44,4,2,1,50,1,8
525250,-35.5871886120996,4,2,1,50,0,0
525697,1193.5,4,2,1,50,1,8
525697,-35.9712230215827,4,2,1,50,0,0
526222,1186.8,4,2,1,50,1,8
526222,-36.101083032491,4,2,1,50,0,0
526887,1115.5,4,2,1,50,1,0
526887,-38.4615384615385,4,2,1,50,0,0
527556,1114.56,4,2,1,50,1,8
527556,-38.4615384615385,4,2,1,50,0,0
528002,817.334,4,2,1,50,1,8
528002,-52.3560209424084,4,2,1,50,0,0
528460,849.187,4,2,1,50,1,8
528460,-50.5050505050505,4,2,1,50,0,0
528833,718.585,4,2,1,50,1,8
528833,-59.5238095238095,4,2,1,50,0,0
529207,683.933,4,2,1,50,1,8
529207,-62.5,4,2,1,50,0,0
529364,696.599,4,2,1,50,1,8
529364,-61.3496932515337,4,2,1,50,0,0
529538,666.939,4,2,1,50,1,8
529538,-64.1025641025641,4,2,1,50,0,0
529819,656.793,4,2,1,50,1,8
529819,-65.359477124183,4,2,1,50,0,0
530200,715.622,4,2,1,50,1,0
530200,-59.8802395209581,4,2,1,50,0,0
530543,710.531,4,2,1,50,1,8
530543,-60.2409638554217,4,2,1,50,0,0
530692,687.31,4,2,1,50,1,8
530692,-62.5,4,2,1,50,0,0
530905,807.429,4,2,1,50,1,8
530905,-53.1914893617021,4,2,1,50,0,0
531293,813.628,4,2,1,50,1,8
531293,-52.6315789473684,4,2,1,50,0,0
531716,950.838,4,2,1,50,1,8
531716,-45.045045045045,4,2,1,50,0,0
532191,957.824,4,2,1,50,1,8
532191,-44.8430493273543,4,2,1,50,0,0
532670,1664.44740346205,4,2,1,50,1,8
532670,-25.7731958762887,4,2,1,50,0,0
533303,1602.17,4,2,1,50,1,8
533303,-26.7379679144385,4,2,1,50,0,0
534296,507.657162196463,4,2,1,50,1,0
534296,-84.4238075137189,4,2,1,50,0,0
534905,989.903,4,2,1,50,1,8
534905,-43.2900432900433,4,2,1,50,0,0
535301,698.066,4,2,1,50,1,8
535301,-61.3496932515337,4,2,1,50,0,0
535636,674.307,4,2,1,50,1,8
535636,-63.6942675159236,4,2,1,50,0,0
535987,670.749,4,2,1,50,1,8
535987,-63.6942675159236,4,2,1,50,0,0
536322,710.531,4,2,1,50,1,8
536322,-60.2409638554217,4,2,1,50,0,0
536472,686.647,4,2,1,50,1,8
536472,-62.5,4,2,1,50,0,0
536671,649.160959459898,4,2,1,50,1,8
536671,-66.2251655629139,4,2,1,50,0,0
536995,777.868,4,2,1,50,1,8
536995,-54.9450549450549,4,2,1,50,0,0
537384,754.649,4,2,1,50,1,0
537384,-56.8181818181818,4,2,1,50,0,0
537762,1040.31,4,2,1,50,1,8
537762,-41.1522633744856,4,2,1,50,0,0
538261,1047.68,4,2,1,50,1,8
538261,-40.983606557377,4,2,1,50,0,0
538806,2181.74,4,2,1,50,1,8
538806,-19.6463654223969,4,2,1,50,0,0
539678,2109.7,4,2,1,50,1,8
539678,-20.3252032520325,4,2,1,50,0,0
539974,2159.45,4,2,1,50,1,8
539974,-19.8412698412698,4,2,1,50,0,0
540967,641.156,4,2,1,50,1,8
540967,-66.6666666666667,4,2,1,50,0,0
541608,885.385,4,2,1,50,1,0
541608,-48.3091787439614,5,2,1,50,0,0
542139,923.91,4,2,1,50,1,8
542139,-46.2962962962963,4,2,1,50,0,0
542509,718.281,4,2,1,50,1,8
542509,-59.5238095238095,4,2,1,50,0,0
542883,698.728,4,2,1,50,1,8
542883,-61.3496932515337,4,2,1,50,0,0
543218,800.414,4,2,1,50,1,8
543218,-53.475935828877,4,2,1,50,0,0
543570,810.587,4,2,1,50,1,8
543570,-52.9100529100529,4,2,1,50,0,0
543757,766.258,4,2,1,50,1,8
543757,-55.8659217877095,4,2,1,50,0,0
544009,745.897563401293,4,2,1,50,1,8
544009,-57.4712643678161,4,2,1,50,0,0
544382,852.542,4,2,1,50,1,8
544382,-50.251256281407,4,2,1,50,0,0
544775,868.195,4,2,1,50,1,0
544775,-49.2610837438424,4,2,1,50,0,0
545243,916.920857504386,4,2,1,50,1,8
545243,-46.7289719626168,4,2,1,50,0,0
545473,905.57836271432,4,2,1,50,1,8
545473,-47.39336492891,4,2,1,50,0,0
545699,752.849,4,2,1,50,1,8
545699,-56.8181818181818,4,2,1,50,0,0
546090,739,4,2,1,50,1,8
546090,-58.0720092915215,4,2,1,50,0,0
546445,576.768,4,2,1,50,1,8
546445,-74.0740740740741,4,2,1,50,0,0
546699,572.76,4,2,1,50,1,8
546699,-74.6268656716418,4,2,1,50,0,0
547020,655.333,4,2,1,50,1,8
547020,-65.359477124183,4,2,1,50,0,0
547334,657.633,4,2,1,50,1,8
547334,-65.359477124183,4,2,1,50,0,0
547675,945.85,4,2,1,50,1,8
547675,-45.2488687782805,4,2,1,50,0,0
548052,984.847,4,2,1,50,1,8
548052,-43.4782608695652,4,2,1,50,0,0
548645,824.739,4,2,1,50,1,0
548645,-52.0833333333333,4,2,1,50,0,0
549469,1045.47,4,2,1,50,1,8
549469,-40.983606557377,4,2,1,50,0,0
550514,1282.02,4,2,1,50,1,8
550514,-33.4448160535117,4,2,1,50,0,0
551798,1448.41,4,2,1,50,1,0
551798,-29.585798816568,4,2,1,50,0,0
553246,1026.89,4,2,1,50,1,8
553246,-41.6666666666667,4,2,1,50,0,0
553736,1164.00884646723,4,2,1,50,1,8
553736,-36.7647058823529,4,2,1,50,0,0
554273,1376.64,4,2,1,50,1,8
554273,-31.1526479750779,4,2,1,50,0,0
555650,2380.4,4,2,1,50,1,0
555650,-18.018018018018,4,2,1,50,0,0
555697,2105.87,4,2,1,50,1,8
555697,-20.3665987780041,4,2,1,50,0,0
557762,2111.59,4,2,1,50,1,8
557762,-20.2839756592292,4,2,1,50,0,0
558553,-10,4,2,1,50,0,0
563832,-15.7728706624606,4,2,1,50,0,0
564096,300,4,2,1,55,1,0
564096,-100,4,2,1,55,0,0
572496,-117.647058823529,4,2,1,55,0,0
573396,-100,4,2,1,65,0,0
574896,-100,4,2,1,75,0,1
575196,-50,4,2,1,75,0,1
575214,-100,4,2,1,75,0,1
575796,-50,4,2,1,75,0,1
575814,-100,4,2,1,75,0,1
576396,-50,4,2,1,75,0,1
576414,-100,4,2,1,75,0,1
576996,-50,4,2,1,75,0,1
577014,-100,4,2,1,75,0,1
577596,-50,4,2,1,75,0,1
577614,-100,4,2,1,75,0,1
578196,-50,4,2,1,75,0,1
578214,-100,4,2,1,75,0,1
578496,-57.1428571428571,4,2,1,75,0,1
578546,-133.333333333333,4,2,1,75,0,1
578596,-100,4,2,1,75,0,1
578696,-57.1428571428571,4,2,1,75,0,1
578746,-133.333333333333,4,2,1,75,0,1
578796,-100,4,2,1,75,0,1
578896,-57.1428571428571,4,2,1,75,0,1
578946,-133.333333333333,4,2,1,75,0,1
578996,-100,4,2,1,75,0,1
579096,-57.1428571428571,4,2,1,75,0,1
579146,-133.333333333333,4,2,1,75,0,1
579196,-100,4,2,1,75,0,1
579296,-57.1428571428571,4,2,1,75,0,1
579346,-133.333333333333,4,2,1,75,0,1
579396,-100,4,2,1,75,0,1
579496,-57.1428571428571,4,2,1,75,0,1
579546,-133.333333333333,4,2,1,75,0,1
579596,-100,4,2,1,75,0,1
579696,-100,4,2,1,75,0,0
584496,-100,4,2,1,75,0,1
584796,-50,4,2,1,75,0,1
584814,-100,4,2,1,75,0,1
585396,-50,4,2,1,75,0,1
585414,-100,4,2,1,75,0,1
585996,-50,4,2,1,75,0,1
586014,-100,4,2,1,75,0,1
586596,-50,4,2,1,75,0,1
586614,-100,4,2,1,75,0,1
587196,-50,4,2,1,75,0,1
587214,-100,4,2,1,75,0,1
587796,-50,4,2,1,75,0,1
587814,-100,4,2,1,75,0,1
588396,-50,4,2,1,75,0,1
588414,-100,4,2,1,75,0,1
588996,-50,4,2,1,75,0,1
589014,-100,4,2,1,75,0,1
589596,-50,4,2,1,75,0,1
589614,-100,4,2,1,75,0,1
590196,-50,4,2,1,75,0,1
590214,-100,4,2,1,75,0,1
590796,-50,4,2,1,75,0,1
590814,-100,4,2,1,75,0,1
591396,-50,4,2,1,75,0,1
591414,-100,4,2,1,75,0,1
591996,-50,4,2,1,75,0,1
592014,-100,4,2,1,75,0,1
592596,-50,4,2,1,75,0,1
592614,-100,4,2,1,75,0,1
593196,-50,4,2,1,75,0,1
593214,-100,4,2,1,75,0,1
593796,-50,4,2,1,75,0,1
593814,-100,4,2,1,75,0,1
594396,-50,4,2,1,75,0,1
594414,-100,4,2,1,75,0,1
594996,-50,4,2,1,75,0,1
595014,-100,4,2,1,75,0,1
595596,-50,4,2,1,75,0,1
595614,-100,4,2,1,75,0,1
596196,-50,4,2,1,75,0,1
596214,-100,4,2,1,75,0,1
596796,-50,4,2,1,75,0,1
596814,-100,4,2,1,75,0,1
597396,-50,4,2,1,75,0,1
597414,-100,4,2,1,75,0,1
597696,-50,4,2,1,75,0,1
597746,-133.333333333333,4,2,1,75,0,1
597796,-100,4,2,1,75,0,1
597896,-50,4,2,1,75,0,1
597946,-133.333333333333,4,2,1,75,0,1
597996,-100,4,2,1,75,0,1
598096,-50,4,2,1,75,0,1
598146,-133.333333333333,4,2,1,75,0,1
598196,-100,4,2,1,75,0,1
598296,-50,4,2,1,75,0,1
598346,-133.333333333333,4,2,1,75,0,1
598396,-100,4,2,1,75,0,1
598496,-50,4,2,1,75,0,1
598546,-133.333333333333,4,2,1,75,0,1
598596,-100,4,2,1,75,0,1
598696,-50,4,2,1,75,0,1
598746,-133.333333333333,4,2,1,75,0,1
598796,-100,4,2,1,75,0,1
598896,-100,4,2,1,75,0,0
603696,-100,4,2,1,75,0,1
623196,-111.111111111111,4,2,1,55,0,0
627696,-105.263157894737,4,2,1,55,0,0
630096,-100,4,2,1,65,0,0
642396,864.966,4,2,1,60,1,8
642396,-35.2112676056338,4,2,1,60,0,0
643260,1166.97,4,2,1,55,1,8
643260,-28.5714285714286,4,2,1,55,0,0
644379,1218.5,4,2,1,50,1,8
644379,-27.3224043715847,4,2,1,50,0,0
644428,1550.9,4,2,1,45,1,8
644428,-21.505376344086,4,2,1,45,0,0
645917,1393.2,4,2,1,40,1,8
645917,-23.9234449760766,4,2,1,40,0,0
645972,1676.96,4,2,1,35,1,8
645972,-19.8807157057654,4,2,1,35,0,0
647616,626.946145326116,4,2,1,30,1,0
647616,-53.1914893617021,4,2,1,30,0,0

[HitObjects]
64,192,546,5,0,0:0:0:0:
448,192,965,1,0,0:0:0:0:
320,192,1406,1,0,0:0:0:0:
192,192,1884,1,0,0:0:0:0:
64,192,2376,1,0,0:0:0:0:
320,192,3324,1,0,0:0:0:0:
192,192,4303,1,0,0:0:0:0:
320,192,5246,1,0,0:0:0:0:
448,192,6196,1,0,0:0:0:0:
192,192,7161,1,0,0:0:0:0:
64,192,7628,1,0,0:0:0:0:
192,192,8138,1,0,0:0:0:0:
320,192,9211,1,0,0:0:0:0:
448,192,10395,1,0,0:0:0:0:
320,192,10440,1,0,0:0:0:0:
64,192,10486,1,0,0:0:0:0:
192,192,10532,1,0,0:0:0:0:
320,192,10578,1,0,0:0:0:0:
448,192,10624,1,0,0:0:0:0:
320,192,11495,1,0,0:0:0:0:
192,192,11938,1,0,0:0:0:0:
320,192,12386,1,0,0:0:0:0:
192,192,13251,1,0,0:0:0:0:
64,192,14095,1,0,0:0:0:0:
192,192,14641,1,0,0:0:0:0:
320,192,15118,1,0,0:0:0:0:
448,192,15187,1,0,0:0:0:0:
64,192,16215,128,0,19814:0:0:0:0:
448,192,19996,1,0,0:0:0:0:
320,192,20037,1,0,0:0:0:0:
192,192,20079,1,0,0:0:0:0:
64,192,20120,1,0,0:0:0:0:
448,192,20162,1,0,0:0:0:0:
320,192,20218,1,0,0:0:0:0:
64,192,20273,1,0,0:0:0:0:
192,192,20329,1,0,0:0:0:0:
448,192,20370,1,0,0:0:0:0:
320,192,20412,1,0,0:0:0:0:
192,192,20454,1,0,0:0:0:0:
64,192,20495,1,0,0:0:0:0:
320,192,20579,1,0,0:0:0:0:
64,192,20662,1,0,0:0:0:0:
448,192,20662,1,0,0:0:0:0:
192,192,20718,1,0,0:0:0:0:
320,192,20773,1,0,0:0:0:0:
64,192,20829,1,0,0:0:0:0:
192,192,20912,1,0,0:0:0:0:
320,192,20995,1,0,0:0:0:0:
448,192,21079,1,0,0:0:0:0:
64,192,21162,1,0,0:0:0:0:
192,192,21162,1,0,0:0:0:0:
192,192,21329,1,0,0:0:0:0:
320,192,21412,1,0,0:0:0:0:
448,192,21495,1,0,0:0:0:0:
192,192,21662,1,0,0:0:0:0:
64,192,21995,1,0,0:0:0:0:
320,192,22329,1,0,0:0:0:0:
192,192,22662,1,0,0:0:0:0:
448,192,22829,1,0,0:0:0:0:
192,192,22995,1,0,0:0:0:0:
192,192,23162,1,0,0:0:0:0:
448,192,23329,1,0,0:0:0:0:
320,192,23384,1,0,0:0:0:0:
192,192,23440,1,0,0:0:0:0:
64,192,23495,1,0,0:0:0:0:
320,192,23662,1,0,0:0:0:0:
64,192,23995,128,2,24329:0:0:0:0:
192,192,23995,128,0,24329:0:0:0:0:
320,192,24329,1,2,0:0:0:0:
448,192,24329,1,0,0:0:0:0:
64,192,24495,1,0,0:0:0:0:
192,192,24579,1,0,0:0:0:0:
320,192,24662,1,0,0:0:0:0:
448,192,24745,1,0,0:0:0:0:
320,192,24829,1,0,0:0:0:0:
192,192,24912,1,0,0:0:0:0:
64,192,24995,128,2,25329:0:0:0:0:
448,192,24995,128,0,25329:0:0:0:0:
320,192,25329,1,0,0:0:0:0:
192,192,25495,1,0,0:0:0:0:
320,192,25662,1,0,0:0:0:0:
64,192,25829,128,2,25995:0:0:0:0:
192,192,25829,128,0,25995:0:0:0:0:
448,192,25995,1,0,0:0:0:0:
320,192,26079,1,0,0:0:0:0:
64,192,26162,1,0,0:0:0:0:
192,192,26273,1,0,0:0:0:0:
448,192,26384,1,0,0:0:0:0:
320,192,26829,128,2,26995:0:0:0:0:
448,192,26829,128,0,26995:0:0:0:0:
64,192,26995,1,0,0:0:0:0:
192,192,27162,1,0,0:0:0:0:
320,192,27245,1,0,0:0:0:0:
448,192,27329,1,0,0:0:0:0:
320,192,27412,1,0,0:0:0:0:
192,192,27495,1,0,0:0:0:0:
64,192,27662,128,2,27829:0:0:0:0:
448,192,27662,128,0,27829:0:0:0:0:
448,192,27995,1,0,0:0:0:0:
320,192,28329,1,0,0:0:0:0:
64,192,28495,128,2,28662:0:0:0:0:
320,192,28495,128,0,28662:0:0:0:0:
192,192,28662,1,0,0:0:0:0:
320,192,28745,1,0,0:0:0:0:
448,192,28829,1,0,0:0:0:0:
64,192,28829,1,2,0:0:0:0:
192,192,28940,1,0,0:0:0:0:
320,192,29051,1,0,0:0:0:0:
192,192,29162,128,2,29329:0:0:0:0:
448,192,29162,128,0,29329:0:0:0:0:
320,192,29495,128,2,29662:0:0:0:0:
448,192,29495,128,0,29662:0:0:0:0:
64,192,29662,128,0,29829:0:0:0:0:
192,192,29829,128,0,29995:0:0:0:0:
320,192,29995,128,0,30162:0:0:0:0:
192,192,30162,128,0,30329:0:0:0:0:
320,192,30329,128,0,30495:0:0:0:0:
448,192,30495,128,0,30662:0:0:0:0:
192,192,30662,128,0,30829:0:0:0:0:
320,192,30829,128,0,30995:0:0:0:0:
64,192,30995,128,0,31162:0:0:0:0:
448,192,31162,128,0,31329:0:0:0:0:
192,192,31329,128,0,31495:0:0:0:0:
448,192,31495,128,0,31662:0:0:0:0:
192,192,31662,128,4,31828:0:0:0:0:
320,192,31662,1,2,0:0:0:0:
64,192,31662,128,8,31828:0:0:0:0:
448,192,31828,1,0,0:0:0:0:
320,192,31995,1,2,0:0:0:0:
448,192,31995,1,0,0:0:0:0:
192,192,32078,1,0,0:0:0:0:
64,192,32162,1,8,0:0:0:0:
320,192,32162,1,2,0:0:0:0:
64,192,32328,1,2,0:0:0:0:
192,192,32328,1,0,0:0:0:0:
192,192,32495,1,2,0:0:0:0:
448,192,32495,1,0,0:0:0:0:
320,192,32578,1,0,0:0:0:0:
64,192,32662,1,8,0:0:0:0:
448,192,32662,1,2,0:0:0:0:
64,192,32828,1,2,0:0:0:0:
192,192,32828,1,0,0:0:0:0:
320,192,32912,1,2,0:0:0:0:
448,192,32912,1,0,0:0:0:0:
64,192,32995,1,2,0:0:0:0:
192,192,32995,1,0,0:0:0:0:
320,192,33078,1,0,0:0:0:0:
448,192,33162,1,0,0:0:0:0:
192,192,33245,1,0,0:0:0:0:
320,192,33328,1,0,0:0:0:0:
64,192,33412,1,0,0:0:0:0:
192,192,33495,1,8,0:0:0:0:
448,192,33495,1,0,0:0:0:0:
320,192,33662,1,0,0:0:0:0:
192,192,33745,1,0,0:0:0:0:
64,192,33828,1,0,0:0:0:0:
192,192,33912,1,0,0:0:0:0:
320,192,33995,1,8,0:0:0:0:
448,192,33995,1,0,0:0:0:0:
192,192,34162,1,0,0:0:0:0:
320,192,34245,1,0,0:0:0:0:
64,192,34328,128,4,34495:0:0:0:0:
192,192,34328,128,2,34495:0:0:0:0:
448,192,34328,1,0,0:0:0:0:
320,192,34495,1,0,0:0:0:0:
64,192,34662,1,2,0:0:0:0:
448,192,34662,1,0,0:0:0:0:
192,192,34745,1,0,0:0:0:0:
64,192,34828,1,8,0:0:0:0:
320,192,34828,1,2,0:0:0:0:
192,192,34995,1,2,0:0:0:0:
448,192,34995,1,0,0:0:0:0:
320,192,35078,1,0,0:0:0:0:
64,192,35162,1,2,0:0:0:0:
192,192,35162,1,0,0:0:0:0:
320,192,35328,1,8,0:0:0:0:
448,192,35328,1,2,0:0:0:0:
64,192,35495,1,2,0:0:0:0:
192,192,35495,1,0,0:0:0:0:
320,192,35578,1,2,0:0:0:0:
64,192,35661,128,4,35828:0:0:0:0:
192,192,35661,1,2,0:0:0:0:
448,192,35661,128,0,35828:0:0:0:0:
320,192,35828,1,0,0:0:0:0:
192,192,35995,1,2,0:0:0:0:
64,192,35995,1,0,0:0:0:0:
320,192,36078,1,2,0:0:0:0:
64,192,36161,1,2,0:0:0:0:
192,192,36161,1,8,0:0:0:0:
448,192,36161,1,0,0:0:0:0:
64,192,36328,1,2,0:0:0:0:
448,192,36328,1,0,0:0:0:0:
320,192,36495,1,8,0:0:0:0:
448,192,36495,1,2,0:0:0:0:
192,192,36606,1,2,0:0:0:0:
320,192,36606,1,0,0:0:0:0:
64,192,36717,1,2,0:0:0:0:
192,192,36717,1,0,0:0:0:0:
320,192,36828,1,8,0:0:0:0:
448,192,36828,1,2,0:0:0:0:
192,192,36939,1,2,0:0:0:0:
320,192,36939,1,0,0:0:0:0:
64,192,37050,1,2,0:0:0:0:
192,192,37050,1,0,0:0:0:0:
64,192,37162,1,4,0:0:0:0:
320,192,37162,1,2,0:0:0:0:
448,192,37162,1,0,0:0:0:0:
192,192,37328,1,0,0:0:0:0:
64,192,37412,1,4,0:0:0:0:
448,192,37412,1,8,0:0:0:0:
320,192,37412,1,2,0:0:0:0:
192,192,37495,1,0,0:0:0:0:
64,192,37662,1,4,0:0:0:0:
192,192,37662,1,2,0:0:0:0:
448,192,37662,1,8,0:0:0:0:
320,192,37828,1,0,0:0:0:0:
64,192,37912,1,2,0:0:0:0:
192,192,37912,1,0,0:0:0:0:
448,192,37995,1,0,0:0:0:0:
320,192,38078,1,0,0:0:0:0:
64,192,38162,1,2,0:0:0:0:
192,192,38162,1,8,0:0:0:0:
448,192,38162,1,0,0:0:0:0:
320,192,38245,1,0,0:0:0:0:
64,192,38328,1,2,0:0:0:0:
192,192,38328,1,0,0:0:0:0:
320,192,38412,1,0,0:0:0:0:
64,192,38495,1,4,0:0:0:0:
192,192,38495,1,2,0:0:0:0:
448,192,38495,1,8,0:0:0:0:
320,192,38662,1,0,0:0:0:0:
192,192,38745,1,4,0:0:0:0:
64,192,38745,1,8,0:0:0:0:
448,192,38745,1,2,0:0:0:0:
320,192,38828,1,0,0:0:0:0:
64,192,38995,1,4,0:0:0:0:
320,192,38995,1,2,0:0:0:0:
448,192,38995,1,8,0:0:0:0:
192,192,39162,1,0,0:0:0:0:
320,192,39245,1,2,0:0:0:0:
448,192,39245,1,0,0:0:0:0:
64,192,39328,1,0,0:0:0:0:
192,192,39412,1,0,0:0:0:0:
64,192,39495,1,2,0:0:0:0:
320,192,39495,1,8,0:0:0:0:
192,192,39578,1,0,0:0:0:0:
320,192,39662,1,2,0:0:0:0:
448,192,39662,1,0,0:0:0:0:
192,192,39745,1,0,0:0:0:0:
64,192,39828,1,4,0:0:0:0:
320,192,39828,1,2,0:0:0:0:
448,192,39828,1,8,0:0:0:0:
320,192,39995,1,0,0:0:0:0:
64,192,40078,1,4,0:0:0:0:
192,192,40078,1,8,0:0:0:0:
448,192,40078,1,2,0:0:0:0:
320,192,40162,1,8,0:0:0:0:
192,192,40245,1,0,0:0:0:0:
64,192,40328,1,2,0:0:0:0:
192,192,40412,1,0,0:0:0:0:
64,192,40495,1,4,0:0:0:0:
320,192,40495,1,8,0:0:0:0:
448,192,40495,1,2,0:0:0:0:
192,192,40578,1,2,0:0:0:0:
320,192,40662,1,2,0:0:0:0:
64,192,40745,1,4,0:0:0:0:
192,192,40745,1,8,0:0:0:0:
448,192,40745,1,2,0:0:0:0:
320,192,40828,1,2,0:0:0:0:
192,192,40911,1,2,0:0:0:0:
64,192,40995,1,4,0:0:0:0:
320,192,40995,1,8,0:0:0:0:
448,192,40995,1,2,0:0:0:0:
64,192,41161,1,4,0:0:0:0:
192,192,41161,1,8,0:0:0:0:
448,192,41161,1,2,0:0:0:0:
320,192,41245,1,0,0:0:0:0:
192,192,41328,1,0,0:0:0:0:
64,192,41411,1,0,0:0:0:0:
448,192,41495,1,0,0:0:0:0:
320,192,41578,1,0,0:0:0:0:
192,192,41661,1,0,0:0:0:0:
64,192,41745,1,0,0:0:0:0:
320,192,41828,128,4,42495:0:0:0:0:
448,192,41828,128,2,42495:0:0:0:0:
192,192,41828,1,8,0:0:0:0:
64,192,42495,1,6,0:0:0:0:
192,192,42495,1,8,0:0:0:0:
64,192,42828,1,0,0:0:0:0:
192,192,42911,1,0,0:0:0:0:
320,192,42995,1,0,0:0:0:0:
448,192,43078,1,0,0:0:0:0:
192,192,43161,1,0,0:0:0:0:
320,192,43245,1,0,0:0:0:0:
448,192,43328,1,0,0:0:0:0:
320,192,43411,1,0,0:0:0:0:
192,192,43495,1,0,0:0:0:0:
64,192,43578,1,0,0:0:0:0:
320,192,43661,1,0,0:0:0:0:
448,192,43745,1,0,0:0:0:0:
192,192,43828,1,0,0:0:0:0:
320,192,43911,1,0,0:0:0:0:
64,192,43995,1,0,0:0:0:0:
192,192,44078,1,0,0:0:0:0:
448,192,44161,1,0,0:0:0:0:
320,192,44217,1,0,0:0:0:0:
192,192,44273,1,0,0:0:0:0:
64,192,44328,1,0,0:0:0:0:
448,192,44328,1,0,0:0:0:0:
320,192,44411,1,0,0:0:0:0:
192,192,44495,1,0,0:0:0:0:
448,192,44578,1,0,0:0:0:0:
320,192,44661,1,0,0:0:0:0:
64,192,44717,1,0,0:0:0:0:
192,192,44773,1,0,0:0:0:0:
320,192,44828,1,0,0:0:0:0:
192,192,44911,1,0,0:0:0:0:
64,192,44995,1,4,0:0:0:0:
320,192,44995,1,2,0:0:0:0:
448,192,44995,1,8,0:0:0:0:
448,192,45161,1,0,0:0:0:0:
320,192,45245,1,0,0:0:0:0:
64,192,45328,1,2,0:0:0:0:
192,192,45328,1,0,0:0:0:0:
64,192,45495,1,2,0:0:0:0:
320,192,45495,1,8,0:0:0:0:
192,192,45661,1,2,0:0:0:0:
448,192,45661,1,0,0:0:0:0:
320,192,45828,1,0,0:0:0:0:
64,192,45911,1,2,0:0:0:0:
448,192,45911,1,0,0:0:0:0:
192,192,45995,1,0,0:0:0:0:
64,192,46161,1,2,0:0:0:0:
320,192,46161,1,8,0:0:0:0:
320,192,46328,1,0,0:0:0:0:
448,192,46328,1,0,0:0:0:0:
192,192,46411,1,0,0:0:0:0:
64,192,46495,1,2,0:0:0:0:
320,192,46495,1,0,0:0:0:0:
192,192,46661,1,2,0:0:0:0:
448,192,46661,1,0,0:0:0:0:
320,192,46745,1,0,0:0:0:0:
64,192,46828,1,2,0:0:0:0:
192,192,46828,1,8,0:0:0:0:
320,192,46995,1,0,0:0:0:0:
64,192,47078,1,2,0:0:0:0:
448,192,47078,1,0,0:0:0:0:
192,192,47161,1,0,0:0:0:0:
320,192,47245,1,0,0:0:0:0:
192,192,47328,1,2,0:0:0:0:
64,192,47328,1,0,0:0:0:0:
320,192,47411,1,0,0:0:0:0:
192,192,47495,1,8,0:0:0:0:
448,192,47495,1,2,0:0:0:0:
64,192,47661,1,4,0:0:0:0:
320,192,47661,1,2,0:0:0:0:
448,192,47661,1,0,0:0:0:0:
192,192,47995,1,2,0:0:0:0:
448,192,47995,1,0,0:0:0:0:
320,192,48078,1,0,0:0:0:0:
64,192,48161,1,2,0:0:0:0:
192,192,48161,1,8,0:0:0:0:
320,192,48328,1,0,0:0:0:0:
64,192,48411,1,2,0:0:0:0:
192,192,48411,1,0,0:0:0:0:
320,192,48495,1,0,0:0:0:0:
192,192,48578,1,0,0:0:0:0:
64,192,48661,128,2,48994:0:0:0:0:
448,192,48661,1,0,0:0:0:0:
320,192,48744,1,0,0:0:0:0:
192,192,48828,1,2,0:0:0:0:
448,192,48828,1,8,0:0:0:0:
320,192,48994,128,0,49328:0:0:0:0:
64,192,49161,1,2,0:0:0:0:
192,192,49161,1,0,0:0:0:0:
64,192,49328,1,2,0:0:0:0:
448,192,49328,128,0,49661:0:0:0:0:
192,192,49494,1,2,0:0:0:0:
320,192,49494,1,8,0:0:0:0:
64,192,49661,1,0,0:0:0:0:
192,192,49744,1,2,0:0:0:0:
320,192,49744,1,0,0:0:0:0:
448,192,49828,1,0,0:0:0:0:
192,192,49911,1,0,0:0:0:0:
64,192,49994,1,2,0:0:0:0:
320,192,49994,1,0,0:0:0:0:
448,192,50078,1,0,0:0:0:0:
192,192,50161,1,2,0:0:0:0:
64,192,50161,1,8,0:0:0:0:
64,192,50328,1,4,0:0:0:0:
320,192,50328,1,2,0:0:0:0:
448,192,50328,1,0,0:0:0:0:
64,192,50661,1,2,0:0:0:0:
448,192,50661,1,0,0:0:0:0:
192,192,50744,1,0,0:0:0:0:
64,192,50828,1,2,0:0:0:0:
320,192,50828,1,8,0:0:0:0:
192,192,50994,1,0,0:0:0:0:
320,192,51078,1,2,0:0:0:0:
448,192,51078,1,0,0:0:0:0:
64,192,51161,1,0,0:0:0:0:
320,192,51328,1,2,0:0:0:0:
448,192,51328,1,0,0:0:0:0:
192,192,51494,1,8,0:0:0:0:
64,192,51494,1,2,0:0:0:0:
320,192,51578,1,0,0:0:0:0:
448,192,51661,1,0,0:0:0:0:
320,192,51744,1,0,0:0:0:0:
448,192,51828,1,2,0:0:0:0:
192,192,51828,1,0,0:0:0:0:
320,192,51994,1,2,0:0:0:0:
64,192,51994,1,0,0:0:0:0:
192,192,52078,1,0,0:0:0:0:
64,192,52161,1,2,0:0:0:0:
448,192,52161,1,8,0:0:0:0:
320,192,52244,1,0,0:0:0:0:
192,192,52328,1,0,0:0:0:0:
448,192,52411,1,2,0:0:0:0:
320,192,52411,1,0,0:0:0:0:
64,192,52494,1,0,0:0:0:0:
192,192,52578,1,0,0:0:0:0:
320,192,52661,1,2,0:0:0:0:
64,192,52661,1,0,0:0:0:0:
448,192,52744,1,0,0:0:0:0:
192,192,52828,1,2,0:0:0:0:
64,192,52828,1,8,0:0:0:0:
320,192,52911,1,0,0:0:0:0:
192,192,52994,1,0,0:0:0:0:
448,192,52994,1,0,0:0:0:0:
64,192,53078,1,0,0:0:0:0:
320,192,53161,1,2,0:0:0:0:
448,192,53161,1,0,0:0:0:0:
192,192,53244,1,2,0:0:0:0:
64,192,53244,1,8,0:0:0:0:
448,192,53328,1,2,0:0:0:0:
320,192,53328,1,0,0:0:0:0:
448,192,53494,1,2,0:0:0:0:
192,192,53494,1,8,0:0:0:0:
320,192,53661,1,2,0:0:0:0:
64,192,53661,1,0,0:0:0:0:
192,192,53828,1,0,0:0:0:0:
320,192,53911,1,8,0:0:0:0:
448,192,53911,1,2,0:0:0:0:
64,192,53994,1,2,0:0:0:0:
192,192,53994,1,0,0:0:0:0:
320,192,54078,1,0,0:0:0:0:
64,192,54161,1,2,0:0:0:0:
448,192,54161,1,0,0:0:0:0:
192,192,54244,1,0,0:0:0:0:
320,192,54328,1,2,0:0:0:0:
448,192,54328,1,8,0:0:0:0:
64,192,54411,1,0,0:0:0:0:
192,192,54494,1,0,0:0:0:0:
320,192,54578,1,0,0:0:0:0:
192,192,54661,1,2,0:0:0:0:
448,192,54661,1,8,0:0:0:0:
64,192,54744,128,0,54828:0:0:0:0:
320,192,54828,1,2,0:0:0:0:
448,192,54828,1,0,0:0:0:0:
192,192,54994,128,0,55078:0:0:0:0:
64,192,55078,1,2,0:0:0:0:
320,192,55078,1,0,0:0:0:0:
192,192,55161,1,8,0:0:0:0:
448,192,55161,1,2,0:0:0:0:
320,192,55244,128,0,55328:0:0:0:0:
64,192,55328,1,2,0:0:0:0:
192,192,55328,1,0,0:0:0:0:
448,192,55494,1,0,0:0:0:0:
64,192,55661,1,4,0:0:0:0:
192,192,55661,1,2,0:0:0:0:
448,192,55661,1,8,0:0:0:0:
320,192,55828,1,0,0:0:0:0:
192,192,55911,1,0,0:0:0:0:
320,192,55994,1,2,0:0:0:0:
64,192,55994,1,0,0:0:0:0:
192,192,56161,1,2,0:0:0:0:
448,192,56161,1,8,0:0:0:0:
192,192,56328,1,2,0:0:0:0:
320,192,56328,1,0,0:0:0:0:
64,192,56494,1,0,0:0:0:0:
320,192,56578,1,2,0:0:0:0:
448,192,56578,1,0,0:0:0:0:
192,192,56661,1,0,0:0:0:0:
64,192,56828,1,2,0:0:0:0:
320,192,56828,1,8,0:0:0:0:
192,192,56994,1,0,0:0:0:0:
448,192,56994,1,0,0:0:0:0:
320,192,57078,1,0,0:0:0:0:
64,192,57161,1,2,0:0:0:0:
192,192,57161,1,0,0:0:0:0:
64,192,57328,1,2,0:0:0:0:
320,192,57328,1,0,0:0:0:0:
192,192,57411,1,0,0:0:0:0:
320,192,57494,1,2,0:0:0:0:
448,192,57494,1,8,0:0:0:0:
64,192,57661,1,0,0:0:0:0:
192,192,57661,1,0,0:0:0:0:
320,192,57744,1,2,0:0:0:0:
448,192,57744,1,0,0:0:0:0:
192,192,57828,1,0,0:0:0:0:
320,192,57911,1,0,0:0:0:0:
64,192,57994,1,2,0:0:0:0:
448,192,57994,1,0,0:0:0:0:
192,192,58078,1,0,0:0:0:0:
320,192,58161,1,2,0:0:0:0:
64,192,58161,1,8,0:0:0:0:
64,192,58328,1,4,0:0:0:0:
192,192,58328,1,2,0:0:0:0:
448,192,58328,1,0,0:0:0:0:
64,192,58661,1,2,0:0:0:0:
192,192,58661,1,0,0:0:0:0:
320,192,58744,1,0,0:0:0:0:
64,192,58828,1,2,0:0:0:0:
448,192,58828,1,8,0:0:0:0:
192,192,58911,1,0,0:0:0:0:
320,192,58994,128,0,59328:0:0:0:0:
64,192,59078,1,2,0:0:0:0:
192,192,59078,1,0,0:0:0:0:
448,192,59161,1,0,0:0:0:0:
192,192,59244,1,0,0:0:0:0:
64,192,59328,1,2,0:0:0:0:
448,192,59328,128,0,59661:0:0:0:0:
192,192,59411,1,0,0:0:0:0:
64,192,59494,1,2,0:0:0:0:
320,192,59494,1,8,0:0:0:0:
192,192,59661,128,0,59994:0:0:0:0:
320,192,59828,1,2,0:0:0:0:
448,192,59828,1,0,0:0:0:0:
320,192,59994,128,2,60328:0:0:0:0:
448,192,59994,1,0,0:0:0:0:
64,192,60161,1,2,0:0:0:0:
192,192,60161,1,8,0:0:0:0:
64,192,60328,1,0,0:0:0:0:
192,192,60411,1,2,0:0:0:0:
448,192,60411,1,0,0:0:0:0:
320,192,60494,1,0,0:0:0:0:
192,192,60578,1,0,0:0:0:0:
320,192,60661,1,2,0:0:0:0:
448,192,60661,1,0,0:0:0:0:
192,192,60744,1,0,0:0:0:0:
64,192,60828,1,2,0:0:0:0:
320,192,60828,1,8,0:0:0:0:
64,192,60994,1,4,0:0:0:0:
192,192,60994,1,2,0:0:0:0:
448,192,60994,1,0,0:0:0:0:
64,192,61328,1,2,0:0:0:0:
448,192,61328,1,0,0:0:0:0:
192,192,61411,1,0,0:0:0:0:
320,192,61494,1,2,0:0:0:0:
448,192,61494,1,8,0:0:0:0:
192,192,61578,1,0,0:0:0:0:
320,192,61661,1,0,0:0:0:0:
64,192,61744,1,2,0:0:0:0:
448,192,61744,1,0,0:0:0:0:
192,192,61828,1,0,0:0:0:0:
320,192,61911,1,0,0:0:0:0:
64,192,61994,1,2,0:0:0:0:
448,192,61994,1,0,0:0:0:0:
320,192,62078,1,0,0:0:0:0:
64,192,62161,1,2,0:0:0:0:
192,192,62161,1,8,0:0:0:0:
448,192,62244,1,0,0:0:0:0:
320,192,62328,1,0,0:0:0:0:
192,192,62411,1,0,0:0:0:0:
64,192,62494,1,2,0:0:0:0:
448,192,62494,1,0,0:0:0:0:
448,192,62661,1,2,0:0:0:0:
320,192,62661,1,0,0:0:0:0:
192,192,62744,1,0,0:0:0:0:
64,192,62828,1,2,0:0:0:0:
448,192,62828,1,8,0:0:0:0:
320,192,62911,1,0,0:0:0:0:
192,192,62994,1,0,0:0:0:0:
320,192,63078,1,2,0:0:0:0:
64,192,63078,1,0,0:0:0:0:
192,192,63161,1,0,0:0:0:0:
320,192,63328,1,2,0:0:0:0:
448,192,63328,1,0,0:0:0:0:
192,192,63411,1,0,0:0:0:0:
64,192,63494,1,2,0:0:0:0:
320,192,63494,1,8,0:0:0:0:
192,192,63661,1,0,0:0:0:0:
448,192,63661,1,0,0:0:0:0:
320,192,63828,1,2,0:0:0:0:
448,192,63828,1,0,0:0:0:0:
64,192,63911,1,2,0:0:0:0:
192,192,63911,1,8,0:0:0:0:
320,192,63994,1,2,0:0:0:0:
448,192,63994,1,0,0:0:0:0:
64,192,64050,1,0,0:0:0:0:
192,192,64106,1,0,0:0:0:0:
320,192,64161,1,2,0:0:0:0:
448,192,64161,1,8,0:0:0:0:
192,192,64244,1,0,0:0:0:0:
64,192,64328,1,2,0:0:0:0:
448,192,64328,1,0,0:0:0:0:
320,192,64411,1,0,0:0:0:0:
192,192,64494,1,0,0:0:0:0:
320,192,64578,1,2,0:0:0:0:
448,192,64578,1,8,0:0:0:0:
64,192,64661,1,2,0:0:0:0:
192,192,64661,1,0,0:0:0:0:
448,192,64744,1,0,0:0:0:0:
64,192,64828,1,2,0:0:0:0:
320,192,64828,1,0,0:0:0:0:
192,192,64911,1,0,0:0:0:0:
320,192,64994,1,2,0:0:0:0:
448,192,64994,1,8,0:0:0:0:
64,192,65161,128,0,65244:0:0:0:0:
192,192,65244,1,0,0:0:0:0:
320,192,65328,1,2,0:0:0:0:
448,192,65328,1,0,0:0:0:0:
192,192,65411,128,0,65494:0:0:0:0:
64,192,65494,1,2,0:0:0:0:
448,192,65494,1,8,0:0:0:0:
320,192,65661,128,0,65744:0:0:0:0:
192,192,65744,1,2,0:0:0:0:
448,192,65744,1,0,0:0:0:0:
64,192,65828,1,2,0:0:0:0:
320,192,65828,1,8,0:0:0:0:
448,192,65911,128,0,65994:0:0:0:0:
64,192,65994,1,2,0:0:0:0:
192,192,65994,1,0,0:0:0:0:
320,192,66161,1,0,0:0:0:0:
192,192,66217,1,0,0:0:0:0:
320,192,66272,1,0,0:0:0:0:
64,192,66328,1,4,0:0:0:0:
192,192,66328,1,2,0:0:0:0:
448,192,66328,128,8,66828:0:0:0:0:
320,192,66494,1,0,0:0:0:0:
64,192,66661,1,2,0:0:0:0:
192,192,66661,1,0,0:0:0:0:
64,192,66828,1,2,0:0:0:0:
320,192,66828,1,8,0:0:0:0:
192,192,66994,1,2,0:0:0:0:
320,192,66994,1,0,0:0:0:0:
448,192,67161,1,0,0:0:0:0:
320,192,67244,1,2,0:0:0:0:
64,192,67244,1,0,0:0:0:0:
192,192,67328,128,0,67661:0:0:0:0:
320,192,67494,1,2,0:0:0:0:
448,192,67494,1,8,0:0:0:0:
64,192,67661,1,0,0:0:0:0:
448,192,67661,128,0,68161:0:0:0:0:
192,192,67744,1,0,0:0:0:0:
64,192,67828,1,2,0:0:0:0:
320,192,67828,1,0,0:0:0:0:
64,192,67994,1,2,0:0:0:0:
192,192,67994,1,0,0:0:0:0:
192,192,68161,1,2,0:0:0:0:
320,192,68161,1,8,0:0:0:0:
64,192,68328,1,0,0:0:0:0:
192,192,68411,1,2,0:0:0:0:
448,192,68411,1,0,0:0:0:0:
320,192,68494,1,0,0:0:0:0:
192,192,68578,1,0,0:0:0:0:
64,192,68661,1,2,0:0:0:0:
448,192,68661,1,0,0:0:0:0:
320,192,68744,1,0,0:0:0:0:
448,192,68828,1,2,0:0:0:0:
192,192,68828,1,8,0:0:0:0:
64,192,68994,128,4,69328:0:0:0:0:
320,192,68994,1,2,0:0:0:0:
448,192,68994,1,0,0:0:0:0:
192,192,69328,1,2,0:0:0:0:
448,192,69328,1,0,0:0:0:0:
320,192,69411,1,0,0:0:0:0:
64,192,69494,1,2,0:0:0:0:
192,192,69494,1,8,0:0:0:0:
448,192,69661,1,0,0:0:0:0:
64,192,69744,1,2,0:0:0:0:
320,192,69744,1,0,0:0:0:0:
192,192,69828,1,0,0:0:0:0:
320,192,69911,1,0,0:0:0:0:
64,192,69994,128,2,70328:0:0:0:0:
448,192,69994,1,0,0:0:0:0:
192,192,70078,1,0,0:0:0:0:
320,192,70161,1,2,0:0:0:0:
448,192,70161,1,8,0:0:0:0:
320,192,70328,128,0,70661:0:0:0:0:
64,192,70494,1,2,0:0:0:0:
192,192,70494,1,0,0:0:0:0:
192,192,70661,1,2,0:0:0:0:
448,192,70661,128,0,70994:0:0:0:0:
64,192,70828,1,2,0:0:0:0:
320,192,70828,1,8,0:0:0:0:
192,192,70994,1,0,0:0:0:0:
320,192,71078,1,2,0:0:0:0:
448,192,71078,1,0,0:0:0:0:
192,192,71161,1,0,0:0:0:0:
320,192,71244,1,0,0:0:0:0:
64,192,71328,1,2,0:0:0:0:
448,192,71328,1,0,0:0:0:0:
192,192,71411,1,0,0:0:0:0:
64,192,71494,1,2,0:0:0:0:
320,192,71494,1,8,0:0:0:0:
64,192,71661,1,4,0:0:0:0:
192,192,71661,1,2,0:0:0:0:
448,192,71661,128,0,71911:0:0:0:0:
320,192,71911,128,0,72161:0:0:0:0:
64,192,71994,1,2,0:0:0:0:
192,192,71994,1,0,0:0:0:0:
448,192,72078,1,0,0:0:0:0:
64,192,72161,128,2,72828:0:0:0:0:
192,192,72161,1,8,0:0:0:0:
448,192,72328,1,0,0:0:0:0:
192,192,72411,1,2,0:0:0:0:
320,192,72411,1,0,0:0:0:0:
448,192,72494,1,0,0:0:0:0:
320,192,72578,1,0,0:0:0:0:
192,192,72661,1,2,0:0:0:0:
448,192,72661,1,0,0:0:0:0:
192,192,72828,1,2,0:0:0:0:
320,192,72828,1,8,0:0:0:0:
448,192,72911,1,0,0:0:0:0:
320,192,72994,1,0,0:0:0:0:
192,192,73078,1,0,0:0:0:0:
320,192,73161,1,2,0:0:0:0:
64,192,73161,1,0,0:0:0:0:
192,192,73328,1,2,0:0:0:0:
448,192,73328,1,0,0:0:0:0:
64,192,73494,1,2,0:0:0:0:
448,192,73494,1,8,0:0:0:0:
192,192,73578,1,0,0:0:0:0:
320,192,73661,1,0,0:0:0:0:
64,192,73744,1,2,0:0:0:0:
192,192,73744,1,0,0:0:0:0:
320,192,73828,1,0,0:0:0:0:
448,192,73911,1,0,0:0:0:0:
64,192,73994,1,2,0:0:0:0:
320,192,73994,1,0,0:0:0:0:
192,192,74078,1,0,0:0:0:0:
64,192,74161,1,2,0:0:0:0:
448,192,74161,1,8,0:0:0:0:
320,192,74244,1,0,0:0:0:0:
192,192,74328,1,0,0:0:0:0:
448,192,74328,1,0,0:0:0:0:
320,192,74411,1,0,0:0:0:0:
64,192,74494,1,2,0:0:0:0:
192,192,74494,1,0,0:0:0:0:
320,192,74578,1,2,0:0:0:0:
448,192,74578,1,8,0:0:0:0:
64,192,74661,1,2,0:0:0:0:
192,192,74661,1,0,0:0:0:0:
320,192,74744,1,0,0:0:0:0:
192,192,74828,1,2,0:0:0:0:
448,192,74828,1,8,0:0:0:0:
320,192,74994,1,2,0:0:0:0:
64,192,74994,1,0,0:0:0:0:
192,192,75161,1,0,0:0:0:0:
64,192,75244,1,2,0:0:0:0:
320,192,75244,1,8,0:0:0:0:
192,192,75328,1,2,0:0:0:0:
448,192,75328,1,0,0:0:0:0:
320,192,75411,1,0,0:0:0:0:
64,192,75494,1,2,0:0:0:0:
192,192,75494,1,0,0:0:0:0:
320,192,75578,1,0,0:0:0:0:
64,192,75661,1,2,0:0:0:0:
448,192,75661,1,8,0:0:0:0:
192,192,75744,1,0,0:0:0:0:
320,192,75828,1,0,0:0:0:0:
192,192,75911,1,0,0:0:0:0:
64,192,75994,1,2,0:0:0:0:
320,192,75994,1,0,0:0:0:0:
448,192,76078,128,0,76161:0:0:0:0:
64,192,76161,1,2,0:0:0:0:
192,192,76161,1,8,0:0:0:0:
320,192,76328,128,0,76411:0:0:0:0:
64,192,76411,1,2,0:0:0:0:
192,192,76411,1,0,0:0:0:0:
448,192,76494,1,8,0:0:0:0:
320,192,76494,1,2,0:0:0:0:
192,192,76578,128,0,76661:0:0:0:0:
64,192,76661,1,2,0:0:0:0:
448,192,76661,1,0,0:0:0:0:
192,192,76828,1,0,0:0:0:0:
320,192,76883,1,0,0:0:0:0:
192,192,76939,1,0,0:0:0:0:
64,192,76994,1,4,0:0:0:0:
320,192,76994,1,2,0:0:0:0:
448,192,76994,128,8,77328:0:0:0:0:
192,192,77161,1,0,0:0:0:0:
64,192,77328,1,2,0:0:0:0:
320,192,77328,1,0,0:0:0:0:
192,192,77494,1,2,0:0:0:0:
448,192,77494,1,8,0:0:0:0:
64,192,77661,1,2,0:0:0:0:
192,192,77661,1,0,0:0:0:0:
320,192,77828,1,0,0:0:0:0:
64,192,77911,1,2,0:0:0:0:
192,192,77911,1,0,0:0:0:0:
448,192,77994,128,0,78328:0:0:0:0:
64,192,78161,1,2,0:0:0:0:
192,192,78161,1,8,0:0:0:0:
64,192,78328,128,0,78828:0:0:0:0:
320,192,78328,1,0,0:0:0:0:
192,192,78411,1,0,0:0:0:0:
320,192,78494,1,2,0:0:0:0:
448,192,78494,1,0,0:0:0:0:
192,192,78661,1,2,0:0:0:0:
448,192,78661,1,0,0:0:0:0:
192,192,78828,1,8,0:0:0:0:
320,192,78828,1,2,0:0:0:0:
320,192,78994,1,0,0:0:0:0:
64,192,79078,1,2,0:0:0:0:
448,192,79078,1,0,0:0:0:0:
192,192,79161,1,0,0:0:0:0:
320,192,79244,1,0,0:0:0:0:
192,192,79328,1,2,0:0:0:0:
64,192,79328,1,0,0:0:0:0:
320,192,79411,1,0,0:0:0:0:
448,192,79494,1,2,0:0:0:0:
192,192,79494,1,8,0:0:0:0:
64,192,79661,128,4,79994:0:0:0:0:
320,192,79661,1,2,0:0:0:0:
448,192,79661,1,0,0:0:0:0:
192,192,79994,1,2,0:0:0:0:
448,192,79994,1,0,0:0:0:0:
320,192,80078,1,0,0:0:0:0:
64,192,80161,1,2,0:0:0:0:
192,192,80161,1,8,0:0:0:0:
448,192,80244,1,0,0:0:0:0:
320,192,80328,128,0,80661:0:0:0:0:
64,192,80411,1,2,0:0:0:0:
192,192,80411,1,0,0:0:0:0:
448,192,80494,1,0,0:0:0:0:
64,192,80661,1,2,0:0:0:0:
192,192,80661,128,0,80994:0:0:0:0:
320,192,80828,1,2,0:0:0:0:
448,192,80828,1,8,0:0:0:0:
448,192,80994,128,0,81328:0:0:0:0:
320,192,81161,1,2,0:0:0:0:
64,192,81161,1,0,0:0:0:0:
192,192,81328,1,2,0:0:0:0:
320,192,81328,128,0,81661:0:0:0:0:
192,192,81494,1,2,0:0:0:0:
64,192,81494,1,8,0:0:0:0:
64,192,81661,1,0,0:0:0:0:
192,192,81744,1,2,0:0:0:0:
448,192,81744,1,0,0:0:0:0:
320,192,81828,1,0,0:0:0:0:
192,192,81911,1,0,0:0:0:0:
64,192,81994,1,2,0:0:0:0:
448,192,81994,1,0,0:0:0:0:
320,192,82078,1,0,0:0:0:0:
448,192,82161,1,8,0:0:0:0:
192,192,82161,1,2,0:0:0:0:
64,192,82328,128,4,82578:0:0:0:0:
320,192,82328,1,2,0:0:0:0:
448,192,82328,1,0,0:0:0:0:
192,192,82578,128,0,82828:0:0:0:0:
320,192,82661,1,2,0:0:0:0:
448,192,82661,1,0,0:0:0:0:
64,192,82744,1,0,0:0:0:0:
320,192,82828,1,2,0:0:0:0:
448,192,82828,128,8,83494:0:0:0:0:
192,192,82994,1,0,0:0:0:0:
64,192,83078,1,2,0:0:0:0:
320,192,83078,1,0,0:0:0:0:
192,192,83161,1,0,0:0:0:0:
192,192,83328,1,2,0:0:0:0:
64,192,83328,1,0,0:0:0:0:
64,192,83494,1,2,0:0:0:0:
320,192,83494,1,8,0:0:0:0:
192,192,83578,1,0,0:0:0:0:
448,192,83661,1,0,0:0:0:0:
320,192,83744,1,0,0:0:0:0:
192,192,83828,1,2,0:0:0:0:
448,192,83828,1,0,0:0:0:0:
64,192,83994,1,2,0:0:0:0:
320,192,83994,1,0,0:0:0:0:
64,192,84161,1,2,0:0:0:0:
448,192,84161,1,8,0:0:0:0:
320,192,84244,1,0,0:0:0:0:
192,192,84328,1,0,0:0:0:0:
64,192,84411,1,2,0:0:0:0:
320,192,84411,1,0,0:0:0:0:
448,192,84494,1,0,0:0:0:0:
192,192,84661,1,2,0:0:0:0:
64,192,84661,1,0,0:0:0:0:
320,192,84744,1,0,0:0:0:0:
448,192,84828,1,2,0:0:0:0:
192,192,84828,1,8,0:0:0:0:
320,192,84994,1,0,0:0:0:0:
64,192,85161,1,4,0:0:0:0:
192,192,85161,1,2,0:0:0:0:
448,192,85161,1,8,0:0:0:0:
320,192,85244,1,2,0:0:0:0:
64,192,85328,1,2,0:0:0:0:
192,192,85328,1,0,0:0:0:0:
448,192,85411,1,0,0:0:0:0:
64,192,85494,1,2,0:0:0:0:
320,192,85494,1,8,0:0:0:0:
192,192,85578,1,0,0:0:0:0:
64,192,85661,1,4,0:0:0:0:
320,192,85661,1,2,0:0:0:0:
448,192,85661,1,8,0:0:0:0:
192,192,85828,1,0,0:0:0:0:
320,192,85911,1,2,0:0:0:0:
64,192,85911,1,8,0:0:0:0:
448,192,85994,1,2,0:0:0:0:
192,192,85994,1,0,0:0:0:0:
320,192,86078,1,0,0:0:0:0:
448,192,86161,1,4,0:0:0:0:
192,192,86161,1,2,0:0:0:0:
64,192,86161,1,8,0:0:0:0:
320,192,86244,1,0,0:0:0:0:
192,192,86328,1,2,0:0:0:0:
64,192,86328,1,8,0:0:0:0:
448,192,86494,128,0,86578:0:0:0:0:
320,192,86578,1,0,0:0:0:0:
192,192,86661,1,2,0:0:0:0:
64,192,86661,1,0,0:0:0:0:
448,192,86744,1,0,0:0:0:0:
320,192,86744,128,0,86828:0:0:0:0:
192,192,86828,1,2,0:0:0:0:
64,192,86828,1,8,0:0:0:0:
192,192,86994,128,0,87078:0:0:0:0:
448,192,87078,1,2,0:0:0:0:
64,192,87078,1,0,0:0:0:0:
320,192,87161,1,2,0:0:0:0:
192,192,87161,1,8,0:0:0:0:
64,192,87244,128,0,87328:0:0:0:0:
448,192,87328,1,2,0:0:0:0:
320,192,87328,1,0,0:0:0:0:
64,192,87494,1,4,0:0:0:0:
320,192,87494,1,2,0:0:0:0:
448,192,87494,128,8,88828:0:0:0:0:
192,192,87661,1,0,0:0:0:0:
64,192,87744,1,0,0:0:0:0:
192,192,87828,1,0,0:0:0:0:
320,192,87911,1,0,0:0:0:0:
64,192,87994,1,0,0:0:0:0:
192,192,88078,1,0,0:0:0:0:
320,192,88161,1,0,0:0:0:0:
192,192,88244,1,0,0:0:0:0:
64,192,88328,1,0,0:0:0:0:
192,192,88411,1,0,0:0:0:0:
320,192,88494,1,0,0:0:0:0:
64,192,88578,1,0,0:0:0:0:
192,192,88661,1,0,0:0:0:0:
320,192,88744,1,0,0:0:0:0:
64,192,88828,1,4,0:0:0:0:
192,192,88828,1,2,0:0:0:0:
320,192,88883,1,0,0:0:0:0:
448,192,88939,1,0,0:0:0:0:
64,192,88994,1,0,0:0:0:0:
192,192,89050,1,0,0:0:0:0:
320,192,89106,1,0,0:0:0:0:
64,192,89161,1,4,0:0:0:0:
192,192,89161,1,2,0:0:0:0:
448,192,89161,128,8,89494:0:0:0:0:
320,192,89327,1,0,0:0:0:0:
64,192,89494,1,0,0:0:0:0:
192,192,89661,1,0,0:0:0:0:
448,192,89661,128,0,90161:0:0:0:0:
320,192,89827,1,0,0:0:0:0:
64,192,89994,1,0,0:0:0:0:
192,192,90161,1,0,0:0:0:0:
320,192,90327,1,0,0:0:0:0:
64,192,90494,128,0,90827:0:0:0:0:
448,192,90494,1,0,0:0:0:0:
192,192,90661,1,0,0:0:0:0:
448,192,90827,1,0,0:0:0:0:
64,192,90994,128,0,91494:0:0:0:0:
320,192,90994,1,0,0:0:0:0:
192,192,91161,1,0,0:0:0:0:
448,192,91327,1,0,0:0:0:0:
320,192,91494,1,0,0:0:0:0:
192,192,91661,1,2,0:0:0:0:
64,192,91661,1,0,0:0:0:0:
64,192,91827,1,4,0:0:0:0:
320,192,91827,128,2,92161:0:0:0:0:
448,192,91827,1,8,0:0:0:0:
192,192,91994,1,0,0:0:0:0:
64,192,92161,1,0,0:0:0:0:
320,192,92327,1,2,0:0:0:0:
448,192,92327,128,0,92827:0:0:0:0:
64,192,92494,1,0,0:0:0:0:
192,192,92661,1,0,0:0:0:0:
320,192,92827,128,0,93161:0:0:0:0:
448,192,92994,1,0,0:0:0:0:
64,192,93161,1,2,0:0:0:0:
192,192,93161,128,0,93494:0:0:0:0:
448,192,93327,1,0,0:0:0:0:
320,192,93494,128,0,93827:0:0:0:0:
448,192,93661,1,0,0:0:0:0:
192,192,93827,128,2,94161:0:0:0:0:
64,192,93827,1,0,0:0:0:0:
320,192,93994,1,0,0:0:0:0:
64,192,94161,128,0,94494:0:0:0:0:
192,192,94327,1,0,0:0:0:0:
320,192,94494,1,2,0:0:0:0:
448,192,94494,1,0,0:0:0:0:
192,192,94661,1,0,0:0:0:0:
64,192,94827,1,2,0:0:0:0:
320,192,94827,1,0,0:0:0:0:
448,192,94994,1,0,0:0:0:0:
64,192,95161,1,2,0:0:0:0:
192,192,95161,1,8,0:0:0:0:
320,192,95327,1,0,0:0:0:0:
192,192,95411,1,0,0:0:0:0:
64,192,95494,1,2,0:0:0:0:
448,192,95494,1,0,0:0:0:0:
192,192,95661,1,0,0:0:0:0:
320,192,95744,1,0,0:0:0:0:
64,192,95827,1,2,0:0:0:0:
448,192,95827,1,0,0:0:0:0:
192,192,95994,1,0,0:0:0:0:
64,192,96161,1,2,0:0:0:0:
448,192,96161,1,0,0:0:0:0:
320,192,96327,1,0,0:0:0:0:
64,192,96494,1,2,0:0:0:0:
192,192,96494,1,8,0:0:0:0:
448,192,96494,1,0,0:0:0:0:
320,192,96660,1,0,0:0:0:0:
192,192,96744,1,0,0:0:0:0:
448,192,96827,1,2,0:0:0:0:
64,192,96827,1,0,0:0:0:0:
320,192,96910,1,0,0:0:0:0:
192,192,96994,1,2,0:0:0:0:
64,192,96994,1,0,0:0:0:0:
320,192,97077,1,0,0:0:0:0:
448,192,97160,1,4,0:0:0:0:
192,192,97160,1,2,0:0:0:0:
64,192,97160,1,8,0:0:0:0:
448,192,97327,1,2,0:0:0:0:
320,192,97327,1,0,0:0:0:0:
192,192,97494,1,2,0:0:0:0:
64,192,97494,1,8,0:0:0:0:
320,192,97660,1,2,0:0:0:0:
448,192,97660,1,0,0:0:0:0:
448,192,97827,1,4,0:0:0:0:
192,192,97827,1,2,0:0:0:0:
64,192,97827,1,8,0:0:0:0:
320,192,97994,1,2,0:0:0:0:
64,192,97994,1,0,0:0:0:0:
448,192,98160,1,2,0:0:0:0:
192,192,98160,1,8,0:0:0:0:
320,192,98327,1,2,0:0:0:0:
64,192,98327,1,0,0:0:0:0:
192,192,98410,1,0,0:0:0:0:
448,192,98494,1,4,0:0:0:0:
64,192,98494,1,2,0:0:0:0:
320,192,98494,1,8,0:0:0:0:
192,192,98577,1,2,0:0:0:0:
448,192,98660,1,2,0:0:0:0:
320,192,98660,1,0,0:0:0:0:
64,192,98744,1,2,0:0:0:0:
192,192,98827,1,2,0:0:0:0:
448,192,98827,1,8,0:0:0:0:
320,192,98910,1,2,0:0:0:0:
448,192,98994,1,2,0:0:0:0:
64,192,98994,1,0,0:0:0:0:
192,192,99077,1,2,0:0:0:0:
64,192,99160,1,2,0:0:0:0:
448,192,99160,1,8,0:0:0:0:
320,192,99160,1,4,0:0:0:0:
192,192,99244,1,2,0:0:0:0:
448,192,99327,1,2,0:0:0:0:
320,192,99327,1,0,0:0:0:0:
64,192,99410,1,2,0:0:0:0:
192,192,99494,1,0,0:0:0:0:
448,192,99577,1,0,0:0:0:0:
320,192,99619,1,0,0:0:0:0:
192,192,99660,1,0,0:0:0:0:
320,192,99744,1,0,0:0:0:0:
64,192,99827,1,4,0:0:0:0:
192,192,99827,1,2,0:0:0:0:
448,192,99827,128,8,100160:0:0:0:0:
320,192,99994,1,0,0:0:0:0:
64,192,100160,1,8,0:0:0:0:
192,192,100160,1,0,0:0:0:0:
64,192,100327,1,0,0:0:0:0:
448,192,100327,128,0,100827:0:0:0:0:
192,192,100494,1,8,0:0:0:0:
320,192,100494,1,0,0:0:0:0:
64,192,100660,1,0,0:0:0:0:
64,192,100827,1,8,0:0:0:0:
320,192,100827,1,0,0:0:0:0:
320,192,100994,1,0,0:0:0:0:
64,192,101160,128,8,101494:0:0:0:0:
448,192,101160,1,0,0:0:0:0:
192,192,101327,1,0,0:0:0:0:
320,192,101494,1,8,0:0:0:0:
448,192,101494,1,0,0:0:0:0:
64,192,101660,128,0,102160:0:0:0:0:
448,192,101660,1,0,0:0:0:0:
192,192,101827,1,8,0:0:0:0:
320,192,101827,1,0,0:0:0:0:
448,192,101994,1,0,0:0:0:0:
192,192,102160,1,8,0:0:0:0:
448,192,102160,1,0,0:0:0:0:
192,192,102327,1,2,0:0:0:0:
64,192,102494,1,4,0:0:0:0:
320,192,102494,128,8,102827:0:0:0:0:
448,192,102494,1,2,0:0:0:0:
192,192,102660,1,0,0:0:0:0:
64,192,102827,1,8,0:0:0:0:
448,192,102827,1,0,0:0:0:0:
320,192,102994,128,2,103494:0:0:0:0:
448,192,102994,1,0,0:0:0:0:
64,192,103160,1,8,0:0:0:0:
192,192,103160,1,0,0:0:0:0:
448,192,103327,1,0,0:0:0:0:
64,192,103494,128,8,103827:0:0:0:0:
192,192,103494,1,0,0:0:0:0:
320,192,103660,1,0,0:0:0:0:
320,192,103827,128,2,104160:0:0:0:0:
448,192,103827,1,8,0:0:0:0:
192,192,103994,1,0,0:0:0:0:
64,192,104160,1,8,0:0:0:0:
192,192,104160,128,0,104494:0:0:0:0:
448,192,104327,1,0,0:0:0:0:
320,192,104494,1,2,0:0:0:0:
448,192,104494,128,8,104827:0:0:0:0:
64,192,104660,1,0,0:0:0:0:
64,192,104827,1,8,0:0:0:0:
192,192,104827,128,0,105160:0:0:0:0:
320,192,104994,1,8,0:0:0:0:
448,192,104994,1,0,0:0:0:0:
64,192,105160,1,4,0:0:0:0:
320,192,105160,1,2,0:0:0:0:
448,192,105160,1,8,0:0:0:0:
64,192,105327,1,8,0:0:0:0:
192,192,105327,1,0,0:0:0:0:
320,192,105494,1,8,0:0:0:0:
448,192,105494,1,2,0:0:0:0:
64,192,105660,1,8,0:0:0:0:
192,192,105660,1,0,0:0:0:0:
320,192,105827,1,8,0:0:0:0:
448,192,105827,1,2,0:0:0:0:
64,192,105994,1,8,0:0:0:0:
192,192,105994,1,0,0:0:0:0:
320,192,106160,1,8,0:0:0:0:
448,192,106160,1,2,0:0:0:0:
64,192,106327,1,8,0:0:0:0:
192,192,106327,1,0,0:0:0:0:
64,192,106494,1,4,0:0:0:0:
320,192,106494,1,8,0:0:0:0:
448,192,106494,1,2,0:0:0:0:
192,192,106660,1,8,0:0:0:0:
320,192,106660,1,0,0:0:0:0:
64,192,106827,1,2,0:0:0:0:
192,192,106827,1,8,0:0:0:0:
192,192,106994,1,8,0:0:0:0:
320,192,106994,1,0,0:0:0:0:
320,192,107160,1,8,0:0:0:0:
448,192,107160,1,2,0:0:0:0:
192,192,107327,1,8,0:0:0:0:
320,192,107327,1,0,0:0:0:0:
64,192,107494,1,8,0:0:0:0:
192,192,107494,1,2,0:0:0:0:
192,192,107660,1,8,0:0:0:0:
320,192,107660,1,0,0:0:0:0:
64,192,107827,1,4,0:0:0:0:
320,192,107827,1,8,0:0:0:0:
448,192,107827,1,2,0:0:0:0:
192,192,107910,1,0,0:0:0:0:
320,192,107994,1,8,0:0:0:0:
192,192,108077,1,0,0:0:0:0:
64,192,108160,1,8,0:0:0:0:
448,192,108160,1,2,0:0:0:0:
320,192,108244,1,0,0:0:0:0:
192,192,108327,1,8,0:0:0:0:
320,192,108410,1,0,0:0:0:0:
64,192,108494,1,8,0:0:0:0:
448,192,108494,1,2,0:0:0:0:
192,192,108577,1,0,0:0:0:0:
320,192,108660,1,8,0:0:0:0:
192,192,108744,1,0,0:0:0:0:
64,192,108827,1,8,0:0:0:0:
448,192,108827,1,2,0:0:0:0:
320,192,108910,1,0,0:0:0:0:
192,192,108994,1,8,0:0:0:0:
320,192,109077,1,0,0:0:0:0:
64,192,109160,1,4,0:0:0:0:
192,192,109160,1,8,0:0:0:0:
448,192,109160,1,2,0:0:0:0:
320,192,109244,1,0,0:0:0:0:
192,192,109327,1,8,0:0:0:0:
64,192,109410,1,0,0:0:0:0:
320,192,109494,1,2,0:0:0:0:
448,192,109494,1,8,0:0:0:0:
192,192,109577,1,0,0:0:0:0:
320,192,109660,1,8,0:0:0:0:
448,192,109744,1,0,0:0:0:0:
64,192,109827,1,2,0:0:0:0:
192,192,109827,1,8,0:0:0:0:
320,192,109910,1,0,0:0:0:0:
192,192,109994,1,8,0:0:0:0:
64,192,110077,1,0,0:0:0:0:
320,192,110160,1,2,0:0:0:0:
448,192,110160,1,8,0:0:0:0:
192,192,110244,1,0,0:0:0:0:
320,192,110327,1,8,0:0:0:0:
448,192,110410,1,0,0:0:0:0:
64,192,110494,1,4,0:0:0:0:
192,192,110494,1,2,0:0:0:0:
320,192,110494,1,8,0:0:0:0:
448,192,110577,1,2,0:0:0:0:
64,192,110660,1,2,0:0:0:0:
192,192,110660,1,8,0:0:0:0:
320,192,110744,1,2,0:0:0:0:
64,192,110827,1,2,0:0:0:0:
448,192,110827,1,8,0:0:0:0:
192,192,110910,1,2,0:0:0:0:
320,192,110994,1,2,0:0:0:0:
448,192,110994,1,8,0:0:0:0:
192,192,111077,1,2,0:0:0:0:
64,192,111160,1,4,0:0:0:0:
320,192,111160,1,2,0:0:0:0:
448,192,111160,1,8,0:0:0:0:
192,192,111244,1,2,0:0:0:0:
64,192,111327,1,2,0:0:0:0:
448,192,111327,1,8,0:0:0:0:
320,192,111410,1,2,0:0:0:0:
192,192,111494,1,2,0:0:0:0:
64,192,111494,1,8,0:0:0:0:
320,192,111577,1,2,0:0:0:0:
64,192,111660,1,2,0:0:0:0:
448,192,111660,1,8,0:0:0:0:
192,192,111744,1,2,0:0:0:0:
64,192,111827,1,4,0:0:0:0:
320,192,111827,1,2,0:0:0:0:
448,192,111827,1,8,0:0:0:0:
192,192,111910,1,2,0:0:0:0:
64,192,111994,1,2,0:0:0:0:
448,192,111994,1,8,0:0:0:0:
320,192,112077,1,2,0:0:0:0:
64,192,112160,1,4,0:0:0:0:
192,192,112160,1,2,0:0:0:0:
448,192,112160,1,8,0:0:0:0:
320,192,112244,1,2,0:0:0:0:
64,192,112327,1,2,0:0:0:0:
448,192,112327,1,8,0:0:0:0:
192,192,112410,1,2,0:0:0:0:
448,192,112494,1,6,0:0:0:0:
320,192,112494,1,8,0:0:0:0:
64,192,112535,1,0,0:0:0:0:
192,192,112577,1,2,0:0:0:0:
320,192,112619,1,0,0:0:0:0:
448,192,112660,1,10,0:0:0:0:
64,192,112702,1,0,0:0:0:0:
192,192,112744,1,2,0:0:0:0:
320,192,112785,1,0,0:0:0:0:
448,192,112827,1,4,0:0:0:0:
64,192,112827,1,10,0:0:0:0:
64,192,113160,128,4,113327:0:0:0:0:
192,192,113160,1,2,0:0:0:0:
448,192,113160,128,8,113327:0:0:0:0:
64,192,113410,1,4,0:0:0:0:
192,192,113410,1,2,0:0:0:0:
448,192,113410,1,0,0:0:0:0:
64,192,113577,1,0,0:0:0:0:
320,192,113577,1,8,0:0:0:0:
448,192,113660,1,0,0:0:0:0:
320,192,113744,1,8,0:0:0:0:
192,192,113827,1,2,0:0:0:0:
64,192,113910,1,0,0:0:0:0:
192,192,114077,1,2,0:0:0:0:
448,192,114077,1,8,0:0:0:0:
64,192,114244,1,0,0:0:0:0:
192,192,114327,1,2,0:0:0:0:
448,192,114327,1,0,0:0:0:0:
320,192,114410,1,0,0:0:0:0:
64,192,114494,1,2,0:0:0:0:
192,192,114494,1,0,0:0:0:0:
320,192,114577,1,2,0:0:0:0:
448,192,114577,1,0,0:0:0:0:
64,192,114660,1,8,0:0:0:0:
192,192,114660,1,2,0:0:0:0:
448,192,114660,1,0,0:0:0:0:
192,192,114827,1,2,0:0:0:0:
64,192,114910,1,8,0:0:0:0:
448,192,114910,1,0,0:0:0:0:
320,192,114994,1,0,0:0:0:0:
192,192,115077,1,8,0:0:0:0:
64,192,115160,128,2,115327:0:0:0:0:
320,192,115160,1,8,0:0:0:0:
448,192,115160,1,0,0:0:0:0:
192,192,115327,1,0,0:0:0:0:
64,192,115410,1,2,0:0:0:0:
320,192,115410,1,8,0:0:0:0:
448,192,115410,128,0,115577:0:0:0:0:
192,192,115577,1,0,0:0:0:0:
64,192,115660,128,8,115827:0:0:0:0:
320,192,115660,1,2,0:0:0:0:
448,192,115660,1,0,0:0:0:0:
192,192,115827,1,2,0:0:0:0:
448,192,115827,1,0,0:0:0:0:
320,192,115910,1,2,0:0:0:0:
64,192,115994,1,2,0:0:0:0:
192,192,115994,1,8,0:0:0:0:
448,192,115994,128,0,116160:0:0:0:0:
320,192,116160,1,0,0:0:0:0:
192,192,116244,1,0,0:0:0:0:
64,192,116327,1,2,0:0:0:0:
448,192,116327,1,0,0:0:0:0:
320,192,116410,1,0,0:0:0:0:
64,192,116494,1,2,0:0:0:0:
192,192,116494,1,0,0:0:0:0:
448,192,116577,1,2,0:0:0:0:
320,192,116577,1,8,0:0:0:0:
192,192,116744,1,2,0:0:0:0:
448,192,116744,1,0,0:0:0:0:
64,192,116910,1,2,0:0:0:0:
448,192,116910,1,0,0:0:0:0:
320,192,116994,1,0,0:0:0:0:
192,192,117077,1,0,0:0:0:0:
448,192,117160,1,2,0:0:0:0:
320,192,117160,1,8,0:0:0:0:
192,192,117244,1,2,0:0:0:0:
64,192,117244,1,0,0:0:0:0:
64,192,117410,1,2,0:0:0:0:
320,192,117410,1,0,0:0:0:0:
192,192,117577,1,2,0:0:0:0:
448,192,117577,1,0,0:0:0:0:
64,192,117744,1,2,0:0:0:0:
192,192,117785,1,2,0:0:0:0:
320,192,117827,1,2,0:0:0:0:
448,192,117869,1,2,0:0:0:0:
64,192,117910,1,2,0:0:0:0:
192,192,117910,1,8,0:0:0:0:
320,192,118077,1,0,0:0:0:0:
448,192,118077,1,0,0:0:0:0:
64,192,118160,1,2,0:0:0:0:
192,192,118160,1,0,0:0:0:0:
320,192,118244,1,0,0:0:0:0:
448,192,118244,1,0,0:0:0:0:
64,192,118327,1,0,0:0:0:0:
192,192,118327,1,0,0:0:0:0:
448,192,118369,1,0,0:0:0:0:
320,192,118410,1,0,0:0:0:0:
192,192,118452,1,0,0:0:0:0:
64,192,118494,128,6,118660:0:0:0:0:
448,192,118494,128,8,118660:0:0:0:0:
64,192,118744,1,4,0:0:0:0:
320,192,118744,1,8,0:0:0:0:
448,192,118744,1,2,0:0:0:0:
192,192,118910,1,8,0:0:0:0:
448,192,118910,1,0,0:0:0:0:
64,192,118994,1,0,0:0:0:0:
192,192,119077,1,8,0:0:0:0:
320,192,119160,1,2,0:0:0:0:
448,192,119244,1,0,0:0:0:0:
64,192,119410,1,2,0:0:0:0:
192,192,119410,1,8,0:0:0:0:
320,192,119577,1,0,0:0:0:0:
448,192,119660,1,2,0:0:0:0:
192,192,119660,1,0,0:0:0:0:
320,192,119744,1,0,0:0:0:0:
64,192,119827,1,8,0:0:0:0:
192,192,119827,1,0,0:0:0:0:
320,192,119910,1,2,0:0:0:0:
448,192,119910,1,0,0:0:0:0:
64,192,119994,1,2,0:0:0:0:
448,192,119994,128,0,120160:0:0:0:0:
192,192,119994,1,8,0:0:0:0:
64,192,120160,1,2,0:0:0:0:
192,192,120244,1,8,0:0:0:0:
448,192,120244,1,0,0:0:0:0:
320,192,120327,1,0,0:0:0:0:
192,192,120410,1,8,0:0:0:0:
64,192,120494,128,2,120660:0:0:0:0:
320,192,120494,1,8,0:0:0:0:
448,192,120494,1,0,0:0:0:0:
192,192,120660,1,0,0:0:0:0:
64,192,120744,1,2,0:0:0:0:
448,192,120744,1,8,0:0:0:0:
320,192,120744,128,0,120910:0:0:0:0:
192,192,120910,1,0,0:0:0:0:
64,192,120994,1,2,0:0:0:0:
320,192,120994,1,8,0:0:0:0:
448,192,120994,128,0,121160:0:0:0:0:
192,192,121160,1,2,0:0:0:0:
320,192,121244,1,2,0:0:0:0:
64,192,121327,128,2,121494:0:0:0:0:
192,192,121327,1,8,0:0:0:0:
448,192,121327,1,0,0:0:0:0:
320,192,121494,1,0,0:0:0:0:
192,192,121577,1,0,0:0:0:0:
64,192,121660,1,2,0:0:0:0:
320,192,121660,1,0,0:0:0:0:
64,192,121827,1,2,0:0:0:0:
192,192,121827,1,8,0:0:0:0:
448,192,121827,1,0,0:0:0:0:
320,192,121910,1,0,0:0:0:0:
64,192,121994,1,0,0:0:0:0:
192,192,122035,1,0,0:0:0:0:
448,192,122077,1,0,0:0:0:0:
320,192,122119,1,0,0:0:0:0:
64,192,122160,1,0,0:0:0:0:
192,192,122202,1,0,0:0:0:0:
448,192,122244,1,0,0:0:0:0:
320,192,122285,1,0,0:0:0:0:
64,192,122327,1,2,0:0:0:0:
192,192,122327,1,8,0:0:0:0:
192,192,122494,1,0,0:0:0:0:
64,192,122494,1,2,0:0:0:0:
320,192,122577,1,2,0:0:0:0:
448,192,122577,1,8,0:0:0:0:
64,192,122660,1,0,0:0:0:0:
192,192,122744,1,0,0:0:0:0:
320,192,122827,1,8,0:0:0:0:
448,192,122827,1,0,0:0:0:0:
192,192,122938,1,8,0:0:0:0:
448,192,122938,1,0,0:0:0:0:
64,192,123049,1,8,0:0:0:0:
192,192,123049,1,0,0:0:0:0:
320,192,123160,1,8,0:0:0:0:
64,192,123160,1,2,0:0:0:0:
192,192,123244,1,8,0:0:0:0:
448,192,123244,1,2,0:0:0:0:
320,192,123327,1,2,0:0:0:0:
192,192,123410,5,2,0:0:0:0:
320,192,123494,1,8,0:0:0:0:
448,192,123494,1,2,0:0:0:0:
192,192,123605,1,8,0:0:0:0:
320,192,123605,1,0,0:0:0:0:
64,192,123716,1,8,0:0:0:0:
192,192,123716,1,0,0:0:0:0:
64,192,123827,128,4,123994:0:0:0:0:
448,192,123827,128,2,123994:0:0:0:0:
320,192,123827,1,8,0:0:0:0:
64,192,124077,1,4,0:0:0:0:
320,192,124077,1,8,0:0:0:0:
448,192,124077,1,2,0:0:0:0:
448,192,124244,1,8,0:0:0:0:
320,192,124244,1,0,0:0:0:0:
64,192,124327,1,0,0:0:0:0:
192,192,124410,1,8,0:0:0:0:
320,192,124494,1,2,0:0:0:0:
448,192,124577,1,0,0:0:0:0:
448,192,124744,1,2,0:0:0:0:
320,192,124744,1,8,0:0:0:0:
64,192,124744,128,0,124910:0:0:0:0:
192,192,124910,1,2,0:0:0:0:
64,192,125077,1,0,0:0:0:0:
320,192,125160,1,8,0:0:0:0:
448,192,125160,1,0,0:0:0:0:
64,192,125244,1,8,0:0:0:0:
192,192,125244,1,0,0:0:0:0:
320,192,125327,1,2,0:0:0:0:
448,192,125327,1,8,0:0:0:0:
192,192,125410,1,0,0:0:0:0:
320,192,125577,1,2,0:0:0:0:
64,192,125577,1,0,0:0:0:0:
448,192,125744,1,2,0:0:0:0:
320,192,125744,1,0,0:0:0:0:
192,192,125827,1,2,0:0:0:0:
64,192,125827,1,0,0:0:0:0:
448,192,125910,1,0,0:0:0:0:
320,192,125994,1,8,0:0:0:0:
64,192,126077,1,8,0:0:0:0:
192,192,126077,1,0,0:0:0:0:
64,192,126160,1,8,0:0:0:0:
448,192,126160,128,4,126327:0:0:0:0:
192,192,126160,1,2,0:0:0:0:
320,192,126327,1,0,0:0:0:0:
64,192,126494,128,4,126660:0:0:0:0:
192,192,126494,128,8,126660:0:0:0:0:
448,192,126494,1,2,0:0:0:0:
320,192,126660,1,0,0:0:0:0:
64,192,126744,1,4,0:0:0:0:
192,192,126744,1,2,0:0:0:0:
448,192,126744,1,8,0:0:0:0:
320,192,126910,1,8,0:0:0:0:
448,192,126910,1,0,0:0:0:0:
192,192,126994,1,0,0:0:0:0:
64,192,127077,1,8,0:0:0:0:
192,192,127160,1,2,0:0:0:0:
320,192,127244,1,0,0:0:0:0:
64,192,127410,1,2,0:0:0:0:
192,192,127410,1,8,0:0:0:0:
448,192,127410,1,0,0:0:0:0:
320,192,127577,1,8,0:0:0:0:
448,192,127660,1,2,0:0:0:0:
64,192,127660,1,0,0:0:0:0:
192,192,127744,1,0,0:0:0:0:
320,192,127827,1,2,0:0:0:0:
448,192,127827,1,0,0:0:0:0:
192,192,127910,1,2,0:0:0:0:
64,192,127994,1,8,0:0:0:0:
448,192,127994,1,2,0:0:0:0:
320,192,128035,1,0,0:0:0:0:
192,192,128077,1,0,0:0:0:0:
64,192,128119,1,0,0:0:0:0:
448,192,128160,1,2,0:0:0:0:
320,192,128244,1,2,0:0:0:0:
64,192,128327,1,8,0:0:0:0:
192,192,128369,1,0,0:0:0:0:
320,192,128410,1,0,0:0:0:0:
448,192,128452,1,0,0:0:0:0:
192,192,128494,1,2,0:0:0:0:
64,192,128494,1,8,0:0:0:0:
320,192,128605,1,2,0:0:0:0:
192,192,128605,1,0,0:0:0:0:
448,192,128716,1,2,0:0:0:0:
320,192,128716,1,0,0:0:0:0:
64,192,128827,1,8,0:0:0:0:
192,192,128827,1,2,0:0:0:0:
320,192,128938,1,2,0:0:0:0:
192,192,128938,1,0,0:0:0:0:
448,192,129049,1,2,0:0:0:0:
320,192,129049,1,0,0:0:0:0:
64,192,129160,1,4,0:0:0:0:
192,192,129160,1,8,0:0:0:0:
448,192,129160,1,2,0:0:0:0:
320,192,129327,1,0,0:0:0:0:
448,192,129410,1,4,0:0:0:0:
192,192,129410,1,8,0:0:0:0:
64,192,129410,1,2,0:0:0:0:
320,192,129494,1,0,0:0:0:0:
64,192,129660,1,4,0:0:0:0:
320,192,129660,1,2,0:0:0:0:
448,192,129660,1,8,0:0:0:0:
64,192,129827,1,0,0:0:0:0:
192,192,129910,1,2,0:0:0:0:
320,192,129994,1,0,0:0:0:0:
448,192,130077,1,0,0:0:0:0:
192,192,130160,1,2,0:0:0:0:
64,192,130160,1,8,0:0:0:0:
320,192,130244,1,0,0:0:0:0:
448,192,130327,1,2,0:0:0:0:
64,192,130327,1,0,0:0:0:0:
192,192,130410,1,0,0:0:0:0:
448,192,130494,1,4,0:0:0:0:
320,192,130494,1,2,0:0:0:0:
64,192,130494,1,8,0:0:0:0:
192,192,130660,1,0,0:0:0:0:
448,192,130744,1,4,0:0:0:0:
320,192,130744,1,8,0:0:0:0:
64,192,130744,1,2,0:0:0:0:
192,192,130827,1,0,0:0:0:0:
448,192,130994,1,4,0:0:0:0:
192,192,130994,1,2,0:0:0:0:
64,192,130994,1,8,0:0:0:0:
448,192,131160,1,0,0:0:0:0:
320,192,131244,1,2,0:0:0:0:
192,192,131327,1,0,0:0:0:0:
64,192,131410,1,0,0:0:0:0:
448,192,131494,1,2,0:0:0:0:
320,192,131494,1,8,0:0:0:0:
192,192,131577,1,0,0:0:0:0:
448,192,131660,1,2,0:0:0:0:
64,192,131660,1,0,0:0:0:0:
320,192,131744,1,0,0:0:0:0:
448,192,131827,1,4,0:0:0:0:
192,192,131827,1,2,0:0:0:0:
64,192,131827,1,8,0:0:0:0:
320,192,131994,1,0,0:0:0:0:
64,192,132077,1,4,0:0:0:0:
192,192,132077,1,8,0:0:0:0:
448,192,132077,1,2,0:0:0:0:
320,192,132160,1,8,0:0:0:0:
192,192,132244,1,0,0:0:0:0:
64,192,132327,1,2,0:0:0:0:
192,192,132410,1,0,0:0:0:0:
64,192,132494,1,4,0:0:0:0:
320,192,132494,1,8,0:0:0:0:
448,192,132494,1,2,0:0:0:0:
192,192,132577,1,2,0:0:0:0:
320,192,132660,1,2,0:0:0:0:
64,192,132744,1,4,0:0:0:0:
192,192,132744,1,8,0:0:0:0:
448,192,132744,1,2,0:0:0:0:
320,192,132827,1,2,0:0:0:0:
192,192,132910,1,2,0:0:0:0:
64,192,132994,1,4,0:0:0:0:
320,192,132994,1,8,0:0:0:0:
448,192,132994,1,2,0:0:0:0:
64,192,133160,1,4,0:0:0:0:
192,192,133160,1,8,0:0:0:0:
448,192,133160,1,2,0:0:0:0:
320,192,133244,1,0,0:0:0:0:
192,192,133327,1,0,0:0:0:0:
64,192,133410,1,0,0:0:0:0:
448,192,133494,1,0,0:0:0:0:
320,192,133577,1,0,0:0:0:0:
192,192,133660,1,0,0:0:0:0:
64,192,133744,1,0,0:0:0:0:
320,192,133827,128,4,134494:0:0:0:0:
448,192,133827,128,2,134494:0:0:0:0:
192,192,133827,1,8,0:0:0:0:
64,192,134494,1,6,0:0:0:0:
192,192,134494,1,8,0:0:0:0:
448,192,134827,1,0,0:0:0:0:
192,192,134910,1,0,0:0:0:0:
320,192,134994,1,0,0:0:0:0:
64,192,135077,1,0,0:0:0:0:
448,192,135160,1,0,0:0:0:0:
192,192,135244,1,0,0:0:0:0:
320,192,135327,1,0,0:0:0:0:
64,192,135410,1,0,0:0:0:0:
448,192,135494,1,0,0:0:0:0:
192,192,135577,1,0,0:0:0:0:
320,192,135660,1,0,0:0:0:0:
64,192,135744,1,0,0:0:0:0:
192,192,135827,1,0,0:0:0:0:
320,192,135910,1,0,0:0:0:0:
448,192,135994,1,0,0:0:0:0:
192,192,136049,1,0,0:0:0:0:
64,192,136105,1,0,0:0:0:0:
448,192,136160,1,0,0:0:0:0:
320,192,136202,1,0,0:0:0:0:
192,192,136244,1,0,0:0:0:0:
64,192,136285,1,0,0:0:0:0:
448,192,136327,1,0,0:0:0:0:
320,192,136410,1,0,0:0:0:0:
192,192,136494,1,0,0:0:0:0:
64,192,136549,1,0,0:0:0:0:
320,192,136605,1,0,0:0:0:0:
448,192,136660,1,0,0:0:0:0:
192,192,136744,1,0,0:0:0:0:
64,192,136827,1,4,0:0:0:0:
320,192,136827,1,8,0:0:0:0:
448,192,136827,1,0,0:0:0:0:
192,192,136910,1,0,0:0:0:0:
320,192,136994,1,0,0:0:0:0:
192,192,137077,1,0,0:0:0:0:
64,192,137160,1,4,0:0:0:0:
320,192,137160,1,2,0:0:0:0:
448,192,137160,128,8,137494:0:0:0:0:
192,192,137244,1,2,0:0:0:0:
64,192,137327,1,2,0:0:0:0:
320,192,137327,1,0,0:0:0:0:
64,192,137494,1,2,0:0:0:0:
192,192,137494,1,8,0:0:0:0:
320,192,137577,1,0,0:0:0:0:
192,192,137660,1,2,0:0:0:0:
448,192,137660,1,0,0:0:0:0:
64,192,137744,1,8,0:0:0:0:
320,192,137744,1,0,0:0:0:0:
192,192,137827,1,0,0:0:0:0:
64,192,137994,1,8,0:0:0:0:
320,192,137994,1,2,0:0:0:0:
448,192,137994,128,0,138160:0:0:0:0:
64,192,138160,1,0,0:0:0:0:
192,192,138327,1,2,0:0:0:0:
320,192,138327,128,8,138494:0:0:0:0:
448,192,138327,1,0,0:0:0:0:
192,192,138494,1,0,0:0:0:0:
64,192,138660,1,2,0:0:0:0:
320,192,138660,128,8,138827:0:0:0:0:
448,192,138660,1,0,0:0:0:0:
64,192,138827,1,8,0:0:0:0:
192,192,138910,1,0,0:0:0:0:
320,192,138994,1,2,0:0:0:0:
448,192,138994,1,0,0:0:0:0:
64,192,139077,1,8,0:0:0:0:
192,192,139077,1,0,0:0:0:0:
448,192,139160,1,0,0:0:0:0:
64,192,139244,1,8,0:0:0:0:
320,192,139244,1,0,0:0:0:0:
192,192,139327,1,2,0:0:0:0:
448,192,139327,1,0,0:0:0:0:
320,192,139410,1,0,0:0:0:0:
64,192,139494,1,2,0:0:0:0:
192,192,139494,1,8,0:0:0:0:
448,192,139494,1,0,0:0:0:0:
64,192,139660,1,8,0:0:0:0:
192,192,139660,1,0,0:0:0:0:
64,192,139994,1,4,0:0:0:0:
320,192,139994,1,8,0:0:0:0:
448,192,139994,1,2,0:0:0:0:
192,192,140160,1,8,0:0:0:0:
448,192,140160,1,0,0:0:0:0:
320,192,140244,1,0,0:0:0:0:
64,192,140327,1,2,0:0:0:0:
192,192,140410,1,8,0:0:0:0:
448,192,140410,1,0,0:0:0:0:
320,192,140494,1,0,0:0:0:0:
64,192,140577,1,8,0:0:0:0:
192,192,140577,1,0,0:0:0:0:
448,192,140660,1,2,0:0:0:0:
320,192,140660,128,0,140827:0:0:0:0:
192,192,140827,128,8,140994:0:0:0:0:
64,192,140994,128,8,141327:0:0:0:0:
320,192,140994,1,2,0:0:0:0:
448,192,140994,1,0,0:0:0:0:
192,192,141160,1,0,0:0:0:0:
320,192,141327,1,2,0:0:0:0:
448,192,141327,1,0,0:0:0:0:
192,192,141410,1,2,0:0:0:0:
64,192,141494,1,2,0:0:0:0:
320,192,141494,1,8,0:0:0:0:
448,192,141494,1,0,0:0:0:0:
192,192,141577,1,0,0:0:0:0:
64,192,141660,1,2,0:0:0:0:
448,192,141660,1,0,0:0:0:0:
320,192,141744,1,0,0:0:0:0:
64,192,141827,1,2,0:0:0:0:
192,192,141827,1,0,0:0:0:0:
320,192,141910,1,2,0:0:0:0:
192,192,141994,1,2,0:0:0:0:
448,192,141994,1,0,0:0:0:0:
64,192,142160,1,8,0:0:0:0:
320,192,142160,1,2,0:0:0:0:
448,192,142160,1,0,0:0:0:0:
192,192,142244,1,0,0:0:0:0:
320,192,142327,1,2,0:0:0:0:
192,192,142410,1,0,0:0:0:0:
64,192,142494,1,2,0:0:0:0:
320,192,142494,1,8,0:0:0:0:
448,192,142494,1,4,0:0:0:0:
192,192,142577,1,2,0:0:0:0:
64,192,142660,1,2,0:0:0:0:
320,192,142660,1,0,0:0:0:0:
448,192,142660,1,0,0:0:0:0:
192,192,142827,1,2,0:0:0:0:
64,192,142827,1,0,0:0:0:0:
64,192,142994,1,2,0:0:0:0:
320,192,142994,128,8,143160:0:0:0:0:
448,192,142994,1,0,0:0:0:0:
192,192,143160,1,0,0:0:0:0:
64,192,143327,1,2,0:0:0:0:
192,192,143327,128,8,143494:0:0:0:0:
448,192,143327,1,0,0:0:0:0:
320,192,143494,1,0,0:0:0:0:
64,192,143660,128,2,144160:0:0:0:0:
192,192,143660,1,8,0:0:0:0:
448,192,143660,1,0,0:0:0:0:
192,192,143827,1,0,0:0:0:0:
320,192,143994,1,2,0:0:0:0:
448,192,143994,1,0,0:0:0:0:
192,192,144160,1,2,0:0:0:0:
448,192,144160,1,8,0:0:0:0:
320,192,144244,1,0,0:0:0:0:
448,192,144327,1,2,0:0:0:0:
320,192,144410,1,0,0:0:0:0:
64,192,144494,1,2,0:0:0:0:
192,192,144494,1,0,0:0:0:0:
320,192,144577,1,2,0:0:0:0:
448,192,144577,1,0,0:0:0:0:
64,192,144660,1,2,0:0:0:0:
192,192,144660,1,0,0:0:0:0:
320,192,144744,1,0,0:0:0:0:
64,192,144827,1,8,0:0:0:0:
192,192,144827,1,2,0:0:0:0:
448,192,144827,1,0,0:0:0:0:
320,192,144910,1,0,0:0:0:0:
64,192,144994,1,8,0:0:0:0:
192,192,145077,1,0,0:0:0:0:
64,192,145160,128,8,145327:0:0:0:0:
320,192,145160,1,2,0:0:0:0:
448,192,145160,1,4,0:0:0:0:
192,192,145244,1,2,0:0:0:0:
320,192,145327,1,2,0:0:0:0:
448,192,145327,1,0,0:0:0:0:
192,192,145410,1,0,0:0:0:0:
64,192,145494,1,8,0:0:0:0:
320,192,145494,1,0,0:0:0:0:
64,192,145660,1,8,0:0:0:0:
192,192,145660,1,2,0:0:0:0:
448,192,145660,128,4,145827:0:0:0:0:
320,192,145827,1,0,0:0:0:0:
192,192,145910,1,0,0:0:0:0:
64,192,145994,1,4,0:0:0:0:
320,192,145994,128,8,146160:0:0:0:0:
448,192,145994,1,2,0:0:0:0:
192,192,146160,1,0,0:0:0:0:
64,192,146327,1,2,0:0:0:0:
192,192,146327,128,8,146660:0:0:0:0:
448,192,146327,1,4,0:0:0:0:
448,192,146494,1,2,0:0:0:0:
320,192,146494,1,0,0:0:0:0:
64,192,146660,1,8,0:0:0:0:
320,192,146660,1,4,0:0:0:0:
448,192,146660,1,2,0:0:0:0:
192,192,146827,1,8,0:0:0:0:
64,192,146827,1,0,0:0:0:0:
320,192,146910,1,8,0:0:0:0:
64,192,146994,1,2,0:0:0:0:
448,192,146994,1,0,0:0:0:0:
192,192,147077,1,0,0:0:0:0:
448,192,147160,1,2,0:0:0:0:
320,192,147160,1,0,0:0:0:0:
448,192,147327,1,2,0:0:0:0:
320,192,147327,1,0,0:0:0:0:
192,192,147410,1,0,0:0:0:0:
64,192,147410,1,0,0:0:0:0:
448,192,147494,1,2,0:0:0:0:
320,192,147494,1,8,0:0:0:0:
64,192,147577,1,0,0:0:0:0:
192,192,147660,1,0,0:0:0:0:
320,192,147744,1,0,0:0:0:0:
64,192,147827,128,4,148160:0:0:0:0:
192,192,147827,1,8,0:0:0:0:
448,192,147827,1,2,0:0:0:0:
320,192,147910,1,2,0:0:0:0:
192,192,147994,1,2,0:0:0:0:
448,192,147994,1,0,0:0:0:0:
320,192,148160,1,8,0:0:0:0:
448,192,148160,1,2,0:0:0:0:
192,192,148244,1,0,0:0:0:0:
64,192,148327,1,2,0:0:0:0:
320,192,148327,1,0,0:0:0:0:
192,192,148410,1,8,0:0:0:0:
448,192,148410,1,0,0:0:0:0:
320,192,148494,1,0,0:0:0:0:
192,192,148660,1,2,0:0:0:0:
64,192,148660,128,8,148827:0:0:0:0:
448,192,148660,1,0,0:0:0:0:
320,192,148827,1,0,0:0:0:0:
64,192,148994,1,2,0:0:0:0:
320,192,148994,128,8,149160:0:0:0:0:
448,192,148994,1,0,0:0:0:0:
192,192,149160,1,0,0:0:0:0:
64,192,149327,1,8,0:0:0:0:
320,192,149327,128,2,149494:0:0:0:0:
448,192,149327,1,0,0:0:0:0:
192,192,149494,1,8,0:0:0:0:
320,192,149577,1,0,0:0:0:0:
64,192,149660,1,2,0:0:0:0:
192,192,149660,1,0,0:0:0:0:
320,192,149744,1,8,0:0:0:0:
448,192,149744,1,0,0:0:0:0:
64,192,149827,1,0,0:0:0:0:
192,192,149910,1,8,0:0:0:0:
448,192,149910,1,0,0:0:0:0:
64,192,149994,1,2,0:0:0:0:
320,192,149994,1,0,0:0:0:0:
192,192,150077,1,0,0:0:0:0:
320,192,150160,1,8,0:0:0:0:
448,192,150160,1,2,0:0:0:0:
320,192,150327,1,8,0:0:0:0:
192,192,150327,1,0,0:0:0:0:
64,192,150494,1,8,0:0:0:0:
192,192,150494,1,2,0:0:0:0:
448,192,150494,1,4,0:0:0:0:
64,192,150660,1,2,0:0:0:0:
192,192,150660,1,0,0:0:0:0:
448,192,150660,1,0,0:0:0:0:
192,192,150827,1,4,0:0:0:0:
320,192,150827,1,8,0:0:0:0:
448,192,150827,1,2,0:0:0:0:
192,192,150994,1,2,0:0:0:0:
320,192,150994,1,0,0:0:0:0:
448,192,150994,1,0,0:0:0:0:
64,192,151160,1,2,0:0:0:0:
320,192,151160,1,4,0:0:0:0:
448,192,151160,1,8,0:0:0:0:
64,192,151327,1,2,0:0:0:0:
192,192,151327,1,0,0:0:0:0:
448,192,151327,1,0,0:0:0:0:
64,192,151494,1,8,0:0:0:0:
192,192,151494,1,4,0:0:0:0:
320,192,151494,1,2,0:0:0:0:
64,192,151660,1,4,0:0:0:0:
320,192,151660,128,8,151994:0:0:0:0:
448,192,151660,1,2,0:0:0:0:
64,192,151994,1,8,0:0:0:0:
192,192,151994,1,2,0:0:0:0:
448,192,151994,1,0,0:0:0:0:
448,192,152160,1,0,0:0:0:0:
64,192,152244,1,2,0:0:0:0:
192,192,152244,1,8,0:0:0:0:
320,192,152244,1,0,0:0:0:0:
448,192,152327,1,0,0:0:0:0:
64,192,152494,1,2,0:0:0:0:
320,192,152494,1,8,0:0:0:0:
448,192,152494,1,0,0:0:0:0:
64,192,152660,1,2,0:0:0:0:
192,192,152744,1,2,0:0:0:0:
320,192,152744,1,8,0:0:0:0:
448,192,152744,1,0,0:0:0:0:
64,192,152827,1,0,0:0:0:0:
64,192,152994,1,2,0:0:0:0:
192,192,152994,1,8,0:0:0:0:
448,192,152994,1,0,0:0:0:0:
448,192,153160,1,2,0:0:0:0:
320,192,153160,1,8,0:0:0:0:
192,192,153244,1,0,0:0:0:0:
320,192,153327,1,2,0:0:0:0:
64,192,153327,1,0,0:0:0:0:
192,192,153410,1,2,0:0:0:0:
64,192,153494,1,2,0:0:0:0:
320,192,153494,1,8,0:0:0:0:
448,192,153494,1,4,0:0:0:0:
64,192,153660,1,2,0:0:0:0:
192,192,153660,1,0,0:0:0:0:
320,192,153827,1,2,0:0:0:0:
448,192,153827,1,0,0:0:0:0:
64,192,153910,1,2,0:0:0:0:
192,192,153994,1,2,0:0:0:0:
64,192,154077,1,8,0:0:0:0:
320,192,154077,1,2,0:0:0:0:
448,192,154077,1,0,0:0:0:0:
192,192,154160,1,0,0:0:0:0:
320,192,154244,1,0,0:0:0:0:
64,192,154327,1,8,0:0:0:0:
192,192,154327,1,2,0:0:0:0:
448,192,154327,1,0,0:0:0:0:
320,192,154410,1,0,0:0:0:0:
64,192,154494,1,2,0:0:0:0:
192,192,154494,1,0,0:0:0:0:
448,192,154577,1,8,0:0:0:0:
320,192,154660,1,2,0:0:0:0:
192,192,154744,1,0,0:0:0:0:
64,192,154827,1,2,0:0:0:0:
320,192,154827,1,8,0:0:0:0:
448,192,154827,1,0,0:0:0:0:
192,192,154910,1,0,0:0:0:0:
64,192,154994,1,8,0:0:0:0:
320,192,155077,1,0,0:0:0:0:
64,192,155160,1,2,0:0:0:0:
192,192,155160,1,0,0:0:0:0:
448,192,155244,1,8,0:0:0:0:
320,192,155327,1,2,0:0:0:0:
192,192,155410,1,0,0:0:0:0:
64,192,155494,1,8,0:0:0:0:
320,192,155494,1,2,0:0:0:0:
448,192,155494,1,0,0:0:0:0:
192,192,155660,1,2,0:0:0:0:
448,192,155660,1,0,0:0:0:0:
320,192,155744,1,0,0:0:0:0:
192,192,155827,1,4,0:0:0:0:
64,192,155827,1,8,0:0:0:0:
448,192,155827,1,2,0:0:0:0:
320,192,155994,1,8,0:0:0:0:
192,192,156077,1,0,0:0:0:0:
64,192,156160,1,2,0:0:0:0:
320,192,156160,1,8,0:0:0:0:
448,192,156160,1,0,0:0:0:0:
192,192,156327,1,2,0:0:0:0:
448,192,156327,1,0,0:0:0:0:
320,192,156410,1,8,0:0:0:0:
64,192,156494,1,2,0:0:0:0:
192,192,156494,1,4,0:0:0:0:
448,192,156494,1,0,0:0:0:0:
320,192,156577,1,8,0:0:0:0:
64,192,156660,1,2,0:0:0:0:
192,192,156660,1,0,0:0:0:0:
64,192,156827,1,8,0:0:0:0:
320,192,156827,1,2,0:0:0:0:
448,192,156827,1,0,0:0:0:0:
192,192,156994,1,8,0:0:0:0:
320,192,157077,1,0,0:0:0:0:
64,192,157160,1,2,0:0:0:0:
192,192,157160,1,8,0:0:0:0:
448,192,157160,1,4,0:0:0:0:
320,192,157244,1,2,0:0:0:0:
64,192,157327,1,2,0:0:0:0:
192,192,157327,1,0,0:0:0:0:
320,192,157410,1,2,0:0:0:0:
64,192,157494,1,2,0:0:0:0:
192,192,157494,1,4,0:0:0:0:
448,192,157494,1,8,0:0:0:0:
320,192,157577,1,2,0:0:0:0:
64,192,157660,1,2,0:0:0:0:
448,192,157660,1,0,0:0:0:0:
192,192,157744,1,2,0:0:0:0:
320,192,157827,1,10,0:0:0:0:
448,192,157827,1,4,0:0:0:0:
64,192,157869,1,0,0:0:0:0:
192,192,157910,1,2,0:0:0:0:
320,192,157952,1,0,0:0:0:0:
448,192,157994,1,2,0:0:0:0:
64,192,158035,1,0,0:0:0:0:
192,192,158077,1,2,0:0:0:0:
320,192,158119,1,0,0:0:0:0:
64,192,158160,1,10,0:0:0:0:
448,192,158160,1,4,0:0:0:0:
192,192,158244,1,0,0:0:0:0:
320,192,158327,1,0,0:0:0:0:
192,192,158410,1,0,0:0:0:0:
64,192,158494,1,4,0:0:0:0:
320,192,158494,1,2,0:0:0:0:
448,192,158494,128,8,158827:0:0:0:0:
192,192,158577,1,2,0:0:0:0:
64,192,158660,1,2,0:0:0:0:
320,192,158660,1,0,0:0:0:0:
64,192,158827,1,2,0:0:0:0:
192,192,158827,1,8,0:0:0:0:
320,192,158910,1,0,0:0:0:0:
192,192,158994,1,2,0:0:0:0:
448,192,158994,1,0,0:0:0:0:
64,192,159077,1,8,0:0:0:0:
320,192,159077,1,0,0:0:0:0:
192,192,159160,1,0,0:0:0:0:
64,192,159327,1,8,0:0:0:0:
192,192,159327,1,2,0:0:0:0:
448,192,159327,128,0,159494:0:0:0:0:
320,192,159494,1,0,0:0:0:0:
64,192,159660,1,2,0:0:0:0:
192,192,159660,128,8,159827:0:0:0:0:
448,192,159660,1,0,0:0:0:0:
320,192,159827,1,0,0:0:0:0:
64,192,159994,1,2,0:0:0:0:
192,192,159994,128,8,160160:0:0:0:0:
448,192,159994,1,0,0:0:0:0:
320,192,160160,1,8,0:0:0:0:
448,192,160160,1,0,0:0:0:0:
192,192,160244,1,0,0:0:0:0:
64,192,160327,1,2,0:0:0:0:
320,192,160327,1,0,0:0:0:0:
192,192,160410,1,8,0:0:0:0:
448,192,160410,1,0,0:0:0:0:
320,192,160494,1,0,0:0:0:0:
64,192,160577,1,8,0:0:0:0:
192,192,160577,1,0,0:0:0:0:
320,192,160660,1,2,0:0:0:0:
448,192,160660,1,0,0:0:0:0:
192,192,160744,1,0,0:0:0:0:
64,192,160827,1,2,0:0:0:0:
320,192,160827,1,8,0:0:0:0:
448,192,160827,1,0,0:0:0:0:
64,192,160994,1,8,0:0:0:0:
448,192,160994,1,0,0:0:0:0:
64,192,161327,1,4,0:0:0:0:
320,192,161327,1,8,0:0:0:0:
448,192,161327,1,2,0:0:0:0:
64,192,161494,1,8,0:0:0:0:
192,192,161494,1,0,0:0:0:0:
320,192,161577,1,0,0:0:0:0:
448,192,161660,1,2,0:0:0:0:
64,192,161744,1,8,0:0:0:0:
192,192,161744,1,0,0:0:0:0:
320,192,161827,1,0,0:0:0:0:
64,192,161910,1,8,0:0:0:0:
192,192,161910,1,0,0:0:0:0:
320,192,161994,128,2,162160:0:0:0:0:
448,192,161994,1,0,0:0:0:0:
192,192,162160,128,8,162327:0:0:0:0:
64,192,162327,128,8,162660:0:0:0:0:
448,192,162327,1,2,0:0:0:0:
320,192,162494,1,0,0:0:0:0:
192,192,162660,1,2,0:0:0:0:
448,192,162660,1,0,0:0:0:0:
320,192,162744,1,2,0:0:0:0:
64,192,162827,1,2,0:0:0:0:
192,192,162827,1,8,0:0:0:0:
448,192,162827,1,0,0:0:0:0:
320,192,162910,1,0,0:0:0:0:
64,192,162994,1,2,0:0:0:0:
192,192,162994,1,0,0:0:0:0:
448,192,163077,1,0,0:0:0:0:
64,192,163160,1,2,0:0:0:0:
320,192,163160,1,0,0:0:0:0:
192,192,163244,1,2,0:0:0:0:
448,192,163327,1,2,0:0:0:0:
320,192,163327,1,0,0:0:0:0:
64,192,163494,1,8,0:0:0:0:
192,192,163494,1,2,0:0:0:0:
448,192,163494,1,0,0:0:0:0:
320,192,163577,1,0,0:0:0:0:
192,192,163660,1,2,0:0:0:0:
320,192,163744,1,0,0:0:0:0:
64,192,163827,1,2,0:0:0:0:
192,192,163827,1,8,0:0:0:0:
448,192,163827,1,4,0:0:0:0:
320,192,163910,1,2,0:0:0:0:
64,192,163994,1,2,0:0:0:0:
192,192,163994,1,0,0:0:0:0:
448,192,163994,1,0,0:0:0:0:
192,192,164160,1,2,0:0:0:0:
320,192,164160,1,0,0:0:0:0:
64,192,164327,1,2,0:0:0:0:
320,192,164327,1,8,0:0:0:0:
448,192,164327,128,0,164494:0:0:0:0:
192,192,164494,1,0,0:0:0:0:
64,192,164660,1,2,0:0:0:0:
192,192,164660,128,8,164827:0:0:0:0:
448,192,164660,1,0,0:0:0:0:
320,192,164827,1,0,0:0:0:0:
64,192,164994,128,2,165327:0:0:0:0:
192,192,164994,1,8,0:0:0:0:
448,192,164994,1,0,0:0:0:0:
320,192,165160,1,0,0:0:0:0:
192,192,165327,1,2,0:0:0:0:
448,192,165327,1,0,0:0:0:0:
64,192,165494,1,2,0:0:0:0:
320,192,165494,1,8,0:0:0:0:
448,192,165494,1,0,0:0:0:0:
192,192,165577,1,0,0:0:0:0:
64,192,165660,1,2,0:0:0:0:
320,192,165660,1,0,0:0:0:0:
192,192,165744,1,0,0:0:0:0:
320,192,165827,1,2,0:0:0:0:
448,192,165827,1,0,0:0:0:0:
64,192,165910,1,2,0:0:0:0:
192,192,165994,1,2,0:0:0:0:
448,192,165994,1,0,0:0:0:0:
320,192,166077,1,0,0:0:0:0:
64,192,166160,1,8,0:0:0:0:
192,192,166160,1,2,0:0:0:0:
448,192,166160,1,0,0:0:0:0:
320,192,166244,1,0,0:0:0:0:
192,192,166327,1,8,0:0:0:0:
320,192,166410,1,0,0:0:0:0:
64,192,166494,128,8,166660:0:0:0:0:
192,192,166494,1,2,0:0:0:0:
448,192,166494,1,4,0:0:0:0:
320,192,166577,1,2,0:0:0:0:
192,192,166660,1,2,0:0:0:0:
448,192,166660,1,0,0:0:0:0:
320,192,166744,1,0,0:0:0:0:
64,192,166827,1,8,0:0:0:0:
192,192,166827,1,0,0:0:0:0:
64,192,166994,1,8,0:0:0:0:
320,192,166994,1,2,0:0:0:0:
448,192,166994,128,4,167160:0:0:0:0:
192,192,167160,1,0,0:0:0:0:
320,192,167244,1,0,0:0:0:0:
64,192,167327,1,4,0:0:0:0:
192,192,167327,128,8,167494:0:0:0:0:
448,192,167327,1,2,0:0:0:0:
320,192,167494,1,0,0:0:0:0:
64,192,167660,128,2,167994:0:0:0:0:
192,192,167660,1,8,0:0:0:0:
448,192,167660,1,4,0:0:0:0:
320,192,167827,1,2,0:0:0:0:
448,192,167827,1,0,0:0:0:0:
192,192,167994,1,4,0:0:0:0:
320,192,167994,1,2,0:0:0:0:
448,192,167994,1,8,0:0:0:0:
64,192,168160,1,8,0:0:0:0:
192,192,168160,1,0,0:0:0:0:
320,192,168244,1,8,0:0:0:0:
64,192,168327,1,2,0:0:0:0:
448,192,168327,1,0,0:0:0:0:
192,192,168410,1,0,0:0:0:0:
320,192,168494,1,2,0:0:0:0:
448,192,168494,1,0,0:0:0:0:
320,192,168660,1,2,0:0:0:0:
448,192,168660,1,0,0:0:0:0:
64,192,168744,1,0,0:0:0:0:
192,192,168744,1,0,0:0:0:0:
320,192,168827,1,2,0:0:0:0:
448,192,168827,1,8,0:0:0:0:
64,192,168910,1,0,0:0:0:0:
192,192,168994,1,0,0:0:0:0:
320,192,169077,1,0,0:0:0:0:
192,192,169160,1,8,0:0:0:0:
64,192,169160,1,0,0:0:0:0:
448,192,169160,128,2,169494:0:0:0:0:
320,192,169244,1,2,0:0:0:0:
192,192,169327,1,2,0:0:0:0:
64,192,169327,1,0,0:0:0:0:
64,192,169494,1,8,0:0:0:0:
320,192,169494,1,2,0:0:0:0:
192,192,169577,1,0,0:0:0:0:
448,192,169660,1,2,0:0:0:0:
320,192,169660,1,0,0:0:0:0:
192,192,169744,1,8,0:0:0:0:
64,192,169744,1,0,0:0:0:0:
320,192,169827,1,0,0:0:0:0:
64,192,169994,1,2,0:0:0:0:
448,192,169994,128,8,170160:0:0:0:0:
192,192,169994,1,0,0:0:0:0:
320,192,170160,1,0,0:0:0:0:
64,192,170327,128,2,170494:0:0:0:0:
192,192,170327,1,8,0:0:0:0:
448,192,170327,1,0,0:0:0:0:
320,192,170494,1,0,0:0:0:0:
64,192,170660,128,8,170827:0:0:0:0:
320,192,170660,1,2,0:0:0:0:
448,192,170660,1,0,0:0:0:0:
192,192,170827,1,8,0:0:0:0:
448,192,170827,1,0,0:0:0:0:
320,192,170910,1,0,0:0:0:0:
64,192,170994,1,2,0:0:0:0:
192,192,170994,1,0,0:0:0:0:
320,192,171077,1,8,0:0:0:0:
448,192,171077,1,0,0:0:0:0:
192,192,171160,1,0,0:0:0:0:
64,192,171244,1,8,0:0:0:0:
320,192,171244,1,0,0:0:0:0:
192,192,171327,1,2,0:0:0:0:
448,192,171327,1,0,0:0:0:0:
320,192,171410,1,0,0:0:0:0:
64,192,171494,1,8,0:0:0:0:
192,192,171494,1,2,0:0:0:0:
448,192,171494,1,0,0:0:0:0:
320,192,171660,1,8,0:0:0:0:
192,192,171660,1,0,0:0:0:0:
64,192,171827,1,8,0:0:0:0:
320,192,171827,1,2,0:0:0:0:
448,192,171827,1,4,0:0:0:0:
64,192,171994,1,2,0:0:0:0:
320,192,171994,1,0,0:0:0:0:
448,192,171994,1,0,0:0:0:0:
192,192,172160,1,4,0:0:0:0:
320,192,172160,1,8,0:0:0:0:
448,192,172160,1,2,0:0:0:0:
192,192,172327,1,2,0:0:0:0:
320,192,172327,1,0,0:0:0:0:
448,192,172327,1,0,0:0:0:0:
64,192,172494,1,2,0:0:0:0:
192,192,172494,1,4,0:0:0:0:
448,192,172494,1,8,0:0:0:0:
64,192,172660,1,2,0:0:0:0:
192,192,172660,1,0,0:0:0:0:
320,192,172660,1,0,0:0:0:0:
192,192,172827,1,8,0:0:0:0:
320,192,172827,1,4,0:0:0:0:
448,192,172827,1,2,0:0:0:0:
64,192,172994,1,4,0:0:0:0:
320,192,172994,128,8,173327:0:0:0:0:
448,192,172994,1,2,0:0:0:0:
64,192,173327,1,8,0:0:0:0:
192,192,173327,1,2,0:0:0:0:
448,192,173327,1,0,0:0:0:0:
64,192,173494,1,0,0:0:0:0:
192,192,173577,1,2,0:0:0:0:
320,192,173577,1,8,0:0:0:0:
448,192,173577,1,0,0:0:0:0:
64,192,173660,1,0,0:0:0:0:
64,192,173827,1,2,0:0:0:0:
320,192,173827,1,8,0:0:0:0:
448,192,173827,1,0,0:0:0:0:
448,192,173994,1,2,0:0:0:0:
64,192,174077,1,2,0:0:0:0:
192,192,174077,1,8,0:0:0:0:
320,192,174077,1,0,0:0:0:0:
448,192,174160,1,0,0:0:0:0:
64,192,174327,1,2,0:0:0:0:
192,192,174327,1,8,0:0:0:0:
448,192,174327,1,0,0:0:0:0:
64,192,174494,1,2,0:0:0:0:
320,192,174494,1,8,0:0:0:0:
192,192,174577,1,0,0:0:0:0:
320,192,174660,1,2,0:0:0:0:
448,192,174660,1,0,0:0:0:0:
192,192,174744,1,2,0:0:0:0:
64,192,174827,1,2,0:0:0:0:
320,192,174827,1,8,0:0:0:0:
448,192,174827,1,4,0:0:0:0:
192,192,174994,1,2,0:0:0:0:
448,192,174994,1,0,0:0:0:0:
320,192,175077,1,0,0:0:0:0:
64,192,175160,1,2,0:0:0:0:
192,192,175160,1,0,0:0:0:0:
448,192,175244,1,2,0:0:0:0:
320,192,175327,1,2,0:0:0:0:
64,192,175410,1,8,0:0:0:0:
192,192,175410,1,2,0:0:0:0:
448,192,175410,1,0,0:0:0:0:
320,192,175494,1,0,0:0:0:0:
192,192,175577,1,0,0:0:0:0:
64,192,175660,1,8,0:0:0:0:
320,192,175660,1,2,0:0:0:0:
448,192,175660,1,0,0:0:0:0:
192,192,175744,1,0,0:0:0:0:
64,192,175827,1,2,0:0:0:0:
448,192,175827,1,0,0:0:0:0:
320,192,175910,1,8,0:0:0:0:
192,192,175994,1,2,0:0:0:0:
320,192,176077,1,0,0:0:0:0:
64,192,176160,1,2,0:0:0:0:
192,192,176160,1,8,0:0:0:0:
448,192,176160,1,0,0:0:0:0:
64,192,176327,1,8,0:0:0:0:
192,192,176410,1,0,0:0:0:0:
320,192,176494,1,2,0:0:0:0:
448,192,176494,1,0,0:0:0:0:
192,192,176577,1,8,0:0:0:0:
448,192,176660,1,2,0:0:0:0:
320,192,176744,1,0,0:0:0:0:
64,192,176827,1,8,0:0:0:0:
192,192,176827,1,2,0:0:0:0:
448,192,176827,1,0,0:0:0:0:
64,192,176994,1,2,0:0:0:0:
192,192,176994,1,0,0:0:0:0:
320,192,177077,1,0,0:0:0:0:
64,192,177160,1,4,0:0:0:0:
192,192,177160,1,8,0:0:0:0:
448,192,177160,1,2,0:0:0:0:
320,192,177327,1,8,0:0:0:0:
192,192,177410,1,0,0:0:0:0:
64,192,177494,1,2,0:0:0:0:
320,192,177494,1,8,0:0:0:0:
448,192,177494,1,0,0:0:0:0:
64,192,177660,1,2,0:0:0:0:
192,192,177660,1,0,0:0:0:0:
320,192,177744,1,8,0:0:0:0:
64,192,177827,1,2,0:0:0:0:
192,192,177827,1,4,0:0:0:0:
448,192,177827,1,0,0:0:0:0:
320,192,177910,1,8,0:0:0:0:
192,192,177994,1,2,0:0:0:0:
448,192,177994,1,0,0:0:0:0:
64,192,178160,1,8,0:0:0:0:
448,192,178160,1,2,0:0:0:0:
320,192,178160,1,0,0:0:0:0:
192,192,178327,1,8,0:0:0:0:
320,192,178410,1,0,0:0:0:0:
64,192,178494,1,2,0:0:0:0:
192,192,178494,1,8,0:0:0:0:
448,192,178494,1,4,0:0:0:0:
320,192,178577,1,2,0:0:0:0:
64,192,178660,1,2,0:0:0:0:
448,192,178660,1,0,0:0:0:0:
192,192,178744,1,2,0:0:0:0:
64,192,178827,1,2,0:0:0:0:
320,192,178827,1,4,0:0:0:0:
448,192,178827,1,8,0:0:0:0:
192,192,178910,1,2,0:0:0:0:
64,192,178994,1,2,0:0:0:0:
448,192,178994,1,0,0:0:0:0:
320,192,179077,1,2,0:0:0:0:
64,192,179160,1,10,0:0:0:0:
192,192,179160,1,4,0:0:0:0:
448,192,179202,1,0,0:0:0:0:
320,192,179244,1,2,0:0:0:0:
192,192,179285,1,0,0:0:0:0:
64,192,179327,1,2,0:0:0:0:
448,192,179369,1,0,0:0:0:0:
320,192,179410,1,2,0:0:0:0:
192,192,179452,1,0,0:0:0:0:
64,192,179494,1,2,0:0:0:0:
448,192,179494,1,12,0:0:0:0:
64,192,179827,1,4,0:0:0:0:
192,192,179827,1,8,0:0:0:0:
448,192,179827,1,2,0:0:0:0:
320,192,179994,1,0,0:0:0:0:
448,192,180077,1,2,0:0:0:0:
192,192,180077,1,8,0:0:0:0:
64,192,180077,1,0,0:0:0:0:
320,192,180160,1,0,0:0:0:0:
64,192,180327,1,2,0:0:0:0:
320,192,180327,1,8,0:0:0:0:
448,192,180327,1,0,0:0:0:0:
192,192,180494,1,0,0:0:0:0:
448,192,180577,1,8,0:0:0:0:
320,192,180577,1,2,0:0:0:0:
64,192,180577,1,0,0:0:0:0:
192,192,180660,1,0,0:0:0:0:
320,192,180827,1,2,0:0:0:0:
192,192,180827,1,8,0:0:0:0:
64,192,180827,1,0,0:0:0:0:
64,192,180994,1,0,0:0:0:0:
320,192,181160,1,8,0:0:0:0:
448,192,181160,1,0,0:0:0:0:
192,192,181244,1,0,0:0:0:0:
64,192,181244,1,8,0:0:0:0:
320,192,181327,1,8,0:0:0:0:
448,192,181327,1,0,0:0:0:0:
64,192,181410,1,8,0:0:0:0:
192,192,181410,1,0,0:0:0:0:
320,192,181494,1,2,0:0:0:0:
448,192,181494,1,0,0:0:0:0:
192,192,181577,1,2,0:0:0:0:
64,192,181660,1,2,0:0:0:0:
448,192,181660,1,0,0:0:0:0:
192,192,181744,1,2,0:0:0:0:
320,192,181744,1,0,0:0:0:0:
64,192,181827,1,2,0:0:0:0:
448,192,181827,1,0,0:0:0:0:
320,192,181910,1,2,0:0:0:0:
64,192,181994,1,2,0:0:0:0:
192,192,181994,1,0,0:0:0:0:
448,192,182077,1,2,0:0:0:0:
64,192,182160,1,2,0:0:0:0:
192,192,182160,1,4,0:0:0:0:
320,192,182160,1,0,0:0:0:0:
448,192,182244,1,2,0:0:0:0:
320,192,182327,1,2,0:0:0:0:
192,192,182410,1,2,0:0:0:0:
64,192,182494,1,2,0:0:0:0:
320,192,182494,1,8,0:0:0:0:
448,192,182494,1,4,0:0:0:0:
192,192,182660,1,0,0:0:0:0:
448,192,182744,1,8,0:0:0:0:
64,192,182744,1,2,0:0:0:0:
320,192,182744,1,0,0:0:0:0:
192,192,182827,1,0,0:0:0:0:
448,192,182994,1,2,0:0:0:0:
192,192,182994,1,8,0:0:0:0:
64,192,182994,1,0,0:0:0:0:
320,192,183160,1,0,0:0:0:0:
448,192,183244,1,2,0:0:0:0:
192,192,183244,1,8,0:0:0:0:
64,192,183244,1,0,0:0:0:0:
320,192,183327,1,0,0:0:0:0:
448,192,183494,1,2,0:0:0:0:
320,192,183494,1,8,0:0:0:0:
192,192,183494,1,0,0:0:0:0:
192,192,183660,1,0,0:0:0:0:
64,192,183827,1,8,0:0:0:0:
448,192,183827,1,0,0:0:0:0:
192,192,183910,1,0,0:0:0:0:
320,192,183994,1,8,0:0:0:0:
448,192,183994,1,0,0:0:0:0:
64,192,184077,1,8,0:0:0:0:
192,192,184077,1,0,0:0:0:0:
320,192,184160,1,8,0:0:0:0:
448,192,184160,128,0,184327:0:0:0:0:
192,192,184327,1,2,0:0:0:0:
64,192,184327,128,0,184494:0:0:0:0:
448,192,184494,1,0,0:0:0:0:
320,192,184535,1,0,0:0:0:0:
192,192,184577,1,0,0:0:0:0:
64,192,184619,1,0,0:0:0:0:
448,192,184660,1,2,0:0:0:0:
320,192,184702,1,0,0:0:0:0:
192,192,184744,1,0,0:0:0:0:
64,192,184785,1,0,0:0:0:0:
320,192,184827,1,6,0:0:0:0:
448,192,184827,1,8,0:0:0:0:
192,192,184910,1,0,0:0:0:0:
64,192,184994,1,2,0:0:0:0:
448,192,184994,1,0,0:0:0:0:
320,192,185077,1,2,0:0:0:0:
64,192,185160,1,2,0:0:0:0:
192,192,185160,1,8,0:0:0:0:
448,192,185160,1,4,0:0:0:0:
320,192,185327,1,0,0:0:0:0:
64,192,185410,1,8,0:0:0:0:
192,192,185410,1,2,0:0:0:0:
448,192,185410,1,0,0:0:0:0:
320,192,185494,1,0,0:0:0:0:
64,192,185660,1,8,0:0:0:0:
320,192,185660,1,2,0:0:0:0:
448,192,185660,1,0,0:0:0:0:
192,192,185827,1,0,0:0:0:0:
64,192,185910,1,2,0:0:0:0:
320,192,185910,1,8,0:0:0:0:
448,192,185910,1,0,0:0:0:0:
192,192,185994,1,0,0:0:0:0:
64,192,186160,1,8,0:0:0:0:
192,192,186160,1,2,0:0:0:0:
320,192,186160,1,0,0:0:0:0:
448,192,186327,1,0,0:0:0:0:
320,192,186410,1,0,0:0:0:0:
64,192,186494,1,0,0:0:0:0:
192,192,186494,1,0,0:0:0:0:
192,192,186660,1,0,0:0:0:0:
448,192,186660,1,0,0:0:0:0:
320,192,186744,1,0,0:0:0:0:
64,192,186827,1,0,0:0:0:0:
192,192,186827,1,0,0:0:0:0:
320,192,186910,1,0,0:0:0:0:
64,192,186994,1,0,0:0:0:0:
448,192,186994,1,0,0:0:0:0:
192,192,187077,1,0,0:0:0:0:
64,192,187160,128,0,187327:0:0:0:0:
320,192,187160,1,0,0:0:0:0:
448,192,187160,1,0,0:0:0:0:
320,192,187327,128,2,187660:0:0:0:0:
448,192,187327,1,0,0:0:0:0:
64,192,187494,1,2,0:0:0:0:
192,192,187494,1,8,0:0:0:0:
64,192,187660,1,2,0:0:0:0:
192,192,187660,1,8,0:0:0:0:
448,192,187660,128,4,187994:0:0:0:0:
320,192,187827,1,0,0:0:0:0:
64,192,187994,1,2,0:0:0:0:
192,192,187994,1,0,0:0:0:0:
64,192,188160,1,2,0:0:0:0:
320,192,188160,1,8,0:0:0:0:
448,192,188160,1,0,0:0:0:0:
64,192,188327,128,0,188660:0:0:0:0:
192,192,188327,1,0,0:0:0:0:
320,192,188494,1,2,0:0:0:0:
448,192,188494,1,0,0:0:0:0:
192,192,188660,1,0,0:0:0:0:
448,192,188660,1,0,0:0:0:0:
64,192,188827,1,2,0:0:0:0:
320,192,188827,1,8,0:0:0:0:
448,192,188827,1,0,0:0:0:0:
192,192,188994,1,2,0:0:0:0:
448,192,188994,1,0,0:0:0:0:
320,192,189077,1,0,0:0:0:0:
64,192,189160,1,2,0:0:0:0:
192,192,189160,1,0,0:0:0:0:
64,192,189327,1,4,0:0:0:0:
320,192,189327,1,8,0:0:0:0:
448,192,189327,1,2,0:0:0:0:
192,192,189494,1,2,0:0:0:0:
320,192,189494,1,0,0:0:0:0:
64,192,189660,1,2,0:0:0:0:
192,192,189660,1,8,0:0:0:0:
448,192,189660,1,4,0:0:0:0:
64,192,189827,1,2,0:0:0:0:
320,192,189827,1,0,0:0:0:0:
192,192,189910,1,0,0:0:0:0:
320,192,189994,1,2,0:0:0:0:
448,192,189994,1,0,0:0:0:0:
192,192,190077,1,2,0:0:0:0:
64,192,190160,1,2,0:0:0:0:
320,192,190160,1,8,0:0:0:0:
448,192,190160,1,4,0:0:0:0:
192,192,190244,1,2,0:0:0:0:
64,192,190327,1,8,0:0:0:0:
448,192,190327,1,2,0:0:0:0:
320,192,190410,1,2,0:0:0:0:
64,192,190494,1,2,0:0:0:0:
192,192,190494,1,4,0:0:0:0:
448,192,190494,1,0,0:0:0:0:
320,192,190660,1,0,0:0:0:0:
64,192,190827,1,0,0:0:0:0:
192,192,190994,1,0,0:0:0:0:
448,192,191160,1,0,0:0:0:0:
320,192,191494,1,0,0:0:0:0:
64,192,191660,1,0,0:0:0:0:
320,192,191994,1,0,0:0:0:0:
64,192,192160,1,0,0:0:0:0:
192,192,192327,1,0,0:0:0:0:
448,192,192494,1,0,0:0:0:0:
320,192,192827,1,0,0:0:0:0:
64,192,192994,1,0,0:0:0:0:
192,192,193160,128,0,193244:0:0:0:0:
448,192,193160,128,0,193244:0:0:0:0:
320,192,193327,1,0,0:0:0:0:
192,192,193494,1,0,0:0:0:0:
64,192,193660,1,0,0:0:0:0:
320,192,193827,1,0,0:0:0:0:
448,192,194160,1,0,0:0:0:0:
192,192,194327,1,0,0:0:0:0:
320,192,194660,1,0,0:0:0:0:
192,192,194827,1,0,0:0:0:0:
64,192,194994,1,0,0:0:0:0:
320,192,195160,1,0,0:0:0:0:
448,192,195494,1,0,0:0:0:0:
192,192,195660,1,0,0:0:0:0:
64,192,195827,128,0,195910:0:0:0:0:
448,192,195827,128,0,195910:0:0:0:0:
320,192,195994,1,0,0:0:0:0:
192,192,196160,1,0,0:0:0:0:
320,192,196327,1,0,0:0:0:0:
448,192,196494,1,0,0:0:0:0:
320,192,196827,1,0,0:0:0:0:
64,192,196994,1,0,0:0:0:0:
320,192,197327,1,0,0:0:0:0:
192,192,197494,1,0,0:0:0:0:
320,192,197660,1,0,0:0:0:0:
448,192,197827,1,0,0:0:0:0:
320,192,198160,1,0,0:0:0:0:
64,192,198327,1,0,0:0:0:0:
320,192,198494,128,0,198577:0:0:0:0:
448,192,198494,128,0,198577:0:0:0:0:
192,192,198660,1,0,0:0:0:0:
64,192,198827,1,0,0:0:0:0:
320,192,198994,1,0,0:0:0:0:
448,192,199160,1,0,0:0:0:0:
192,192,199494,1,0,0:0:0:0:
64,192,199660,1,0,0:0:0:0:
448,192,199827,1,0,0:0:0:0:
64,192,199994,1,0,0:0:0:0:
320,192,200160,1,0,0:0:0:0:
64,192,200327,1,0,0:0:0:0:
448,192,200494,1,0,0:0:0:0:
64,192,200660,128,0,200744:0:0:0:0:
192,192,200827,128,0,200910:0:0:0:0:
320,192,200994,128,0,201077:0:0:0:0:
64,192,201160,128,0,201244:0:0:0:0:
448,192,201160,128,0,201244:0:0:0:0:
192,192,201327,1,0,0:0:0:0:
320,192,201494,1,0,0:0:0:0:
448,192,201660,1,0,0:0:0:0:
192,192,201827,1,0,0:0:0:0:
320,192,202160,1,0,0:0:0:0:
64,192,202327,1,0,0:0:0:0:
192,192,202660,1,0,0:0:0:0:
320,192,202827,1,0,0:0:0:0:
448,192,202994,1,0,0:0:0:0:
192,192,203160,1,0,0:0:0:0:
320,192,203494,128,0,203577:0:0:0:0:
64,192,203660,128,0,203744:0:0:0:0:
320,192,203827,128,0,203910:0:0:0:0:
448,192,203827,128,0,203910:0:0:0:0:
192,192,203994,1,0,0:0:0:0:
64,192,204160,1,0,0:0:0:0:
192,192,204327,1,0,0:0:0:0:
448,192,204494,1,0,0:0:0:0:
448,192,204827,128,0,204910:0:0:0:0:
64,192,204994,128,0,205077:0:0:0:0:
192,192,205327,1,0,0:0:0:0:
64,192,205494,1,0,0:0:0:0:
192,192,205660,1,0,0:0:0:0:
448,192,205827,1,0,0:0:0:0:
64,192,205994,128,0,206077:0:0:0:0:
320,192,206160,128,0,206244:0:0:0:0:
192,192,206327,128,0,206410:0:0:0:0:
64,192,206494,128,0,206577:0:0:0:0:
448,192,206494,128,0,206577:0:0:0:0:
192,192,206660,1,0,0:0:0:0:
320,192,206827,1,0,0:0:0:0:
192,192,206994,1,0,0:0:0:0:
448,192,207160,1,0,0:0:0:0:
192,192,207494,1,0,0:0:0:0:
64,192,207660,1,0,0:0:0:0:
192,192,207994,1,0,0:0:0:0:
320,192,208160,1,0,0:0:0:0:
192,192,208327,1,0,0:0:0:0:
448,192,208494,1,0,0:0:0:0:
448,192,208827,128,0,208910:0:0:0:0:
320,192,208994,128,0,209077:0:0:0:0:
64,192,209160,128,0,209244:0:0:0:0:
192,192,209160,128,0,209244:0:0:0:0:
320,192,209327,1,0,0:0:0:0:
192,192,209494,1,0,0:0:0:0:
64,192,209660,1,0,0:0:0:0:
320,192,209827,1,0,0:0:0:0:
448,192,210160,128,0,210244:0:0:0:0:
64,192,210327,128,0,210410:0:0:0:0:
448,192,210660,1,0,0:0:0:0:
64,192,210702,1,0,0:0:0:0:
192,192,210744,1,0,0:0:0:0:
320,192,210785,1,0,0:0:0:0:
448,192,210827,1,0,0:0:0:0:
192,192,210883,1,0,0:0:0:0:
64,192,210938,1,0,0:0:0:0:
448,192,210994,1,0,0:0:0:0:
320,192,211035,1,0,0:0:0:0:
192,192,211077,1,0,0:0:0:0:
64,192,211119,1,0,0:0:0:0:
320,192,211160,1,0,0:0:0:0:
448,192,211244,1,0,0:0:0:0:
64,192,211327,1,0,0:0:0:0:
192,192,211383,1,0,0:0:0:0:
320,192,211438,1,0,0:0:0:0:
448,192,211494,1,0,0:0:0:0:
192,192,211577,1,0,0:0:0:0:
64,192,211619,1,0,0:0:0:0:
448,192,211660,1,0,0:0:0:0:
320,192,211716,1,0,0:0:0:0:
192,192,211772,1,0,0:0:0:0:
64,192,211827,128,2,211910:0:0:0:0:
448,192,211827,128,0,211910:0:0:0:0:
192,192,211994,1,0,0:0:0:0:
320,192,212160,1,2,0:0:0:0:
448,192,212160,1,0,0:0:0:0:
192,192,212327,1,0,0:0:0:0:
64,192,212494,1,2,0:0:0:0:
448,192,212494,1,0,0:0:0:0:
320,192,212660,1,0,0:0:0:0:
64,192,212827,1,2,0:0:0:0:
192,192,212827,1,0,0:0:0:0:
320,192,212994,1,0,0:0:0:0:
64,192,213160,1,2,0:0:0:0:
448,192,213160,1,0,0:0:0:0:
192,192,213327,1,0,0:0:0:0:
64,192,213494,1,2,0:0:0:0:
448,192,213494,1,0,0:0:0:0:
320,192,213660,1,0,0:0:0:0:
64,192,213827,1,2,0:0:0:0:
448,192,213827,1,0,0:0:0:0:
192,192,213910,1,0,0:0:0:0:
320,192,213994,1,0,0:0:0:0:
448,192,214077,1,0,0:0:0:0:
64,192,214160,128,2,214244:0:0:0:0:
192,192,214160,1,0,0:0:0:0:
320,192,214327,128,0,214410:0:0:0:0:
448,192,214327,1,0,0:0:0:0:
64,192,214494,128,2,214577:0:0:0:0:
192,192,214494,1,0,0:0:0:0:
448,192,214494,128,0,214577:0:0:0:0:
64,192,214660,1,0,0:0:0:0:
320,192,214660,1,0,0:0:0:0:
192,192,214827,1,2,0:0:0:0:
448,192,214827,1,0,0:0:0:0:
320,192,214994,1,0,0:0:0:0:
448,192,214994,1,0,0:0:0:0:
64,192,215160,1,2,0:0:0:0:
192,192,215160,1,0,0:0:0:0:
320,192,215327,1,0,0:0:0:0:
64,192,215494,128,2,215577:0:0:0:0:
192,192,215494,1,0,0:0:0:0:
320,192,215660,1,0,0:0:0:0:
448,192,215660,128,0,215744:0:0:0:0:
64,192,215827,1,2,0:0:0:0:
448,192,215827,1,0,0:0:0:0:
320,192,215883,1,0,0:0:0:0:
192,192,215938,1,0,0:0:0:0:
64,192,215994,1,0,0:0:0:0:
448,192,215994,1,0,0:0:0:0:
192,192,216160,1,2,0:0:0:0:
320,192,216160,1,0,0:0:0:0:
448,192,216327,1,0,0:0:0:0:
64,192,216327,1,0,0:0:0:0:
192,192,216383,1,0,0:0:0:0:
320,192,216438,1,0,0:0:0:0:
64,192,216494,1,2,0:0:0:0:
448,192,216494,1,0,0:0:0:0:
192,192,216577,1,0,0:0:0:0:
64,192,216660,128,0,216744:0:0:0:0:
320,192,216660,1,0,0:0:0:0:
192,192,216827,128,2,216910:0:0:0:0:
448,192,216827,1,0,0:0:0:0:
64,192,216994,1,0,0:0:0:0:
320,192,216994,128,0,217077:0:0:0:0:
64,192,217160,128,2,217244:0:0:0:0:
192,192,217160,1,0,0:0:0:0:
448,192,217160,128,0,217244:0:0:0:0:
320,192,217327,1,0,0:0:0:0:
448,192,217327,1,0,0:0:0:0:
192,192,217410,1,0,0:0:0:0:
64,192,217494,1,2,0:0:0:0:
320,192,217494,1,8,0:0:0:0:
64,192,217660,1,0,0:0:0:0:
192,192,217660,1,0,0:0:0:0:
320,192,217827,1,2,0:0:0:0:
448,192,217827,1,0,0:0:0:0:
192,192,217994,1,0,0:0:0:0:
320,192,218077,1,0,0:0:0:0:
64,192,218160,1,2,0:0:0:0:
448,192,218160,1,8,0:0:0:0:
192,192,218327,1,0,0:0:0:0:
320,192,218327,1,0,0:0:0:0:
64,192,218494,1,2,0:0:0:0:
448,192,218494,1,0,0:0:0:0:
320,192,218660,1,0,0:0:0:0:
448,192,218660,1,0,0:0:0:0:
192,192,218744,1,0,0:0:0:0:
64,192,218827,1,2,0:0:0:0:
320,192,218827,1,8,0:0:0:0:
64,192,218994,1,0,0:0:0:0:
192,192,218994,1,0,0:0:0:0:
320,192,219160,1,2,0:0:0:0:
448,192,219160,1,0,0:0:0:0:
192,192,219327,1,0,0:0:0:0:
320,192,219410,1,0,0:0:0:0:
192,192,219494,128,2,219577:0:0:0:0:
448,192,219494,1,8,0:0:0:0:
64,192,219660,1,0,0:0:0:0:
320,192,219660,128,0,219744:0:0:0:0:
64,192,219827,128,2,219910:0:0:0:0:
192,192,219827,1,0,0:0:0:0:
448,192,219827,128,0,219910:0:0:0:0:
320,192,219994,1,0,0:0:0:0:
448,192,219994,1,0,0:0:0:0:
192,192,220077,1,0,0:0:0:0:
64,192,220160,1,8,0:0:0:0:
320,192,220160,1,2,0:0:0:0:
64,192,220327,1,0,0:0:0:0:
192,192,220327,1,0,0:0:0:0:
320,192,220494,1,2,0:0:0:0:
448,192,220494,1,0,0:0:0:0:
64,192,220660,1,0,0:0:0:0:
192,192,220744,1,0,0:0:0:0:
320,192,220827,128,2,220910:0:0:0:0:
448,192,220827,1,8,0:0:0:0:
64,192,220994,128,0,221077:0:0:0:0:
192,192,220994,1,0,0:0:0:0:
64,192,221160,1,2,0:0:0:0:
448,192,221160,1,0,0:0:0:0:
192,192,221327,1,0,0:0:0:0:
320,192,221410,1,0,0:0:0:0:
192,192,221494,1,2,0:0:0:0:
448,192,221494,128,8,221577:0:0:0:0:
64,192,221660,128,0,221744:0:0:0:0:
320,192,221660,1,0,0:0:0:0:
64,192,221827,1,2,0:0:0:0:
448,192,221827,1,0,0:0:0:0:
192,192,221994,1,0,0:0:0:0:
448,192,221994,128,0,222077:0:0:0:0:
64,192,222160,1,2,0:0:0:0:
320,192,222160,128,8,222244:0:0:0:0:
192,192,222327,128,2,222410:0:0:0:0:
448,192,222327,1,0,0:0:0:0:
64,192,222494,128,2,222577:0:0:0:0:
320,192,222494,1,4,0:0:0:0:
448,192,222494,128,0,222577:0:0:0:0:
64,192,222660,1,2,0:0:0:0:
320,192,222660,128,0,222744:0:0:0:0:
192,192,222827,128,2,222910:0:0:0:0:
448,192,222827,1,8,0:0:0:0:
64,192,222994,1,2,0:0:0:0:
320,192,222994,128,0,223077:0:0:0:0:
192,192,223160,1,2,0:0:0:0:
448,192,223160,128,0,223244:0:0:0:0:
64,192,223327,1,2,0:0:0:0:
448,192,223327,1,0,0:0:0:0:
320,192,223410,1,0,0:0:0:0:
64,192,223494,128,2,223577:0:0:0:0:
192,192,223494,1,8,0:0:0:0:
320,192,223660,128,2,223744:0:0:0:0:
448,192,223660,1,0,0:0:0:0:
64,192,223827,1,2,0:0:0:0:
448,192,223827,1,0,0:0:0:0:
64,192,223994,1,2,0:0:0:0:
320,192,223994,128,0,224077:0:0:0:0:
192,192,224160,128,2,224244:0:0:0:0:
448,192,224160,1,8,0:0:0:0:
64,192,224327,1,2,0:0:0:0:
320,192,224327,128,0,224410:0:0:0:0:
192,192,224494,1,2,0:0:0:0:
448,192,224494,128,0,224577:0:0:0:0:
64,192,224660,1,2,0:0:0:0:
448,192,224660,1,0,0:0:0:0:
320,192,224744,1,0,0:0:0:0:
64,192,224827,128,2,224910:0:0:0:0:
192,192,224827,1,8,0:0:0:0:
320,192,224994,128,2,225077:0:0:0:0:
448,192,224994,1,0,0:0:0:0:
64,192,225160,1,2,0:0:0:0:
320,192,225160,1,4,0:0:0:0:
448,192,225160,1,0,0:0:0:0:
192,192,225327,1,2,0:0:0:0:
64,192,225327,128,0,225410:0:0:0:0:
448,192,225494,1,2,0:0:0:0:
320,192,225494,128,8,225577:0:0:0:0:
192,192,225660,128,2,225744:0:0:0:0:
64,192,225660,1,0,0:0:0:0:
448,192,225827,128,2,225910:0:0:0:0:
320,192,225827,1,0,0:0:0:0:
448,192,225994,1,2,0:0:0:0:
64,192,225994,1,0,0:0:0:0:
192,192,226077,1,0,0:0:0:0:
320,192,226160,128,2,226244:0:0:0:0:
64,192,226160,1,8,0:0:0:0:
448,192,226327,1,2,0:0:0:0:
192,192,226327,128,0,226410:0:0:0:0:
448,192,226494,1,2,0:0:0:0:
320,192,226494,1,4,0:0:0:0:
64,192,226494,1,0,0:0:0:0:
192,192,226660,1,2,0:0:0:0:
64,192,226660,128,0,226744:0:0:0:0:
448,192,226827,1,2,0:0:0:0:
320,192,226827,128,8,226910:0:0:0:0:
192,192,226994,128,2,227077:0:0:0:0:
64,192,226994,1,0,0:0:0:0:
448,192,227160,128,2,227244:0:0:0:0:
320,192,227160,1,0,0:0:0:0:
448,192,227327,1,2,0:0:0:0:
64,192,227327,1,0,0:0:0:0:
192,192,227410,1,0,0:0:0:0:
448,192,227494,1,2,0:0:0:0:
320,192,227494,128,8,227577:0:0:0:0:
192,192,227660,128,2,227744:0:0:0:0:
64,192,227660,1,0,0:0:0:0:
64,192,227827,1,2,0:0:0:0:
320,192,227827,1,4,0:0:0:0:
448,192,227827,1,0,0:0:0:0:
192,192,227910,1,2,0:0:0:0:
320,192,227994,1,2,0:0:0:0:
448,192,227994,1,0,0:0:0:0:
64,192,228077,1,2,0:0:0:0:
192,192,228160,1,2,0:0:0:0:
320,192,228160,1,8,0:0:0:0:
448,192,228244,1,2,0:0:0:0:
64,192,228327,1,2,0:0:0:0:
192,192,228327,1,0,0:0:0:0:
320,192,228410,1,2,0:0:0:0:
192,192,228494,1,2,0:0:0:0:
64,192,228494,1,4,0:0:0:0:
448,192,228494,1,8,0:0:0:0:
320,192,228577,1,2,0:0:0:0:
64,192,228660,1,2,0:0:0:0:
448,192,228660,1,0,0:0:0:0:
64,192,228827,1,8,0:0:0:0:
320,192,228827,1,2,0:0:0:0:
192,192,228910,1,2,0:0:0:0:
448,192,228994,1,2,0:0:0:0:
320,192,228994,1,0,0:0:0:0:
192,192,229077,1,2,0:0:0:0:
320,192,229160,1,2,0:0:0:0:
448,192,229160,1,4,0:0:0:0:
64,192,229160,1,0,0:0:0:0:
192,192,229244,1,2,0:0:0:0:
448,192,229327,1,0,0:0:0:0:
64,192,229327,1,2,0:0:0:0:
320,192,229410,1,2,0:0:0:0:
64,192,229494,1,2,0:0:0:0:
448,192,229494,1,8,0:0:0:0:
192,192,229494,1,4,0:0:0:0:
320,192,229577,1,2,0:0:0:0:
192,192,229660,1,2,0:0:0:0:
64,192,229660,1,0,0:0:0:0:
448,192,229744,1,2,0:0:0:0:
192,192,229827,1,8,0:0:0:0:
320,192,229827,1,4,0:0:0:0:
64,192,229827,1,2,0:0:0:0:
448,192,229910,1,2,0:0:0:0:
192,192,229994,1,2,0:0:0:0:
320,192,229994,1,0,0:0:0:0:
64,192,230077,1,2,0:0:0:0:
320,192,230160,1,4,0:0:0:0:
448,192,230160,1,8,0:0:0:0:
192,192,230160,1,2,0:0:0:0:
64,192,230244,1,2,0:0:0:0:
320,192,230327,1,2,0:0:0:0:
448,192,230327,1,0,0:0:0:0:
192,192,230410,1,2,0:0:0:0:
320,192,230494,1,2,0:0:0:0:
64,192,230494,1,4,0:0:0:0:
448,192,230494,1,0,0:0:0:0:
192,192,230660,128,0,230744:0:0:0:0:
64,192,230827,128,0,230910:0:0:0:0:
320,192,230994,128,0,231077:0:0:0:0:
448,192,230994,1,0,0:0:0:0:
192,192,231160,128,0,231327:0:0:0:0:
64,192,231494,128,0,231660:0:0:0:0:
448,192,231494,128,0,231577:0:0:0:0:
320,192,231660,128,0,231744:0:0:0:0:
64,192,231827,1,0,0:0:0:0:
192,192,231827,128,0,231994:0:0:0:0:
448,192,231994,1,0,0:0:0:0:
64,192,232160,128,0,232327:0:0:0:0:
320,192,232160,128,0,232244:0:0:0:0:
448,192,232327,128,0,232410:0:0:0:0:
64,192,232494,1,0,0:0:0:0:
192,192,232494,128,0,232660:0:0:0:0:
448,192,232660,1,0,0:0:0:0:
64,192,232827,1,0,0:0:0:0:
320,192,232827,128,0,232994:0:0:0:0:
192,192,232994,1,0,0:0:0:0:
448,192,237327,1,0,0:0:0:0:
320,192,237410,1,0,0:0:0:0:
192,192,237494,1,0,0:0:0:0:
64,192,237577,1,0,0:0:0:0:
320,192,237660,1,0,0:0:0:0:
192,192,237744,1,0,0:0:0:0:
448,192,237827,1,0,0:0:0:0:
320,192,237910,1,0,0:0:0:0:
192,192,237994,1,0,0:0:0:0:
320,192,238077,1,0,0:0:0:0:
64,192,238160,1,4,0:0:0:0:
192,192,238160,1,2,0:0:0:0:
448,192,238160,1,0,0:0:0:0:
64,192,238243,1,8,0:0:0:0:
192,192,238243,1,0,0:0:0:0:
64,192,238409,1,2,0:0:0:0:
320,192,238409,1,0,0:0:0:0:
448,192,238409,1,0,0:0:0:0:
320,192,238493,1,8,0:0:0:0:
448,192,238493,1,0,0:0:0:0:
64,192,238659,1,2,0:0:0:0:
320,192,238659,1,8,0:0:0:0:
448,192,238659,1,0,0:0:0:0:
192,192,238826,1,0,0:0:0:0:
320,192,238909,1,8,0:0:0:0:
64,192,238993,1,2,0:0:0:0:
192,192,238993,1,0,0:0:0:0:
320,192,239076,1,8,0:0:0:0:
448,192,239076,1,0,0:0:0:0:
64,192,239159,1,2,0:0:0:0:
192,192,239159,1,0,0:0:0:0:
448,192,239243,1,0,0:0:0:0:
320,192,239326,1,0,0:0:0:0:
64,192,239409,1,2,0:0:0:0:
192,192,239409,1,0,0:0:0:0:
320,192,239493,1,0,0:0:0:0:
448,192,239493,1,0,0:0:0:0:
64,192,239659,1,8,0:0:0:0:
192,192,239659,1,0,0:0:0:0:
320,192,239743,1,8,0:0:0:0:
448,192,239743,1,0,0:0:0:0:
64,192,239826,1,8,0:0:0:0:
192,192,239826,1,0,0:0:0:0:
320,192,239909,1,0,0:0:0:0:
64,192,239993,1,2,0:0:0:0:
448,192,239993,1,0,0:0:0:0:
192,192,240076,1,2,0:0:0:0:
320,192,240076,1,0,0:0:0:0:
64,192,240159,1,8,0:0:0:0:
448,192,240159,1,2,0:0:0:0:
192,192,240326,1,0,0:0:0:0:
320,192,240409,1,2,0:0:0:0:
448,192,240409,1,0,0:0:0:0:
64,192,240493,1,8,0:0:0:0:
320,192,240493,1,0,0:0:0:0:
448,192,240493,1,0,0:0:0:0:
64,192,240659,1,2,0:0:0:0:
320,192,240659,1,0,0:0:0:0:
192,192,240743,1,8,0:0:0:0:
448,192,240743,1,0,0:0:0:0:
320,192,240826,1,0,0:0:0:0:
64,192,240909,1,2,0:0:0:0:
192,192,240909,1,0,0:0:0:0:
320,192,240993,1,8,0:0:0:0:
448,192,240993,1,0,0:0:0:0:
192,192,241076,1,0,0:0:0:0:
64,192,241159,1,2,0:0:0:0:
320,192,241159,1,0,0:0:0:0:
448,192,241159,1,0,0:0:0:0:
64,192,241326,1,8,0:0:0:0:
192,192,241326,1,0,0:0:0:0:
320,192,241409,1,2,0:0:0:0:
448,192,241409,1,0,0:0:0:0:
64,192,241493,1,0,0:0:0:0:
192,192,241493,1,0,0:0:0:0:
64,192,241659,1,8,0:0:0:0:
320,192,241659,1,0,0:0:0:0:
448,192,241659,1,0,0:0:0:0:
192,192,241826,1,2,0:0:0:0:
320,192,241826,1,0,0:0:0:0:
64,192,241993,1,8,0:0:0:0:
192,192,241993,1,0,0:0:0:0:
448,192,241993,1,0,0:0:0:0:
64,192,242159,1,2,0:0:0:0:
320,192,242159,1,4,0:0:0:0:
448,192,242159,1,0,0:0:0:0:
192,192,242243,1,8,0:0:0:0:
320,192,242271,1,0,0:0:0:0:
64,192,242382,1,0,0:0:0:0:
192,192,242409,1,2,0:0:0:0:
448,192,242409,1,0,0:0:0:0:
320,192,242493,1,8,0:0:0:0:
192,192,242604,1,0,0:0:0:0:
64,192,242659,1,2,0:0:0:0:
448,192,242659,1,8,0:0:0:0:
320,192,242715,1,0,0:0:0:0:
192,192,242826,1,8,0:0:0:0:
64,192,242937,1,0,0:0:0:0:
320,192,242993,1,2,0:0:0:0:
448,192,242993,1,0,0:0:0:0:
192,192,243048,1,0,0:0:0:0:
64,192,243076,1,8,0:0:0:0:
320,192,243159,1,2,0:0:0:0:
448,192,243159,1,0,0:0:0:0:
192,192,243271,1,0,0:0:0:0:
448,192,243382,1,0,0:0:0:0:
64,192,243409,1,2,0:0:0:0:
192,192,243409,1,0,0:0:0:0:
320,192,243493,1,0,0:0:0:0:
448,192,243493,1,0,0:0:0:0:
64,192,243659,1,8,0:0:0:0:
192,192,243659,1,0,0:0:0:0:
320,192,243743,1,8,0:0:0:0:
448,192,243743,1,0,0:0:0:0:
64,192,243826,1,8,0:0:0:0:
192,192,243826,1,0,0:0:0:0:
320,192,243909,1,0,0:0:0:0:
64,192,243993,1,2,0:0:0:0:
448,192,243993,1,0,0:0:0:0:
192,192,244076,1,2,0:0:0:0:
320,192,244159,1,8,0:0:0:0:
448,192,244159,1,2,0:0:0:0:
64,192,244326,1,0,0:0:0:0:
320,192,244326,1,0,0:0:0:0:
192,192,244409,1,2,0:0:0:0:
64,192,244493,1,8,0:0:0:0:
320,192,244493,1,0,0:0:0:0:
448,192,244493,1,0,0:0:0:0:
192,192,244576,1,0,0:0:0:0:
320,192,244659,1,2,0:0:0:0:
448,192,244659,1,0,0:0:0:0:
64,192,244743,1,8,0:0:0:0:
192,192,244743,1,0,0:0:0:0:
448,192,244826,1,0,0:0:0:0:
64,192,244909,1,2,0:0:0:0:
320,192,244909,1,0,0:0:0:0:
192,192,244993,1,8,0:0:0:0:
448,192,244993,1,0,0:0:0:0:
320,192,245076,1,0,0:0:0:0:
64,192,245159,1,2,0:0:0:0:
192,192,245159,1,0,0:0:0:0:
448,192,245159,1,0,0:0:0:0:
320,192,245243,1,0,0:0:0:0:
64,192,245326,1,8,0:0:0:0:
192,192,245326,1,0,0:0:0:0:
320,192,245409,1,2,0:0:0:0:
448,192,245409,1,0,0:0:0:0:
64,192,245493,1,0,0:0:0:0:
192,192,245576,1,0,0:0:0:0:
64,192,245659,1,8,0:0:0:0:
320,192,245659,1,0,0:0:0:0:
448,192,245659,1,0,0:0:0:0:
192,192,245743,1,0,0:0:0:0:
320,192,245826,1,2,0:0:0:0:
448,192,245826,1,0,0:0:0:0:
192,192,245909,1,0,0:0:0:0:
64,192,245993,1,8,0:0:0:0:
320,192,245993,1,0,0:0:0:0:
448,192,245993,1,0,0:0:0:0:
192,192,246076,1,8,0:0:0:0:
64,192,246159,1,2,0:0:0:0:
320,192,246159,1,4,0:0:0:0:
448,192,246159,1,0,0:0:0:0:
64,192,246242,1,8,0:0:0:0:
320,192,246242,1,0,0:0:0:0:
448,192,246242,128,0,246325:0:0:0:0:
192,192,246408,1,2,0:0:0:0:
320,192,246408,128,0,246492:0:0:0:0:
64,192,246575,1,8,0:0:0:0:
192,192,246575,128,0,246658:0:0:0:0:
320,192,246658,1,2,0:0:0:0:
64,192,246742,128,8,246825:0:0:0:0:
192,192,246742,1,0,0:0:0:0:
320,192,246825,1,2,0:0:0:0:
448,192,246825,128,0,246908:0:0:0:0:
192,192,246992,1,2,0:0:0:0:
320,192,246992,128,0,247075:0:0:0:0:
64,192,247158,1,2,0:0:0:0:
192,192,247158,1,4,0:0:0:0:
448,192,247158,1,0,0:0:0:0:
64,192,247242,128,8,247325:0:0:0:0:
192,192,247242,1,0,0:0:0:0:
448,192,247242,1,0,0:0:0:0:
192,192,247408,128,2,247492:0:0:0:0:
320,192,247408,1,0,0:0:0:0:
320,192,247575,128,8,247658:0:0:0:0:
448,192,247575,1,0,0:0:0:0:
192,192,247658,1,2,0:0:0:0:
320,192,247742,1,8,0:0:0:0:
448,192,247742,128,0,247825:0:0:0:0:
64,192,247825,128,2,247908:0:0:0:0:
192,192,247825,1,0,0:0:0:0:
192,192,247992,128,2,248075:0:0:0:0:
320,192,247992,1,0,0:0:0:0:
64,192,248158,1,2,0:0:0:0:
320,192,248158,1,4,0:0:0:0:
448,192,248158,1,0,0:0:0:0:
64,192,248242,1,8,0:0:0:0:
320,192,248242,1,0,0:0:0:0:
448,192,248242,128,0,248325:0:0:0:0:
192,192,248408,1,2,0:0:0:0:
320,192,248408,128,0,248492:0:0:0:0:
64,192,248575,1,8,0:0:0:0:
192,192,248575,128,0,248658:0:0:0:0:
320,192,248658,1,2,0:0:0:0:
448,192,248658,1,0,0:0:0:0:
64,192,248742,128,8,248825:0:0:0:0:
192,192,248742,1,0,0:0:0:0:
320,192,248825,1,2,0:0:0:0:
448,192,248825,1,0,0:0:0:0:
64,192,248908,1,8,0:0:0:0:
192,192,248908,1,2,0:0:0:0:
320,192,248992,1,2,0:0:0:0:
448,192,248992,1,0,0:0:0:0:
64,192,249075,1,8,0:0:0:0:
192,192,249075,1,2,0:0:0:0:
320,192,249158,1,2,0:0:0:0:
448,192,249158,1,0,0:0:0:0:
192,192,249242,1,0,0:0:0:0:
64,192,249325,1,0,0:0:0:0:
192,192,249408,1,0,0:0:0:0:
320,192,249492,1,0,0:0:0:0:
448,192,249575,1,0,0:0:0:0:
320,192,249658,1,0,0:0:0:0:
192,192,249742,1,0,0:0:0:0:
64,192,249825,1,0,0:0:0:0:
192,192,249908,1,0,0:0:0:0:
320,192,250075,1,0,0:0:0:0:
192,192,250242,1,0,0:0:0:0:
320,192,250325,1,0,0:0:0:0:
448,192,250408,1,0,0:0:0:0:
320,192,250492,1,0,0:0:0:0:
192,192,250575,1,0,0:0:0:0:
320,192,250658,1,0,0:0:0:0:
192,192,250742,1,0,0:0:0:0:
64,192,250825,1,0,0:0:0:0:
448,192,250992,1,0,0:0:0:0:
320,192,251047,1,0,0:0:0:0:
192,192,251103,1,0,0:0:0:0:
64,192,251158,1,0,0:0:0:0:
64,192,251325,128,4,251491:0:0:0:0:
320,192,251325,1,2,0:0:0:0:
448,192,251325,128,0,253491:0:0:0:0:
192,192,251491,128,0,251658:0:0:0:0:
64,192,251658,128,0,251824:0:0:0:0:
192,192,251824,128,0,251991:0:0:0:0:
320,192,251991,128,0,252158:0:0:0:0:
192,192,252158,128,0,252324:0:0:0:0:
64,192,252324,128,0,252491:0:0:0:0:
320,192,252491,128,0,252658:0:0:0:0:
192,192,252658,128,0,252824:0:0:0:0:
320,192,252824,128,0,252991:0:0:0:0:
64,192,252991,128,0,253158:0:0:0:0:
192,192,253158,128,0,253324:0:0:0:0:
320,192,253324,128,0,253491:0:0:0:0:
64,192,253491,1,2,0:0:0:0:
192,192,253491,1,0,0:0:0:0:
64,192,253574,1,2,0:0:0:0:
192,192,253574,1,0,0:0:0:0:
64,192,253741,1,2,0:0:0:0:
192,192,253741,1,0,0:0:0:0:
64,192,253991,128,2,256824:0:0:0:0:
448,192,253991,1,0,0:0:0:0:
320,192,256824,1,2,0:0:0:0:
448,192,256824,1,0,0:0:0:0:
192,192,256865,1,0,0:0:0:0:
64,192,257323,1,0,0:0:0:0:
320,192,257365,1,0,0:0:0:0:
320,192,257823,1,0,0:0:0:0:
192,192,257865,1,0,0:0:0:0:
192,192,258323,1,0,0:0:0:0:
448,192,258365,1,0,0:0:0:0:
192,192,258823,1,0,0:0:0:0:
64,192,258865,1,0,0:0:0:0:
192,192,259157,1,0,0:0:0:0:
448,192,259296,1,0,0:0:0:0:
192,192,259407,1,0,0:0:0:0:
320,192,259448,1,0,0:0:0:0:
64,192,259490,1,0,0:0:0:0:
448,192,259490,1,0,0:0:0:0:
64,192,259823,1,0,0:0:0:0:
448,192,259990,1,0,0:0:0:0:
320,192,260032,1,0,0:0:0:0:
64,192,260157,1,0,0:0:0:0:
64,192,260490,1,0,0:0:0:0:
320,192,260490,1,0,0:0:0:0:
192,192,260573,1,0,0:0:0:0:
448,192,260657,128,0,261490:0:0:0:0:
64,192,260823,1,0,0:0:0:0:
64,192,261157,1,0,0:0:0:0:
192,192,261490,128,0,261532:0:0:0:0:
64,192,261490,1,0,0:0:0:0:
320,192,261573,128,0,261615:0:0:0:0:
192,192,261657,128,0,261698:0:0:0:0:
320,192,261740,128,0,261782:0:0:0:0:
64,192,261823,1,0,0:0:0:0:
192,192,261879,1,0,0:0:0:0:
320,192,261935,1,0,0:0:0:0:
448,192,261990,128,0,262157:0:0:0:0:
192,192,262157,1,8,0:0:0:0:
64,192,262157,128,2,262657:0:0:0:0:
320,192,262323,1,8,0:0:0:0:
192,192,262407,1,8,0:0:0:0:
320,192,262490,1,8,0:0:0:0:
448,192,262490,1,0,0:0:0:0:
192,192,262657,128,8,263157:0:0:0:0:
320,192,262823,1,2,0:0:0:0:
448,192,262823,1,0,0:0:0:0:
64,192,262990,1,8,0:0:0:0:
320,192,263073,1,8,0:0:0:0:
448,192,263157,1,8,0:0:0:0:
64,192,263157,1,0,0:0:0:0:
64,192,263323,1,2,0:0:0:0:
192,192,263323,1,8,0:0:0:0:
448,192,263323,1,4,0:0:0:0:
320,192,263490,1,8,0:0:0:0:
192,192,263657,1,8,0:0:0:0:
320,192,263740,1,8,0:0:0:0:
64,192,263823,1,8,0:0:0:0:
448,192,263823,1,0,0:0:0:0:
192,192,263907,1,0,0:0:0:0:
64,192,263990,1,8,0:0:0:0:
320,192,263990,1,2,0:0:0:0:
448,192,263990,128,4,264323:0:0:0:0:
192,192,264157,1,8,0:0:0:0:
64,192,264323,128,8,264490:0:0:0:0:
192,192,264407,1,8,0:0:0:0:
448,192,264490,1,8,0:0:0:0:
320,192,264490,128,0,264657:0:0:0:0:
64,192,264657,1,8,0:0:0:0:
192,192,264657,1,2,0:0:0:0:
448,192,264657,1,4,0:0:0:0:
64,192,264823,1,2,0:0:0:0:
192,192,264823,1,8,0:0:0:0:
320,192,264990,1,0,0:0:0:0:
64,192,265073,1,8,0:0:0:0:
192,192,265073,1,0,0:0:0:0:
448,192,265073,1,0,0:0:0:0:
64,192,265157,1,2,0:0:0:0:
192,192,265157,1,0,0:0:0:0:
64,192,265323,1,2,0:0:0:0:
320,192,265323,1,8,0:0:0:0:
448,192,265323,1,0,0:0:0:0:
320,192,265490,1,2,0:0:0:0:
448,192,265490,1,0,0:0:0:0:
64,192,265573,1,8,0:0:0:0:
320,192,265573,1,0,0:0:0:0:
448,192,265573,1,0,0:0:0:0:
192,192,265657,1,0,0:0:0:0:
320,192,265740,1,0,0:0:0:0:
192,192,265823,1,2,0:0:0:0:
448,192,265823,1,0,0:0:0:0:
64,192,265990,1,2,0:0:0:0:
320,192,265990,1,8,0:0:0:0:
448,192,265990,1,0,0:0:0:0:
64,192,266157,1,2,0:0:0:0:
192,192,266157,1,0,0:0:0:0:
320,192,266323,1,2,0:0:0:0:
448,192,266323,1,0,0:0:0:0:
192,192,266407,1,0,0:0:0:0:
64,192,266490,1,2,0:0:0:0:
320,192,266490,1,0,0:0:0:0:
192,192,266657,1,2,0:0:0:0:
448,192,266657,1,0,0:0:0:0:
320,192,266823,1,2,0:0:0:0:
448,192,266823,1,0,0:0:0:0:
64,192,266907,1,2,0:0:0:0:
192,192,266907,1,0,0:0:0:0:
320,192,266990,1,2,0:0:0:0:
448,192,266990,1,0,0:0:0:0:
64,192,267073,1,2,0:0:0:0:
192,192,267073,1,0,0:0:0:0:
320,192,267157,1,2,0:0:0:0:
448,192,267157,1,0,0:0:0:0:
192,192,267240,1,2,0:0:0:0:
64,192,267323,1,2,0:0:0:0:
320,192,267323,1,4,0:0:0:0:
448,192,267323,1,0,0:0:0:0:
192,192,267490,1,2,0:0:0:0:
320,192,267573,1,8,0:0:0:0:
448,192,267573,1,0,0:0:0:0:
64,192,267657,1,2,0:0:0:0:
192,192,267657,1,8,0:0:0:0:
448,192,267740,1,8,0:0:0:0:
320,192,267740,1,0,0:0:0:0:
64,192,267823,1,8,0:0:0:0:
192,192,267823,1,0,0:0:0:0:
64,192,267990,1,2,0:0:0:0:
320,192,267990,1,8,0:0:0:0:
448,192,267990,1,0,0:0:0:0:
192,192,268157,1,0,0:0:0:0:
320,192,268240,1,0,0:0:0:0:
64,192,268323,1,2,0:0:0:0:
448,192,268323,1,0,0:0:0:0:
192,192,268407,1,0,0:0:0:0:
64,192,268490,1,8,0:0:0:0:
320,192,268490,1,2,0:0:0:0:
448,192,268490,1,0,0:0:0:0:
64,192,268657,1,2,0:0:0:0:
192,192,268657,1,0,0:0:0:0:
320,192,268740,1,0,0:0:0:0:
192,192,268823,1,0,0:0:0:0:
320,192,268990,1,2,0:0:0:0:
448,192,268990,1,0,0:0:0:0:
192,192,269073,1,0,0:0:0:0:
64,192,269157,1,2,0:0:0:0:
320,192,269157,1,8,0:0:0:0:
448,192,269157,1,0,0:0:0:0:
64,192,269323,1,2,0:0:0:0:
192,192,269323,1,0,0:0:0:0:
320,192,269407,1,8,0:0:0:0:
448,192,269407,1,0,0:0:0:0:
64,192,269490,1,2,0:0:0:0:
192,192,269490,1,0,0:0:0:0:
320,192,269573,1,0,0:0:0:0:
192,192,269657,1,0,0:0:0:0:
64,192,269740,1,2,0:0:0:0:
448,192,269740,1,0,0:0:0:0:
320,192,269823,1,0,0:0:0:0:
64,192,269990,1,2,0:0:0:0:
192,192,269990,1,8,0:0:0:0:
448,192,269990,128,4,270323:0:0:0:0:
64,192,270323,1,2,0:0:0:0:
192,192,270323,1,0,0:0:0:0:
64,192,270490,1,8,0:0:0:0:
320,192,270490,1,2,0:0:0:0:
448,192,270490,1,0,0:0:0:0:
192,192,270601,1,0,0:0:0:0:
320,192,270712,1,0,0:0:0:0:
64,192,270740,1,2,0:0:0:0:
192,192,270740,1,0,0:0:0:0:
448,192,270823,1,0,0:0:0:0:
448,192,270990,1,2,0:0:0:0:
320,192,270990,1,0,0:0:0:0:
192,192,271073,1,0,0:0:0:0:
64,192,271157,1,2,0:0:0:0:
320,192,271157,1,8,0:0:0:0:
448,192,271157,1,0,0:0:0:0:
192,192,271323,1,0,0:0:0:0:
64,192,271490,1,2,0:0:0:0:
448,192,271490,1,0,0:0:0:0:
64,192,271657,1,2,0:0:0:0:
320,192,271657,1,8,0:0:0:0:
448,192,271657,1,0,0:0:0:0:
192,192,271740,1,0,0:0:0:0:
320,192,271823,1,8,0:0:0:0:
448,192,271823,1,0,0:0:0:0:
192,192,271907,1,8,0:0:0:0:
64,192,271990,1,2,0:0:0:0:
320,192,271990,1,0,0:0:0:0:
448,192,271990,1,0,0:0:0:0:
320,192,272157,1,0,0:0:0:0:
64,192,272323,1,2,0:0:0:0:
192,192,272323,1,0,0:0:0:0:
64,192,272490,1,2,0:0:0:0:
192,192,272490,1,8,0:0:0:0:
448,192,272490,1,0,0:0:0:0:
320,192,272657,1,0,0:0:0:0:
192,192,272740,1,0,0:0:0:0:
64,192,272823,1,8,0:0:0:0:
320,192,272823,1,2,0:0:0:0:
448,192,272823,1,4,0:0:0:0:
192,192,272990,1,0,0:0:0:0:
64,192,273157,1,8,0:0:0:0:
320,192,273157,1,2,0:0:0:0:
448,192,273157,1,0,0:0:0:0:
192,192,273212,1,0,0:0:0:0:
448,192,273268,1,0,0:0:0:0:
320,192,273323,1,0,0:0:0:0:
192,192,273379,1,0,0:0:0:0:
448,192,273407,1,2,0:0:0:0:
64,192,273490,128,0,273601:0:0:0:0:
320,192,273573,1,8,0:0:0:0:
448,192,273657,1,2,0:0:0:0:
192,192,273712,128,0,273823:0:0:0:0:
320,192,273823,1,2,0:0:0:0:
448,192,273823,1,8,0:0:0:0:
64,192,273935,128,0,274046:0:0:0:0:
448,192,273990,1,0,0:0:0:0:
320,192,274073,1,0,0:0:0:0:
64,192,274157,1,2,0:0:0:0:
192,192,274157,1,8,0:0:0:0:
448,192,274157,1,4,0:0:0:0:
320,192,274323,1,0,0:0:0:0:
64,192,274490,1,8,0:0:0:0:
192,192,274490,1,2,0:0:0:0:
448,192,274490,1,0,0:0:0:0:
320,192,274546,1,0,0:0:0:0:
64,192,274601,1,0,0:0:0:0:
192,192,274657,1,0,0:0:0:0:
320,192,274712,1,0,0:0:0:0:
64,192,274740,1,2,0:0:0:0:
448,192,274823,128,0,274935:0:0:0:0:
192,192,274907,1,8,0:0:0:0:
64,192,274990,1,2,0:0:0:0:
320,192,275046,128,0,275157:0:0:0:0:
64,192,275157,1,2,0:0:0:0:
192,192,275157,1,8,0:0:0:0:
448,192,275268,128,0,275379:0:0:0:0:
320,192,275323,1,2,0:0:0:0:
192,192,275323,1,0,0:0:0:0:
64,192,275490,1,2,0:0:0:0:
320,192,275490,1,8,0:0:0:0:
448,192,275490,1,4,0:0:0:0:
192,192,275657,1,2,0:0:0:0:
64,192,275657,1,0,0:0:0:0:
64,192,275823,1,2,0:0:0:0:
320,192,275823,1,8,0:0:0:0:
448,192,275823,1,4,0:0:0:0:
192,192,275990,1,2,0:0:0:0:
320,192,275990,1,0,0:0:0:0:
64,192,276157,1,2,0:0:0:0:
320,192,276157,1,8,0:0:0:0:
448,192,276157,1,4,0:0:0:0:
192,192,276268,1,0,0:0:0:0:
64,192,276323,1,2,0:0:0:0:
448,192,276323,1,0,0:0:0:0:
320,192,276379,1,0,0:0:0:0:
64,192,276490,1,2,0:0:0:0:
192,192,276490,1,8,0:0:0:0:
448,192,276490,1,4,0:0:0:0:
320,192,276601,1,0,0:0:0:0:
64,192,276657,1,2,0:0:0:0:
448,192,276657,1,0,0:0:0:0:
192,192,276712,1,0,0:0:0:0:
64,192,276823,1,2,0:0:0:0:
320,192,276823,1,8,0:0:0:0:
448,192,276823,1,4,0:0:0:0:
192,192,276907,1,2,0:0:0:0:
64,192,276990,1,2,0:0:0:0:
448,192,276990,1,0,0:0:0:0:
320,192,277073,1,2,0:0:0:0:
64,192,277157,1,8,0:0:0:0:
448,192,277157,1,4,0:0:0:0:
192,192,277157,1,2,0:0:0:0:
320,192,277240,1,2,0:0:0:0:
64,192,277323,1,2,0:0:0:0:
192,192,277323,1,0,0:0:0:0:
448,192,277407,1,2,0:0:0:0:
64,192,277490,1,10,0:0:0:0:
320,192,277490,1,4,0:0:0:0:
192,192,277546,1,0,0:0:0:0:
448,192,277601,1,0,0:0:0:0:
320,192,277657,1,2,0:0:0:0:
64,192,277657,1,0,0:0:0:0:
192,192,277712,1,0,0:0:0:0:
448,192,277768,1,0,0:0:0:0:
320,192,277823,1,10,0:0:0:0:
64,192,277823,1,4,0:0:0:0:
192,192,277879,1,0,0:0:0:0:
320,192,277935,1,0,0:0:0:0:
448,192,277990,1,2,0:0:0:0:
64,192,277990,1,0,0:0:0:0:
192,192,278073,1,2,0:0:0:0:
64,192,278157,1,0,0:0:0:0:
320,192,278157,1,4,0:0:0:0:
448,192,278157,1,2,0:0:0:0:
192,192,278323,1,0,0:0:0:0:
448,192,278490,1,0,0:0:0:0:
64,192,278656,1,0,0:0:0:0:
320,192,278656,1,0,0:0:0:0:
192,192,278823,1,0,0:0:0:0:
320,192,278990,1,0,0:0:0:0:
64,192,279156,1,0,0:0:0:0:
192,192,279156,1,0,0:0:0:0:
448,192,279323,1,0,0:0:0:0:
64,192,279490,1,2,0:0:0:0:
320,192,279490,1,0,0:0:0:0:
192,192,279656,1,0,0:0:0:0:
320,192,279823,1,0,0:0:0:0:
192,192,279990,1,0,0:0:0:0:
64,192,280156,1,0,0:0:0:0:
448,192,280156,1,0,0:0:0:0:
320,192,280323,1,0,0:0:0:0:
64,192,280490,1,2,0:0:0:0:
192,192,280490,1,0,0:0:0:0:
320,192,280656,1,0,0:0:0:0:
192,192,280740,1,0,0:0:0:0:
320,192,280823,1,0,0:0:0:0:
64,192,280990,1,0,0:0:0:0:
448,192,280990,1,0,0:0:0:0:
192,192,281156,1,0,0:0:0:0:
320,192,281323,1,0,0:0:0:0:
192,192,281490,1,0,0:0:0:0:
64,192,281490,1,0,0:0:0:0:
448,192,281656,1,0,0:0:0:0:
64,192,281823,1,2,0:0:0:0:
320,192,281823,1,0,0:0:0:0:
192,192,281906,1,0,0:0:0:0:
320,192,281948,1,0,0:0:0:0:
64,192,281990,1,0,0:0:0:0:
192,192,282073,1,0,0:0:0:0:
448,192,282156,1,0,0:0:0:0:
320,192,282323,128,0,282490:0:0:0:0:
64,192,282490,128,0,282601:0:0:0:0:
192,192,282601,128,0,282712:0:0:0:0:
320,192,282712,128,0,282823:0:0:0:0:
64,192,282823,1,2,0:0:0:0:
192,192,282823,1,0,0:0:0:0:
448,192,282823,128,0,283156:0:0:0:0:
64,192,282990,1,0,0:0:0:0:
192,192,283156,1,0,0:0:0:0:
320,192,283323,1,0,0:0:0:0:
64,192,283323,128,0,283656:0:0:0:0:
192,192,283490,1,8,0:0:0:0:
448,192,283490,1,0,0:0:0:0:
448,192,283656,1,0,0:0:0:0:
320,192,283740,1,0,0:0:0:0:
64,192,283823,1,0,0:0:0:0:
192,192,283823,128,0,283990:0:0:0:0:
320,192,283990,1,0,0:0:0:0:
192,192,284073,1,0,0:0:0:0:
64,192,284156,1,2,0:0:0:0:
448,192,284156,128,0,284490:0:0:0:0:
192,192,284323,1,0,0:0:0:0:
320,192,284490,1,0,0:0:0:0:
64,192,284656,1,0,0:0:0:0:
192,192,284740,1,0,0:0:0:0:
64,192,284823,1,0,0:0:0:0:
320,192,284823,128,0,285156:0:0:0:0:
448,192,284990,1,0,0:0:0:0:
192,192,285156,1,0,0:0:0:0:
64,192,285156,128,2,285490:0:0:0:0:
448,192,285323,1,0,0:0:0:0:
192,192,285490,1,0,0:0:0:0:
448,192,285656,1,0,0:0:0:0:
320,192,285712,1,0,0:0:0:0:
192,192,285768,1,0,0:0:0:0:
64,192,285823,1,0,0:0:0:0:
448,192,285823,128,0,286156:0:0:0:0:
320,192,286073,1,0,0:0:0:0:
64,192,286156,1,2,0:0:0:0:
192,192,286156,128,0,286490:0:0:0:0:
320,192,286323,1,0,0:0:0:0:
64,192,286490,1,2,0:0:0:0:
448,192,286490,1,0,0:0:0:0:
192,192,286656,1,0,0:0:0:0:
64,192,286823,1,8,0:0:0:0:
448,192,286823,1,2,0:0:0:0:
320,192,286879,1,0,0:0:0:0:
192,192,286934,1,0,0:0:0:0:
64,192,286990,1,0,0:0:0:0:
320,192,287073,1,0,0:0:0:0:
64,192,287156,1,2,0:0:0:0:
192,192,287156,1,8,0:0:0:0:
448,192,287156,1,4,0:0:0:0:
320,192,287239,1,0,0:0:0:0:
64,192,287322,1,2,0:0:0:0:
192,192,287405,1,0,0:0:0:0:
64,192,287489,1,2,0:0:0:0:
320,192,287489,1,8,0:0:0:0:
448,192,287489,1,0,0:0:0:0:
192,192,287572,1,0,0:0:0:0:
320,192,287655,1,0,0:0:0:0:
448,192,287655,1,0,0:0:0:0:
64,192,287739,1,2,0:0:0:0:
192,192,287739,1,0,0:0:0:0:
320,192,287822,1,0,0:0:0:0:
192,192,287905,1,0,0:0:0:0:
64,192,287989,1,2,0:0:0:0:
448,192,287989,1,0,0:0:0:0:
320,192,288072,1,0,0:0:0:0:
64,192,288155,1,2,0:0:0:0:
192,192,288155,1,8,0:0:0:0:
448,192,288155,1,0,0:0:0:0:
320,192,288239,1,0,0:0:0:0:
64,192,288322,1,0,0:0:0:0:
192,192,288405,1,0,0:0:0:0:
64,192,288489,1,2,0:0:0:0:
320,192,288489,1,0,0:0:0:0:
192,192,288572,1,0,0:0:0:0:
448,192,288655,1,0,0:0:0:0:
320,192,288739,1,0,0:0:0:0:
64,192,288822,1,2,0:0:0:0:
192,192,288822,1,8,0:0:0:0:
448,192,288822,1,0,0:0:0:0:
320,192,288905,1,0,0:0:0:0:
192,192,288989,1,0,0:0:0:0:
320,192,289072,1,2,0:0:0:0:
448,192,289072,1,0,0:0:0:0:
64,192,289155,1,2,0:0:0:0:
192,192,289155,1,8,0:0:0:0:
320,192,289239,1,0,0:0:0:0:
64,192,289322,1,2,0:0:0:0:
448,192,289322,1,0,0:0:0:0:
192,192,289405,1,2,0:0:0:0:
64,192,289489,1,2,0:0:0:0:
320,192,289489,1,8,0:0:0:0:
448,192,289489,1,4,0:0:0:0:
192,192,289572,1,0,0:0:0:0:
448,192,289655,1,0,0:0:0:0:
64,192,289739,1,8,0:0:0:0:
320,192,289739,1,0,0:0:0:0:
192,192,289822,1,0,0:0:0:0:
320,192,289905,1,0,0:0:0:0:
64,192,289989,1,2,0:0:0:0:
192,192,289989,1,0,0:0:0:0:
448,192,290072,1,0,0:0:0:0:
320,192,290155,1,0,0:0:0:0:
64,192,290239,1,8,0:0:0:0:
192,192,290239,1,2,0:0:0:0:
448,192,290322,1,0,0:0:0:0:
320,192,290322,1,2,0:0:0:0:
64,192,290405,1,0,0:0:0:0:
192,192,290489,1,8,0:0:0:0:
320,192,290489,1,0,0:0:0:0:
448,192,290489,1,0,0:0:0:0:
64,192,290572,1,0,0:0:0:0:
320,192,290655,1,2,0:0:0:0:
448,192,290655,1,0,0:0:0:0:
192,192,290739,1,0,0:0:0:0:
64,192,290822,1,2,0:0:0:0:
320,192,290822,1,0,0:0:0:0:
448,192,290905,1,0,0:0:0:0:
64,192,290989,1,2,0:0:0:0:
192,192,290989,1,0,0:0:0:0:
320,192,291072,1,0,0:0:0:0:
64,192,291155,1,2,0:0:0:0:
192,192,291155,1,8,0:0:0:0:
448,192,291155,1,0,0:0:0:0:
320,192,291239,1,0,0:0:0:0:
192,192,291322,1,0,0:0:0:0:
320,192,291405,1,2,0:0:0:0:
64,192,291405,1,0,0:0:0:0:
192,192,291489,128,2,291600:0:0:0:0:
448,192,291489,1,0,0:0:0:0:
320,192,291600,128,0,291711:0:0:0:0:
64,192,291655,1,2,0:0:0:0:
448,192,291711,128,0,291822:0:0:0:0:
192,192,291739,1,2,0:0:0:0:
64,192,291822,1,2,0:0:0:0:
320,192,291822,1,12,0:0:0:0:
192,192,291988,1,0,0:0:0:0:
320,192,292071,1,0,0:0:0:0:
64,192,292155,1,8,0:0:0:0:
192,192,292155,1,0,0:0:0:0:
448,192,292155,1,0,0:0:0:0:
320,192,292321,1,0,0:0:0:0:
64,192,292405,1,2,0:0:0:0:
192,192,292405,1,0,0:0:0:0:
320,192,292488,1,0,0:0:0:0:
192,192,292571,1,0,0:0:0:0:
64,192,292655,1,2,0:0:0:0:
448,192,292655,1,0,0:0:0:0:
320,192,292738,1,0,0:0:0:0:
64,192,292821,1,8,0:0:0:0:
192,192,292821,1,0,0:0:0:0:
448,192,292821,1,0,0:0:0:0:
320,192,292905,1,0,0:0:0:0:
64,192,292988,1,0,0:0:0:0:
192,192,293071,1,0,0:0:0:0:
64,192,293155,1,4,0:0:0:0:
320,192,293155,1,2,0:0:0:0:
448,192,293155,1,0,0:0:0:0:
192,192,293321,1,0,0:0:0:0:
320,192,293405,1,0,0:0:0:0:
64,192,293488,128,2,293571:0:0:0:0:
448,192,293488,1,8,0:0:0:0:
192,192,293488,1,0,0:0:0:0:
320,192,293571,128,0,293655:0:0:0:0:
192,192,293655,128,0,293738:0:0:0:0:
448,192,293738,128,2,293821:0:0:0:0:
320,192,293821,1,8,0:0:0:0:
192,192,293821,1,0,0:0:0:0:
64,192,293821,1,0,0:0:0:0:
448,192,293905,1,0,0:0:0:0:
192,192,293988,1,8,0:0:0:0:
64,192,293988,1,2,0:0:0:0:
448,192,294071,1,8,0:0:0:0:
320,192,294071,1,0,0:0:0:0:
192,192,294155,1,8,0:0:0:0:
64,192,294155,1,0,0:0:0:0:
448,192,294238,1,8,0:0:0:0:
320,192,294238,1,0,0:0:0:0:
192,192,294321,1,8,0:0:0:0:
64,192,294321,1,0,0:0:0:0:
320,192,294405,1,8,0:0:0:0:
64,192,294488,1,2,0:0:0:0:
192,192,294488,1,8,0:0:0:0:
448,192,294488,128,4,297488:0:0:0:0:
64,192,295155,128,0,295321:0:0:0:0:
192,192,295321,128,0,295488:0:0:0:0:
320,192,295488,128,0,295655:0:0:0:0:
64,192,295655,128,0,295821:0:0:0:0:
192,192,295821,128,0,295988:0:0:0:0:
320,192,295988,128,0,296155:0:0:0:0:
192,192,296155,128,0,296321:0:0:0:0:
64,192,296321,128,0,296488:0:0:0:0:
320,192,296488,128,0,296655:0:0:0:0:
192,192,296655,128,0,296821:0:0:0:0:
64,192,296821,128,0,296988:0:0:0:0:
320,192,296988,128,0,297155:0:0:0:0:
192,192,297155,128,0,297321:0:0:0:0:
320,192,297321,128,0,297488:0:0:0:0:
64,192,297488,1,8,0:0:0:0:
192,192,297488,1,0,0:0:0:0:
320,192,297571,1,8,0:0:0:0:
448,192,297571,1,0,0:0:0:0:
64,192,297655,1,8,0:0:0:0:
192,192,297655,1,0,0:0:0:0:
320,192,297738,1,8,0:0:0:0:
64,192,297820,128,4,297986:0:0:0:0:
192,192,297820,1,8,0:0:0:0:
448,192,297820,128,2,297986:0:0:0:0:
64,192,298069,1,8,0:0:0:0:
192,192,298069,1,2,0:0:0:0:
448,192,298069,1,4,0:0:0:0:
64,192,298153,1,8,0:0:0:0:
192,192,298153,1,2,0:0:0:0:
320,192,298319,1,0,0:0:0:0:
448,192,298319,1,0,0:0:0:0:
64,192,298486,1,0,0:0:0:0:
192,192,298486,1,0,0:0:0:0:
320,192,298569,1,8,0:0:0:0:
448,192,298569,1,0,0:0:0:0:
64,192,298653,1,0,0:0:0:0:
192,192,298708,1,0,0:0:0:0:
320,192,298764,1,0,0:0:0:0:
64,192,298819,1,8,0:0:0:0:
448,192,298819,1,0,0:0:0:0:
192,192,298903,1,0,0:0:0:0:
320,192,298986,1,0,0:0:0:0:
192,192,299069,1,0,0:0:0:0:
64,192,299153,1,4,0:0:0:0:
320,192,299153,1,8,0:0:0:0:
448,192,299153,1,2,0:0:0:0:
320,192,299236,1,8,0:0:0:0:
448,192,299236,1,2,0:0:0:0:
64,192,299403,1,4,0:0:0:0:
192,192,299403,1,8,0:0:0:0:
448,192,299403,1,2,0:0:0:0:
64,192,299486,1,8,0:0:0:0:
192,192,299486,1,2,0:0:0:0:
192,192,299653,1,0,0:0:0:0:
448,192,299653,1,0,0:0:0:0:
320,192,299736,1,0,0:0:0:0:
64,192,299819,1,8,0:0:0:0:
192,192,299819,1,0,0:0:0:0:
320,192,299875,1,8,0:0:0:0:
448,192,299875,1,0,0:0:0:0:
64,192,299931,1,8,0:0:0:0:
192,192,299931,1,0,0:0:0:0:
320,192,299986,1,8,0:0:0:0:
448,192,299986,1,0,0:0:0:0:
64,192,300042,1,0,0:0:0:0:
192,192,300097,1,0,0:0:0:0:
64,192,300153,128,4,300319:0:0:0:0:
320,192,300153,1,8,0:0:0:0:
448,192,300153,128,2,300319:0:0:0:0:
64,192,300403,1,4,0:0:0:0:
320,192,300403,1,8,0:0:0:0:
448,192,300403,1,2,0:0:0:0:
320,192,300486,1,8,0:0:0:0:
448,192,300486,1,2,0:0:0:0:
192,192,300653,1,8,0:0:0:0:
320,192,300653,1,0,0:0:0:0:
64,192,300819,1,8,0:0:0:0:
192,192,300819,1,2,0:0:0:0:
448,192,300819,1,0,0:0:0:0:
64,192,300986,1,8,0:0:0:0:
320,192,300986,1,0,0:0:0:0:
192,192,301069,1,8,0:0:0:0:
320,192,301153,1,2,0:0:0:0:
448,192,301153,1,0,0:0:0:0:
64,192,301236,1,2,0:0:0:0:
192,192,301236,1,0,0:0:0:0:
320,192,301319,1,2,0:0:0:0:
448,192,301319,1,0,0:0:0:0:
192,192,301403,1,2,0:0:0:0:
64,192,301486,1,2,0:0:0:0:
320,192,301486,128,4,301653:0:0:0:0:
448,192,301486,128,8,301653:0:0:0:0:
192,192,301653,1,0,0:0:0:0:
64,192,301819,1,2,0:0:0:0:
320,192,301819,1,0,0:0:0:0:
448,192,301903,1,8,0:0:0:0:
192,192,301903,1,0,0:0:0:0:
320,192,301986,1,0,0:0:0:0:
192,192,302069,1,2,0:0:0:0:
64,192,302069,1,0,0:0:0:0:
448,192,302153,1,8,0:0:0:0:
320,192,302153,1,0,0:0:0:0:
192,192,302236,1,0,0:0:0:0:
320,192,302319,1,8,0:0:0:0:
64,192,302319,1,0,0:0:0:0:
64,192,302486,128,4,302652:0:0:0:0:
320,192,302486,1,8,0:0:0:0:
448,192,302486,128,2,302652:0:0:0:0:
64,192,302735,1,2,0:0:0:0:
192,192,302735,1,8,0:0:0:0:
448,192,302735,1,4,0:0:0:0:
192,192,302819,1,8,0:0:0:0:
448,192,302819,1,2,0:0:0:0:
64,192,302985,1,0,0:0:0:0:
320,192,302985,1,0,0:0:0:0:
192,192,303152,1,2,0:0:0:0:
448,192,303152,1,0,0:0:0:0:
320,192,303235,1,8,0:0:0:0:
64,192,303319,1,2,0:0:0:0:
448,192,303319,1,0,0:0:0:0:
192,192,303374,1,0,0:0:0:0:
320,192,303430,1,0,0:0:0:0:
448,192,303485,1,4,0:0:0:0:
64,192,303485,128,2,303652:0:0:0:0:
192,192,303485,128,8,303652:0:0:0:0:
320,192,303652,1,2,0:0:0:0:
64,192,303819,1,8,0:0:0:0:
192,192,303819,1,2,0:0:0:0:
448,192,303819,1,4,0:0:0:0:
192,192,303902,1,8,0:0:0:0:
64,192,303902,1,2,0:0:0:0:
64,192,304069,1,2,0:0:0:0:
320,192,304069,1,4,0:0:0:0:
448,192,304069,1,8,0:0:0:0:
320,192,304152,1,8,0:0:0:0:
448,192,304152,1,2,0:0:0:0:
192,192,304319,1,8,0:0:0:0:
320,192,304319,1,2,0:0:0:0:
448,192,304319,1,4,0:0:0:0:
192,192,304402,1,8,0:0:0:0:
320,192,304402,1,2,0:0:0:0:
64,192,304569,1,2,0:0:0:0:
192,192,304569,1,8,0:0:0:0:
320,192,304569,1,4,0:0:0:0:
192,192,304652,1,2,0:0:0:0:
64,192,304652,1,8,0:0:0:0:
64,192,304819,1,8,0:0:0:0:
320,192,304819,1,2,0:0:0:0:
448,192,304819,1,4,0:0:0:0:
320,192,304902,1,2,0:0:0:0:
448,192,304902,1,8,0:0:0:0:
192,192,304985,1,2,0:0:0:0:
64,192,304985,1,8,0:0:0:0:
64,192,305152,1,4,0:0:0:0:
320,192,305152,1,8,0:0:0:0:
448,192,305152,128,2,305402:0:0:0:0:
64,192,305402,1,10,0:0:0:0:
192,192,305402,128,4,305652:0:0:0:0:
320,192,305485,1,8,0:0:0:0:
448,192,305485,1,0,0:0:0:0:
64,192,305652,1,8,0:0:0:0:
320,192,305652,1,2,0:0:0:0:
448,192,305652,1,4,0:0:0:0:
192,192,305735,1,0,0:0:0:0:
320,192,305819,1,0,0:0:0:0:
64,192,305902,1,8,0:0:0:0:
192,192,305902,1,6,0:0:0:0:
320,192,305985,1,2,0:0:0:0:
448,192,305985,1,8,0:0:0:0:
64,192,306069,1,2,0:0:0:0:
192,192,306152,1,2,0:0:0:0:
320,192,306152,1,8,0:0:0:0:
448,192,306152,1,4,0:0:0:0:
64,192,306235,1,2,0:0:0:0:
320,192,306319,1,2,0:0:0:0:
448,192,306319,1,8,0:0:0:0:
192,192,306402,1,2,0:0:0:0:
64,192,306485,1,6,0:0:0:0:
448,192,306485,1,8,0:0:0:0:
192,192,306569,1,8,0:0:0:0:
320,192,306569,1,2,0:0:0:0:
64,192,306652,1,0,0:0:0:0:
448,192,306735,1,6,0:0:0:0:
320,192,306735,1,8,0:0:0:0:
192,192,306819,1,8,0:0:0:0:
64,192,306819,1,2,0:0:0:0:
320,192,306902,1,0,0:0:0:0:
448,192,306985,1,6,0:0:0:0:
192,192,306985,1,8,0:0:0:0:
320,192,307069,1,8,0:0:0:0:
64,192,307069,1,2,0:0:0:0:
448,192,307152,1,2,0:0:0:0:
192,192,307152,1,0,0:0:0:0:
320,192,307235,1,0,0:0:0:0:
64,192,307319,1,2,0:0:0:0:
192,192,307319,1,0,0:0:0:0:
320,192,307402,1,2,0:0:0:0:
64,192,307485,1,4,0:0:0:0:
192,192,307485,1,8,0:0:0:0:
448,192,307485,1,2,0:0:0:0:
320,192,307569,1,2,0:0:0:0:
64,192,307652,1,8,0:0:0:0:
448,192,307652,1,0,0:0:0:0:
192,192,307735,1,2,0:0:0:0:
320,192,307819,1,8,0:0:0:0:
448,192,307819,1,0,0:0:0:0:
64,192,307819,1,2,0:0:0:0:
64,192,308152,128,0,308319:0:0:0:0:
320,192,308319,128,0,308485:0:0:0:0:
448,192,308485,128,0,308652:0:0:0:0:
192,192,308652,128,0,308819:0:0:0:0:
64,192,308819,128,0,308985:0:0:0:0:
320,192,308985,128,0,309152:0:0:0:0:
448,192,309152,128,0,309319:0:0:0:0:
64,192,309319,128,0,309485:0:0:0:0:
192,192,309485,128,0,309652:0:0:0:0:
320,192,309652,128,0,309819:0:0:0:0:
64,192,309819,128,0,309985:0:0:0:0:
448,192,309985,128,0,310152:0:0:0:0:
320,192,310152,128,0,310319:0:0:0:0:
192,192,310319,128,0,310485:0:0:0:0:
64,192,310485,1,0,0:0:0:0:
448,192,310485,1,0,0:0:0:0:
320,192,310569,1,0,0:0:0:0:
192,192,310652,1,0,0:0:0:0:
320,192,310735,1,0,0:0:0:0:
64,192,310819,1,2,0:0:0:0:
448,192,310819,1,0,0:0:0:0:
192,192,310902,1,0,0:0:0:0:
320,192,310985,1,0,0:0:0:0:
192,192,311069,1,0,0:0:0:0:
448,192,311152,1,0,0:0:0:0:
320,192,311235,1,0,0:0:0:0:
192,192,311319,1,0,0:0:0:0:
320,192,311402,1,0,0:0:0:0:
64,192,311485,1,0,0:0:0:0:
192,192,311597,1,0,0:0:0:0:
320,192,311708,1,0,0:0:0:0:
448,192,311819,128,0,312485:0:0:0:0:
64,192,312152,1,2,0:0:0:0:
320,192,312152,128,0,312485:0:0:0:0:
64,192,312485,1,0,0:0:0:0:
448,192,312652,1,0,0:0:0:0:
320,192,312708,1,0,0:0:0:0:
192,192,312763,1,0,0:0:0:0:
64,192,312819,1,0,0:0:0:0:
320,192,312985,1,0,0:0:0:0:
64,192,313152,1,4,0:0:0:0:
192,192,313152,1,8,0:0:0:0:
448,192,313152,1,2,0:0:0:0:
320,192,313319,1,0,0:0:0:0:
64,192,313402,1,2,0:0:0:0:
192,192,313402,1,0,0:0:0:0:
448,192,313485,1,8,0:0:0:0:
320,192,313485,128,0,313652:0:0:0:0:
64,192,313652,1,2,0:0:0:0:
192,192,313652,1,0,0:0:0:0:
64,192,313819,1,2,0:0:0:0:
448,192,313819,128,0,313985:0:0:0:0:
320,192,313819,1,0,0:0:0:0:
192,192,313902,1,0,0:0:0:0:
320,192,313985,1,0,0:0:0:0:
192,192,314069,1,2,0:0:0:0:
64,192,314069,128,0,314235:0:0:0:0:
448,192,314069,1,0,0:0:0:0:
320,192,314152,1,0,0:0:0:0:
64,192,314319,1,8,0:0:0:0:
192,192,314319,1,4,0:0:0:0:
448,192,314319,128,2,314652:0:0:0:0:
192,192,314485,1,0,0:0:0:0:
64,192,314652,1,2,0:0:0:0:
320,192,314652,1,0,0:0:0:0:
64,192,314819,1,2,0:0:0:0:
192,192,314819,1,8,0:0:0:0:
448,192,314819,1,0,0:0:0:0:
320,192,314902,1,0,0:0:0:0:
192,192,314985,1,0,0:0:0:0:
64,192,315069,128,2,315319:0:0:0:0:
448,192,315069,1,0,0:0:0:0:
320,192,315152,1,0,0:0:0:0:
448,192,315235,1,8,0:0:0:0:
192,192,315235,1,0,0:0:0:0:
320,192,315319,1,0,0:0:0:0:
192,192,315402,1,2,0:0:0:0:
64,192,315402,1,0,0:0:0:0:
448,192,315485,1,8,0:0:0:0:
320,192,315485,1,0,0:0:0:0:
192,192,315569,1,0,0:0:0:0:
64,192,315652,1,2,0:0:0:0:
448,192,315652,1,0,0:0:0:0:
320,192,315735,1,0,0:0:0:0:
192,192,315819,1,8,0:0:0:0:
448,192,315819,1,4,0:0:0:0:
64,192,315819,128,2,315985:0:0:0:0:
320,192,315985,1,0,0:0:0:0:
448,192,315985,128,0,316152:0:0:0:0:
192,192,316152,1,2,0:0:0:0:
64,192,316152,128,8,316319:0:0:0:0:
192,192,316319,1,2,0:0:0:0:
320,192,316319,128,8,316652:0:0:0:0:
448,192,316319,1,4,0:0:0:0:
64,192,316569,1,2,0:0:0:0:
192,192,316652,1,8,0:0:0:0:
448,192,316652,128,2,316819:0:0:0:0:
320,192,316819,1,2,0:0:0:0:
64,192,316819,128,8,316985:0:0:0:0:
192,192,316985,1,8,0:0:0:0:
320,192,316985,1,2,0:0:0:0:
448,192,316985,128,4,317319:0:0:0:0:
64,192,317235,1,2,0:0:0:0:
192,192,317319,128,8,317485:0:0:0:0:
320,192,317319,1,2,0:0:0:0:
64,192,317485,128,2,317819:0:0:0:0:
320,192,317485,1,8,0:0:0:0:
448,192,317485,1,0,0:0:0:0:
320,192,317735,1,8,0:0:0:0:
192,192,317819,1,2,0:0:0:0:
448,192,317819,1,0,0:0:0:0:
192,192,317985,1,2,0:0:0:0:
448,192,317985,128,0,318152:0:0:0:0:
64,192,318152,1,2,0:0:0:0:
320,192,318152,128,8,318319:0:0:0:0:
64,192,318319,1,2,0:0:0:0:
448,192,318319,1,8,0:0:0:0:
192,192,318402,1,8,0:0:0:0:
64,192,318485,1,2,0:0:0:0:
320,192,318485,1,8,0:0:0:0:
448,192,318485,1,4,0:0:0:0:
320,192,318652,1,0,0:0:0:0:
64,192,318735,1,2,0:0:0:0:
192,192,318735,1,0,0:0:0:0:
320,192,318819,1,2,0:0:0:0:
448,192,318819,128,8,318985:0:0:0:0:
192,192,318985,128,2,319152:0:0:0:0:
64,192,318985,1,0,0:0:0:0:
320,192,319152,1,2,0:0:0:0:
448,192,319152,1,0,0:0:0:0:
64,192,319235,1,0,0:0:0:0:
320,192,319319,1,0,0:0:0:0:
64,192,319402,1,2,0:0:0:0:
192,192,319402,1,0,0:0:0:0:
448,192,319485,1,0,0:0:0:0:
192,192,319569,1,0,0:0:0:0:
64,192,319652,1,8,0:0:0:0:
320,192,319652,1,2,0:0:0:0:
448,192,319652,128,4,320152:0:0:0:0:
192,192,319819,1,0,0:0:0:0:
64,192,319985,1,2,0:0:0:0:
320,192,319985,1,0,0:0:0:0:
192,192,320152,1,2,0:0:0:0:
64,192,320152,1,8,0:0:0:0:
64,192,320319,1,2,0:0:0:0:
320,192,320319,1,8,0:0:0:0:
448,192,320319,128,4,320652:0:0:0:0:
192,192,320402,1,2,0:0:0:0:
64,192,320569,1,8,0:0:0:0:
192,192,320652,1,2,0:0:0:0:
320,192,320652,128,0,320819:0:0:0:0:
64,192,320735,1,2,0:0:0:0:
192,192,320819,128,2,320985:0:0:0:0:
448,192,320819,1,8,0:0:0:0:
64,192,320985,1,2,0:0:0:0:
320,192,320985,128,0,321152:0:0:0:0:
64,192,321152,1,2,0:0:0:0:
192,192,321152,1,8,0:0:0:0:
448,192,321152,128,4,321652:0:0:0:0:
320,192,321235,1,0,0:0:0:0:
64,192,321485,1,8,0:0:0:0:
320,192,321485,1,2,0:0:0:0:
64,192,321652,128,2,321985:0:0:0:0:
192,192,321652,1,0,0:0:0:0:
320,192,321735,1,8,0:0:0:0:
448,192,321819,1,0,0:0:0:0:
192,192,321902,1,8,0:0:0:0:
320,192,321985,1,2,0:0:0:0:
448,192,321985,128,0,322152:0:0:0:0:
64,192,322152,1,2,0:0:0:0:
192,192,322152,128,8,322319:0:0:0:0:
64,192,322319,128,2,322485:0:0:0:0:
320,192,322319,1,8,0:0:0:0:
448,192,322319,1,4,0:0:0:0:
192,192,322569,1,8,0:0:0:0:
64,192,322652,1,2,0:0:0:0:
320,192,322652,128,8,322819:0:0:0:0:
448,192,322652,1,4,0:0:0:0:
192,192,322819,1,8,0:0:0:0:
64,192,322902,1,8,0:0:0:0:
320,192,322902,1,2,0:0:0:0:
448,192,322902,128,4,323069:0:0:0:0:
192,192,322985,1,0,0:0:0:0:
320,192,323069,1,8,0:0:0:0:
64,192,323152,1,2,0:0:0:0:
192,192,323152,1,8,0:0:0:0:
448,192,323152,1,4,0:0:0:0:
64,192,323235,1,8,0:0:0:0:
192,192,323235,1,0,0:0:0:0:
64,192,323402,1,8,0:0:0:0:
320,192,323402,1,2,0:0:0:0:
448,192,323402,1,4,0:0:0:0:
320,192,323485,1,8,0:0:0:0:
448,192,323485,1,2,0:0:0:0:
64,192,323652,1,2,0:0:0:0:
192,192,323652,1,8,0:0:0:0:
448,192,323652,1,4,0:0:0:0:
320,192,323735,1,0,0:0:0:0:
64,192,323819,1,4,0:0:0:0:
192,192,323819,1,8,0:0:0:0:
448,192,323819,128,2,324319:0:0:0:0:
64,192,324069,1,2,0:0:0:0:
192,192,324152,1,8,0:0:0:0:
320,192,324152,1,0,0:0:0:0:
64,192,324319,128,2,324735:0:0:0:0:
192,192,324319,1,0,0:0:0:0:
320,192,324485,1,2,0:0:0:0:
448,192,324485,1,0,0:0:0:0:
192,192,324569,1,0,0:0:0:0:
320,192,324735,1,2,0:0:0:0:
448,192,324735,1,0,0:0:0:0:
64,192,324819,1,0,0:0:0:0:
192,192,324819,1,0,0:0:0:0:
64,192,324985,1,8,0:0:0:0:
320,192,324985,1,4,0:0:0:0:
448,192,324985,128,2,325319:0:0:0:0:
192,192,325152,1,0,0:0:0:0:
64,192,325319,1,2,0:0:0:0:
192,192,325319,1,0,0:0:0:0:
64,192,325485,1,2,0:0:0:0:
320,192,325485,1,8,0:0:0:0:
448,192,325485,1,0,0:0:0:0:
192,192,325569,1,0,0:0:0:0:
320,192,325652,1,0,0:0:0:0:
448,192,325652,1,0,0:0:0:0:
64,192,325735,1,2,0:0:0:0:
192,192,325735,128,0,325985:0:0:0:0:
448,192,325819,1,0,0:0:0:0:
320,192,325902,1,8,0:0:0:0:
64,192,325985,128,0,326152:0:0:0:0:
448,192,325985,1,0,0:0:0:0:
192,192,326069,1,2,0:0:0:0:
320,192,326152,1,8,0:0:0:0:
448,192,326152,1,0,0:0:0:0:
192,192,326235,1,0,0:0:0:0:
64,192,326319,1,2,0:0:0:0:
448,192,326319,1,0,0:0:0:0:
320,192,326402,1,0,0:0:0:0:
64,192,326485,1,2,0:0:0:0:
192,192,326485,128,8,326652:0:0:0:0:
448,192,326485,1,4,0:0:0:0:
320,192,326652,1,0,0:0:0:0:
448,192,326652,128,0,326819:0:0:0:0:
64,192,326819,1,2,0:0:0:0:
192,192,326819,128,8,326985:0:0:0:0:
64,192,326985,128,2,327319:0:0:0:0:
320,192,326985,1,8,0:0:0:0:
448,192,326985,1,4,0:0:0:0:
192,192,327069,1,0,0:0:0:0:
448,192,327235,1,2,0:0:0:0:
320,192,327319,128,8,327485:0:0:0:0:
192,192,327319,1,2,0:0:0:0:
448,192,327485,1,2,0:0:0:0:
64,192,327485,128,8,327652:0:0:0:0:
192,192,327652,1,8,0:0:0:0:
320,192,327652,1,2,0:0:0:0:
448,192,327652,128,4,327985:0:0:0:0:
192,192,327819,1,0,0:0:0:0:
64,192,327902,1,2,0:0:0:0:
192,192,327985,128,8,328152:0:0:0:0:
320,192,327985,1,2,0:0:0:0:
64,192,328152,128,0,328485:0:0:0:0:
448,192,328152,1,2,0:0:0:0:
320,192,328235,1,8,0:0:0:0:
192,192,328402,1,8,0:0:0:0:
320,192,328485,1,2,0:0:0:0:
448,192,328485,1,0,0:0:0:0:
64,192,328652,128,2,328819:0:0:0:0:
192,192,328652,1,0,0:0:0:0:
320,192,328819,128,2,328985:0:0:0:0:
448,192,328819,1,8,0:0:0:0:
64,192,328985,1,2,0:0:0:0:
192,192,328985,1,8,0:0:0:0:
320,192,329069,1,0,0:0:0:0:
64,192,329152,1,2,0:0:0:0:
192,192,329152,1,8,0:0:0:0:
448,192,329152,1,4,0:0:0:0:
192,192,329319,1,2,0:0:0:0:
448,192,329319,128,0,329485:0:0:0:0:
64,192,329485,1,2,0:0:0:0:
320,192,329485,128,8,329652:0:0:0:0:
64,192,329652,128,2,329819:0:0:0:0:
448,192,329652,1,0,0:0:0:0:
320,192,329819,1,2,0:0:0:0:
448,192,329819,1,8,0:0:0:0:
64,192,329902,1,8,0:0:0:0:
192,192,329902,1,2,0:0:0:0:
320,192,329985,1,8,0:0:0:0:
448,192,329985,1,2,0:0:0:0:
64,192,330069,1,2,0:0:0:0:
192,192,330152,1,2,0:0:0:0:
448,192,330152,1,0,0:0:0:0:
320,192,330235,1,2,0:0:0:0:
64,192,330319,1,8,0:0:0:0:
192,192,330319,1,2,0:0:0:0:
448,192,330319,128,4,330819:0:0:0:0:
192,192,330485,1,0,0:0:0:0:
64,192,330652,1,2,0:0:0:0:
320,192,330652,1,0,0:0:0:0:
192,192,330819,1,2,0:0:0:0:
320,192,330819,1,8,0:0:0:0:
64,192,330985,1,2,0:0:0:0:
192,192,330985,1,8,0:0:0:0:
448,192,330985,128,4,331319:0:0:0:0:
64,192,331152,1,2,0:0:0:0:
320,192,331152,1,0,0:0:0:0:
192,192,331235,1,2,0:0:0:0:
64,192,331319,1,2,0:0:0:0:
320,192,331319,128,0,331485:0:0:0:0:
64,192,331485,128,2,331652:0:0:0:0:
448,192,331485,1,8,0:0:0:0:
448,192,331652,1,2,0:0:0:0:
192,192,331652,1,0,0:0:0:0:
320,192,331735,1,2,0:0:0:0:
64,192,331819,1,2,0:0:0:0:
192,192,331819,1,8,0:0:0:0:
448,192,331819,128,4,332319:0:0:0:0:
320,192,331902,1,2,0:0:0:0:
64,192,331985,1,2,0:0:0:0:
192,192,331985,1,0,0:0:0:0:
320,192,332152,1,8,0:0:0:0:
64,192,332152,1,2,0:0:0:0:
192,192,332319,128,2,332652:0:0:0:0:
320,192,332319,1,0,0:0:0:0:
64,192,332402,1,8,0:0:0:0:
448,192,332485,1,2,0:0:0:0:
320,192,332485,1,0,0:0:0:0:
64,192,332569,1,2,0:0:0:0:
448,192,332652,1,2,0:0:0:0:
320,192,332652,1,0,0:0:0:0:
192,192,332735,1,2,0:0:0:0:
64,192,332819,1,2,0:0:0:0:
448,192,332819,1,0,0:0:0:0:
320,192,332902,1,2,0:0:0:0:
64,192,332985,1,2,0:0:0:0:
192,192,332985,1,8,0:0:0:0:
448,192,332985,1,4,0:0:0:0:
448,192,333319,128,0,335152:0:0:0:0:
64,192,333652,1,0,0:0:0:0:
320,192,333819,1,0,0:0:0:0:
64,192,333902,1,0,0:0:0:0:
192,192,333985,1,0,0:0:0:0:
320,192,334069,1,0,0:0:0:0:
64,192,334152,1,0,0:0:0:0:
320,192,334235,1,0,0:0:0:0:
192,192,334319,1,0,0:0:0:0:
64,192,334402,1,0,0:0:0:0:
320,192,334485,1,0,0:0:0:0:
64,192,334569,1,0,0:0:0:0:
320,192,334652,1,0,0:0:0:0:
192,192,334735,1,0,0:0:0:0:
64,192,334819,1,0,0:0:0:0:
320,192,334902,1,0,0:0:0:0:
64,192,334985,1,0,0:0:0:0:
192,192,335069,1,0,0:0:0:0:
64,192,335152,1,2,0:0:0:0:
320,192,335152,1,0,0:0:0:0:
192,192,335319,1,0,0:0:0:0:
448,192,335319,1,0,0:0:0:0:
320,192,335430,1,0,0:0:0:0:
64,192,335541,1,0,0:0:0:0:
192,192,335597,1,0,0:0:0:0:
320,192,335652,1,0,0:0:0:0:
64,192,335708,1,0,0:0:0:0:
192,192,335763,1,0,0:0:0:0:
64,192,335819,1,4,0:0:0:0:
320,192,335819,1,2,0:0:0:0:
448,192,335819,1,8,0:0:0:0:
320,192,335902,1,8,0:0:0:0:
448,192,335902,1,0,0:0:0:0:
64,192,336068,1,2,0:0:0:0:
192,192,336068,1,0,0:0:0:0:
448,192,336068,1,0,0:0:0:0:
64,192,336152,1,8,0:0:0:0:
192,192,336152,1,0,0:0:0:0:
64,192,336318,1,2,0:0:0:0:
448,192,336318,1,8,0:0:0:0:
320,192,336318,1,0,0:0:0:0:
192,192,336485,1,0,0:0:0:0:
448,192,336485,1,0,0:0:0:0:
320,192,336568,1,8,0:0:0:0:
64,192,336652,1,2,0:0:0:0:
192,192,336652,1,0,0:0:0:0:
320,192,336735,1,8,0:0:0:0:
448,192,336735,1,0,0:0:0:0:
64,192,336818,1,2,0:0:0:0:
192,192,336818,1,0,0:0:0:0:
448,192,336902,1,0,0:0:0:0:
320,192,336985,1,0,0:0:0:0:
64,192,337068,1,2,0:0:0:0:
192,192,337068,1,0,0:0:0:0:
320,192,337152,1,0,0:0:0:0:
448,192,337152,1,0,0:0:0:0:
64,192,337318,1,8,0:0:0:0:
192,192,337318,1,0,0:0:0:0:
320,192,337402,1,8,0:0:0:0:
64,192,337485,1,8,0:0:0:0:
192,192,337485,1,0,0:0:0:0:
448,192,337485,1,0,0:0:0:0:
64,192,337652,1,2,0:0:0:0:
320,192,337652,1,0,0:0:0:0:
192,192,337735,1,2,0:0:0:0:
64,192,337818,1,8,0:0:0:0:
320,192,337818,1,2,0:0:0:0:
448,192,337818,1,4,0:0:0:0:
192,192,337985,1,0,0:0:0:0:
320,192,338068,1,2,0:0:0:0:
448,192,338068,1,0,0:0:0:0:
64,192,338152,1,8,0:0:0:0:
320,192,338152,1,0,0:0:0:0:
448,192,338152,1,0,0:0:0:0:
64,192,338318,1,2,0:0:0:0:
192,192,338318,1,0,0:0:0:0:
320,192,338402,1,8,0:0:0:0:
448,192,338402,1,0,0:0:0:0:
192,192,338485,1,0,0:0:0:0:
64,192,338568,1,2,0:0:0:0:
320,192,338568,1,0,0:0:0:0:
192,192,338652,1,8,0:0:0:0:
448,192,338652,1,0,0:0:0:0:
320,192,338735,1,0,0:0:0:0:
64,192,338818,1,2,0:0:0:0:
192,192,338818,1,0,0:0:0:0:
448,192,338818,1,0,0:0:0:0:
64,192,338985,1,8,0:0:0:0:
192,192,338985,1,0,0:0:0:0:
320,192,339068,1,2,0:0:0:0:
448,192,339068,1,0,0:0:0:0:
192,192,339152,1,0,0:0:0:0:
320,192,339235,1,0,0:0:0:0:
64,192,339318,1,8,0:0:0:0:
192,192,339318,1,0,0:0:0:0:
448,192,339318,1,0,0:0:0:0:
448,192,339485,1,2,0:0:0:0:
320,192,339485,1,0,0:0:0:0:
64,192,339568,1,0,0:0:0:0:
192,192,339652,1,8,0:0:0:0:
448,192,339652,1,0,0:0:0:0:
320,192,339735,1,8,0:0:0:0:
64,192,339818,1,2,0:0:0:0:
192,192,339818,1,4,0:0:0:0:
448,192,339818,1,8,0:0:0:0:
320,192,339902,1,8,0:0:0:0:
192,192,339930,1,0,0:0:0:0:
448,192,340041,1,0,0:0:0:0:
64,192,340068,1,2,0:0:0:0:
320,192,340068,1,0,0:0:0:0:
192,192,340152,1,8,0:0:0:0:
320,192,340263,1,0,0:0:0:0:
64,192,340318,1,2,0:0:0:0:
448,192,340318,1,8,0:0:0:0:
192,192,340374,1,0,0:0:0:0:
320,192,340485,1,8,0:0:0:0:
64,192,340596,1,0,0:0:0:0:
192,192,340652,1,2,0:0:0:0:
448,192,340652,1,0,0:0:0:0:
320,192,340707,1,0,0:0:0:0:
64,192,340735,1,8,0:0:0:0:
192,192,340818,1,2,0:0:0:0:
448,192,340818,1,0,0:0:0:0:
320,192,340930,1,0,0:0:0:0:
448,192,341041,1,0,0:0:0:0:
64,192,341068,1,2,0:0:0:0:
192,192,341068,1,0,0:0:0:0:
320,192,341152,1,0,0:0:0:0:
448,192,341152,1,0,0:0:0:0:
64,192,341318,1,8,0:0:0:0:
192,192,341318,1,0,0:0:0:0:
320,192,341402,1,8,0:0:0:0:
448,192,341402,1,0,0:0:0:0:
64,192,341485,1,8,0:0:0:0:
192,192,341485,1,0,0:0:0:0:
320,192,341568,1,0,0:0:0:0:
64,192,341652,1,2,0:0:0:0:
448,192,341652,1,0,0:0:0:0:
192,192,341735,1,2,0:0:0:0:
64,192,341818,1,8,0:0:0:0:
320,192,341818,1,2,0:0:0:0:
448,192,341818,1,4,0:0:0:0:
320,192,341985,1,0,0:0:0:0:
64,192,342068,1,2,0:0:0:0:
192,192,342068,1,0,0:0:0:0:
320,192,342152,1,8,0:0:0:0:
448,192,342152,1,0,0:0:0:0:
192,192,342235,1,0,0:0:0:0:
64,192,342318,1,2,0:0:0:0:
320,192,342318,1,0,0:0:0:0:
192,192,342402,1,8,0:0:0:0:
448,192,342402,1,0,0:0:0:0:
320,192,342485,1,0,0:0:0:0:
64,192,342568,1,2,0:0:0:0:
192,192,342568,1,0,0:0:0:0:
320,192,342652,1,8,0:0:0:0:
448,192,342652,1,0,0:0:0:0:
192,192,342735,1,0,0:0:0:0:
64,192,342818,1,2,0:0:0:0:
320,192,342818,1,0,0:0:0:0:
448,192,342818,1,0,0:0:0:0:
192,192,342902,1,0,0:0:0:0:
64,192,342985,1,8,0:0:0:0:
448,192,342985,1,0,0:0:0:0:
192,192,343068,1,2,0:0:0:0:
320,192,343068,1,0,0:0:0:0:
64,192,343152,1,0,0:0:0:0:
320,192,343235,1,0,0:0:0:0:
64,192,343318,1,8,0:0:0:0:
192,192,343318,1,0,0:0:0:0:
448,192,343318,1,0,0:0:0:0:
320,192,343402,1,0,0:0:0:0:
192,192,343485,1,2,0:0:0:0:
448,192,343485,1,0,0:0:0:0:
320,192,343568,1,0,0:0:0:0:
64,192,343652,1,8,0:0:0:0:
192,192,343652,1,0,0:0:0:0:
320,192,343735,1,8,0:0:0:0:
64,192,343818,1,2,0:0:0:0:
192,192,343818,1,4,0:0:0:0:
448,192,343818,1,0,0:0:0:0:
64,192,344152,128,0,344318:0:0:0:0:
192,192,344318,128,0,344485:0:0:0:0:
448,192,344485,128,0,344652:0:0:0:0:
320,192,344652,128,0,344818:0:0:0:0:
64,192,344818,128,0,344985:0:0:0:0:
192,192,344985,128,0,345152:0:0:0:0:
320,192,345152,128,0,345263:0:0:0:0:
448,192,345263,128,0,345374:0:0:0:0:
320,192,345374,128,0,345485:0:0:0:0:
192,192,345485,128,0,345652:0:0:0:0:
64,192,345652,128,0,345818:0:0:0:0:
320,192,345818,1,2,0:0:0:0:
448,192,345818,1,4,0:0:0:0:
192,192,345901,1,2,0:0:0:0:
64,192,345901,1,0,0:0:0:0:
320,192,345984,1,2,0:0:0:0:
448,192,345984,1,0,0:0:0:0:
192,192,346067,1,2,0:0:0:0:
64,192,346067,1,0,0:0:0:0:
320,192,346151,1,2,0:0:0:0:
448,192,346151,1,0,0:0:0:0:
192,192,346234,1,2,0:0:0:0:
64,192,346234,1,0,0:0:0:0:
320,192,346317,1,2,0:0:0:0:
448,192,346317,1,0,0:0:0:0:
64,192,346401,1,0,0:0:0:0:
192,192,346401,1,2,0:0:0:0:
320,192,346484,1,2,0:0:0:0:
448,192,346484,1,0,0:0:0:0:
192,192,346567,1,2,0:0:0:0:
64,192,346567,1,0,0:0:0:0:
448,192,346651,1,0,0:0:0:0:
320,192,346651,1,2,0:0:0:0:
192,192,346734,1,2,0:0:0:0:
64,192,346817,1,2,0:0:0:0:
448,192,346817,1,4,0:0:0:0:
192,192,346901,1,0,0:0:0:0:
320,192,346901,1,2,0:0:0:0:
64,192,346984,1,2,0:0:0:0:
448,192,346984,1,0,0:0:0:0:
192,192,347067,1,0,0:0:0:0:
320,192,347067,1,2,0:0:0:0:
448,192,347151,1,0,0:0:0:0:
64,192,347151,1,2,0:0:0:0:
192,192,347234,1,0,0:0:0:0:
320,192,347234,1,2,0:0:0:0:
64,192,347317,1,2,0:0:0:0:
448,192,347317,1,0,0:0:0:0:
192,192,347401,1,0,0:0:0:0:
320,192,347401,1,2,0:0:0:0:
64,192,347484,1,2,0:0:0:0:
448,192,347484,1,0,0:0:0:0:
192,192,347567,1,0,0:0:0:0:
320,192,347567,1,2,0:0:0:0:
64,192,347651,1,2,0:0:0:0:
448,192,347651,1,0,0:0:0:0:
320,192,347734,1,2,0:0:0:0:
192,192,347817,1,2,0:0:0:0:
64,192,347817,1,4,0:0:0:0:
320,192,347901,1,2,0:0:0:0:
448,192,347901,1,0,0:0:0:0:
192,192,347984,1,2,0:0:0:0:
64,192,347984,1,0,0:0:0:0:
320,192,348067,1,2,0:0:0:0:
448,192,348067,1,0,0:0:0:0:
192,192,348151,1,2,0:0:0:0:
64,192,348151,1,0,0:0:0:0:
320,192,348234,1,2,0:0:0:0:
448,192,348234,1,0,0:0:0:0:
64,192,348317,1,0,0:0:0:0:
192,192,348317,1,2,0:0:0:0:
448,192,348401,1,0,0:0:0:0:
320,192,348401,1,2,0:0:0:0:
192,192,348484,1,2,0:0:0:0:
64,192,348484,1,0,0:0:0:0:
320,192,348567,1,2,0:0:0:0:
448,192,348567,1,0,0:0:0:0:
192,192,348651,1,2,0:0:0:0:
64,192,348651,1,0,0:0:0:0:
320,192,348734,1,2,0:0:0:0:
64,192,348817,1,0,0:0:0:0:
192,192,348817,1,2,0:0:0:0:
448,192,348817,1,4,0:0:0:0:
320,192,348984,1,0,0:0:0:0:
192,192,349067,1,0,0:0:0:0:
64,192,349151,1,0,0:0:0:0:
192,192,349234,1,0,0:0:0:0:
448,192,349317,1,0,0:0:0:0:
320,192,349401,1,0,0:0:0:0:
192,192,349484,1,0,0:0:0:0:
64,192,349567,1,0,0:0:0:0:
192,192,349734,1,0,0:0:0:0:
320,192,349817,1,0,0:0:0:0:
448,192,349901,1,0,0:0:0:0:
320,192,349984,1,0,0:0:0:0:
192,192,350067,1,0,0:0:0:0:
64,192,350151,1,0,0:0:0:0:
64,192,350502,1,2,0:0:0:0:
320,192,350502,1,4,0:0:0:0:
448,192,350502,128,0,355885:0:0:0:0:
192,192,351168,1,0,0:0:0:0:
64,192,351835,1,0,0:0:0:0:
320,192,352835,1,0,0:0:0:0:
64,192,355885,1,0,0:0:0:0:
192,192,356185,1,0,0:0:0:0:
320,192,356498,1,0,0:0:0:0:
448,192,356498,1,0,0:0:0:0:
192,192,356948,1,0,0:0:0:0:
320,192,357448,1,0,0:0:0:0:
192,192,357948,1,0,0:0:0:0:
320,192,358298,1,0,0:0:0:0:
64,192,358898,1,0,0:0:0:0:
448,192,360698,1,0,0:0:0:0:
320,192,360998,1,0,0:0:0:0:
64,192,361298,1,0,0:0:0:0:
192,192,361298,1,0,0:0:0:0:
448,192,361335,1,0,0:0:0:0:
320,192,361748,1,0,0:0:0:0:
448,192,362198,1,0,0:0:0:0:
192,192,362798,1,0,0:0:0:0:
320,192,363098,1,0,0:0:0:0:
64,192,363698,1,0,0:0:0:0:
64,192,364898,1,0,0:0:0:0:
448,192,364898,1,0,0:0:0:0:
320,192,364935,1,0,0:0:0:0:
192,192,365198,1,0,0:0:0:0:
320,192,365498,1,0,0:0:0:0:
64,192,365798,1,0,0:0:0:0:
320,192,366098,1,0,0:0:0:0:
448,192,366098,1,0,0:0:0:0:
192,192,366548,1,0,0:0:0:0:
448,192,366998,1,0,0:0:0:0:
64,192,367598,1,0,0:0:0:0:
320,192,367879,1,0,0:0:0:0:
192,192,368185,1,0,0:0:0:0:
64,192,368498,1,0,0:0:0:0:
448,192,368498,1,0,0:0:0:0:
192,192,368548,1,0,0:0:0:0:
448,192,368798,1,0,0:0:0:0:
192,192,368948,1,0,0:0:0:0:
320,192,369098,1,0,0:0:0:0:
192,192,369398,1,0,0:0:0:0:
64,192,369698,1,0,0:0:0:0:
448,192,369698,1,0,0:0:0:0:
192,192,370148,1,0,0:0:0:0:
64,192,370298,1,0,0:0:0:0:
320,192,370598,1,0,0:0:0:0:
64,192,370898,1,0,0:0:0:0:
448,192,370898,1,0,0:0:0:0:
320,192,370948,1,0,0:0:0:0:
192,192,372023,1,0,0:0:0:0:
64,192,372098,128,0,376298:0:0:0:0:
448,192,372098,1,0,0:0:0:0:
320,192,372898,1,0,0:0:0:0:
448,192,372998,1,0,0:0:0:0:
320,192,376298,1,0,0:0:0:0:
448,192,376298,1,0,0:0:0:0:
192,192,376448,1,0,0:0:0:0:
320,192,376523,1,0,0:0:0:0:
192,192,376598,1,0,0:0:0:0:
320,192,376673,1,0,0:0:0:0:
192,192,376748,128,0,376898:0:0:0:0:
64,192,376898,1,4,0:0:0:0:
320,192,376898,1,2,0:0:0:0:
448,192,376898,1,8,0:0:0:0:
192,192,377048,1,0,0:0:0:0:
320,192,377123,1,0,0:0:0:0:
64,192,377198,1,8,0:0:0:0:
192,192,377198,1,2,0:0:0:0:
448,192,377198,1,0,0:0:0:0:
64,192,377348,1,2,0:0:0:0:
320,192,377348,1,0,0:0:0:0:
320,192,377498,1,0,0:0:0:0:
64,192,377573,1,8,0:0:0:0:
192,192,377573,1,0,0:0:0:0:
448,192,377648,1,8,0:0:0:0:
320,192,377648,1,0,0:0:0:0:
192,192,377723,1,0,0:0:0:0:
64,192,377798,1,8,0:0:0:0:
320,192,377798,1,2,0:0:0:0:
448,192,377798,1,0,0:0:0:0:
192,192,377948,1,0,0:0:0:0:
320,192,378023,1,0,0:0:0:0:
64,192,378098,1,2,0:0:0:0:
192,192,378098,1,4,0:0:0:0:
448,192,378098,1,0,0:0:0:0:
320,192,378248,1,0,0:0:0:0:
64,192,378398,1,8,0:0:0:0:
192,192,378398,1,2,0:0:0:0:
448,192,378398,1,0,0:0:0:0:
64,192,378548,1,2,0:0:0:0:
320,192,378548,1,0,0:0:0:0:
192,192,378623,1,0,0:0:0:0:
320,192,378698,1,0,0:0:0:0:
448,192,378698,1,0,0:0:0:0:
64,192,378773,1,8,0:0:0:0:
192,192,378773,1,0,0:0:0:0:
320,192,378848,1,8,0:0:0:0:
448,192,378848,1,0,0:0:0:0:
64,192,378998,1,2,0:0:0:0:
192,192,378998,1,8,0:0:0:0:
448,192,378998,1,0,0:0:0:0:
320,192,379073,1,0,0:0:0:0:
64,192,379148,1,2,0:0:0:0:
192,192,379148,1,0,0:0:0:0:
320,192,379223,1,0,0:0:0:0:
64,192,379298,1,2,0:0:0:0:
192,192,379298,1,4,0:0:0:0:
448,192,379298,1,8,0:0:0:0:
320,192,379448,1,0,0:0:0:0:
192,192,379523,1,0,0:0:0:0:
64,192,379598,1,8,0:0:0:0:
320,192,379598,1,2,0:0:0:0:
448,192,379598,1,0,0:0:0:0:
192,192,379673,1,0,0:0:0:0:
64,192,379748,1,2,0:0:0:0:
448,192,379748,1,0,0:0:0:0:
192,192,379898,1,0,0:0:0:0:
320,192,379973,1,8,0:0:0:0:
448,192,379973,1,0,0:0:0:0:
64,192,380048,1,8,0:0:0:0:
192,192,380048,1,0,0:0:0:0:
320,192,380123,1,0,0:0:0:0:
64,192,380198,1,8,0:0:0:0:
192,192,380198,1,2,0:0:0:0:
448,192,380198,1,0,0:0:0:0:
320,192,380348,1,0,0:0:0:0:
192,192,380423,1,0,0:0:0:0:
64,192,380498,1,2,0:0:0:0:
320,192,380498,1,4,0:0:0:0:
448,192,380498,1,8,0:0:0:0:
192,192,380648,1,0,0:0:0:0:
320,192,380723,1,0,0:0:0:0:
64,192,380798,1,8,0:0:0:0:
192,192,380798,1,2,0:0:0:0:
448,192,380798,1,0,0:0:0:0:
320,192,380873,1,0,0:0:0:0:
64,192,380948,1,2,0:0:0:0:
448,192,380948,1,0,0:0:0:0:
192,192,381023,1,0,0:0:0:0:
320,192,381098,1,0,0:0:0:0:
64,192,381173,1,8,0:0:0:0:
192,192,381173,1,0,0:0:0:0:
320,192,381248,1,8,0:0:0:0:
448,192,381248,1,0,0:0:0:0:
64,192,381398,1,2,0:0:0:0:
320,192,381398,1,8,0:0:0:0:
448,192,381398,1,0,0:0:0:0:
192,192,381473,1,0,0:0:0:0:
64,192,381548,1,2,0:0:0:0:
320,192,381548,1,0,0:0:0:0:
192,192,381623,1,2,0:0:0:0:
64,192,381698,1,2,0:0:0:0:
320,192,381698,1,4,0:0:0:0:
448,192,381698,1,0,0:0:0:0:
448,192,381848,1,0,0:0:0:0:
320,192,381923,1,0,0:0:0:0:
448,192,381998,1,8,0:0:0:0:
192,192,381998,1,2,0:0:0:0:
64,192,381998,1,0,0:0:0:0:
320,192,382073,1,0,0:0:0:0:
192,192,382148,1,2,0:0:0:0:
64,192,382148,1,0,0:0:0:0:
64,192,382298,1,2,0:0:0:0:
192,192,382298,1,8,0:0:0:0:
448,192,382298,1,4,0:0:0:0:
192,192,382373,1,8,0:0:0:0:
64,192,382373,1,0,0:0:0:0:
320,192,382448,1,2,0:0:0:0:
192,192,382523,1,0,0:0:0:0:
64,192,382598,1,2,0:0:0:0:
320,192,382598,1,8,0:0:0:0:
448,192,382598,1,0,0:0:0:0:
64,192,382748,1,2,0:0:0:0:
192,192,382748,1,0,0:0:0:0:
320,192,382823,1,0,0:0:0:0:
64,192,382898,1,2,0:0:0:0:
192,192,382898,1,8,0:0:0:0:
448,192,382898,1,4,0:0:0:0:
320,192,383048,1,0,0:0:0:0:
64,192,383198,1,8,0:0:0:0:
192,192,383198,1,2,0:0:0:0:
448,192,383198,1,0,0:0:0:0:
320,192,383273,1,0,0:0:0:0:
64,192,383348,1,2,0:0:0:0:
448,192,383348,1,0,0:0:0:0:
192,192,383423,1,0,0:0:0:0:
64,192,383498,1,2,0:0:0:0:
320,192,383498,1,8,0:0:0:0:
448,192,383498,1,0,0:0:0:0:
320,192,383573,1,8,0:0:0:0:
448,192,383573,1,0,0:0:0:0:
192,192,383648,1,2,0:0:0:0:
320,192,383798,1,2,0:0:0:0:
448,192,383798,1,8,0:0:0:0:
64,192,383873,1,2,0:0:0:0:
192,192,383873,1,0,0:0:0:0:
320,192,383948,1,2,0:0:0:0:
448,192,383948,1,0,0:0:0:0:
192,192,384023,1,2,0:0:0:0:
64,192,384098,1,2,0:0:0:0:
320,192,384098,1,8,0:0:0:0:
448,192,384098,1,4,0:0:0:0:
320,192,384248,1,0,0:0:0:0:
448,192,384248,1,0,0:0:0:0:
64,192,384398,1,4,0:0:0:0:
192,192,384398,1,8,0:0:0:0:
448,192,384398,1,2,0:0:0:0:
64,192,384548,1,0,0:0:0:0:
192,192,384548,1,0,0:0:0:0:
64,192,384698,1,2,0:0:0:0:
320,192,384698,1,8,0:0:0:0:
448,192,384698,1,4,0:0:0:0:
320,192,384773,1,8,0:0:0:0:
448,192,384773,1,0,0:0:0:0:
64,192,384848,1,2,0:0:0:0:
192,192,384848,1,0,0:0:0:0:
192,192,384998,1,4,0:0:0:0:
320,192,384998,1,8,0:0:0:0:
448,192,384998,1,2,0:0:0:0:
192,192,385148,1,0,0:0:0:0:
448,192,385148,1,0,0:0:0:0:
64,192,385298,1,8,0:0:0:0:
320,192,385298,1,2,0:0:0:0:
448,192,385298,1,4,0:0:0:0:
64,192,385448,1,0,0:0:0:0:
320,192,385448,1,0,0:0:0:0:
64,192,385598,1,4,0:0:0:0:
192,192,385598,1,8,0:0:0:0:
448,192,385598,1,2,0:0:0:0:
448,192,385748,1,2,0:0:0:0:
320,192,385748,1,0,0:0:0:0:
192,192,385898,1,8,0:0:0:0:
320,192,385898,1,2,0:0:0:0:
64,192,385898,1,4,0:0:0:0:
448,192,386048,1,0,0:0:0:0:
192,192,386048,1,0,0:0:0:0:
64,192,386198,1,8,0:0:0:0:
448,192,386198,1,2,0:0:0:0:
320,192,386198,1,4,0:0:0:0:
192,192,386348,1,8,0:0:0:0:
64,192,386348,1,4,0:0:0:0:
448,192,386348,1,2,0:0:0:0:
320,192,386498,1,2,0:0:0:0:
64,192,386498,1,0,0:0:0:0:
320,192,386648,1,8,0:0:0:0:
192,192,386648,1,4,0:0:0:0:
448,192,386648,1,2,0:0:0:0:
64,192,386798,1,4,0:0:0:0:
320,192,386798,1,8,0:0:0:0:
192,192,386798,1,2,0:0:0:0:
320,192,386948,1,2,0:0:0:0:
448,192,386948,1,0,0:0:0:0:
448,192,387098,1,2,0:0:0:0:
192,192,387098,1,8,0:0:0:0:
64,192,387098,1,4,0:0:0:0:
320,192,387173,1,2,0:0:0:0:
64,192,387248,1,2,0:0:0:0:
192,192,387248,1,0,0:0:0:0:
320,192,387323,1,2,0:0:0:0:
192,192,387398,1,2,0:0:0:0:
64,192,387398,1,8,0:0:0:0:
448,192,387398,1,4,0:0:0:0:
320,192,387473,1,2,0:0:0:0:
64,192,387548,1,2,0:0:0:0:
448,192,387548,1,0,0:0:0:0:
192,192,387623,1,2,0:0:0:0:
448,192,387698,1,2,0:0:0:0:
320,192,387698,1,8,0:0:0:0:
64,192,387698,1,4,0:0:0:0:
192,192,387848,1,0,0:0:0:0:
320,192,387923,1,0,0:0:0:0:
448,192,387998,1,0,0:0:0:0:
320,192,388073,1,0,0:0:0:0:
192,192,388148,1,0,0:0:0:0:
320,192,388223,1,0,0:0:0:0:
192,192,388298,1,0,0:0:0:0:
64,192,388373,1,0,0:0:0:0:
192,192,388448,1,0,0:0:0:0:
320,192,388523,1,0,0:0:0:0:
448,192,388598,1,0,0:0:0:0:
320,192,388673,1,0,0:0:0:0:
192,192,388748,1,0,0:0:0:0:
64,192,388823,1,0,0:0:0:0:
448,192,388898,1,0,0:0:0:0:
320,192,388973,1,0,0:0:0:0:
192,192,389048,1,0,0:0:0:0:
64,192,389123,1,0,0:0:0:0:
192,192,389198,1,0,0:0:0:0:
320,192,389273,1,0,0:0:0:0:
192,192,389348,1,0,0:0:0:0:
320,192,389423,1,0,0:0:0:0:
448,192,389498,1,0,0:0:0:0:
192,192,389498,128,0,389798:0:0:0:0:
64,192,389798,1,0,0:0:0:0:
320,192,389798,128,0,390098:0:0:0:0:
64,192,390098,1,2,0:0:0:0:
192,192,390098,1,4,0:0:0:0:
448,192,390098,128,8,390998:0:0:0:0:
64,192,390398,1,0,0:0:0:0:
192,192,390498,1,0,0:0:0:0:
320,192,390598,1,0,0:0:0:0:
64,192,390698,1,0,0:0:0:0:
192,192,390798,1,0,0:0:0:0:
320,192,390898,1,0,0:0:0:0:
64,192,390998,1,2,0:0:0:0:
192,192,390998,1,0,0:0:0:0:
64,192,391148,1,2,0:0:0:0:
448,192,391148,128,0,392498:0:0:0:0:
192,192,391598,1,0,0:0:0:0:
320,192,391673,1,0,0:0:0:0:
192,192,391748,1,0,0:0:0:0:
64,192,391823,1,0,0:0:0:0:
192,192,391898,1,0,0:0:0:0:
320,192,391973,1,0,0:0:0:0:
192,192,392048,1,0,0:0:0:0:
64,192,392123,1,0,0:0:0:0:
320,192,392198,1,0,0:0:0:0:
192,192,392273,1,0,0:0:0:0:
64,192,392348,1,0,0:0:0:0:
192,192,392423,1,0,0:0:0:0:
320,192,392498,1,0,0:0:0:0:
192,192,392573,1,0,0:0:0:0:
64,192,392648,1,0,0:0:0:0:
192,192,392723,1,0,0:0:0:0:
320,192,392798,128,2,393398:0:0:0:0:
448,192,392798,1,0,0:0:0:0:
64,192,393098,1,0,0:0:0:0:
192,192,393173,1,0,0:0:0:0:
448,192,393248,1,0,0:0:0:0:
192,192,393323,1,0,0:0:0:0:
64,192,393398,1,0,0:0:0:0:
448,192,393398,128,0,393698:0:0:0:0:
192,192,393548,1,0,0:0:0:0:
320,192,393623,1,0,0:0:0:0:
64,192,393698,128,2,394298:0:0:0:0:
192,192,393698,1,0,0:0:0:0:
320,192,393848,1,0,0:0:0:0:
448,192,393923,1,0,0:0:0:0:
320,192,393998,1,0,0:0:0:0:
192,192,394073,1,0,0:0:0:0:
448,192,394148,1,0,0:0:0:0:
320,192,394223,1,0,0:0:0:0:
192,192,394298,128,2,394898:0:0:0:0:
448,192,394298,1,0,0:0:0:0:
448,192,394448,1,0,0:0:0:0:
320,192,394523,1,0,0:0:0:0:
64,192,394598,1,0,0:0:0:0:
448,192,394673,1,0,0:0:0:0:
320,192,394748,1,0,0:0:0:0:
64,192,394823,1,0,0:0:0:0:
320,192,394898,128,2,395798:0:0:0:0:
448,192,394898,1,0,0:0:0:0:
64,192,394973,1,0,0:0:0:0:
192,192,395048,1,0,0:0:0:0:
448,192,395123,1,0,0:0:0:0:
192,192,395198,1,0,0:0:0:0:
64,192,395273,1,0,0:0:0:0:
192,192,395348,1,0,0:0:0:0:
448,192,395423,1,0,0:0:0:0:
64,192,395498,1,0,0:0:0:0:
192,192,395598,1,0,0:0:0:0:
448,192,395698,1,0,0:0:0:0:
64,192,395798,1,2,0:0:0:0:
192,192,395798,1,0,0:0:0:0:
64,192,395948,1,2,0:0:0:0:
192,192,395948,1,0,0:0:0:0:
64,192,396098,128,2,396698:0:0:0:0:
448,192,396098,1,0,0:0:0:0:
320,192,396248,1,0,0:0:0:0:
192,192,396398,1,0,0:0:0:0:
448,192,396473,1,0,0:0:0:0:
320,192,396548,1,0,0:0:0:0:
192,192,396623,1,0,0:0:0:0:
320,192,396698,1,2,0:0:0:0:
448,192,396698,128,0,397298:0:0:0:0:
64,192,396773,1,0,0:0:0:0:
192,192,396848,1,0,0:0:0:0:
320,192,396923,1,0,0:0:0:0:
64,192,396998,1,0,0:0:0:0:
192,192,397073,1,0,0:0:0:0:
320,192,397148,1,0,0:0:0:0:
192,192,397223,1,0,0:0:0:0:
64,192,397298,128,2,397898:0:0:0:0:
320,192,397298,1,0,0:0:0:0:
192,192,397598,1,0,0:0:0:0:
448,192,397673,1,0,0:0:0:0:
320,192,397748,1,0,0:0:0:0:
192,192,397823,1,0,0:0:0:0:
448,192,397898,1,0,0:0:0:0:
320,192,397973,1,0,0:0:0:0:
64,192,398048,1,0,0:0:0:0:
192,192,398123,1,0,0:0:0:0:
320,192,398198,1,2,0:0:0:0:
448,192,398198,128,0,398498:0:0:0:0:
64,192,398498,128,2,398798:0:0:0:0:
192,192,398498,1,0,0:0:0:0:
448,192,398573,1,0,0:0:0:0:
320,192,398648,1,0,0:0:0:0:
192,192,398723,1,0,0:0:0:0:
448,192,398798,1,0,0:0:0:0:
320,192,398873,1,0,0:0:0:0:
64,192,398948,1,0,0:0:0:0:
192,192,399023,1,0,0:0:0:0:
320,192,399098,128,2,399698:0:0:0:0:
448,192,399098,1,0,0:0:0:0:
64,192,399173,1,0,0:0:0:0:
192,192,399248,1,0,0:0:0:0:
448,192,399323,1,0,0:0:0:0:
64,192,399398,1,0,0:0:0:0:
192,192,399473,1,0,0:0:0:0:
448,192,399548,1,0,0:0:0:0:
192,192,399623,1,0,0:0:0:0:
64,192,399698,1,2,0:0:0:0:
448,192,399698,1,0,0:0:0:0:
192,192,399848,1,0,0:0:0:0:
64,192,399998,1,8,0:0:0:0:
192,192,399998,1,2,0:0:0:0:
448,192,399998,1,0,0:0:0:0:
320,192,400148,1,0,0:0:0:0:
192,192,400223,1,0,0:0:0:0:
64,192,400298,1,2,0:0:0:0:
320,192,400298,1,0,0:0:0:0:
448,192,400448,1,0,0:0:0:0:
320,192,400523,1,0,0:0:0:0:
64,192,400598,1,2,0:0:0:0:
192,192,400598,1,8,0:0:0:0:
448,192,400598,1,0,0:0:0:0:
64,192,400748,1,0,0:0:0:0:
320,192,400748,1,0,0:0:0:0:
320,192,400898,1,2,0:0:0:0:
448,192,400898,1,0,0:0:0:0:
192,192,401048,1,0,0:0:0:0:
320,192,401123,1,0,0:0:0:0:
192,192,401198,1,8,0:0:0:0:
448,192,401198,1,0,0:0:0:0:
64,192,401198,128,2,401348:0:0:0:0:
320,192,401348,1,0,0:0:0:0:
64,192,401498,1,2,0:0:0:0:
448,192,401498,128,0,401648:0:0:0:0:
192,192,401648,1,0,0:0:0:0:
64,192,401798,1,2,0:0:0:0:
448,192,401798,1,8,0:0:0:0:
320,192,401798,1,0,0:0:0:0:
448,192,401948,1,0,0:0:0:0:
192,192,401948,1,0,0:0:0:0:
320,192,402023,1,0,0:0:0:0:
64,192,402098,1,2,0:0:0:0:
192,192,402098,1,0,0:0:0:0:
320,192,402248,1,0,0:0:0:0:
64,192,402398,1,2,0:0:0:0:
192,192,402398,1,8,0:0:0:0:
448,192,402398,1,0,0:0:0:0:
192,192,402548,1,0,0:0:0:0:
320,192,402623,1,0,0:0:0:0:
448,192,402698,1,2,0:0:0:0:
64,192,402698,1,0,0:0:0:0:
320,192,402848,1,0,0:0:0:0:
64,192,402998,1,2,0:0:0:0:
192,192,402998,1,8,0:0:0:0:
448,192,402998,1,0,0:0:0:0:
320,192,403148,1,0,0:0:0:0:
64,192,403148,1,0,0:0:0:0:
192,192,403223,1,0,0:0:0:0:
320,192,403298,1,2,0:0:0:0:
448,192,403298,1,0,0:0:0:0:
192,192,403448,1,0,0:0:0:0:
64,192,403598,1,2,0:0:0:0:
192,192,403598,1,8,0:0:0:0:
448,192,403598,1,0,0:0:0:0:
320,192,403748,1,0,0:0:0:0:
192,192,403823,1,0,0:0:0:0:
448,192,403898,128,0,403973:0:0:0:0:
64,192,403898,128,2,403973:0:0:0:0:
320,192,403973,1,0,0:0:0:0:
192,192,404048,1,0,0:0:0:0:
64,192,404198,1,2,0:0:0:0:
192,192,404198,1,8,0:0:0:0:
448,192,404198,1,0,0:0:0:0:
320,192,404348,1,0,0:0:0:0:
448,192,404498,1,4,0:0:0:0:
64,192,404498,128,2,404573:0:0:0:0:
320,192,404498,128,8,404573:0:0:0:0:
320,192,404648,1,2,0:0:0:0:
448,192,404648,1,0,0:0:0:0:
64,192,404798,1,2,0:0:0:0:
192,192,404798,1,8,0:0:0:0:
448,192,404798,1,0,0:0:0:0:
64,192,404948,1,2,0:0:0:0:
192,192,404948,1,0,0:0:0:0:
320,192,405098,1,8,0:0:0:0:
64,192,405098,128,2,405173:0:0:0:0:
448,192,405098,128,0,405173:0:0:0:0:
320,192,405248,1,2,0:0:0:0:
448,192,405248,1,0,0:0:0:0:
64,192,405398,1,2,0:0:0:0:
192,192,405398,1,8,0:0:0:0:
448,192,405398,1,0,0:0:0:0:
64,192,405548,1,2,0:0:0:0:
320,192,405548,1,0,0:0:0:0:
320,192,405698,1,2,0:0:0:0:
192,192,405698,128,8,405773:0:0:0:0:
448,192,405698,128,4,405773:0:0:0:0:
192,192,405848,1,2,0:0:0:0:
64,192,405848,1,0,0:0:0:0:
64,192,405998,1,2,0:0:0:0:
320,192,405998,1,8,0:0:0:0:
448,192,405998,1,0,0:0:0:0:
192,192,406148,1,2,0:0:0:0:
448,192,406148,1,0,0:0:0:0:
192,192,406298,1,8,0:0:0:0:
448,192,406298,128,4,406373:0:0:0:0:
64,192,406298,128,2,406373:0:0:0:0:
320,192,406448,1,2,0:0:0:0:
64,192,406448,1,0,0:0:0:0:
320,192,406598,1,2,0:0:0:0:
192,192,406598,1,8,0:0:0:0:
448,192,406598,1,0,0:0:0:0:
64,192,406748,1,2,0:0:0:0:
192,192,406748,1,0,0:0:0:0:
448,192,406898,1,2,0:0:0:0:
320,192,406898,1,8,0:0:0:0:
64,192,406898,1,4,0:0:0:0:
192,192,406973,1,2,0:0:0:0:
448,192,407048,1,2,0:0:0:0:
320,192,407048,1,0,0:0:0:0:
64,192,407123,1,2,0:0:0:0:
448,192,407198,1,2,0:0:0:0:
320,192,407198,1,8,0:0:0:0:
192,192,407198,1,4,0:0:0:0:
64,192,407273,1,2,0:0:0:0:
320,192,407348,1,2,0:0:0:0:
192,192,407348,1,0,0:0:0:0:
448,192,407423,1,2,0:0:0:0:
320,192,407498,1,2,0:0:0:0:
192,192,407498,1,8,0:0:0:0:
64,192,407498,1,4,0:0:0:0:
448,192,407573,1,2,0:0:0:0:
64,192,407648,1,2,0:0:0:0:
192,192,407648,1,0,0:0:0:0:
320,192,407723,1,2,0:0:0:0:
192,192,407798,1,2,0:0:0:0:
448,192,407798,1,8,0:0:0:0:
64,192,407798,1,4,0:0:0:0:
320,192,407873,1,2,0:0:0:0:
448,192,407948,1,2,0:0:0:0:
64,192,407948,1,0,0:0:0:0:
192,192,408023,1,2,0:0:0:0:
320,192,408098,1,2,0:0:0:0:
448,192,408098,1,0,0:0:0:0:
64,192,408398,1,0,0:0:0:0:
192,192,408435,1,0,0:0:0:0:
320,192,408698,1,0,0:0:0:0:
448,192,408735,1,0,0:0:0:0:
192,192,408923,1,0,0:0:0:0:
64,192,408960,1,0,0:0:0:0:
448,192,408998,1,0,0:0:0:0:
320,192,409035,1,0,0:0:0:0:
192,192,409073,1,0,0:0:0:0:
64,192,409110,1,0,0:0:0:0:
448,192,409148,1,0,0:0:0:0:
320,192,409185,1,0,0:0:0:0:
192,192,409223,1,0,0:0:0:0:
64,192,409260,1,0,0:0:0:0:
320,192,409298,1,2,0:0:0:0:
448,192,409298,1,4,0:0:0:0:
192,192,409448,1,0,0:0:0:0:
320,192,409448,1,0,0:0:0:0:
64,192,409598,1,0,0:0:0:0:
192,192,409598,1,0,0:0:0:0:
320,192,409748,1,0,0:0:0:0:
448,192,409748,1,0,0:0:0:0:
448,192,410048,1,0,0:0:0:0:
320,192,410198,1,0,0:0:0:0:
192,192,410348,1,0,0:0:0:0:
192,192,410648,1,0,0:0:0:0:
448,192,410648,1,0,0:0:0:0:
64,192,411098,1,0,0:0:0:0:
320,192,411098,1,0,0:0:0:0:
192,192,411248,1,0,0:0:0:0:
320,192,411398,1,0,0:0:0:0:
448,192,411548,1,0,0:0:0:0:
64,192,411698,1,0,0:0:0:0:
192,192,411698,1,0,0:0:0:0:
320,192,411998,1,0,0:0:0:0:
64,192,412148,1,0,0:0:0:0:
448,192,412148,1,0,0:0:0:0:
192,192,412448,1,0,0:0:0:0:
64,192,412748,1,0,0:0:0:0:
448,192,412748,1,0,0:0:0:0:
192,192,413198,1,0,0:0:0:0:
448,192,413198,1,0,0:0:0:0:
64,192,413498,1,0,0:0:0:0:
320,192,413498,1,0,0:0:0:0:
192,192,413648,1,0,0:0:0:0:
320,192,413798,1,0,0:0:0:0:
192,192,413948,1,0,0:0:0:0:
448,192,414023,128,0,414098:0:0:0:0:
64,192,414098,1,2,0:0:0:0:
320,192,414398,1,2,0:0:0:0:
448,192,414398,1,0,0:0:0:0:
192,192,414548,1,0,0:0:0:0:
64,192,414548,1,0,0:0:0:0:
320,192,414698,1,2,0:0:0:0:
448,192,414698,1,0,0:0:0:0:
64,192,414848,1,0,0:0:0:0:
192,192,414848,1,0,0:0:0:0:
448,192,414998,1,2,0:0:0:0:
64,192,415148,1,0,0:0:0:0:
320,192,415148,1,0,0:0:0:0:
448,192,415298,1,2,0:0:0:0:
64,192,415448,1,0,0:0:0:0:
192,192,415448,1,0,0:0:0:0:
448,192,415598,1,2,0:0:0:0:
64,192,415748,1,0,0:0:0:0:
320,192,415748,1,0,0:0:0:0:
448,192,415898,1,2,0:0:0:0:
192,192,416048,1,0,0:0:0:0:
64,192,416198,1,2,0:0:0:0:
448,192,416198,1,0,0:0:0:0:
320,192,416348,1,0,0:0:0:0:
192,192,416398,1,0,0:0:0:0:
64,192,416448,1,0,0:0:0:0:
320,192,416498,1,2,0:0:0:0:
448,192,416498,1,0,0:0:0:0:
64,192,416798,1,2,0:0:0:0:
448,192,416798,1,0,0:0:0:0:
64,192,417098,1,2,0:0:0:0:
192,192,417098,1,0,0:0:0:0:
320,192,417173,1,0,0:0:0:0:
448,192,417173,1,0,0:0:0:0:
320,192,417285,1,0,0:0:0:0:
448,192,417285,1,0,0:0:0:0:
64,192,417398,1,2,0:0:0:0:
192,192,417398,1,0,0:0:0:0:
320,192,417473,1,0,0:0:0:0:
448,192,417473,1,0,0:0:0:0:
320,192,417585,1,0,0:0:0:0:
448,192,417585,1,0,0:0:0:0:
64,192,417698,1,2,0:0:0:0:
192,192,417698,1,0,0:0:0:0:
320,192,417848,1,0,0:0:0:0:
192,192,417998,1,2,0:0:0:0:
448,192,417998,1,0,0:0:0:0:
64,192,418148,1,0,0:0:0:0:
320,192,418148,1,0,0:0:0:0:
64,192,418298,1,2,0:0:0:0:
192,192,418298,1,0,0:0:0:0:
448,192,418373,1,0,0:0:0:0:
320,192,418448,1,0,0:0:0:0:
448,192,418523,1,0,0:0:0:0:
64,192,418598,1,2,0:0:0:0:
192,192,418598,1,0,0:0:0:0:
320,192,418673,1,2,0:0:0:0:
448,192,418673,1,0,0:0:0:0:
64,192,418748,1,2,0:0:0:0:
192,192,418748,1,0,0:0:0:0:
320,192,418823,1,2,0:0:0:0:
64,192,418898,1,2,0:0:0:0:
192,192,418898,1,8,0:0:0:0:
448,192,418898,1,4,0:0:0:0:
64,192,419048,1,2,0:0:0:0:
192,192,419048,1,0,0:0:0:0:
448,192,419048,1,0,0:0:0:0:
192,192,419198,1,2,0:0:0:0:
320,192,419198,1,0,0:0:0:0:
448,192,419198,1,0,0:0:0:0:
192,192,419348,1,8,0:0:0:0:
320,192,419348,1,2,0:0:0:0:
448,192,419348,1,0,0:0:0:0:
64,192,419498,1,0,0:0:0:0:
320,192,419573,1,8,0:0:0:0:
448,192,419573,1,0,0:0:0:0:
64,192,419648,1,2,0:0:0:0:
192,192,419648,1,0,0:0:0:0:
192,192,419798,1,8,0:0:0:0:
320,192,419798,1,0,0:0:0:0:
448,192,419798,1,0,0:0:0:0:
64,192,419948,1,8,0:0:0:0:
192,192,419948,1,0,0:0:0:0:
320,192,419948,1,0,0:0:0:0:
64,192,420098,1,0,0:0:0:0:
192,192,420248,1,8,0:0:0:0:
320,192,420248,1,2,0:0:0:0:
448,192,420248,1,0,0:0:0:0:
64,192,420398,1,0,0:0:0:0:
448,192,420398,1,0,0:0:0:0:
320,192,420473,1,0,0:0:0:0:
64,192,420548,1,2,0:0:0:0:
192,192,420548,1,8,0:0:0:0:
448,192,420548,1,0,0:0:0:0:
192,192,420698,1,0,0:0:0:0:
320,192,420773,1,8,0:0:0:0:
448,192,420773,1,0,0:0:0:0:
64,192,420848,1,2,0:0:0:0:
192,192,420898,1,0,0:0:0:0:
320,192,420948,1,0,0:0:0:0:
64,192,420998,1,2,0:0:0:0:
192,192,420998,1,8,0:0:0:0:
448,192,420998,1,0,0:0:0:0:
64,192,421148,1,0,0:0:0:0:
320,192,421148,1,0,0:0:0:0:
192,192,421298,1,2,0:0:0:0:
448,192,421298,128,0,421448:0:0:0:0:
64,192,421448,1,2,0:0:0:0:
192,192,421448,1,0,0:0:0:0:
320,192,421523,1,0,0:0:0:0:
64,192,421598,1,2,0:0:0:0:
192,192,421598,128,8,421748:0:0:0:0:
448,192,421598,1,0,0:0:0:0:
64,192,421748,128,2,421898:0:0:0:0:
320,192,421748,1,0,0:0:0:0:
192,192,421898,1,0,0:0:0:0:
320,192,421973,1,8,0:0:0:0:
448,192,421973,1,0,0:0:0:0:
64,192,422048,1,2,0:0:0:0:
192,192,422048,128,0,422198:0:0:0:0:
320,192,422198,1,0,0:0:0:0:
64,192,422348,1,2,0:0:0:0:
192,192,422348,1,8,0:0:0:0:
448,192,422348,128,0,422648:0:0:0:0:
320,192,422498,1,0,0:0:0:0:
64,192,422648,1,2,0:0:0:0:
192,192,422648,1,0,0:0:0:0:
64,192,422798,1,2,0:0:0:0:
192,192,422798,1,8,0:0:0:0:
448,192,422798,128,0,422948:0:0:0:0:
192,192,422948,1,2,0:0:0:0:
320,192,422948,1,0,0:0:0:0:
64,192,423098,1,2,0:0:0:0:
320,192,423098,128,8,423248:0:0:0:0:
448,192,423098,1,0,0:0:0:0:
64,192,423248,1,8,0:0:0:0:
192,192,423248,1,0,0:0:0:0:
320,192,423323,1,8,0:0:0:0:
448,192,423323,1,0,0:0:0:0:
64,192,423398,1,2,0:0:0:0:
192,192,423398,128,0,423548:0:0:0:0:
320,192,423548,128,2,423698:0:0:0:0:
448,192,423548,1,0,0:0:0:0:
64,192,423698,1,2,0:0:0:0:
192,192,423698,1,8,0:0:0:0:
448,192,423698,1,4,0:0:0:0:
64,192,423848,1,4,0:0:0:0:
192,192,423848,1,2,0:0:0:0:
448,192,423848,1,0,0:0:0:0:
64,192,423998,1,2,0:0:0:0:
192,192,423998,1,0,0:0:0:0:
320,192,424073,1,2,0:0:0:0:
448,192,424073,1,0,0:0:0:0:
64,192,424148,1,0,0:0:0:0:
192,192,424223,1,0,0:0:0:0:
64,192,424298,1,2,0:0:0:0:
320,192,424298,1,4,0:0:0:0:
448,192,424298,1,0,0:0:0:0:
192,192,424373,1,0,0:0:0:0:
320,192,424448,1,0,0:0:0:0:
448,192,424523,1,0,0:0:0:0:
64,192,424598,1,2,0:0:0:0:
192,192,424598,1,0,0:0:0:0:
320,192,424673,1,0,0:0:0:0:
64,192,424748,1,8,0:0:0:0:
448,192,424748,1,0,0:0:0:0:
192,192,424823,1,0,0:0:0:0:
64,192,424898,1,2,0:0:0:0:
320,192,424898,1,4,0:0:0:0:
448,192,424898,1,0,0:0:0:0:
192,192,424973,1,0,0:0:0:0:
320,192,425048,1,8,0:0:0:0:
448,192,425048,1,0,0:0:0:0:
192,192,425123,1,0,0:0:0:0:
64,192,425198,1,10,0:0:0:0:
448,192,425198,1,4,0:0:0:0:
192,192,425273,1,8,0:0:0:0:
320,192,425273,1,0,0:0:0:0:
64,192,425348,1,8,0:0:0:0:
448,192,425348,1,0,0:0:0:0:
320,192,425423,1,0,0:0:0:0:
64,192,425498,1,10,0:0:0:0:
192,192,425498,1,4,0:0:0:0:
320,192,425573,1,8,0:0:0:0:
448,192,425573,1,0,0:0:0:0:
64,192,425648,1,8,0:0:0:0:
192,192,425648,1,0,0:0:0:0:
320,192,425723,1,8,0:0:0:0:
448,192,425723,1,0,0:0:0:0:
64,192,425798,1,12,0:0:0:0:
192,192,425798,1,2,0:0:0:0:
320,192,425873,1,0,0:0:0:0:
448,192,425873,1,0,0:0:0:0:
64,192,425948,1,8,0:0:0:0:
192,192,425948,1,0,0:0:0:0:
320,192,426023,1,8,0:0:0:0:
64,192,426098,1,8,0:0:0:0:
192,192,426098,1,2,0:0:0:0:
448,192,426098,1,4,0:0:0:0:
64,192,426248,1,4,0:0:0:0:
192,192,426248,1,8,0:0:0:0:
448,192,426248,1,2,0:0:0:0:
320,192,426398,1,8,0:0:0:0:
448,192,426398,1,2,0:0:0:0:
64,192,426473,1,8,0:0:0:0:
192,192,426473,1,0,0:0:0:0:
320,192,426548,1,8,0:0:0:0:
448,192,426548,1,0,0:0:0:0:
192,192,426623,1,8,0:0:0:0:
64,192,426698,1,8,0:0:0:0:
320,192,426698,1,2,0:0:0:0:
448,192,426698,1,4,0:0:0:0:
64,192,426848,1,4,0:0:0:0:
320,192,426848,1,2,0:0:0:0:
448,192,426848,1,8,0:0:0:0:
64,192,426998,1,2,0:0:0:0:
192,192,426998,1,8,0:0:0:0:
320,192,427073,1,8,0:0:0:0:
448,192,427073,1,0,0:0:0:0:
64,192,427148,1,8,0:0:0:0:
192,192,427148,1,0,0:0:0:0:
320,192,427223,1,8,0:0:0:0:
64,192,427298,1,8,0:0:0:0:
192,192,427298,1,2,0:0:0:0:
448,192,427298,1,4,0:0:0:0:
64,192,427523,1,4,0:0:0:0:
320,192,427523,1,8,0:0:0:0:
448,192,427523,1,2,0:0:0:0:
192,192,427748,1,2,0:0:0:0:
320,192,427748,1,8,0:0:0:0:
448,192,427748,1,4,0:0:0:0:
64,192,427973,1,4,0:0:0:0:
192,192,427973,1,8,0:0:0:0:
320,192,427973,1,2,0:0:0:0:
64,192,428198,1,2,0:0:0:0:
192,192,428198,1,8,0:0:0:0:
320,192,428198,1,4,0:0:0:0:
192,192,428348,1,4,0:0:0:0:
320,192,428348,1,2,0:0:0:0:
448,192,428348,1,8,0:0:0:0:
64,192,428498,128,2,429248:0:0:0:0:
320,192,428498,1,8,0:0:0:0:
448,192,428498,1,4,0:0:0:0:
192,192,429398,1,0,0:0:0:0:
448,192,429398,1,0,0:0:0:0:
192,192,429548,1,0,0:0:0:0:
448,192,429548,1,0,0:0:0:0:
64,192,429698,1,0,0:0:0:0:
320,192,429698,128,0,430298:0:0:0:0:
192,192,430298,128,0,430898:0:0:0:0:
448,192,430298,1,0,0:0:0:0:
64,192,430898,128,0,431948:0:0:0:0:
320,192,430898,1,0,0:0:0:0:
64,192,432098,1,0,0:0:0:0:
320,192,432098,128,0,432698:0:0:0:0:
192,192,432698,1,0,0:0:0:0:
448,192,432698,128,0,433148:0:0:0:0:
192,192,433148,1,2,0:0:0:0:
320,192,433198,1,2,0:0:0:0:
192,192,433248,1,2,0:0:0:0:
64,192,433298,1,2,0:0:0:0:
320,192,433298,1,8,0:0:0:0:
448,192,433298,1,4,0:0:0:0:
192,192,433448,1,2,0:0:0:0:
448,192,433448,1,8,0:0:0:0:
64,192,433598,1,2,0:0:0:0:
320,192,433598,1,8,0:0:0:0:
64,192,433748,1,2,0:0:0:0:
192,192,433748,1,8,0:0:0:0:
320,192,433898,1,2,0:0:0:0:
448,192,433898,1,8,0:0:0:0:
192,192,434048,1,2,0:0:0:0:
448,192,434048,1,8,0:0:0:0:
64,192,434198,1,2,0:0:0:0:
320,192,434198,1,8,0:0:0:0:
64,192,434348,1,2,0:0:0:0:
192,192,434348,1,8,0:0:0:0:
320,192,434423,1,10,0:0:0:0:
64,192,434498,1,2,0:0:0:0:
192,192,434498,1,4,0:0:0:0:
448,192,434498,1,8,0:0:0:0:
64,192,434648,1,2,0:0:0:0:
320,192,434648,1,8,0:0:0:0:
192,192,434798,1,2,0:0:0:0:
448,192,434798,1,8,0:0:0:0:
320,192,434948,1,2,0:0:0:0:
448,192,434948,1,8,0:0:0:0:
64,192,435098,1,2,0:0:0:0:
192,192,435098,1,8,0:0:0:0:
64,192,435248,1,2,0:0:0:0:
320,192,435248,1,8,0:0:0:0:
192,192,435398,1,2,0:0:0:0:
448,192,435398,1,8,0:0:0:0:
320,192,435548,1,2,0:0:0:0:
448,192,435548,1,8,0:0:0:0:
192,192,435623,1,10,0:0:0:0:
64,192,435698,1,2,0:0:0:0:
320,192,435698,1,4,0:0:0:0:
448,192,435698,1,8,0:0:0:0:
192,192,435773,1,2,0:0:0:0:
64,192,435848,1,2,0:0:0:0:
448,192,435848,1,0,0:0:0:0:
320,192,435923,1,2,0:0:0:0:
64,192,435998,1,2,0:0:0:0:
192,192,435998,1,8,0:0:0:0:
320,192,436073,1,2,0:0:0:0:
64,192,436148,1,2,0:0:0:0:
448,192,436148,1,0,0:0:0:0:
192,192,436223,1,2,0:0:0:0:
64,192,436298,1,2,0:0:0:0:
320,192,436298,1,4,0:0:0:0:
448,192,436298,1,8,0:0:0:0:
192,192,436373,1,2,0:0:0:0:
320,192,436448,1,2,0:0:0:0:
448,192,436448,1,0,0:0:0:0:
192,192,436523,1,2,0:0:0:0:
64,192,436598,1,2,0:0:0:0:
320,192,436598,1,8,0:0:0:0:
192,192,436673,1,2,0:0:0:0:
64,192,436748,1,2,0:0:0:0:
448,192,436748,1,0,0:0:0:0:
320,192,436823,1,2,0:0:0:0:
64,192,436898,1,6,0:0:0:0:
192,192,436898,1,8,0:0:0:0:
448,192,436948,1,2,0:0:0:0:
320,192,436998,1,2,0:0:0:0:
64,192,437048,1,2,0:0:0:0:
192,192,437123,1,2,0:0:0:0:
320,192,437198,1,6,0:0:0:0:
448,192,437198,1,8,0:0:0:0:
64,192,437248,1,2,0:0:0:0:
192,192,437298,1,2,0:0:0:0:
448,192,437348,1,2,0:0:0:0:
320,192,437423,1,2,0:0:0:0:
64,192,437498,1,6,0:0:0:0:
192,192,437498,1,8,0:0:0:0:
448,192,437548,1,2,0:0:0:0:
320,192,437598,1,2,0:0:0:0:
64,192,437648,1,2,0:0:0:0:
192,192,437723,1,2,0:0:0:0:
320,192,437798,1,6,0:0:0:0:
448,192,437798,1,8,0:0:0:0:
64,192,437848,1,2,0:0:0:0:
192,192,437898,1,2,0:0:0:0:
448,192,437948,1,2,0:0:0:0:
320,192,437998,1,2,0:0:0:0:
192,192,438048,1,2,0:0:0:0:
64,192,438098,1,2,0:0:0:0:
320,192,438098,1,8,0:0:0:0:
448,192,438098,1,4,0:0:0:0:
192,192,438248,1,0,0:0:0:0:
192,192,438323,1,0,0:0:0:0:
64,192,438398,1,8,0:0:0:0:
320,192,438398,1,2,0:0:0:0:
448,192,438398,1,0,0:0:0:0:
448,192,438548,1,0,0:0:0:0:
448,192,438623,1,0,0:0:0:0:
64,192,438698,1,2,0:0:0:0:
192,192,438698,1,0,0:0:0:0:
320,192,438848,1,0,0:0:0:0:
320,192,438923,1,0,0:0:0:0:
64,192,438998,1,2,0:0:0:0:
192,192,438998,1,8,0:0:0:0:
448,192,438998,1,0,0:0:0:0:
320,192,439148,1,0,0:0:0:0:
192,192,439223,1,0,0:0:0:0:
64,192,439298,1,2,0:0:0:0:
320,192,439298,1,0,0:0:0:0:
448,192,439448,1,0,0:0:0:0:
192,192,439448,1,0,0:0:0:0:
320,192,439523,1,0,0:0:0:0:
64,192,439598,1,2,0:0:0:0:
192,192,439598,1,8,0:0:0:0:
448,192,439598,1,0,0:0:0:0:
320,192,439673,1,0,0:0:0:0:
64,192,439748,1,0,0:0:0:0:
448,192,439748,1,0,0:0:0:0:
192,192,439823,1,0,0:0:0:0:
320,192,439898,1,2,0:0:0:0:
448,192,439898,1,0,0:0:0:0:
192,192,439973,1,8,0:0:0:0:
64,192,439973,1,0,0:0:0:0:
320,192,440048,1,2,0:0:0:0:
448,192,440048,1,0,0:0:0:0:
64,192,440198,1,2,0:0:0:0:
192,192,440198,1,8,0:0:0:0:
320,192,440198,1,0,0:0:0:0:
64,192,440348,1,2,0:0:0:0:
192,192,440348,1,0,0:0:0:0:
320,192,440423,1,0,0:0:0:0:
64,192,440498,1,2,0:0:0:0:
192,192,440498,1,8,0:0:0:0:
448,192,440498,1,4,0:0:0:0:
320,192,440648,1,0,0:0:0:0:
192,192,440723,1,0,0:0:0:0:
64,192,440798,1,8,0:0:0:0:
320,192,440798,1,2,0:0:0:0:
448,192,440798,1,0,0:0:0:0:
192,192,440948,1,0,0:0:0:0:
320,192,441023,1,0,0:0:0:0:
64,192,441098,1,2,0:0:0:0:
192,192,441098,1,0,0:0:0:0:
320,192,441248,1,0,0:0:0:0:
192,192,441323,1,0,0:0:0:0:
64,192,441398,1,2,0:0:0:0:
320,192,441398,1,8,0:0:0:0:
448,192,441398,1,0,0:0:0:0:
192,192,441473,1,0,0:0:0:0:
64,192,441548,1,0,0:0:0:0:
448,192,441548,1,0,0:0:0:0:
320,192,441623,1,0,0:0:0:0:
192,192,441698,1,2,0:0:0:0:
64,192,441698,1,0,0:0:0:0:
320,192,441848,1,0,0:0:0:0:
192,192,441923,1,0,0:0:0:0:
64,192,441998,1,2,0:0:0:0:
320,192,441998,1,8,0:0:0:0:
448,192,441998,1,0,0:0:0:0:
192,192,442073,1,0,0:0:0:0:
448,192,442148,1,0,0:0:0:0:
320,192,442223,1,0,0:0:0:0:
64,192,442298,1,2,0:0:0:0:
192,192,442298,1,0,0:0:0:0:
320,192,442373,1,8,0:0:0:0:
448,192,442373,1,0,0:0:0:0:
64,192,442448,1,2,0:0:0:0:
192,192,442448,1,0,0:0:0:0:
320,192,442523,1,8,0:0:0:0:
64,192,442598,1,2,0:0:0:0:
192,192,442598,1,0,0:0:0:0:
448,192,442598,1,0,0:0:0:0:
192,192,442748,1,2,0:0:0:0:
320,192,442748,1,0,0:0:0:0:
64,192,442898,1,2,0:0:0:0:
320,192,442898,1,8,0:0:0:0:
448,192,442898,1,4,0:0:0:0:
320,192,443048,1,0,0:0:0:0:
192,192,443123,1,0,0:0:0:0:
64,192,443198,1,0,0:0:0:0:
448,192,443198,1,0,0:0:0:0:
320,192,443273,1,0,0:0:0:0:
192,192,443348,1,0,0:0:0:0:
320,192,443423,1,0,0:0:0:0:
64,192,443498,1,8,0:0:0:0:
192,192,443498,128,2,443648:0:0:0:0:
448,192,443498,1,4,0:0:0:0:
64,192,443648,1,4,0:0:0:0:
320,192,443648,128,8,443798:0:0:0:0:
448,192,443648,1,2,0:0:0:0:
64,192,443948,128,8,444248:0:0:0:0:
192,192,443948,1,2,0:0:0:0:
448,192,443948,1,4,0:0:0:0:
320,192,444248,1,2,0:0:0:0:
448,192,444248,1,0,0:0:0:0:
192,192,444323,1,0,0:0:0:0:
64,192,444398,1,2,0:0:0:0:
320,192,444398,1,4,0:0:0:0:
448,192,444398,1,8,0:0:0:0:
192,192,444473,1,0,0:0:0:0:
320,192,444548,1,2,0:0:0:0:
448,192,444548,1,0,0:0:0:0:
192,192,444623,1,2,0:0:0:0:
64,192,444698,1,2,0:0:0:0:
320,192,444698,128,8,444848:0:0:0:0:
448,192,444698,1,4,0:0:0:0:
64,192,444848,1,4,0:0:0:0:
192,192,444848,128,8,444998:0:0:0:0:
448,192,444848,1,2,0:0:0:0:
64,192,445148,1,2,0:0:0:0:
320,192,445148,1,4,0:0:0:0:
448,192,445148,128,8,445448:0:0:0:0:
64,192,445448,1,2,0:0:0:0:
192,192,445448,1,0,0:0:0:0:
320,192,445598,1,2,0:0:0:0:
448,192,445598,1,0,0:0:0:0:
64,192,445748,1,2,0:0:0:0:
192,192,445748,1,0,0:0:0:0:
64,192,445898,128,2,446198:0:0:0:0:
192,192,445898,1,8,0:0:0:0:
448,192,445898,1,4,0:0:0:0:
320,192,446048,1,2,0:0:0:0:
448,192,446048,1,0,0:0:0:0:
320,192,446198,1,2,0:0:0:0:
448,192,446198,1,0,0:0:0:0:
64,192,446348,1,2,0:0:0:0:
192,192,446348,1,0,0:0:0:0:
320,192,446423,1,0,0:0:0:0:
64,192,446498,1,2,0:0:0:0:
192,192,446498,1,8,0:0:0:0:
448,192,446498,1,4,0:0:0:0:
320,192,446573,1,2,0:0:0:0:
64,192,446648,1,2,0:0:0:0:
448,192,446648,1,0,0:0:0:0:
192,192,446723,1,2,0:0:0:0:
320,192,446798,1,10,0:0:0:0:
448,192,446798,1,4,0:0:0:0:
192,192,446873,1,2,0:0:0:0:
64,192,446948,1,2,0:0:0:0:
448,192,446948,1,0,0:0:0:0:
320,192,447023,1,2,0:0:0:0:
64,192,447098,1,2,0:0:0:0:
192,192,447098,1,8,0:0:0:0:
448,192,447098,1,4,0:0:0:0:
320,192,447173,1,2,0:0:0:0:
64,192,447248,1,2,0:0:0:0:
192,192,447248,1,0,0:0:0:0:
320,192,447323,1,2,0:0:0:0:
64,192,447398,1,10,0:0:0:0:
448,192,447398,1,4,0:0:0:0:
192,192,447473,1,2,0:0:0:0:
320,192,447548,1,2,0:0:0:0:
448,192,447548,1,0,0:0:0:0:
192,192,447623,1,2,0:0:0:0:
64,192,447698,1,2,0:0:0:0:
320,192,447698,1,8,0:0:0:0:
448,192,447698,1,4,0:0:0:0:
448,192,447998,1,0,0:0:0:0:
192,192,448073,1,0,0:0:0:0:
320,192,448148,1,0,0:0:0:0:
64,192,448223,1,0,0:0:0:0:
320,192,448298,1,0,0:0:0:0:
192,192,448373,1,0,0:0:0:0:
448,192,448448,1,0,0:0:0:0:
320,192,448523,1,0,0:0:0:0:
64,192,448598,1,0,0:0:0:0:
192,192,448673,1,0,0:0:0:0:
448,192,448748,1,0,0:0:0:0:
320,192,448823,1,0,0:0:0:0:
192,192,448898,1,0,0:0:0:0:
320,192,449048,1,0,0:0:0:0:
64,192,449123,1,0,0:0:0:0:
320,192,449198,1,0,0:0:0:0:
192,192,449348,1,0,0:0:0:0:
320,192,449423,1,0,0:0:0:0:
192,192,449498,1,0,0:0:0:0:
448,192,449648,1,0,0:0:0:0:
192,192,449723,1,0,0:0:0:0:
448,192,449798,1,0,0:0:0:0:
64,192,449873,1,0,0:0:0:0:
320,192,449948,1,0,0:0:0:0:
64,192,450023,1,0,0:0:0:0:
320,192,450098,1,2,0:0:0:0:
448,192,450098,1,0,0:0:0:0:
192,192,450248,1,0,0:0:0:0:
64,192,450398,1,8,0:0:0:0:
320,192,450398,1,0,0:0:0:0:
192,192,450548,1,2,0:0:0:0:
448,192,450548,1,0,0:0:0:0:
320,192,450698,1,0,0:0:0:0:
64,192,450773,1,8,0:0:0:0:
192,192,450773,1,0,0:0:0:0:
448,192,450848,1,0,0:0:0:0:
64,192,450998,1,8,0:0:0:0:
320,192,450998,1,0,0:0:0:0:
192,192,451148,1,0,0:0:0:0:
320,192,451298,1,2,0:0:0:0:
448,192,451298,1,0,0:0:0:0:
192,192,451448,1,0,0:0:0:0:
64,192,451598,1,8,0:0:0:0:
320,192,451598,1,0,0:0:0:0:
192,192,451748,1,2,0:0:0:0:
448,192,451748,1,0,0:0:0:0:
320,192,451898,1,0,0:0:0:0:
64,192,451973,1,8,0:0:0:0:
192,192,451973,1,0,0:0:0:0:
448,192,452048,1,0,0:0:0:0:
64,192,452198,1,8,0:0:0:0:
320,192,452198,1,0,0:0:0:0:
64,192,452348,1,8,0:0:0:0:
192,192,452348,1,0,0:0:0:0:
320,192,452498,1,2,0:0:0:0:
448,192,452498,1,8,0:0:0:0:
192,192,452648,1,0,0:0:0:0:
64,192,452798,1,8,0:0:0:0:
320,192,452798,1,0,0:0:0:0:
192,192,452948,1,2,0:0:0:0:
448,192,452948,1,0,0:0:0:0:
320,192,453098,1,0,0:0:0:0:
64,192,453173,1,8,0:0:0:0:
448,192,453173,1,0,0:0:0:0:
192,192,453248,1,0,0:0:0:0:
64,192,453398,1,8,0:0:0:0:
320,192,453398,1,0,0:0:0:0:
192,192,453548,1,0,0:0:0:0:
320,192,453698,1,2,0:0:0:0:
448,192,453698,1,0,0:0:0:0:
320,192,453848,1,0,0:0:0:0:
64,192,453998,1,8,0:0:0:0:
192,192,453998,1,0,0:0:0:0:
192,192,454148,1,2,0:0:0:0:
448,192,454148,1,0,0:0:0:0:
320,192,454298,1,0,0:0:0:0:
64,192,454373,1,8,0:0:0:0:
192,192,454373,1,0,0:0:0:0:
448,192,454448,1,0,0:0:0:0:
64,192,454598,1,8,0:0:0:0:
192,192,454598,1,2,0:0:0:0:
320,192,454673,1,8,0:0:0:0:
448,192,454673,1,0,0:0:0:0:
64,192,454748,1,8,0:0:0:0:
192,192,454748,1,2,0:0:0:0:
320,192,454823,1,8,0:0:0:0:
64,192,454898,1,8,0:0:0:0:
192,192,454898,1,2,0:0:0:0:
448,192,454898,1,0,0:0:0:0:
320,192,455048,1,2,0:0:0:0:
64,192,455198,1,8,0:0:0:0:
192,192,455198,1,2,0:0:0:0:
320,192,455348,1,2,0:0:0:0:
448,192,455348,1,0,0:0:0:0:
192,192,455498,1,0,0:0:0:0:
320,192,455573,1,8,0:0:0:0:
448,192,455573,1,0,0:0:0:0:
64,192,455648,1,0,0:0:0:0:
192,192,455798,1,8,0:0:0:0:
448,192,455798,1,0,0:0:0:0:
64,192,455948,1,2,0:0:0:0:
320,192,455948,1,0,0:0:0:0:
64,192,456098,1,2,0:0:0:0:
192,192,456098,1,4,0:0:0:0:
448,192,456098,1,8,0:0:0:0:
320,192,456248,1,0,0:0:0:0:
64,192,456398,1,8,0:0:0:0:
448,192,456398,1,0,0:0:0:0:
192,192,456548,1,2,0:0:0:0:
320,192,456548,1,0,0:0:0:0:
64,192,456698,1,0,0:0:0:0:
320,192,456773,1,8,0:0:0:0:
448,192,456773,1,2,0:0:0:0:
192,192,456848,1,0,0:0:0:0:
64,192,456998,1,8,0:0:0:0:
448,192,456998,1,2,0:0:0:0:
64,192,457148,1,8,0:0:0:0:
320,192,457148,1,2,0:0:0:0:
64,192,457298,1,2,0:0:0:0:
192,192,457298,1,8,0:0:0:0:
448,192,457298,1,4,0:0:0:0:
320,192,457373,1,0,0:0:0:0:
192,192,457448,1,2,0:0:0:0:
448,192,457448,1,0,0:0:0:0:
64,192,457598,1,8,0:0:0:0:
320,192,457598,1,2,0:0:0:0:
192,192,457748,1,2,0:0:0:0:
448,192,457748,1,0,0:0:0:0:
64,192,457898,1,2,0:0:0:0:
320,192,457898,1,8,0:0:0:0:
448,192,457898,1,0,0:0:0:0:
192,192,457973,1,8,0:0:0:0:
320,192,458048,1,8,0:0:0:0:
64,192,458048,1,2,0:0:0:0:
192,192,458198,1,2,0:0:0:0:
320,192,458198,1,8,0:0:0:0:
64,192,458348,1,2,0:0:0:0:
448,192,458348,1,0,0:0:0:0:
320,192,458423,1,2,0:0:0:0:
64,192,458498,1,2,0:0:0:0:
192,192,458498,1,8,0:0:0:0:
448,192,458498,1,4,0:0:0:0:
320,192,458573,1,0,0:0:0:0:
192,192,458648,1,0,0:0:0:0:
64,192,458723,1,0,0:0:0:0:
192,192,458798,1,8,0:0:0:0:
448,192,458798,1,0,0:0:0:0:
320,192,458873,1,0,0:0:0:0:
192,192,458948,1,0,0:0:0:0:
64,192,459023,1,0,0:0:0:0:
448,192,459098,1,8,0:0:0:0:
192,192,459098,1,0,0:0:0:0:
320,192,459173,1,0,0:0:0:0:
192,192,459248,1,0,0:0:0:0:
64,192,459323,1,0,0:0:0:0:
192,192,459398,1,8,0:0:0:0:
320,192,459398,1,2,0:0:0:0:
448,192,459398,1,4,0:0:0:0:
64,192,459473,1,0,0:0:0:0:
192,192,459548,1,0,0:0:0:0:
320,192,459623,1,0,0:0:0:0:
64,192,459698,1,2,0:0:0:0:
192,192,459698,1,0,0:0:0:0:
448,192,459698,1,0,0:0:0:0:
320,192,459848,1,2,0:0:0:0:
64,192,459848,1,0,0:0:0:0:
192,192,459998,1,2,0:0:0:0:
64,192,459998,1,8,0:0:0:0:
448,192,459998,1,0,0:0:0:0:
320,192,460148,1,2,0:0:0:0:
448,192,460148,1,0,0:0:0:0:
192,192,460223,1,8,0:0:0:0:
64,192,460298,1,2,0:0:0:0:
448,192,460298,1,0,0:0:0:0:
320,192,460373,1,8,0:0:0:0:
64,192,460448,1,2,0:0:0:0:
192,192,460448,1,0,0:0:0:0:
64,192,460598,1,8,0:0:0:0:
320,192,460598,1,2,0:0:0:0:
448,192,460598,1,0,0:0:0:0:
192,192,460748,1,2,0:0:0:0:
320,192,460748,1,0,0:0:0:0:
64,192,460898,1,0,0:0:0:0:
192,192,460898,1,0,0:0:0:0:
320,192,460973,1,8,0:0:0:0:
192,192,461048,1,2,0:0:0:0:
448,192,461048,1,0,0:0:0:0:
64,192,461198,1,2,0:0:0:0:
320,192,461198,1,8,0:0:0:0:
448,192,461198,1,0,0:0:0:0:
64,192,461348,1,0,0:0:0:0:
192,192,461348,1,0,0:0:0:0:
320,192,461498,1,2,0:0:0:0:
448,192,461498,1,0,0:0:0:0:
64,192,461573,1,8,0:0:0:0:
192,192,461573,1,0,0:0:0:0:
320,192,461648,1,2,0:0:0:0:
448,192,461648,1,0,0:0:0:0:
64,192,461798,1,2,0:0:0:0:
192,192,461798,1,8,0:0:0:0:
448,192,461798,1,0,0:0:0:0:
320,192,461948,1,0,0:0:0:0:
192,192,462023,1,0,0:0:0:0:
64,192,462098,1,2,0:0:0:0:
320,192,462098,1,0,0:0:0:0:
448,192,462098,1,0,0:0:0:0:
192,192,462248,1,2,0:0:0:0:
320,192,462248,1,0,0:0:0:0:
64,192,462398,1,2,0:0:0:0:
192,192,462398,1,8,0:0:0:0:
448,192,462398,1,0,0:0:0:0:
64,192,462548,1,2,0:0:0:0:
320,192,462548,1,0,0:0:0:0:
192,192,462623,1,8,0:0:0:0:
64,192,462698,1,2,0:0:0:0:
448,192,462698,1,0,0:0:0:0:
320,192,462773,1,8,0:0:0:0:
192,192,462848,1,2,0:0:0:0:
448,192,462848,1,0,0:0:0:0:
64,192,462998,1,8,0:0:0:0:
320,192,462998,1,2,0:0:0:0:
448,192,462998,1,0,0:0:0:0:
64,192,463148,1,2,0:0:0:0:
192,192,463148,1,0,0:0:0:0:
320,192,463298,1,0,0:0:0:0:
448,192,463298,1,0,0:0:0:0:
192,192,463373,1,8,0:0:0:0:
64,192,463448,1,2,0:0:0:0:
320,192,463448,1,0,0:0:0:0:
64,192,463598,1,2,0:0:0:0:
192,192,463598,1,8,0:0:0:0:
448,192,463598,1,0,0:0:0:0:
320,192,463748,1,0,0:0:0:0:
192,192,463898,1,2,0:0:0:0:
64,192,463898,1,0,0:0:0:0:
320,192,463973,1,8,0:0:0:0:
448,192,463973,1,0,0:0:0:0:
192,192,464048,1,2,0:0:0:0:
64,192,464048,1,0,0:0:0:0:
448,192,464198,1,2,0:0:0:0:
320,192,464198,1,8,0:0:0:0:
64,192,464198,1,0,0:0:0:0:
192,192,464273,1,0,0:0:0:0:
320,192,464348,1,0,0:0:0:0:
192,192,464423,1,0,0:0:0:0:
448,192,464498,1,2,0:0:0:0:
320,192,464498,1,4,0:0:0:0:
64,192,464498,1,0,0:0:0:0:
64,192,464648,1,2,0:0:0:0:
192,192,464648,1,0,0:0:0:0:
192,192,464798,1,8,0:0:0:0:
320,192,464798,1,2,0:0:0:0:
448,192,464798,1,0,0:0:0:0:
448,192,464948,1,2,0:0:0:0:
320,192,464948,1,0,0:0:0:0:
192,192,465023,1,8,0:0:0:0:
448,192,465098,1,2,0:0:0:0:
64,192,465098,1,0,0:0:0:0:
320,192,465173,1,8,0:0:0:0:
192,192,465248,1,2,0:0:0:0:
64,192,465248,1,0,0:0:0:0:
64,192,465398,1,2,0:0:0:0:
320,192,465398,1,8,0:0:0:0:
448,192,465398,1,0,0:0:0:0:
192,192,465548,1,2,0:0:0:0:
320,192,465548,1,0,0:0:0:0:
64,192,465698,1,0,0:0:0:0:
448,192,465698,1,0,0:0:0:0:
192,192,465773,1,8,0:0:0:0:
64,192,465848,1,2,0:0:0:0:
320,192,465848,1,0,0:0:0:0:
64,192,465998,1,8,0:0:0:0:
192,192,465998,1,2,0:0:0:0:
448,192,465998,1,0,0:0:0:0:
320,192,466148,1,0,0:0:0:0:
448,192,466148,1,0,0:0:0:0:
64,192,466298,1,2,0:0:0:0:
192,192,466298,1,0,0:0:0:0:
320,192,466373,1,8,0:0:0:0:
448,192,466373,1,0,0:0:0:0:
64,192,466448,1,2,0:0:0:0:
192,192,466448,1,0,0:0:0:0:
64,192,466598,1,8,0:0:0:0:
320,192,466598,1,2,0:0:0:0:
448,192,466598,1,0,0:0:0:0:
192,192,466748,1,0,0:0:0:0:
64,192,466898,1,2,0:0:0:0:
192,192,466898,1,0,0:0:0:0:
448,192,466898,1,0,0:0:0:0:
64,192,467048,1,2,0:0:0:0:
320,192,467048,1,0,0:0:0:0:
64,192,467198,1,2,0:0:0:0:
192,192,467198,1,8,0:0:0:0:
448,192,467198,1,0,0:0:0:0:
192,192,467348,1,2,0:0:0:0:
448,192,467348,1,0,0:0:0:0:
320,192,467423,1,8,0:0:0:0:
64,192,467498,1,2,0:0:0:0:
448,192,467498,1,0,0:0:0:0:
192,192,467573,1,8,0:0:0:0:
64,192,467648,1,2,0:0:0:0:
320,192,467648,1,0,0:0:0:0:
64,192,467798,1,8,0:0:0:0:
192,192,467798,1,2,0:0:0:0:
448,192,467798,1,0,0:0:0:0:
192,192,467948,1,2,0:0:0:0:
320,192,467948,1,0,0:0:0:0:
64,192,468098,1,0,0:0:0:0:
192,192,468173,1,8,0:0:0:0:
320,192,468248,1,2,0:0:0:0:
448,192,468248,1,0,0:0:0:0:
64,192,468398,1,2,0:0:0:0:
192,192,468398,1,8,0:0:0:0:
448,192,468398,1,0,0:0:0:0:
64,192,468548,1,0,0:0:0:0:
320,192,468548,1,0,0:0:0:0:
192,192,468698,1,2,0:0:0:0:
448,192,468698,1,0,0:0:0:0:
64,192,468848,1,2,0:0:0:0:
320,192,468848,1,0,0:0:0:0:
192,192,468923,1,0,0:0:0:0:
64,192,468998,1,2,0:0:0:0:
320,192,468998,1,8,0:0:0:0:
448,192,468998,1,0,0:0:0:0:
192,192,469073,1,0,0:0:0:0:
320,192,469148,1,0,0:0:0:0:
192,192,469223,1,0,0:0:0:0:
64,192,469298,1,2,0:0:0:0:
320,192,469298,1,4,0:0:0:0:
448,192,469298,1,0,0:0:0:0:
64,192,469448,1,2,0:0:0:0:
192,192,469448,1,0,0:0:0:0:
64,192,469598,1,2,0:0:0:0:
320,192,469598,1,8,0:0:0:0:
448,192,469598,1,0,0:0:0:0:
320,192,469748,1,2,0:0:0:0:
448,192,469748,1,0,0:0:0:0:
192,192,469823,1,8,0:0:0:0:
64,192,469898,1,2,0:0:0:0:
448,192,469898,1,0,0:0:0:0:
320,192,469973,1,8,0:0:0:0:
64,192,470048,1,2,0:0:0:0:
192,192,470048,1,0,0:0:0:0:
64,192,470198,1,8,0:0:0:0:
320,192,470198,1,2,0:0:0:0:
448,192,470198,1,0,0:0:0:0:
192,192,470348,1,2,0:0:0:0:
320,192,470348,1,0,0:0:0:0:
64,192,470498,1,0,0:0:0:0:
192,192,470498,1,0,0:0:0:0:
320,192,470573,1,8,0:0:0:0:
448,192,470573,1,0,0:0:0:0:
64,192,470648,1,2,0:0:0:0:
192,192,470648,1,0,0:0:0:0:
64,192,470798,1,2,0:0:0:0:
320,192,470798,1,8,0:0:0:0:
448,192,470798,1,0,0:0:0:0:
192,192,470948,1,0,0:0:0:0:
448,192,470948,1,0,0:0:0:0:
64,192,471098,1,2,0:0:0:0:
320,192,471098,1,0,0:0:0:0:
192,192,471173,1,8,0:0:0:0:
448,192,471173,1,0,0:0:0:0:
64,192,471248,1,2,0:0:0:0:
320,192,471248,1,0,0:0:0:0:
64,192,471398,1,2,0:0:0:0:
192,192,471398,1,8,0:0:0:0:
448,192,471398,1,0,0:0:0:0:
320,192,471548,1,0,0:0:0:0:
192,192,471623,1,0,0:0:0:0:
64,192,471698,1,2,0:0:0:0:
320,192,471698,1,0,0:0:0:0:
192,192,471848,1,2,0:0:0:0:
448,192,471848,1,0,0:0:0:0:
64,192,471998,1,8,0:0:0:0:
192,192,471998,1,2,0:0:0:0:
448,192,471998,1,0,0:0:0:0:
64,192,472148,1,2,0:0:0:0:
320,192,472148,1,0,0:0:0:0:
192,192,472223,1,8,0:0:0:0:
64,192,472298,1,2,0:0:0:0:
448,192,472298,1,0,0:0:0:0:
320,192,472373,1,8,0:0:0:0:
192,192,472448,1,2,0:0:0:0:
448,192,472448,1,0,0:0:0:0:
64,192,472598,1,2,0:0:0:0:
320,192,472598,1,8,0:0:0:0:
448,192,472598,1,0,0:0:0:0:
192,192,472748,1,2,0:0:0:0:
320,192,472748,1,0,0:0:0:0:
192,192,472898,128,4,472998:0:0:0:0:
448,192,472898,128,2,472998:0:0:0:0:
64,192,472898,128,8,472998:0:0:0:0:
448,192,473098,128,8,473198:0:0:0:0:
64,192,473098,128,4,473198:0:0:0:0:
320,192,473098,128,2,473198:0:0:0:0:
448,192,473298,128,8,473398:0:0:0:0:
192,192,473298,128,2,473398:0:0:0:0:
320,192,473298,128,4,473398:0:0:0:0:
320,192,473498,128,8,473598:0:0:0:0:
192,192,473498,128,4,473598:0:0:0:0:
64,192,473498,128,2,473598:0:0:0:0:
64,192,473698,128,4,473798:0:0:0:0:
192,192,473698,128,2,473798:0:0:0:0:
448,192,473698,128,8,473798:0:0:0:0:
64,192,473898,128,2,473998:0:0:0:0:
448,192,473898,128,8,473998:0:0:0:0:
320,192,473898,128,4,473998:0:0:0:0:
192,192,474098,1,8,0:0:0:0:
320,192,474098,1,2,0:0:0:0:
448,192,474098,128,4,474698:0:0:0:0:
64,192,474398,1,0,0:0:0:0:
192,192,474473,1,0,0:0:0:0:
320,192,474548,1,0,0:0:0:0:
192,192,474623,1,0,0:0:0:0:
64,192,474698,1,8,0:0:0:0:
320,192,474698,1,2,0:0:0:0:
192,192,474773,1,0,0:0:0:0:
64,192,474848,1,0,0:0:0:0:
192,192,474998,1,8,0:0:0:0:
320,192,474998,1,2,0:0:0:0:
448,192,474998,128,4,475598:0:0:0:0:
64,192,475298,1,0,0:0:0:0:
192,192,475373,1,0,0:0:0:0:
320,192,475448,1,0,0:0:0:0:
192,192,475523,1,0,0:0:0:0:
64,192,475598,1,10,0:0:0:0:
320,192,475598,1,4,0:0:0:0:
192,192,475673,1,0,0:0:0:0:
64,192,475748,1,2,0:0:0:0:
448,192,475748,1,0,0:0:0:0:
320,192,475823,1,0,0:0:0:0:
64,192,475898,1,2,0:0:0:0:
192,192,475898,1,8,0:0:0:0:
448,192,475898,1,4,0:0:0:0:
64,192,476048,1,8,0:0:0:0:
320,192,476048,1,2,0:0:0:0:
448,192,476048,1,0,0:0:0:0:
448,192,476198,1,2,0:0:0:0:
320,192,476198,1,0,0:0:0:0:
192,192,476273,1,2,0:0:0:0:
64,192,476273,1,0,0:0:0:0:
448,192,476348,1,2,0:0:0:0:
320,192,476348,1,0,0:0:0:0:
192,192,476423,1,2,0:0:0:0:
448,192,476498,1,2,0:0:0:0:
320,192,476498,1,8,0:0:0:0:
64,192,476498,1,4,0:0:0:0:
320,192,476648,1,2,0:0:0:0:
192,192,476648,1,0,0:0:0:0:
448,192,476798,1,2,0:0:0:0:
192,192,476798,1,8,0:0:0:0:
64,192,476798,1,0,0:0:0:0:
448,192,476948,1,2,0:0:0:0:
320,192,476948,1,0,0:0:0:0:
320,192,477098,1,2,0:0:0:0:
192,192,477098,1,8,0:0:0:0:
64,192,477098,1,4,0:0:0:0:
192,192,477248,1,2,0:0:0:0:
448,192,477248,1,0,0:0:0:0:
448,192,477398,1,2,0:0:0:0:
320,192,477398,1,8,0:0:0:0:
64,192,477398,1,0,0:0:0:0:
192,192,477548,1,2,0:0:0:0:
64,192,477548,1,0,0:0:0:0:
320,192,477623,1,2,0:0:0:0:
448,192,477698,1,8,0:0:0:0:
64,192,477698,1,2,0:0:0:0:
192,192,477698,1,4,0:0:0:0:
320,192,477773,1,2,0:0:0:0:
448,192,477848,1,2,0:0:0:0:
64,192,477848,1,0,0:0:0:0:
192,192,477923,1,2,0:0:0:0:
448,192,477998,1,4,0:0:0:0:
320,192,477998,1,10,0:0:0:0:
64,192,478073,1,2,0:0:0:0:
320,192,478148,1,2,0:0:0:0:
192,192,478148,1,0,0:0:0:0:
448,192,478223,1,2,0:0:0:0:
192,192,478298,1,12,0:0:0:0:
64,192,478298,1,2,0:0:0:0:
320,192,478373,1,2,0:0:0:0:
192,192,478448,1,2,0:0:0:0:
64,192,478448,1,8,0:0:0:0:
320,192,478523,1,2,0:0:0:0:
448,192,478598,1,2,0:0:0:0:
192,192,478598,1,8,0:0:0:0:
64,192,478598,1,4,0:0:0:0:
320,192,478748,1,0,0:0:0:0:
64,192,478898,128,2,479048:0:0:0:0:
192,192,478898,1,4,0:0:0:0:
448,192,478898,128,0,481298:0:0:0:0:
320,192,479048,1,0,0:0:0:0:
64,192,479198,1,2,0:0:0:0:
320,192,479198,128,8,479348:0:0:0:0:
192,192,479348,1,0,0:0:0:0:
64,192,479498,1,2,0:0:0:0:
192,192,479498,128,0,479648:0:0:0:0:
320,192,479648,1,0,0:0:0:0:
64,192,479798,1,2,0:0:0:0:
320,192,479798,128,8,479948:0:0:0:0:
192,192,479948,1,0,0:0:0:0:
64,192,480098,128,2,480248:0:0:0:0:
320,192,480098,1,0,0:0:0:0:
192,192,480248,1,0,0:0:0:0:
64,192,480398,1,8,0:0:0:0:
320,192,480398,128,2,480548:0:0:0:0:
192,192,480548,128,0,480698:0:0:0:0:
64,192,480698,128,2,480848:0:0:0:0:
320,192,480698,1,0,0:0:0:0:
192,192,480848,1,0,0:0:0:0:
64,192,480998,1,2,0:0:0:0:
320,192,480998,128,8,481148:0:0:0:0:
192,192,481148,1,0,0:0:0:0:
64,192,481298,128,2,483698:0:0:0:0:
192,192,481298,128,0,481448:0:0:0:0:
320,192,481298,1,0,0:0:0:0:
448,192,481448,1,0,0:0:0:0:
192,192,481598,1,8,0:0:0:0:
448,192,481598,128,2,481748:0:0:0:0:
320,192,481748,128,0,481898:0:0:0:0:
192,192,481898,128,2,482048:0:0:0:0:
448,192,481898,1,0,0:0:0:0:
320,192,482048,1,0,0:0:0:0:
192,192,482198,1,2,0:0:0:0:
448,192,482198,128,8,482348:0:0:0:0:
320,192,482348,1,0,0:0:0:0:
448,192,482498,1,2,0:0:0:0:
192,192,482498,128,0,482648:0:0:0:0:
320,192,482648,1,0,0:0:0:0:
320,192,482798,128,8,482948:0:0:0:0:
192,192,482798,1,2,0:0:0:0:
448,192,482948,1,0,0:0:0:0:
320,192,483098,1,2,0:0:0:0:
192,192,483098,128,0,483248:0:0:0:0:
448,192,483248,1,0,0:0:0:0:
192,192,483398,1,2,0:0:0:0:
448,192,483398,1,8,0:0:0:0:
320,192,483473,1,0,0:0:0:0:
192,192,483548,1,2,0:0:0:0:
448,192,483548,1,0,0:0:0:0:
320,192,483623,1,0,0:0:0:0:
192,192,483698,128,2,483848:0:0:0:0:
448,192,483698,128,4,484898:0:0:0:0:
320,192,483848,1,0,0:0:0:0:
64,192,483998,1,8,0:0:0:0:
320,192,483998,128,2,484148:0:0:0:0:
192,192,484148,1,0,0:0:0:0:
64,192,484298,128,2,484448:0:0:0:0:
320,192,484298,1,0,0:0:0:0:
192,192,484448,1,0,0:0:0:0:
64,192,484598,1,2,0:0:0:0:
192,192,484598,128,8,484748:0:0:0:0:
320,192,484748,1,0,0:0:0:0:
64,192,484898,1,2,0:0:0:0:
192,192,484898,128,4,486098:0:0:0:0:
320,192,484898,128,0,485048:0:0:0:0:
448,192,485048,1,0,0:0:0:0:
64,192,485198,1,8,0:0:0:0:
448,192,485198,128,2,485348:0:0:0:0:
320,192,485348,128,0,485498:0:0:0:0:
64,192,485498,128,2,485648:0:0:0:0:
448,192,485498,1,0,0:0:0:0:
320,192,485648,1,0,0:0:0:0:
64,192,485798,1,2,0:0:0:0:
448,192,485798,128,8,485948:0:0:0:0:
320,192,485948,1,0,0:0:0:0:
64,192,486098,128,2,486248:0:0:0:0:
320,192,486098,128,4,487298:0:0:0:0:
448,192,486098,1,0,0:0:0:0:
192,192,486248,1,0,0:0:0:0:
64,192,486398,1,8,0:0:0:0:
448,192,486398,128,2,486548:0:0:0:0:
192,192,486548,1,0,0:0:0:0:
64,192,486698,128,2,486848:0:0:0:0:
192,192,486698,1,4,0:0:0:0:
448,192,486848,1,0,0:0:0:0:
64,192,486998,1,2,0:0:0:0:
192,192,486998,128,8,487448:0:0:0:0:
448,192,487148,1,0,0:0:0:0:
64,192,487298,128,2,488498:0:0:0:0:
448,192,487298,1,4,0:0:0:0:
320,192,487448,1,0,0:0:0:0:
192,192,487598,1,8,0:0:0:0:
448,192,487598,128,2,487748:0:0:0:0:
320,192,487748,128,0,487898:0:0:0:0:
192,192,487898,1,2,0:0:0:0:
448,192,487898,1,4,0:0:0:0:
320,192,488048,1,0,0:0:0:0:
448,192,488123,1,0,0:0:0:0:
192,192,488198,1,10,0:0:0:0:
320,192,488198,1,4,0:0:0:0:
448,192,488273,1,0,0:0:0:0:
192,192,488348,1,2,0:0:0:0:
320,192,488348,1,0,0:0:0:0:
448,192,488423,1,0,0:0:0:0:
192,192,488498,128,2,490898:0:0:0:0:
320,192,488498,128,4,488648:0:0:0:0:
448,192,488648,1,0,0:0:0:0:
64,192,488798,128,8,488948:0:0:0:0:
320,192,488798,1,2,0:0:0:0:
448,192,488948,1,0,0:0:0:0:
64,192,489098,1,2,0:0:0:0:
320,192,489098,128,0,489248:0:0:0:0:
448,192,489248,1,0,0:0:0:0:
320,192,489398,1,2,0:0:0:0:
64,192,489398,128,8,489548:0:0:0:0:
448,192,489548,1,0,0:0:0:0:
320,192,489698,128,2,489848:0:0:0:0:
448,192,489698,1,0,0:0:0:0:
64,192,489848,1,0,0:0:0:0:
64,192,489998,1,8,0:0:0:0:
448,192,489998,128,2,490148:0:0:0:0:
320,192,490148,128,0,490298:0:0:0:0:
64,192,490298,128,2,490448:0:0:0:0:
448,192,490298,1,0,0:0:0:0:
320,192,490448,1,0,0:0:0:0:
64,192,490598,1,2,0:0:0:0:
448,192,490598,128,8,490748:0:0:0:0:
64,192,490748,1,2,0:0:0:0:
64,192,490898,128,2,491048:0:0:0:0:
320,192,490898,128,0,492098:0:0:0:0:
448,192,490898,1,0,0:0:0:0:
192,192,491048,1,0,0:0:0:0:
64,192,491198,1,8,0:0:0:0:
448,192,491198,128,2,491348:0:0:0:0:
192,192,491348,128,0,491498:0:0:0:0:
64,192,491498,128,2,491648:0:0:0:0:
448,192,491498,1,0,0:0:0:0:
192,192,491648,1,0,0:0:0:0:
64,192,491798,1,2,0:0:0:0:
448,192,491798,128,8,491948:0:0:0:0:
64,192,491948,1,2,0:0:0:0:
192,192,491948,1,0,0:0:0:0:
448,192,492098,128,8,492198:0:0:0:0:
192,192,492098,128,4,492198:0:0:0:0:
64,192,492098,128,2,492198:0:0:0:0:
320,192,492298,128,4,492398:0:0:0:0:
448,192,492298,128,8,492398:0:0:0:0:
64,192,492298,128,2,492398:0:0:0:0:
64,192,492498,128,4,492598:0:0:0:0:
192,192,492498,128,2,492598:0:0:0:0:
448,192,492498,128,8,492598:0:0:0:0:
64,192,492698,128,4,492798:0:0:0:0:
192,192,492698,128,2,492798:0:0:0:0:
320,192,492698,128,8,492798:0:0:0:0:
192,192,492898,128,8,492998:0:0:0:0:
320,192,492898,128,4,492998:0:0:0:0:
448,192,492898,128,2,492998:0:0:0:0:
64,192,493098,128,2,493198:0:0:0:0:
320,192,493098,128,4,493198:0:0:0:0:
448,192,493098,128,8,493198:0:0:0:0:
64,192,493298,1,8,0:0:0:0:
192,192,493298,1,2,0:0:0:0:
448,192,493298,128,4,493898:0:0:0:0:
64,192,493598,1,0,0:0:0:0:
192,192,493673,1,0,0:0:0:0:
320,192,493748,1,0,0:0:0:0:
64,192,493823,1,0,0:0:0:0:
192,192,493898,1,8,0:0:0:0:
320,192,493898,1,2,0:0:0:0:
64,192,493973,1,0,0:0:0:0:
192,192,494048,1,0,0:0:0:0:
64,192,494198,1,8,0:0:0:0:
320,192,494198,1,2,0:0:0:0:
448,192,494198,128,4,494798:0:0:0:0:
64,192,494498,1,0,0:0:0:0:
192,192,494573,1,0,0:0:0:0:
320,192,494648,1,0,0:0:0:0:
64,192,494723,1,0,0:0:0:0:
192,192,494798,1,10,0:0:0:0:
320,192,494798,1,4,0:0:0:0:
64,192,494873,1,0,0:0:0:0:
192,192,494948,1,2,0:0:0:0:
448,192,494948,1,0,0:0:0:0:
320,192,495023,1,0,0:0:0:0:
64,192,495098,1,2,0:0:0:0:
192,192,495098,1,8,0:0:0:0:
448,192,495098,1,4,0:0:0:0:
64,192,495248,1,8,0:0:0:0:
320,192,495248,1,2,0:0:0:0:
448,192,495248,1,0,0:0:0:0:
64,192,495398,1,2,0:0:0:0:
192,192,495398,1,0,0:0:0:0:
320,192,495473,1,2,0:0:0:0:
448,192,495473,1,0,0:0:0:0:
192,192,495548,1,2,0:0:0:0:
64,192,495548,1,0,0:0:0:0:
320,192,495623,1,2,0:0:0:0:
64,192,495698,1,2,0:0:0:0:
192,192,495698,1,8,0:0:0:0:
448,192,495698,1,4,0:0:0:0:
192,192,495848,1,2,0:0:0:0:
320,192,495848,1,0,0:0:0:0:
64,192,495998,1,2,0:0:0:0:
320,192,495998,1,8,0:0:0:0:
448,192,495998,1,0,0:0:0:0:
192,192,496148,1,2,0:0:0:0:
448,192,496148,1,0,0:0:0:0:
64,192,496298,1,2,0:0:0:0:
320,192,496298,1,8,0:0:0:0:
448,192,496298,1,4,0:0:0:0:
64,192,496448,1,2,0:0:0:0:
192,192,496448,1,0,0:0:0:0:
64,192,496598,1,2,0:0:0:0:
320,192,496598,1,8,0:0:0:0:
448,192,496598,1,0,0:0:0:0:
192,192,496748,1,2,0:0:0:0:
448,192,496748,1,0,0:0:0:0:
320,192,496823,1,2,0:0:0:0:
64,192,496898,1,8,0:0:0:0:
192,192,496898,1,4,0:0:0:0:
448,192,496898,1,2,0:0:0:0:
320,192,496973,1,2,0:0:0:0:
64,192,497048,1,2,0:0:0:0:
192,192,497048,1,0,0:0:0:0:
448,192,497123,1,2,0:0:0:0:
320,192,497198,1,6,0:0:0:0:
192,192,497198,1,8,0:0:0:0:
64,192,497273,1,2,0:0:0:0:
320,192,497348,1,2,0:0:0:0:
448,192,497348,1,0,0:0:0:0:
192,192,497423,1,2,0:0:0:0:
64,192,497498,1,6,0:0:0:0:
448,192,497498,1,8,0:0:0:0:
320,192,497573,1,2,0:0:0:0:
64,192,497648,1,2,0:0:0:0:
448,192,497648,1,12,0:0:0:0:
192,192,497723,1,2,0:0:0:0:
64,192,497798,1,2,0:0:0:0:
320,192,497798,1,8,0:0:0:0:
448,192,497798,1,4,0:0:0:0:
192,192,497948,1,0,0:0:0:0:
64,192,498098,1,2,0:0:0:0:
448,192,498098,1,4,0:0:0:0:
192,192,498248,1,0,0:0:0:0:
320,192,498398,1,0,0:0:0:0:
192,192,498548,1,0,0:0:0:0:
64,192,498698,1,0,0:0:0:0:
448,192,498698,1,0,0:0:0:0:
320,192,498848,1,0,0:0:0:0:
192,192,498998,1,0,0:0:0:0:
320,192,499148,1,0,0:0:0:0:
448,192,499448,1,0,0:0:0:0:
192,192,499598,1,0,0:0:0:0:
320,192,499748,1,0,0:0:0:0:
64,192,499898,1,0,0:0:0:0:
448,192,499898,1,0,0:0:0:0:
320,192,500048,1,0,0:0:0:0:
64,192,500198,1,0,0:0:0:0:
192,192,500348,1,0,0:0:0:0:
320,192,500423,1,0,0:0:0:0:
64,192,500498,1,0,0:0:0:0:
448,192,500498,1,0,0:0:0:0:
192,192,500648,1,0,0:0:0:0:
320,192,500798,1,0,0:0:0:0:
192,192,500948,1,0,0:0:0:0:
64,192,501098,1,0,0:0:0:0:
448,192,501098,1,0,0:0:0:0:
320,192,501248,1,0,0:0:0:0:
192,192,501398,1,0,0:0:0:0:
320,192,501548,1,0,0:0:0:0:
448,192,501848,1,0,0:0:0:0:
192,192,501998,1,0,0:0:0:0:
320,192,502148,1,0,0:0:0:0:
64,192,502298,1,0,0:0:0:0:
448,192,502298,1,0,0:0:0:0:
320,192,502448,1,0,0:0:0:0:
192,192,502523,1,0,0:0:0:0:
64,192,502673,1,0,0:0:0:0:
192,192,502748,1,0,0:0:0:0:
320,192,502823,1,0,0:0:0:0:
64,192,502898,1,0,0:0:0:0:
448,192,502898,1,0,0:0:0:0:
320,192,503048,1,0,0:0:0:0:
192,192,503198,1,0,0:0:0:0:
448,192,503348,1,0,0:0:0:0:
64,192,503498,1,0,0:0:0:0:
320,192,503498,1,0,0:0:0:0:
192,192,503648,1,0,0:0:0:0:
320,192,503798,1,0,0:0:0:0:
64,192,503948,1,0,0:0:0:0:
448,192,504248,1,0,0:0:0:0:
192,192,504398,1,0,0:0:0:0:
320,192,504548,1,0,0:0:0:0:
64,192,504698,1,0,0:0:0:0:
448,192,504698,1,0,0:0:0:0:
192,192,504848,1,0,0:0:0:0:
448,192,504998,1,0,0:0:0:0:
320,192,505148,1,0,0:0:0:0:
192,192,505223,1,0,0:0:0:0:
64,192,505298,1,0,0:0:0:0:
448,192,505298,1,0,0:0:0:0:
320,192,505448,1,0,0:0:0:0:
64,192,505598,1,0,0:0:0:0:
192,192,505748,1,0,0:0:0:0:
320,192,505898,1,0,0:0:0:0:
448,192,505898,1,0,0:0:0:0:
64,192,506048,1,0,0:0:0:0:
192,192,506198,1,0,0:0:0:0:
448,192,506348,1,0,0:0:0:0:
192,192,506648,1,0,0:0:0:0:
320,192,506798,1,0,0:0:0:0:
192,192,506948,1,0,0:0:0:0:
64,192,507098,1,0,0:0:0:0:
448,192,507098,1,0,0:0:0:0:
320,192,507248,1,0,0:0:0:0:
64,192,507398,1,0,0:0:0:0:
192,192,507473,1,0,0:0:0:0:
320,192,507548,1,0,0:0:0:0:
448,192,507623,1,0,0:0:0:0:
64,192,507698,128,0,510098:0:0:0:0:
192,192,507698,1,0,0:0:0:0:
320,192,507848,1,0,0:0:0:0:
448,192,507998,1,0,0:0:0:0:
192,192,508148,1,0,0:0:0:0:
320,192,508298,1,0,0:0:0:0:
448,192,508298,1,0,0:0:0:0:
192,192,508448,1,0,0:0:0:0:
320,192,508598,1,0,0:0:0:0:
448,192,508748,1,0,0:0:0:0:
192,192,508898,1,0,0:0:0:0:
320,192,509048,1,0,0:0:0:0:
192,192,509198,1,0,0:0:0:0:
448,192,509348,1,0,0:0:0:0:
192,192,509498,1,0,0:0:0:0:
320,192,509498,1,0,0:0:0:0:
448,192,509648,1,0,0:0:0:0:
192,192,509798,1,0,0:0:0:0:
320,192,509948,1,0,0:0:0:0:
192,192,510098,128,0,512498:0:0:0:0:
448,192,510098,1,0,0:0:0:0:
320,192,510248,1,0,0:0:0:0:
448,192,510398,1,0,0:0:0:0:
64,192,510548,1,0,0:0:0:0:
320,192,510698,1,0,0:0:0:0:
448,192,510698,1,0,0:0:0:0:
64,192,510848,1,0,0:0:0:0:
320,192,510998,1,0,0:0:0:0:
448,192,511148,1,0,0:0:0:0:
320,192,511298,1,0,0:0:0:0:
64,192,511448,1,0,0:0:0:0:
320,192,511598,1,0,0:0:0:0:
64,192,511748,1,0,0:0:0:0:
320,192,511898,1,0,0:0:0:0:
448,192,511898,1,0,0:0:0:0:
64,192,512048,1,0,0:0:0:0:
320,192,512198,1,0,0:0:0:0:
448,192,512348,1,0,0:0:0:0:
64,192,512498,1,0,0:0:0:0:
320,192,512498,128,0,514898:0:0:0:0:
192,192,512648,1,0,0:0:0:0:
64,192,512798,1,0,0:0:0:0:
448,192,512948,1,0,0:0:0:0:
64,192,513098,1,0,0:0:0:0:
192,192,513098,1,0,0:0:0:0:
448,192,513248,1,0,0:0:0:0:
192,192,513398,1,0,0:0:0:0:
64,192,513548,1,0,0:0:0:0:
448,192,513698,1,0,0:0:0:0:
64,192,513848,1,0,0:0:0:0:
192,192,513998,1,0,0:0:0:0:
448,192,514148,1,0,0:0:0:0:
64,192,514298,1,0,0:0:0:0:
192,192,514298,1,0,0:0:0:0:
448,192,514448,1,0,0:0:0:0:
64,192,514598,1,0,0:0:0:0:
192,192,514748,1,0,0:0:0:0:
64,192,514898,1,0,0:0:0:0:
448,192,514898,128,0,517298:0:0:0:0:
192,192,515048,1,0,0:0:0:0:
320,192,515198,1,0,0:0:0:0:
192,192,515348,1,0,0:0:0:0:
64,192,515498,1,0,0:0:0:0:
320,192,515498,1,0,0:0:0:0:
192,192,515648,1,0,0:0:0:0:
64,192,515798,1,0,0:0:0:0:
192,192,515948,1,0,0:0:0:0:
320,192,516098,128,0,516248:0:0:0:0:
192,192,516248,128,0,516398:0:0:0:0:
64,192,516398,128,0,516548:0:0:0:0:
320,192,516548,128,0,516698:0:0:0:0:
192,192,516698,128,0,516848:0:0:0:0:
64,192,516848,128,0,516998:0:0:0:0:
192,192,516998,128,0,517148:0:0:0:0:
320,192,517148,128,0,517298:0:0:0:0:
64,192,517298,128,0,522098:0:0:0:0:
192,192,517298,1,0,0:0:0:0:
64,192,524498,1,0,0:0:0:0:
320,192,525250,1,0,0:0:0:0:
192,192,525697,1,0,0:0:0:0:
320,192,526222,1,0,0:0:0:0:
64,192,526887,1,0,0:0:0:0:
448,192,526887,1,0,0:0:0:0:
320,192,527556,1,0,0:0:0:0:
192,192,528002,1,0,0:0:0:0:
448,192,528460,1,0,0:0:0:0:
320,192,528833,1,0,0:0:0:0:
192,192,529207,1,0,0:0:0:0:
64,192,529364,1,0,0:0:0:0:
320,192,529538,1,0,0:0:0:0:
448,192,529819,1,0,0:0:0:0:
192,192,530200,1,0,0:0:0:0:
320,192,530543,1,0,0:0:0:0:
64,192,530692,1,0,0:0:0:0:
192,192,530905,1,0,0:0:0:0:
448,192,531293,1,0,0:0:0:0:
192,192,531716,1,0,0:0:0:0:
320,192,532191,1,0,0:0:0:0:
192,192,532670,1,0,0:0:0:0:
64,192,533303,1,0,0:0:0:0:
448,192,534296,1,0,0:0:0:0:
320,192,534352,1,0,0:0:0:0:
192,192,534408,1,0,0:0:0:0:
64,192,534465,1,0,0:0:0:0:
448,192,534465,1,0,0:0:0:0:
320,192,534905,1,0,0:0:0:0:
192,192,535301,1,0,0:0:0:0:
320,192,535636,1,0,0:0:0:0:
64,192,535987,1,0,0:0:0:0:
320,192,536322,1,0,0:0:0:0:
448,192,536472,1,0,0:0:0:0:
192,192,536671,1,0,0:0:0:0:
320,192,536995,1,0,0:0:0:0:
192,192,537383,1,0,0:0:0:0:
320,192,537762,1,0,0:0:0:0:
448,192,538261,1,0,0:0:0:0:
64,192,538806,1,0,0:0:0:0:
64,192,539678,1,0,0:0:0:0:
192,192,539974,1,0,0:0:0:0:
448,192,540967,1,0,0:0:0:0:
64,192,541608,1,0,0:0:0:0:
320,192,541663,1,0,0:0:0:0:
448,192,542139,1,0,0:0:0:0:
192,192,542509,1,0,0:0:0:0:
448,192,542883,1,0,0:0:0:0:
64,192,543218,1,0,0:0:0:0:
320,192,543570,1,0,0:0:0:0:
192,192,543757,1,0,0:0:0:0:
320,192,544009,1,0,0:0:0:0:
192,192,544382,1,0,0:0:0:0:
448,192,544775,1,0,0:0:0:0:
64,192,545243,1,0,0:0:0:0:
192,192,545472,1,0,0:0:0:0:
320,192,545699,1,0,0:0:0:0:
64,192,546090,1,0,0:0:0:0:
192,192,546445,1,0,0:0:0:0:
448,192,546699,1,0,0:0:0:0:
320,192,547020,1,0,0:0:0:0:
192,192,547334,1,0,0:0:0:0:
64,192,547675,1,0,0:0:0:0:
320,192,548052,1,0,0:0:0:0:
64,192,548645,1,0,0:0:0:0:
448,192,548645,1,0,0:0:0:0:
64,192,549469,1,0,0:0:0:0:
192,192,549469,1,0,0:0:0:0:
192,192,550514,1,0,0:0:0:0:
448,192,550514,1,0,0:0:0:0:
64,192,551798,1,0,0:0:0:0:
320,192,551798,1,0,0:0:0:0:
448,192,551798,1,0,0:0:0:0:
448,192,553246,1,0,0:0:0:0:
192,192,553736,1,0,0:0:0:0:
320,192,554273,1,0,0:0:0:0:
64,192,554875,1,0,0:0:0:0:
192,192,555650,1,0,0:0:0:0:
448,192,555697,1,0,0:0:0:0:
64,192,564096,132,0,564246:0:0:0:0:
448,192,564246,1,0,0:0:0:0:
320,192,564296,1,0,0:0:0:0:
192,192,564346,1,0,0:0:0:0:
448,192,564396,1,0,0:0:0:0:
320,192,564446,1,0,0:0:0:0:
192,192,564496,1,0,0:0:0:0:
448,192,564546,1,0,0:0:0:0:
320,192,564583,1,0,0:0:0:0:
64,192,564621,1,0,0:0:0:0:
192,192,564658,1,0,0:0:0:0:
320,192,564696,1,0,0:0:0:0:
448,192,564733,1,0,0:0:0:0:
64,192,564771,1,0,0:0:0:0:
192,192,564808,1,0,0:0:0:0:
320,192,564846,1,0,0:0:0:0:
448,192,564883,1,0,0:0:0:0:
64,192,564921,1,0,0:0:0:0:
192,192,564958,1,0,0:0:0:0:
448,192,564996,1,0,0:0:0:0:
320,192,565033,1,0,0:0:0:0:
192,192,565071,1,0,0:0:0:0:
64,192,565108,1,0,0:0:0:0:
448,192,565146,1,0,0:0:0:0:
320,192,565221,1,0,0:0:0:0:
192,192,565296,128,2,565446:0:0:0:0:
64,192,565296,1,4,0:0:0:0:
448,192,565596,128,0,565746:0:0:0:0:
192,192,565896,128,0,566046:0:0:0:0:
448,192,566196,128,0,566346:0:0:0:0:
64,192,566496,128,0,566646:0:0:0:0:
320,192,566796,128,0,566946:0:0:0:0:
192,192,566946,128,0,567096:0:0:0:0:
64,192,567096,128,0,567246:0:0:0:0:
320,192,567396,128,0,567546:0:0:0:0:
64,192,567696,128,0,567846:0:0:0:0:
448,192,567996,128,0,568146:0:0:0:0:
320,192,568146,128,0,568296:0:0:0:0:
192,192,568296,128,0,568446:0:0:0:0:
320,192,568596,128,0,568746:0:0:0:0:
64,192,568896,128,0,569046:0:0:0:0:
448,192,569196,128,0,569346:0:0:0:0:
192,192,569496,128,0,569646:0:0:0:0:
64,192,569796,1,8,0:0:0:0:
192,192,569796,1,0,0:0:0:0:
320,192,569871,1,8,0:0:0:0:
448,192,569871,1,0,0:0:0:0:
64,192,569946,1,8,0:0:0:0:
192,192,569946,1,0,0:0:0:0:
320,192,570021,1,8,0:0:0:0:
64,192,570096,1,8,0:0:0:0:
192,192,570096,1,2,0:0:0:0:
448,192,570096,1,0,0:0:0:0:
64,192,570246,1,8,0:0:0:0:
320,192,570246,1,0,0:0:0:0:
64,192,570396,1,2,0:0:0:0:
192,192,570396,1,8,0:0:0:0:
448,192,570396,1,0,0:0:0:0:
192,192,570546,1,8,0:0:0:0:
448,192,570546,1,0,0:0:0:0:
64,192,570696,1,8,0:0:0:0:
320,192,570696,1,2,0:0:0:0:
448,192,570696,1,0,0:0:0:0:
192,192,570846,1,8,0:0:0:0:
320,192,570846,1,0,0:0:0:0:
64,192,570996,1,8,0:0:0:0:
320,192,570996,1,2,0:0:0:0:
448,192,570996,1,0,0:0:0:0:
192,192,571071,1,8,0:0:0:0:
64,192,571146,1,8,0:0:0:0:
448,192,571146,1,0,0:0:0:0:
320,192,571221,1,8,0:0:0:0:
64,192,571296,1,8,0:0:0:0:
192,192,571296,1,2,0:0:0:0:
448,192,571296,1,0,0:0:0:0:
320,192,571371,1,8,0:0:0:0:
64,192,571446,1,8,0:0:0:0:
448,192,571446,1,0,0:0:0:0:
192,192,571521,1,8,0:0:0:0:
320,192,571596,1,8,0:0:0:0:
448,192,571596,1,2,0:0:0:0:
64,192,571671,1,8,0:0:0:0:
192,192,571746,1,8,0:0:0:0:
320,192,571746,1,0,0:0:0:0:
448,192,571821,1,8,0:0:0:0:
64,192,571896,1,8,0:0:0:0:
192,192,571896,1,2,0:0:0:0:
320,192,571971,1,8,0:0:0:0:
64,192,572046,1,8,0:0:0:0:
448,192,572046,1,0,0:0:0:0:
192,192,572121,1,8,0:0:0:0:
448,192,572196,1,8,0:0:0:0:
320,192,572196,1,2,0:0:0:0:
64,192,572271,1,8,0:0:0:0:
320,192,572346,1,8,0:0:0:0:
192,192,572346,1,0,0:0:0:0:
448,192,572421,1,8,0:0:0:0:
64,192,572496,128,8,572646:0:0:0:0:
192,192,572796,128,0,572946:0:0:0:0:
320,192,573096,128,0,573246:0:0:0:0:
448,192,573396,128,0,573696:0:0:0:0:
64,192,573696,1,2,0:0:0:0:
192,192,573696,1,8,0:0:0:0:
320,192,573696,1,4,0:0:0:0:
64,192,573846,1,2,0:0:0:0:
192,192,573846,1,0,0:0:0:0:
192,192,573996,1,2,0:0:0:0:
64,192,573996,128,8,574146:0:0:0:0:
448,192,573996,1,4,0:0:0:0:
320,192,574146,128,2,574296:0:0:0:0:
448,192,574146,1,0,0:0:0:0:
64,192,574296,1,2,0:0:0:0:
192,192,574296,1,8,0:0:0:0:
448,192,574296,1,4,0:0:0:0:
64,192,574446,1,8,0:0:0:0:
192,192,574446,1,2,0:0:0:0:
448,192,574446,1,0,0:0:0:0:
320,192,574521,1,8,0:0:0:0:
64,192,574596,1,2,0:0:0:0:
192,192,574596,1,8,0:0:0:0:
320,192,574671,1,8,0:0:0:0:
448,192,574671,1,0,0:0:0:0:
64,192,574746,1,8,0:0:0:0:
192,192,574746,1,2,0:0:0:0:
320,192,574821,1,8,0:0:0:0:
64,192,574896,1,2,0:0:0:0:
192,192,574896,128,4,575046:0:0:0:0:
448,192,574896,1,8,0:0:0:0:
320,192,575046,1,0,0:0:0:0:
64,192,575196,1,8,0:0:0:0:
192,192,575196,1,2,0:0:0:0:
448,192,575196,128,0,575346:0:0:0:0:
192,192,575346,1,0,0:0:0:0:
64,192,575496,128,2,575646:0:0:0:0:
320,192,575496,1,0,0:0:0:0:
448,192,575646,1,0,0:0:0:0:
64,192,575796,1,2,0:0:0:0:
192,192,575796,1,8,0:0:0:0:
320,192,575796,128,0,575946:0:0:0:0:
448,192,575946,1,0,0:0:0:0:
192,192,576096,128,2,576246:0:0:0:0:
448,192,576096,1,0,0:0:0:0:
64,192,576246,1,0,0:0:0:0:
64,192,576396,1,8,0:0:0:0:
192,192,576396,1,2,0:0:0:0:
448,192,576396,128,0,576546:0:0:0:0:
320,192,576546,128,0,576696:0:0:0:0:
192,192,576696,128,2,576846:0:0:0:0:
448,192,576696,1,0,0:0:0:0:
64,192,576846,1,0,0:0:0:0:
320,192,576996,1,2,0:0:0:0:
64,192,576996,128,8,577146:0:0:0:0:
448,192,576996,1,0,0:0:0:0:
320,192,577146,1,2,0:0:0:0:
448,192,577146,1,0,0:0:0:0:
64,192,577296,1,2,0:0:0:0:
320,192,577296,1,0,0:0:0:0:
448,192,577296,128,0,577446:0:0:0:0:
192,192,577446,1,0,0:0:0:0:
64,192,577596,1,8,0:0:0:0:
320,192,577596,128,2,577746:0:0:0:0:
448,192,577596,1,0,0:0:0:0:
192,192,577746,128,0,577896:0:0:0:0:
64,192,577896,128,2,578046:0:0:0:0:
448,192,577896,1,0,0:0:0:0:
192,192,578046,1,0,0:0:0:0:
64,192,578196,1,2,0:0:0:0:
448,192,578196,128,8,578346:0:0:0:0:
320,192,578196,1,0,0:0:0:0:
64,192,578346,1,2,0:0:0:0:
192,192,578346,1,0,0:0:0:0:
320,192,578421,1,2,0:0:0:0:
192,192,578496,128,4,578596:0:0:0:0:
64,192,578496,128,8,578596:0:0:0:0:
448,192,578496,128,2,578596:0:0:0:0:
448,192,578696,128,8,578796:0:0:0:0:
320,192,578696,128,4,578796:0:0:0:0:
64,192,578696,128,2,578796:0:0:0:0:
64,192,578896,128,8,578996:0:0:0:0:
192,192,578896,128,4,578996:0:0:0:0:
320,192,578896,128,2,578996:0:0:0:0:
192,192,579096,128,2,579196:0:0:0:0:
320,192,579096,128,4,579196:0:0:0:0:
448,192,579096,128,8,579196:0:0:0:0:
192,192,579296,128,4,579396:0:0:0:0:
64,192,579296,128,8,579396:0:0:0:0:
448,192,579296,128,2,579396:0:0:0:0:
448,192,579496,128,8,579596:0:0:0:0:
320,192,579496,128,4,579596:0:0:0:0:
64,192,579496,128,2,579596:0:0:0:0:
64,192,579696,128,8,580296:0:0:0:0:
192,192,579696,1,2,0:0:0:0:
320,192,579696,1,4,0:0:0:0:
448,192,579996,1,0,0:0:0:0:
320,192,580071,1,0,0:0:0:0:
192,192,580146,1,0,0:0:0:0:
320,192,580221,1,0,0:0:0:0:
192,192,580296,1,8,0:0:0:0:
448,192,580296,1,2,0:0:0:0:
320,192,580371,1,0,0:0:0:0:
192,192,580446,1,0,0:0:0:0:
64,192,580596,128,8,581196:0:0:0:0:
320,192,580596,1,2,0:0:0:0:
448,192,580596,1,4,0:0:0:0:
448,192,580896,1,0,0:0:0:0:
320,192,580971,1,0,0:0:0:0:
192,192,581046,1,0,0:0:0:0:
320,192,581121,1,0,0:0:0:0:
192,192,581196,1,10,0:0:0:0:
448,192,581196,1,4,0:0:0:0:
320,192,581271,1,0,0:0:0:0:
64,192,581346,1,2,0:0:0:0:
192,192,581346,1,0,0:0:0:0:
320,192,581421,1,0,0:0:0:0:
64,192,581496,1,2,0:0:0:0:
192,192,581496,1,8,0:0:0:0:
448,192,581496,1,4,0:0:0:0:
64,192,581646,1,8,0:0:0:0:
320,192,581646,1,2,0:0:0:0:
448,192,581646,1,0,0:0:0:0:
320,192,581796,1,2,0:0:0:0:
448,192,581796,1,0,0:0:0:0:
64,192,581871,1,2,0:0:0:0:
192,192,581871,1,0,0:0:0:0:
320,192,581946,1,2,0:0:0:0:
448,192,581946,1,0,0:0:0:0:
192,192,582021,1,2,0:0:0:0:
64,192,582096,1,2,0:0:0:0:
320,192,582096,1,8,0:0:0:0:
448,192,582096,128,4,582246:0:0:0:0:
64,192,582246,1,2,0:0:0:0:
192,192,582246,1,0,0:0:0:0:
64,192,582396,128,2,582546:0:0:0:0:
320,192,582396,1,8,0:0:0:0:
448,192,582396,1,0,0:0:0:0:
192,192,582546,1,2,0:0:0:0:
448,192,582546,1,0,0:0:0:0:
64,192,582696,1,2,0:0:0:0:
192,192,582696,1,8,0:0:0:0:
448,192,582696,128,4,582846:0:0:0:0:
64,192,582846,1,2,0:0:0:0:
320,192,582846,1,0,0:0:0:0:
64,192,582996,128,2,583146:0:0:0:0:
192,192,582996,1,8,0:0:0:0:
448,192,582996,1,0,0:0:0:0:
320,192,583146,1,2,0:0:0:0:
448,192,583146,1,0,0:0:0:0:
192,192,583221,1,2,0:0:0:0:
64,192,583296,1,8,0:0:0:0:
320,192,583296,1,4,0:0:0:0:
448,192,583296,1,2,0:0:0:0:
192,192,583371,1,2,0:0:0:0:
64,192,583446,1,2,0:0:0:0:
448,192,583446,1,0,0:0:0:0:
320,192,583521,1,2,0:0:0:0:
192,192,583596,1,4,0:0:0:0:
448,192,583596,1,8,0:0:0:0:
64,192,583596,1,0,0:0:0:0:
320,192,583671,1,2,0:0:0:0:
64,192,583746,1,2,0:0:0:0:
192,192,583746,1,0,0:0:0:0:
448,192,583821,1,2,0:0:0:0:
64,192,583896,1,4,0:0:0:0:
320,192,583896,1,8,0:0:0:0:
192,192,583971,1,2,0:0:0:0:
448,192,584046,1,2,0:0:0:0:
320,192,584046,1,0,0:0:0:0:
192,192,584121,1,2,0:0:0:0:
64,192,584196,1,2,0:0:0:0:
320,192,584196,1,8,0:0:0:0:
448,192,584196,1,4,0:0:0:0:
192,192,584346,1,0,0:0:0:0:
64,192,584496,128,2,584646:0:0:0:0:
320,192,584496,1,4,0:0:0:0:
448,192,584496,1,0,0:0:0:0:
192,192,584646,1,2,0:0:0:0:
320,192,584646,1,0,0:0:0:0:
64,192,584796,1,2,0:0:0:0:
320,192,584796,128,8,584946:0:0:0:0:
448,192,584796,1,0,0:0:0:0:
192,192,584946,1,2,0:0:0:0:
448,192,584946,1,0,0:0:0:0:
320,192,585021,1,8,0:0:0:0:
64,192,585096,128,2,585246:0:0:0:0:
192,192,585096,1,0,0:0:0:0:
320,192,585171,1,8,0:0:0:0:
192,192,585246,1,2,0:0:0:0:
448,192,585246,1,0,0:0:0:0:
64,192,585396,1,8,0:0:0:0:
320,192,585396,128,2,585546:0:0:0:0:
448,192,585396,1,0,0:0:0:0:
64,192,585546,1,2,0:0:0:0:
192,192,585546,1,0,0:0:0:0:
64,192,585696,128,0,585846:0:0:0:0:
192,192,585771,1,8,0:0:0:0:
320,192,585846,1,2,0:0:0:0:
448,192,585846,1,0,0:0:0:0:
64,192,585996,1,2,0:0:0:0:
192,192,585996,1,8,0:0:0:0:
320,192,585996,128,0,586146:0:0:0:0:
192,192,586146,128,0,586296:0:0:0:0:
320,192,586221,1,8,0:0:0:0:
64,192,586296,128,2,586446:0:0:0:0:
448,192,586296,1,0,0:0:0:0:
320,192,586371,1,8,0:0:0:0:
192,192,586446,1,2,0:0:0:0:
448,192,586446,1,0,0:0:0:0:
64,192,586596,1,2,0:0:0:0:
320,192,586596,1,8,0:0:0:0:
448,192,586596,128,0,586746:0:0:0:0:
192,192,586746,1,0,0:0:0:0:
320,192,586821,1,0,0:0:0:0:
64,192,586896,1,2,0:0:0:0:
192,192,586896,128,0,587046:0:0:0:0:
320,192,587046,1,2,0:0:0:0:
448,192,587046,1,0,0:0:0:0:
64,192,587196,1,2,0:0:0:0:
192,192,587196,1,8,0:0:0:0:
448,192,587196,128,0,587346:0:0:0:0:
64,192,587346,1,2,0:0:0:0:
320,192,587346,128,0,587496:0:0:0:0:
192,192,587496,128,2,587646:0:0:0:0:
448,192,587496,1,0,0:0:0:0:
64,192,587571,1,8,0:0:0:0:
320,192,587646,1,2,0:0:0:0:
448,192,587646,1,0,0:0:0:0:
64,192,587796,1,8,0:0:0:0:
192,192,587796,1,2,0:0:0:0:
448,192,587796,128,0,587946:0:0:0:0:
64,192,587946,1,2,0:0:0:0:
320,192,587946,1,0,0:0:0:0:
320,192,588096,128,0,588246:0:0:0:0:
448,192,588171,1,8,0:0:0:0:
64,192,588246,1,2,0:0:0:0:
192,192,588246,1,0,0:0:0:0:
64,192,588396,1,2,0:0:0:0:
192,192,588396,128,8,588546:0:0:0:0:
448,192,588396,1,0,0:0:0:0:
448,192,588546,1,0,0:0:0:0:
320,192,588621,1,8,0:0:0:0:
64,192,588696,128,2,588846:0:0:0:0:
192,192,588696,1,0,0:0:0:0:
320,192,588771,1,8,0:0:0:0:
192,192,588846,1,2,0:0:0:0:
448,192,588846,1,0,0:0:0:0:
64,192,588996,1,2,0:0:0:0:
192,192,588996,1,8,0:0:0:0:
448,192,588996,128,0,589071:0:0:0:0:
320,192,589071,128,0,589146:0:0:0:0:
192,192,589146,128,0,589221:0:0:0:0:
64,192,589221,128,0,589296:0:0:0:0:
320,192,589296,1,2,0:0:0:0:
192,192,589296,1,4,0:0:0:0:
448,192,589296,128,0,589446:0:0:0:0:
64,192,589446,1,2,0:0:0:0:
320,192,589446,1,0,0:0:0:0:
192,192,589596,128,8,589746:0:0:0:0:
320,192,589596,1,2,0:0:0:0:
448,192,589596,1,0,0:0:0:0:
64,192,589746,1,2,0:0:0:0:
448,192,589746,1,0,0:0:0:0:
192,192,589821,1,8,0:0:0:0:
64,192,589896,1,2,0:0:0:0:
320,192,589896,128,0,590046:0:0:0:0:
192,192,589971,1,8,0:0:0:0:
64,192,590046,1,2,0:0:0:0:
448,192,590046,1,0,0:0:0:0:
192,192,590196,128,2,590346:0:0:0:0:
320,192,590196,1,8,0:0:0:0:
448,192,590196,1,0,0:0:0:0:
64,192,590346,1,2,0:0:0:0:
448,192,590346,1,0,0:0:0:0:
192,192,590496,1,4,0:0:0:0:
320,192,590496,128,0,590646:0:0:0:0:
448,192,590571,1,8,0:0:0:0:
192,192,590646,1,2,0:0:0:0:
64,192,590646,1,0,0:0:0:0:
64,192,590796,1,8,0:0:0:0:
192,192,590796,1,2,0:0:0:0:
448,192,590796,128,0,590946:0:0:0:0:
320,192,590946,128,0,591096:0:0:0:0:
64,192,591021,1,8,0:0:0:0:
192,192,591096,128,2,591246:0:0:0:0:
448,192,591096,1,0,0:0:0:0:
64,192,591171,1,8,0:0:0:0:
320,192,591246,1,2,0:0:0:0:
448,192,591246,1,0,0:0:0:0:
64,192,591396,1,8,0:0:0:0:
320,192,591396,128,2,591546:0:0:0:0:
448,192,591396,1,0,0:0:0:0:
192,192,591546,1,0,0:0:0:0:
320,192,591621,1,0,0:0:0:0:
64,192,591696,1,2,0:0:0:0:
192,192,591696,1,4,0:0:0:0:
448,192,591696,128,0,591846:0:0:0:0:
64,192,591846,1,2,0:0:0:0:
320,192,591846,1,0,0:0:0:0:
192,192,591996,128,2,592146:0:0:0:0:
320,192,591996,1,8,0:0:0:0:
448,192,591996,1,0,0:0:0:0:
64,192,592146,1,2,0:0:0:0:
448,192,592146,1,0,0:0:0:0:
192,192,592221,1,8,0:0:0:0:
64,192,592296,1,2,0:0:0:0:
320,192,592296,128,0,592446:0:0:0:0:
192,192,592371,1,8,0:0:0:0:
64,192,592446,1,2,0:0:0:0:
448,192,592446,1,0,0:0:0:0:
64,192,592596,128,8,593046:0:0:0:0:
192,192,592596,1,2,0:0:0:0:
320,192,592596,1,0,0:0:0:0:
192,192,592746,1,2,0:0:0:0:
448,192,592746,1,0,0:0:0:0:
320,192,592896,1,4,0:0:0:0:
448,192,592896,1,0,0:0:0:0:
192,192,592971,1,0,0:0:0:0:
448,192,593046,1,2,0:0:0:0:
320,192,593046,1,0,0:0:0:0:
64,192,593196,1,2,0:0:0:0:
192,192,593196,128,8,593346:0:0:0:0:
448,192,593196,1,0,0:0:0:0:
320,192,593346,128,0,593496:0:0:0:0:
448,192,593496,1,2,0:0:0:0:
64,192,593496,128,4,593796:0:0:0:0:
192,192,593646,1,2,0:0:0:0:
448,192,593646,128,0,593721:0:0:0:0:
320,192,593721,128,0,593796:0:0:0:0:
192,192,593796,128,2,594096:0:0:0:0:
448,192,593796,128,8,593871:0:0:0:0:
320,192,593871,128,0,593946:0:0:0:0:
448,192,593946,128,0,594021:0:0:0:0:
320,192,594021,128,0,594096:0:0:0:0:
448,192,594096,128,2,594246:0:0:0:0:
64,192,594096,1,4,0:0:0:0:
192,192,594246,1,2,0:0:0:0:
320,192,594246,1,0,0:0:0:0:
64,192,594396,1,2,0:0:0:0:
448,192,594396,1,8,0:0:0:0:
192,192,594396,128,0,594546:0:0:0:0:
64,192,594546,1,2,0:0:0:0:
320,192,594546,1,0,0:0:0:0:
448,192,594621,1,8,0:0:0:0:
320,192,594696,128,2,594846:0:0:0:0:
192,192,594696,1,0,0:0:0:0:
448,192,594771,1,8,0:0:0:0:
64,192,594846,1,2,0:0:0:0:
192,192,594846,1,0,0:0:0:0:
448,192,594996,1,8,0:0:0:0:
320,192,594996,1,2,0:0:0:0:
64,192,594996,128,0,595146:0:0:0:0:
192,192,595146,1,2,0:0:0:0:
320,192,595146,1,0,0:0:0:0:
192,192,595296,128,0,595446:0:0:0:0:
64,192,595371,1,8,0:0:0:0:
320,192,595446,1,2,0:0:0:0:
448,192,595446,1,0,0:0:0:0:
64,192,595596,1,2,0:0:0:0:
192,192,595596,1,8,0:0:0:0:
448,192,595596,128,0,595746:0:0:0:0:
320,192,595746,128,0,595896:0:0:0:0:
64,192,595821,1,8,0:0:0:0:
192,192,595896,128,2,596046:0:0:0:0:
448,192,595896,1,0,0:0:0:0:
64,192,595971,1,8,0:0:0:0:
320,192,596046,1,2,0:0:0:0:
448,192,596046,1,0,0:0:0:0:
64,192,596196,1,2,0:0:0:0:
320,192,596196,128,8,596346:0:0:0:0:
448,192,596196,1,0,0:0:0:0:
192,192,596346,1,0,0:0:0:0:
320,192,596421,1,0,0:0:0:0:
64,192,596496,128,2,596646:0:0:0:0:
192,192,596496,1,0,0:0:0:0:
448,192,596496,1,0,0:0:0:0:
320,192,596646,1,2,0:0:0:0:
448,192,596646,1,0,0:0:0:0:
64,192,596796,1,8,0:0:0:0:
192,192,596796,1,2,0:0:0:0:
320,192,596796,128,0,596946:0:0:0:0:
192,192,596946,128,2,597096:0:0:0:0:
448,192,596946,1,0,0:0:0:0:
320,192,597021,1,8,0:0:0:0:
64,192,597096,128,2,597246:0:0:0:0:
448,192,597096,1,0,0:0:0:0:
320,192,597171,1,8,0:0:0:0:
192,192,597246,1,2,0:0:0:0:
448,192,597246,1,0,0:0:0:0:
64,192,597396,1,2,0:0:0:0:
320,192,597396,128,8,597546:0:0:0:0:
448,192,597396,1,0,0:0:0:0:
64,192,597546,1,2,0:0:0:0:
192,192,597546,1,0,0:0:0:0:
192,192,597696,128,4,597796:0:0:0:0:
64,192,597696,128,2,597796:0:0:0:0:
448,192,597696,128,8,597796:0:0:0:0:
448,192,597896,128,8,597996:0:0:0:0:
320,192,597896,128,2,597996:0:0:0:0:
64,192,597896,128,4,597996:0:0:0:0:
64,192,598096,128,2,598196:0:0:0:0:
192,192,598096,128,4,598196:0:0:0:0:
320,192,598096,128,8,598196:0:0:0:0:
320,192,598296,128,4,598396:0:0:0:0:
192,192,598296,128,2,598396:0:0:0:0:
448,192,598296,128,8,598396:0:0:0:0:
192,192,598496,128,2,598596:0:0:0:0:
64,192,598496,128,4,598596:0:0:0:0:
448,192,598496,128,8,598596:0:0:0:0:
448,192,598696,128,8,598796:0:0:0:0:
64,192,598696,128,4,598796:0:0:0:0:
320,192,598696,128,2,598796:0:0:0:0:
64,192,598896,128,8,599496:0:0:0:0:
448,192,598896,1,2,0:0:0:0:
192,192,598896,1,4,0:0:0:0:
448,192,599196,1,0,0:0:0:0:
320,192,599271,1,0,0:0:0:0:
192,192,599346,1,0,0:0:0:0:
448,192,599421,1,0,0:0:0:0:
192,192,599496,1,8,0:0:0:0:
320,192,599496,1,2,0:0:0:0:
448,192,599571,1,0,0:0:0:0:
320,192,599646,1,0,0:0:0:0:
64,192,599796,128,8,600396:0:0:0:0:
192,192,599796,1,2,0:0:0:0:
448,192,599796,1,4,0:0:0:0:
448,192,600096,1,0,0:0:0:0:
320,192,600171,1,0,0:0:0:0:
192,192,600246,1,0,0:0:0:0:
448,192,600321,1,0,0:0:0:0:
192,192,600396,1,8,0:0:0:0:
320,192,600396,1,2,0:0:0:0:
448,192,600471,1,0,0:0:0:0:
64,192,600546,1,2,0:0:0:0:
320,192,600546,1,0,0:0:0:0:
192,192,600621,1,0,0:0:0:0:
64,192,600696,1,2,0:0:0:0:
320,192,600696,1,8,0:0:0:0:
448,192,600696,1,4,0:0:0:0:
64,192,600846,1,8,0:0:0:0:
192,192,600846,1,2,0:0:0:0:
448,192,600846,1,0,0:0:0:0:
320,192,600996,1,2,0:0:0:0:
448,192,600996,1,0,0:0:0:0:
64,192,601071,1,2,0:0:0:0:
192,192,601071,1,0,0:0:0:0:
320,192,601146,1,2,0:0:0:0:
448,192,601146,1,0,0:0:0:0:
192,192,601221,1,2,0:0:0:0:
64,192,601296,1,2,0:0:0:0:
320,192,601296,1,8,0:0:0:0:
448,192,601296,128,4,601446:0:0:0:0:
192,192,601446,1,2,0:0:0:0:
64,192,601446,1,0,0:0:0:0:
64,192,601596,1,2,0:0:0:0:
192,192,601596,128,8,601746:0:0:0:0:
448,192,601596,1,0,0:0:0:0:
320,192,601746,1,2,0:0:0:0:
448,192,601746,1,0,0:0:0:0:
64,192,601896,1,2,0:0:0:0:
320,192,601896,128,8,602046:0:0:0:0:
448,192,601896,1,4,0:0:0:0:
64,192,602046,1,2,0:0:0:0:
192,192,602046,1,0,0:0:0:0:
64,192,602196,128,2,602346:0:0:0:0:
320,192,602196,1,8,0:0:0:0:
448,192,602196,1,0,0:0:0:0:
320,192,602346,1,2,0:0:0:0:
448,192,602346,1,0,0:0:0:0:
192,192,602421,1,2,0:0:0:0:
64,192,602496,1,8,0:0:0:0:
320,192,602496,1,4,0:0:0:0:
448,192,602496,1,2,0:0:0:0:
192,192,602571,1,2,0:0:0:0:
64,192,602646,1,2,0:0:0:0:
448,192,602646,1,0,0:0:0:0:
320,192,602721,1,2,0:0:0:0:
64,192,602796,1,4,0:0:0:0:
192,192,602796,1,2,0:0:0:0:
448,192,602796,1,8,0:0:0:0:
320,192,602871,1,2,0:0:0:0:
64,192,602946,1,2,0:0:0:0:
448,192,602946,1,0,0:0:0:0:
192,192,603021,1,2,0:0:0:0:
320,192,603096,1,2,0:0:0:0:
448,192,603096,1,8,0:0:0:0:
192,192,603171,1,2,0:0:0:0:
320,192,603246,1,8,0:0:0:0:
64,192,603246,1,2,0:0:0:0:
192,192,603321,1,2,0:0:0:0:
64,192,603396,1,2,0:0:0:0:
320,192,603396,1,8,0:0:0:0:
448,192,603396,1,4,0:0:0:0:
192,192,603546,1,0,0:0:0:0:
64,192,603696,1,2,0:0:0:0:
192,192,603696,1,8,0:0:0:0:
448,192,603696,1,0,0:0:0:0:
192,192,603846,1,2,0:0:0:0:
320,192,603846,1,0,0:0:0:0:
64,192,603996,1,2,0:0:0:0:
320,192,603996,1,8,0:0:0:0:
448,192,603996,1,0,0:0:0:0:
64,192,604146,1,2,0:0:0:0:
192,192,604146,1,0,0:0:0:0:
320,192,604221,1,8,0:0:0:0:
448,192,604221,1,0,0:0:0:0:
64,192,604296,1,0,0:0:0:0:
192,192,604296,1,0,0:0:0:0:
320,192,604371,1,8,0:0:0:0:
448,192,604371,1,0,0:0:0:0:
64,192,604446,1,2,0:0:0:0:
192,192,604446,1,0,0:0:0:0:
320,192,604596,1,0,0:0:0:0:
64,192,604746,1,2,0:0:0:0:
192,192,604746,1,8,0:0:0:0:
448,192,604746,1,0,0:0:0:0:
64,192,605046,1,2,0:0:0:0:
320,192,605046,1,0,0:0:0:0:
64,192,605196,1,2,0:0:0:0:
192,192,605196,1,8,0:0:0:0:
448,192,605196,1,0,0:0:0:0:
192,192,605346,1,2,0:0:0:0:
448,192,605346,1,0,0:0:0:0:
64,192,605421,1,8,0:0:0:0:
320,192,605421,1,0,0:0:0:0:
192,192,605496,1,0,0:0:0:0:
448,192,605496,1,0,0:0:0:0:
64,192,605571,1,8,0:0:0:0:
320,192,605571,1,0,0:0:0:0:
192,192,605646,1,2,0:0:0:0:
448,192,605646,1,0,0:0:0:0:
64,192,605796,1,2,0:0:0:0:
192,192,605796,1,8,0:0:0:0:
448,192,605796,1,0,0:0:0:0:
192,192,605946,1,2,0:0:0:0:
320,192,605946,1,0,0:0:0:0:
64,192,606096,1,2,0:0:0:0:
320,192,606096,1,0,0:0:0:0:
448,192,606096,1,0,0:0:0:0:
320,192,606246,1,2,0:0:0:0:
448,192,606246,1,0,0:0:0:0:
64,192,606396,1,2,0:0:0:0:
320,192,606396,1,8,0:0:0:0:
448,192,606396,1,0,0:0:0:0:
64,192,606546,1,2,0:0:0:0:
448,192,606546,1,0,0:0:0:0:
192,192,606621,1,8,0:0:0:0:
320,192,606621,1,0,0:0:0:0:
64,192,606696,1,0,0:0:0:0:
448,192,606696,1,0,0:0:0:0:
192,192,606771,1,8,0:0:0:0:
320,192,606771,1,0,0:0:0:0:
64,192,606846,1,2,0:0:0:0:
448,192,606846,1,0,0:0:0:0:
192,192,606996,1,0,0:0:0:0:
64,192,607146,1,2,0:0:0:0:
320,192,607146,1,8,0:0:0:0:
448,192,607146,1,0,0:0:0:0:
192,192,607446,1,2,0:0:0:0:
448,192,607446,1,0,0:0:0:0:
64,192,607596,1,2,0:0:0:0:
320,192,607596,1,8,0:0:0:0:
448,192,607596,1,0,0:0:0:0:
64,192,607746,1,2,0:0:0:0:
192,192,607746,1,0,0:0:0:0:
320,192,607821,1,8,0:0:0:0:
448,192,607821,1,0,0:0:0:0:
64,192,607896,128,0,607971:0:0:0:0:
192,192,607896,128,0,607971:0:0:0:0:
320,192,607971,1,8,0:0:0:0:
448,192,607971,128,0,608046:0:0:0:0:
192,192,608046,1,0,0:0:0:0:
64,192,608046,128,2,608121:0:0:0:0:
320,192,608121,128,0,608196:0:0:0:0:
448,192,608121,128,0,608196:0:0:0:0:
64,192,608196,1,2,0:0:0:0:
192,192,608196,1,8,0:0:0:0:
192,192,608346,1,2,0:0:0:0:
320,192,608346,1,0,0:0:0:0:
64,192,608496,1,2,0:0:0:0:
320,192,608496,1,4,0:0:0:0:
448,192,608496,1,0,0:0:0:0:
192,192,608646,1,2,0:0:0:0:
448,192,608646,1,0,0:0:0:0:
64,192,608796,1,2,0:0:0:0:
320,192,608796,1,8,0:0:0:0:
448,192,608796,1,0,0:0:0:0:
64,192,608946,1,2,0:0:0:0:
192,192,608946,1,0,0:0:0:0:
320,192,609021,1,8,0:0:0:0:
448,192,609021,1,0,0:0:0:0:
64,192,609096,1,0,0:0:0:0:
192,192,609096,1,0,0:0:0:0:
320,192,609171,1,8,0:0:0:0:
448,192,609171,1,0,0:0:0:0:
64,192,609246,1,2,0:0:0:0:
192,192,609246,1,0,0:0:0:0:
320,192,609396,1,0,0:0:0:0:
64,192,609546,1,2,0:0:0:0:
192,192,609546,1,8,0:0:0:0:
448,192,609546,1,0,0:0:0:0:
192,192,609846,1,2,0:0:0:0:
320,192,609846,1,0,0:0:0:0:
64,192,609996,1,2,0:0:0:0:
192,192,609996,1,8,0:0:0:0:
448,192,609996,1,0,0:0:0:0:
320,192,610146,1,2,0:0:0:0:
448,192,610146,1,0,0:0:0:0:
64,192,610221,1,8,0:0:0:0:
192,192,610221,1,0,0:0:0:0:
320,192,610296,1,0,0:0:0:0:
64,192,610371,1,8,0:0:0:0:
192,192,610371,1,0,0:0:0:0:
320,192,610446,1,2,0:0:0:0:
448,192,610446,1,0,0:0:0:0:
64,192,610521,1,0,0:0:0:0:
192,192,610596,1,8,0:0:0:0:
320,192,610596,1,2,0:0:0:0:
448,192,610596,1,0,0:0:0:0:
64,192,610671,1,0,0:0:0:0:
192,192,610746,1,2,0:0:0:0:
448,192,610746,1,0,0:0:0:0:
320,192,610821,1,0,0:0:0:0:
64,192,610896,1,2,0:0:0:0:
192,192,610896,1,4,0:0:0:0:
448,192,610896,1,0,0:0:0:0:
192,192,611046,1,2,0:0:0:0:
64,192,611046,1,0,0:0:0:0:
64,192,611196,1,2,0:0:0:0:
320,192,611196,1,8,0:0:0:0:
448,192,611196,1,0,0:0:0:0:
192,192,611346,1,2,0:0:0:0:
448,192,611346,1,0,0:0:0:0:
64,192,611421,1,8,0:0:0:0:
320,192,611421,1,0,0:0:0:0:
448,192,611496,1,0,0:0:0:0:
192,192,611496,1,0,0:0:0:0:
64,192,611571,1,8,0:0:0:0:
320,192,611571,1,0,0:0:0:0:
192,192,611646,1,2,0:0:0:0:
448,192,611646,1,0,0:0:0:0:
320,192,611796,1,0,0:0:0:0:
64,192,611946,1,2,0:0:0:0:
192,192,611946,1,8,0:0:0:0:
448,192,611946,1,4,0:0:0:0:
64,192,612246,1,4,0:0:0:0:
320,192,612246,1,8,0:0:0:0:
448,192,612246,1,2,0:0:0:0:
64,192,612396,1,8,0:0:0:0:
192,192,612396,1,0,0:0:0:0:
320,192,612546,1,2,0:0:0:0:
448,192,612546,1,8,0:0:0:0:
64,192,612621,1,8,0:0:0:0:
192,192,612621,1,0,0:0:0:0:
320,192,612696,1,8,0:0:0:0:
448,192,612696,1,0,0:0:0:0:
64,192,612771,1,8,0:0:0:0:
192,192,612771,1,0,0:0:0:0:
320,192,612846,1,2,0:0:0:0:
448,192,612846,1,8,0:0:0:0:
64,192,612921,1,8,0:0:0:0:
192,192,612996,1,8,0:0:0:0:
320,192,612996,1,0,0:0:0:0:
448,192,612996,1,0,0:0:0:0:
64,192,613071,1,8,0:0:0:0:
192,192,613146,1,2,0:0:0:0:
320,192,613146,1,8,0:0:0:0:
64,192,613296,1,2,0:0:0:0:
192,192,613296,1,4,0:0:0:0:
448,192,613296,1,0,0:0:0:0:
320,192,613446,1,0,0:0:0:0:
192,192,613521,1,0,0:0:0:0:
64,192,613596,1,8,0:0:0:0:
320,192,613596,1,2,0:0:0:0:
448,192,613596,1,0,0:0:0:0:
192,192,613746,1,0,0:0:0:0:
320,192,613821,1,0,0:0:0:0:
64,192,613896,1,2,0:0:0:0:
448,192,613896,1,0,0:0:0:0:
192,192,613971,1,8,0:0:0:0:
320,192,613971,1,0,0:0:0:0:
64,192,614046,1,2,0:0:0:0:
448,192,614046,1,0,0:0:0:0:
192,192,614121,1,0,0:0:0:0:
320,192,614196,1,2,0:0:0:0:
64,192,614196,1,0,0:0:0:0:
64,192,614346,1,2,0:0:0:0:
192,192,614346,1,8,0:0:0:0:
448,192,614346,1,0,0:0:0:0:
448,192,614496,1,2,0:0:0:0:
320,192,614496,1,0,0:0:0:0:
192,192,614646,1,0,0:0:0:0:
64,192,614796,1,2,0:0:0:0:
320,192,614796,1,8,0:0:0:0:
448,192,614796,1,0,0:0:0:0:
192,192,614946,1,2,0:0:0:0:
320,192,615021,1,8,0:0:0:0:
64,192,615096,1,2,0:0:0:0:
192,192,615096,1,0,0:0:0:0:
320,192,615171,1,8,0:0:0:0:
448,192,615171,1,0,0:0:0:0:
64,192,615246,1,2,0:0:0:0:
192,192,615246,1,0,0:0:0:0:
448,192,615321,1,0,0:0:0:0:
64,192,615396,1,2,0:0:0:0:
320,192,615396,1,0,0:0:0:0:
192,192,615471,1,0,0:0:0:0:
64,192,615546,1,2,0:0:0:0:
320,192,615546,1,8,0:0:0:0:
448,192,615546,1,0,0:0:0:0:
192,192,615621,1,0,0:0:0:0:
64,192,615846,1,2,0:0:0:0:
192,192,615846,1,4,0:0:0:0:
448,192,615846,1,0,0:0:0:0:
320,192,615996,1,8,0:0:0:0:
448,192,615996,1,2,0:0:0:0:
64,192,616071,1,8,0:0:0:0:
192,192,616071,1,0,0:0:0:0:
320,192,616146,1,8,0:0:0:0:
448,192,616146,1,0,0:0:0:0:
192,192,616221,1,8,0:0:0:0:
64,192,616296,1,2,0:0:0:0:
320,192,616296,1,8,0:0:0:0:
448,192,616296,1,4,0:0:0:0:
64,192,616446,1,8,0:0:0:0:
192,192,616446,1,2,0:0:0:0:
320,192,616521,1,8,0:0:0:0:
448,192,616521,1,0,0:0:0:0:
64,192,616596,1,8,0:0:0:0:
192,192,616596,1,0,0:0:0:0:
320,192,616671,1,8,0:0:0:0:
448,192,616671,1,0,0:0:0:0:
64,192,616746,1,8,0:0:0:0:
192,192,616746,1,2,0:0:0:0:
320,192,616821,1,8,0:0:0:0:
64,192,616896,1,10,0:0:0:0:
448,192,616896,1,4,0:0:0:0:
192,192,616971,1,0,0:0:0:0:
64,192,617046,1,2,0:0:0:0:
448,192,617046,1,8,0:0:0:0:
320,192,617121,1,0,0:0:0:0:
64,192,617196,1,12,0:0:0:0:
448,192,617196,1,2,0:0:0:0:
192,192,617271,1,0,0:0:0:0:
64,192,617346,1,2,0:0:0:0:
448,192,617346,1,8,0:0:0:0:
320,192,617421,1,0,0:0:0:0:
64,192,617496,1,8,0:0:0:0:
192,192,617496,1,4,0:0:0:0:
448,192,617496,1,2,0:0:0:0:
320,192,617571,1,8,0:0:0:0:
64,192,617646,1,8,0:0:0:0:
192,192,617646,1,2,0:0:0:0:
320,192,617721,1,10,0:0:0:0:
64,192,617796,1,8,0:0:0:0:
192,192,617796,1,2,0:0:0:0:
448,192,617796,1,0,0:0:0:0:
320,192,617871,1,8,0:0:0:0:
64,192,617946,1,8,0:0:0:0:
448,192,617946,1,2,0:0:0:0:
192,192,618021,1,10,0:0:0:0:
64,192,618096,1,8,0:0:0:0:
320,192,618096,1,2,0:0:0:0:
448,192,618096,1,4,0:0:0:0:
320,192,618196,1,0,0:0:0:0:
192,192,618296,1,0,0:0:0:0:
64,192,618396,1,2,0:0:0:0:
192,192,618396,1,8,0:0:0:0:
448,192,618396,1,0,0:0:0:0:
448,192,618496,1,0,0:0:0:0:
64,192,618596,1,0,0:0:0:0:
64,192,618696,1,8,0:0:0:0:
320,192,618696,1,2,0:0:0:0:
448,192,618696,1,0,0:0:0:0:
320,192,618796,1,0,0:0:0:0:
192,192,618896,1,0,0:0:0:0:
64,192,618996,1,8,0:0:0:0:
192,192,618996,1,2,0:0:0:0:
448,192,618996,1,0,0:0:0:0:
448,192,619096,1,0,0:0:0:0:
64,192,619196,1,0,0:0:0:0:
64,192,619296,1,8,0:0:0:0:
320,192,619296,1,2,0:0:0:0:
448,192,619296,1,4,0:0:0:0:
320,192,619396,1,0,0:0:0:0:
64,192,619496,1,0,0:0:0:0:
64,192,619596,1,2,0:0:0:0:
192,192,619596,1,8,0:0:0:0:
448,192,619596,1,0,0:0:0:0:
448,192,619696,1,0,0:0:0:0:
192,192,619796,1,0,0:0:0:0:
64,192,619896,1,8,0:0:0:0:
192,192,619896,1,2,0:0:0:0:
320,192,619896,1,0,0:0:0:0:
320,192,619996,1,0,0:0:0:0:
64,192,620096,1,0,0:0:0:0:
64,192,620196,1,8,0:0:0:0:
192,192,620196,1,2,0:0:0:0:
448,192,620196,1,0,0:0:0:0:
448,192,620296,1,0,0:0:0:0:
64,192,620396,1,2,0:0:0:0:
192,192,620396,1,0,0:0:0:0:
64,192,620496,1,4,0:0:0:0:
192,192,620496,1,2,0:0:0:0:
448,192,620496,1,8,0:0:0:0:
448,192,620596,1,0,0:0:0:0:
192,192,620696,1,2,0:0:0:0:
320,192,620696,1,0,0:0:0:0:
64,192,620796,1,8,0:0:0:0:
192,192,620796,1,2,0:0:0:0:
320,192,620796,1,0,0:0:0:0:
64,192,620896,1,0,0:0:0:0:
320,192,620996,1,2,0:0:0:0:
448,192,620996,1,0,0:0:0:0:
64,192,621096,1,2,0:0:0:0:
320,192,621096,1,8,0:0:0:0:
448,192,621096,1,4,0:0:0:0:
64,192,621196,1,0,0:0:0:0:
192,192,621296,1,2,0:0:0:0:
320,192,621296,1,0,0:0:0:0:
192,192,621396,1,2,0:0:0:0:
320,192,621396,1,8,0:0:0:0:
448,192,621396,1,0,0:0:0:0:
448,192,621496,1,0,0:0:0:0:
64,192,621596,1,2,0:0:0:0:
192,192,621596,1,0,0:0:0:0:
64,192,621696,1,2,0:0:0:0:
192,192,621696,1,8,0:0:0:0:
448,192,621696,1,4,0:0:0:0:
320,192,621796,1,8,0:0:0:0:
448,192,621796,1,0,0:0:0:0:
64,192,621896,1,2,0:0:0:0:
192,192,621896,1,0,0:0:0:0:
64,192,621996,1,2,0:0:0:0:
320,192,621996,1,8,0:0:0:0:
448,192,621996,1,4,0:0:0:0:
192,192,622096,1,8,0:0:0:0:
448,192,622096,1,0,0:0:0:0:
64,192,622196,1,2,0:0:0:0:
320,192,622196,1,0,0:0:0:0:
64,192,622296,1,2,0:0:0:0:
192,192,622296,1,8,0:0:0:0:
448,192,622296,1,4,0:0:0:0:
320,192,622371,1,0,0:0:0:0:
64,192,622446,1,0,0:0:0:0:
192,192,622521,1,0,0:0:0:0:
64,192,622596,1,4,0:0:0:0:
320,192,622596,1,2,0:0:0:0:
448,192,622596,1,0,0:0:0:0:
192,192,622646,1,0,0:0:0:0:
320,192,622696,1,0,0:0:0:0:
64,192,622746,1,0,0:0:0:0:
192,192,622796,1,0,0:0:0:0:
320,192,622846,1,0,0:0:0:0:
64,192,623196,1,2,0:0:0:0:
192,192,623196,1,0,0:0:0:0:
448,192,623496,1,0,0:0:0:0:
192,192,623646,1,0,0:0:0:0:
64,192,623796,1,0,0:0:0:0:
448,192,623946,1,0,0:0:0:0:
192,192,624096,1,0,0:0:0:0:
64,192,624246,1,0,0:0:0:0:
448,192,624396,1,0,0:0:0:0:
192,192,624546,1,0,0:0:0:0:
64,192,624696,1,0,0:0:0:0:
448,192,624846,1,0,0:0:0:0:
192,192,624996,1,0,0:0:0:0:
64,192,625146,1,0,0:0:0:0:
320,192,625296,1,0,0:0:0:0:
192,192,625596,1,0,0:0:0:0:
448,192,625746,1,0,0:0:0:0:
64,192,626046,1,0,0:0:0:0:
448,192,626346,1,0,0:0:0:0:
320,192,627096,1,0,0:0:0:0:
448,192,627114,1,0,0:0:0:0:
192,192,627396,1,0,0:0:0:0:
320,192,627414,1,0,0:0:0:0:
64,192,627696,1,2,0:0:0:0:
448,192,627696,128,0,628596:0:0:0:0:
192,192,627714,1,0,0:0:0:0:
320,192,628146,128,0,628596:0:0:0:0:
64,192,628596,1,0,0:0:0:0:
192,192,628746,1,0,0:0:0:0:
64,192,628896,128,2,630096:0:0:0:0:
448,192,628896,1,0,0:0:0:0:
320,192,628914,1,0,0:0:0:0:
192,192,629496,128,0,629946:0:0:0:0:
192,192,630096,1,2,0:0:0:0:
320,192,630096,1,8,0:0:0:0:
448,192,630096,128,4,630546:0:0:0:0:
64,192,630396,1,2,0:0:0:0:
192,192,630396,1,0,0:0:0:0:
64,192,630546,128,2,630996:0:0:0:0:
192,192,630546,1,8,0:0:0:0:
320,192,630546,1,4,0:0:0:0:
448,192,630846,1,0,0:0:0:0:
320,192,630921,1,0,0:0:0:0:
192,192,630996,1,8,0:0:0:0:
448,192,630996,1,2,0:0:0:0:
320,192,631071,1,0,0:0:0:0:
192,192,631146,1,0,0:0:0:0:
320,192,631221,1,0,0:0:0:0:
64,192,631296,1,4,0:0:0:0:
192,192,631296,1,8,0:0:0:0:
448,192,631296,128,2,631596:0:0:0:0:
64,192,631596,1,2,0:0:0:0:
320,192,631596,1,8,0:0:0:0:
192,192,631671,1,0,0:0:0:0:
320,192,631746,1,0,0:0:0:0:
192,192,631821,1,0,0:0:0:0:
64,192,631896,1,8,0:0:0:0:
320,192,631896,1,2,0:0:0:0:
448,192,631896,1,4,0:0:0:0:
64,192,632046,1,2,0:0:0:0:
192,192,632046,1,8,0:0:0:0:
320,192,632121,1,2,0:0:0:0:
448,192,632121,1,8,0:0:0:0:
64,192,632196,1,2,0:0:0:0:
192,192,632196,1,8,0:0:0:0:
320,192,632271,1,2,0:0:0:0:
448,192,632271,1,8,0:0:0:0:
64,192,632346,1,2,0:0:0:0:
192,192,632346,1,8,0:0:0:0:
320,192,632421,1,2,0:0:0:0:
448,192,632421,1,8,0:0:0:0:
64,192,632496,1,2,0:0:0:0:
192,192,632496,1,8,0:0:0:0:
448,192,632496,1,4,0:0:0:0:
192,192,632646,1,0,0:0:0:0:
64,192,632796,1,8,0:0:0:0:
320,192,632796,1,2,0:0:0:0:
448,192,632796,1,0,0:0:0:0:
192,192,632946,1,0,0:0:0:0:
448,192,632946,1,0,0:0:0:0:
64,192,633096,1,2,0:0:0:0:
320,192,633096,1,0,0:0:0:0:
192,192,633171,1,0,0:0:0:0:
448,192,633246,1,0,0:0:0:0:
320,192,633321,1,0,0:0:0:0:
64,192,633396,1,2,0:0:0:0:
192,192,633396,1,8,0:0:0:0:
448,192,633396,1,0,0:0:0:0:
320,192,633546,1,0,0:0:0:0:
64,192,633546,1,0,0:0:0:0:
448,192,633696,1,2,0:0:0:0:
320,192,633696,1,0,0:0:0:0:
192,192,633846,1,0,0:0:0:0:
64,192,633996,128,2,634146:0:0:0:0:
192,192,633996,1,8,0:0:0:0:
448,192,633996,1,0,0:0:0:0:
320,192,634146,1,0,0:0:0:0:
192,192,634221,1,0,0:0:0:0:
64,192,634296,1,2,0:0:0:0:
448,192,634296,128,0,634446:0:0:0:0:
320,192,634371,1,0,0:0:0:0:
192,192,634446,1,0,0:0:0:0:
64,192,634596,1,2,0:0:0:0:
448,192,634596,1,8,0:0:0:0:
320,192,634746,1,0,0:0:0:0:
192,192,634821,1,0,0:0:0:0:
64,192,634896,1,2,0:0:0:0:
320,192,634896,1,8,0:0:0:0:
448,192,634896,1,4,0:0:0:0:
192,192,635046,1,0,0:0:0:0:
64,192,635196,1,2,0:0:0:0:
320,192,635196,1,8,0:0:0:0:
448,192,635196,1,0,0:0:0:0:
320,192,635346,1,0,0:0:0:0:
64,192,635496,1,2,0:0:0:0:
192,192,635496,1,0,0:0:0:0:
448,192,635571,1,0,0:0:0:0:
320,192,635646,1,0,0:0:0:0:
192,192,635721,1,0,0:0:0:0:
64,192,635796,1,2,0:0:0:0:
320,192,635796,1,8,0:0:0:0:
448,192,635796,1,0,0:0:0:0:
192,192,635946,1,0,0:0:0:0:
320,192,636021,1,0,0:0:0:0:
448,192,636096,1,2,0:0:0:0:
192,192,636096,1,0,0:0:0:0:
320,192,636246,1,0,0:0:0:0:
64,192,636396,1,2,0:0:0:0:
320,192,636396,1,8,0:0:0:0:
448,192,636396,1,0,0:0:0:0:
192,192,636546,1,0,0:0:0:0:
320,192,636621,1,0,0:0:0:0:
64,192,636696,128,0,636771:0:0:0:0:
448,192,636696,128,2,636771:0:0:0:0:
192,192,636771,1,0,0:0:0:0:
320,192,636846,1,0,0:0:0:0:
64,192,636996,1,2,0:0:0:0:
320,192,636996,1,8,0:0:0:0:
448,192,636996,1,0,0:0:0:0:
192,192,637146,1,0,0:0:0:0:
448,192,637296,1,4,0:0:0:0:
320,192,637296,128,2,637371:0:0:0:0:
64,192,637296,128,8,637371:0:0:0:0:
192,192,637446,1,2,0:0:0:0:
64,192,637446,1,0,0:0:0:0:
64,192,637596,1,8,0:0:0:0:
320,192,637596,1,2,0:0:0:0:
448,192,637596,1,0,0:0:0:0:
192,192,637746,1,2,0:0:0:0:
320,192,637746,1,0,0:0:0:0:
448,192,637896,128,8,637971:0:0:0:0:
192,192,637896,1,0,0:0:0:0:
64,192,637896,128,2,637971:0:0:0:0:
64,192,638046,1,2,0:0:0:0:
320,192,638046,1,0,0:0:0:0:
64,192,638196,1,8,0:0:0:0:
192,192,638196,1,2,0:0:0:0:
448,192,638196,1,0,0:0:0:0:
192,192,638346,1,2,0:0:0:0:
320,192,638346,1,0,0:0:0:0:
448,192,638346,1,0,0:0:0:0:
64,192,638496,1,2,0:0:0:0:
448,192,638496,128,4,638571:0:0:0:0:
192,192,638496,128,8,638571:0:0:0:0:
64,192,638646,1,2,0:0:0:0:
320,192,638646,1,0,0:0:0:0:
192,192,638796,1,8,0:0:0:0:
320,192,638796,1,2,0:0:0:0:
64,192,638946,1,2,0:0:0:0:
192,192,638946,1,0,0:0:0:0:
448,192,638946,1,0,0:0:0:0:
320,192,639096,1,2,0:0:0:0:
448,192,639096,128,4,639171:0:0:0:0:
64,192,639096,128,8,639171:0:0:0:0:
320,192,639246,1,2,0:0:0:0:
192,192,639246,1,0,0:0:0:0:
64,192,639396,1,8,0:0:0:0:
192,192,639396,1,2,0:0:0:0:
448,192,639396,1,0,0:0:0:0:
192,192,639546,1,2,0:0:0:0:
320,192,639546,1,0,0:0:0:0:
448,192,639546,1,0,0:0:0:0:
64,192,639696,1,2,0:0:0:0:
320,192,639696,1,8,0:0:0:0:
448,192,639696,1,4,0:0:0:0:
192,192,639771,1,2,0:0:0:0:
64,192,639846,1,2,0:0:0:0:
448,192,639846,1,8,0:0:0:0:
320,192,639921,1,2,0:0:0:0:
64,192,639996,1,4,0:0:0:0:
192,192,639996,1,2,0:0:0:0:
448,192,639996,1,8,0:0:0:0:
320,192,640071,1,2,0:0:0:0:
64,192,640146,1,8,0:0:0:0:
192,192,640146,1,2,0:0:0:0:
320,192,640221,1,2,0:0:0:0:
64,192,640296,1,4,0:0:0:0:
192,192,640296,1,2,0:0:0:0:
448,192,640296,1,8,0:0:0:0:
320,192,640371,1,2,0:0:0:0:
64,192,640446,1,2,0:0:0:0:
448,192,640446,1,8,0:0:0:0:
192,192,640521,1,2,0:0:0:0:
64,192,640596,1,4,0:0:0:0:
320,192,640596,1,8,0:0:0:0:
448,192,640596,1,2,0:0:0:0:
192,192,640671,1,2,0:0:0:0:
320,192,640746,1,8,0:0:0:0:
448,192,640746,1,2,0:0:0:0:
192,192,640821,1,2,0:0:0:0:
64,192,640896,1,10,0:0:0:0:
448,192,640896,1,4,0:0:0:0:
320,192,640914,1,0,0:0:0:0:
192,192,641177,1,0,0:0:0:0:
448,192,641214,1,0,0:0:0:0:
320,192,641477,1,0,0:0:0:0:
448,192,641514,1,0,0:0:0:0:
320,192,641721,1,0,0:0:0:0:
192,192,641758,1,0,0:0:0:0:
64,192,641796,1,0,0:0:0:0:
448,192,641833,1,0,0:0:0:0:
320,192,641871,1,0,0:0:0:0:
192,192,641908,1,0,0:0:0:0:
64,192,641946,1,0,0:0:0:0:
448,192,641983,1,0,0:0:0:0:
320,192,642021,1,0,0:0:0:0:
192,192,642058,1,0,0:0:0:0:
64,192,642096,1,0,0:0:0:0:
320,192,642358,1,0,0:0:0:0:
64,192,642396,1,2,0:0:0:0:
192,192,642396,1,8,0:0:0:0:
448,192,642396,128,4,645972:0:0:0:0:
64,192,643260,1,0,0:0:0:0:
192,192,644379,1,0,0:0:0:0:
320,192,644428,1,0,0:0:0:0:
64,192,645917,1,0,0:0:0:0:
320,192,645972,1,0,0:0:0:0:
192,192,647616,1,0,0:0:0:0:
64,192,647655,1,0,0:0:0:0:
