osu file format v14

[General]
AudioFilename: World Fragments.mp3
AudioLeadIn: 0
PreviewTime: 564629
Countdown: 1
SampleSet: Soft
StackLeniency: 0.7
Mode: 3
LetterboxInBreaks: 0
SpecialStyle: 0
WidescreenStoryboard: 0

[Editor]
Bookmarks: 89102,134436,179769,333097,343762,428431,459631
DistanceSpacing: 0.8
BeatDivisor: 16
GridSize: 4
TimelineZoom: 1.600001

[Metadata]
Title:World Fragments
TitleUnicode:World Fragments
Artist:xi
ArtistUnicode:xi
Creator:Evening
Version:Recreate, Renew, Reverse, Redo
Source:
Tags:
BeatmapID:874672
BeatmapSetID:402163

[Difficulty]
HPDrainRate:8
CircleSize:7
OverallDifficulty:9
ApproachRate:5
SliderMultiplier:2.59999990463257
SliderTickRate:1

[Events]
//Background and Video events
0,0,"worldfragments.jpg",0,0
//Break Periods
2,555830,562829
//Storyboard Layer 0 (Background)
//Storyboard Layer 1 (Fail)
//Storyboard Layer 2 (Pass)
//Storyboard Layer 3 (Foreground)
//Storyboard Sound Samples

[TimingPoints]
488.084,874.676,4,2,0,10,1,0
488.084,-45.731219331501,4,2,0,10,0,0
907.2,845.366,4,2,0,10,1,0
907.2,-47.3167834996913,4,2,0,10,0,0
1347.49,957.083,4,2,0,10,1,0
1347.49,-41.7936584392367,4,2,0,10,0,0
1845.97,983.994,4,2,0,10,1,0
1845.97,-40.6506543739088,4,2,0,10,0,0
2317.47,948.527,4,2,0,10,1,0
2317.47,-42.170649860257,4,2,0,10,0,0
3266,979.298,4,2,0,10,1,0
3266,-40.8455853070261,4,2,0,10,0,0
4245.3,943.288,4,2,0,10,1,0
4245.3,-42.4048646860768,4,2,0,10,0,0
5188.58,949.388,4,2,0,10,1,0
5188.58,-42.132405296886,4,2,0,10,0,0
6137.97,965.215,4,2,0,10,1,0
6137.97,-41.4415441119336,4,2,0,10,0,0
7103.19,973.25,4,2,0,10,1,0
7103.19,-41.0994091959928,4,2,0,10,0,0
7569.54,979.984,4,2,0,10,1,0
7569.54,-40.8169929304968,4,2,0,10,0,0
8079.94,1073.9,4,2,0,10,1,0
8079.94,-37.2474159605177,4,2,0,10,0,0
9153.85,1183.33,4,2,0,10,1,0
9153.85,-33.8029121208792,4,2,0,10,0,0
10337.2,1099.89,4,2,0,10,1,0
10337.2,-36.3672730909455,4,2,0,10,0,0
11437.1,885.623,4,2,0,10,1,0
11437.1,-45.1659453288815,4,2,0,10,0,0
11879.9,895.782,4,2,0,10,1,0
11879.9,-44.6537215527885,4,2,0,10,0,0
12327.8,865.918,4,2,0,10,1,0
12327.8,-46.193750447502,4,2,0,10,0,0
13193.7,843.583,4,2,0,10,1,0
13193.7,-47.4167924199516,4,2,0,10,0,0
14037.3,1092.2,4,2,0,10,1,0
14037.3,-36.6233290606116,4,2,0,10,0,0
15129.5,1028.77,4,2,0,10,1,0
15129.5,-38.881382621966,4,2,0,10,0,0
16158.2,3777.89,4,2,0,10,1,0
16158.2,-11.7647058823529,4,2,0,10,0,0
19936.1,333.333,4,2,0,10,1,0
21102,333.333,4,2,0,10,1,0
31601,333.333,4,2,0,10,1,0
37102.8,333.333,4,2,0,10,1,0
41769,-111.111111111111,4,2,0,10,0,0
42102,-83.3333333333333,4,2,0,10,0,0
42436,-100,4,2,0,10,0,0
47602,-111.111111111111,4,2,0,10,0,0
47936,-100,4,2,0,10,0,0
50269,-111.111111111111,4,2,0,10,0,0
50602,-100,4,2,0,10,0,0
58269,-111.111111111111,4,2,0,10,0,0
58602,-100,4,2,0,10,0,0
60936,-111.111111111111,4,2,0,10,0,0
61269,-100,4,2,0,10,0,0
68936,-111.111111111111,4,2,0,10,0,0
69269,-100,4,2,0,10,0,0
71602,-111.111111111111,4,2,0,10,0,0
71936,-100,4,2,0,10,0,0
79602,-111.111111111111,4,2,0,10,0,0
79936,-100,4,2,0,10,0,0
82269,-111.111111111111,4,2,0,10,0,0
82602,-100,4,2,0,10,0,0
88852,-95.2380952380952,4,2,0,10,0,0
88936,-90.9090909090909,4,2,0,10,0,0
89019,-86.9565217391304,4,2,0,10,0,0
89102,-100,4,2,0,10,0,0
99519,-58.8235294117647,4,2,0,10,0,0
99540,-333.333333333333,4,2,0,10,0,0
99561,-58.8235294117647,4,2,0,10,0,0
99581,-333.333333333333,4,2,0,10,0,0
99602,-58.8235294117647,4,2,0,10,0,0
99644,-333.333333333333,4,2,0,10,0,0
99686,-58.8235294117647,4,2,0,10,0,0
99727,-333.333333333333,4,2,0,10,0,0
99769,-100,4,2,0,10,0,0
112436,-95.2380952380952,4,2,0,10,0,0
112519,-90.9090909090909,4,2,0,10,0,0
112602,-86.9565217391304,4,2,0,10,0,0
112686,-83.3333333333333,4,2,0,10,0,0
112769,-50,4,2,0,10,0,0
112852,-400,4,2,0,10,0,0
113019,-66.6666666666667,4,2,0,10,0,0
113102,-100,4,2,0,10,0,0
113352,-50,4,2,0,10,0,0
113373,-100,4,2,0,10,0,0
114602,-50,4,2,0,10,0,0
114623,-100,4,2,0,10,0,0
115102,-66.6666666666667,4,2,0,10,0,0
115123,-100,4,2,0,10,0,0
115352,-50,4,2,0,10,0,0
115373,-100,4,2,0,10,0,0
115602,-50,4,2,0,10,0,0
115623,-100,4,2,0,10,0,0
115936,-50,4,2,0,10,0,0
115956,-100,4,2,0,10,0,0
118436,-111.111111111111,4,2,0,10,0,0
118602,-83.3333333333333,4,2,0,10,0,0
118686,-50,4,2,0,10,0,0
118706,-100,4,2,0,10,0,0
119936,-50,4,2,0,10,0,0
119956,-100,4,2,0,10,0,0
120436,-50,4,2,0,10,0,0
120456,-100,4,2,0,10,0,0
120686,-50,4,2,0,10,0,0
120706,-100,4,2,0,10,0,0
120936,-50,4,2,0,10,0,0
120956,-100,4,2,0,10,0,0
121269,-50,4,2,0,10,0,0
121290,-100,4,2,0,10,0,0
121769,-50,4,2,0,10,0,0
121790,-100,4,2,0,10,0,0
122269,-50,4,2,0,10,0,0
122290,-100,4,2,0,10,0,0
123436,-95.2380952380952,4,2,0,10,0,0
123547,-90.9090909090909,4,2,0,10,0,0
123658,-86.9565217391304,4,2,0,10,0,0
123769,-111.111111111111,4,2,0,10,0,0
123936,-83.3333333333333,4,2,0,10,0,0
124019,-50,4,2,0,10,0,0
124040,-100,4,2,0,10,0,0
124686,-50,4,2,0,10,0,0
124706,-100,4,2,0,10,0,0
126102,-111.111111111111,4,2,0,10,0,0
126352,-83.3333333333333,4,2,0,10,0,0
126436,-50,4,2,0,10,0,0
126456,-100,4,2,0,10,0,0
126686,-50,4,2,0,10,0,0
126706,-100,4,2,0,10,0,0
128769,-95.2380952380952,4,2,0,10,0,0
128880,-90.9090909090909,4,2,0,10,0,0
128991,-86.9565217391304,4,2,0,10,0,0
129102,-111.111111111111,4,2,0,10,0,0
129269,-83.3333333333333,4,2,0,10,0,0
129352,-100,4,2,0,10,0,0
130436,-111.111111111111,4,2,0,10,0,0
130602,-83.3333333333333,4,2,0,10,0,0
130686,-100,4,2,0,10,0,0
131769,-111.111111111111,4,2,0,10,0,0
131936,-83.3333333333333,4,2,0,10,0,0
132019,-100,4,2,0,10,0,0
133769,-111.111111111111,4,2,0,10,0,0
134352,-83.3333333333333,4,2,0,10,0,0
134436,-100,4,2,0,10,0,0
136769,-95.2380952380952,4,2,0,10,0,0
136852,-90.9090909090909,4,2,0,10,0,0
136936,-86.9565217391304,4,2,0,10,0,0
137019,-83.3333333333333,4,2,0,10,0,0
137102,-100,4,2,0,10,0,0
138019,-50,4,2,0,10,0,0
138061,-175,4,2,0,10,0,0
138269,-100,4,2,0,10,0,0
138352,-50,4,2,0,10,0,0
138394,-175.438596491228,4,2,0,10,0,0
138602,-100,4,2,0,10,0,0
138686,-66.6666666666667,4,2,0,10,0,0
138727,-200,4,2,0,10,0,0
138769,-100,4,2,0,10,0,0
139769,-250,4,2,0,10,0,0
139894,-35.7142857142857,4,2,0,10,0,0
139936,-100,4,2,0,10,0,0
143019,-50,4,2,0,10,0,0
143061,-175.438596491228,4,2,0,10,0,0
143269,-100,4,2,0,10,0,0
143352,-50,4,2,0,10,0,0
143394,-175.438596491228,4,2,0,10,0,0
143602,-100,4,2,0,10,0,0
146019,-50,4,2,0,10,0,0
146061,-175.438596491228,4,2,0,10,0,0
146269,-100,4,2,0,10,0,0
147436,-95.2380952380952,4,2,0,10,0,0
147519,-90.9090909090909,4,2,0,10,0,0
147602,-86.9565217391304,4,2,0,10,0,0
147686,-83.3333333333333,4,2,0,10,0,0
147769,-100,4,2,0,10,0,0
148686,-50,4,2,0,10,0,0
148727,-175.438596491228,4,2,0,10,0,0
148936,-100,4,2,0,10,0,0
149019,-50,4,2,0,10,0,0
149061,-175.438596491228,4,2,0,10,0,0
149269,-100,4,2,0,10,0,0
149352,-66.6666666666667,4,2,0,10,0,0
149394,-200,4,2,0,10,0,0
149436,-100,4,2,0,10,0,0
150436,-95.2380952380952,4,2,0,10,0,0
150769,-90.9090909090909,4,2,0,10,0,0
151102,-86.9565217391304,4,2,0,10,0,0
151436,-83.3333333333333,4,2,0,10,0,0
151602,-100,4,2,0,10,0,0
152102,-66.6666666666667,4,2,0,10,0,0
152186,-100,4,2,0,10,0,0
152352,-66.6666666666667,4,2,0,10,0,0
152436,-100,4,2,0,10,0,0
152602,-66.6666666666667,4,2,0,10,0,0
152686,-100,4,2,0,10,0,0
152852,-66.6666666666667,4,2,0,10,0,0
152936,-100,4,2,0,10,0,0
153102,-111.111111111111,4,2,0,10,0,0
153186,-99.9999999999999,4,2,0,10,0,0
153269,-90.9090909090908,4,2,0,10,0,0
153352,-83.3333333333333,4,2,0,10,0,0
153436,-100,4,2,0,10,0,0
157769,-95.2380952380952,4,2,0,10,0,0
157852,-90.9090909090909,4,2,0,10,0,0
157936,-86.9565217391304,4,2,0,10,0,0
158019,-83.3333333333333,4,2,0,10,0,0
158102,-95.2380952380952,4,2,0,10,0,0
158186,-90.9090909090909,4,2,0,10,0,0
158269,-86.9565217391304,4,2,0,10,0,0
158352,-83.3333333333333,4,2,0,10,0,0
158394,-80,4,2,0,10,0,0
158436,-100,4,2,0,10,0,0
159352,-50,4,2,0,10,0,0
159394,-175,4,2,0,10,0,0
159602,-100,4,2,0,10,0,0
159685,-50,4,2,0,10,0,0
159727,-175.438596491228,4,2,0,10,0,0
159935,-100,4,2,0,10,0,0
160019,-66.6666666666667,4,2,0,10,0,0
160060,-200,4,2,0,10,0,0
160102,-100,4,2,0,10,0,0
161102,-250,4,2,0,10,0,0
161227,-35.7142857142857,4,2,0,10,0,0
161269,-100,4,2,0,10,0,0
164352,-50,4,2,0,10,0,0
164394,-175.438596491228,4,2,0,10,0,0
164602,-100,4,2,0,10,0,0
164685,-50,4,2,0,10,0,0
164727,-175.438596491228,4,2,0,10,0,0
164935,-100,4,2,0,10,0,0
168769,-95.2380952380952,4,2,0,10,0,0
168852,-90.9090909090909,4,2,0,10,0,0
168935,-86.9565217391304,4,2,0,10,0,0
169019,-83.3333333333333,4,2,0,10,0,0
169102,-100,4,2,0,10,0,0
170019,-50,4,2,0,10,0,0
170060,-175.438596491228,4,2,0,10,0,0
170269,-100,4,2,0,10,0,0
170352,-50,4,2,0,10,0,0
170394,-175.438596491228,4,2,0,10,0,0
170602,-100,4,2,0,10,0,0
170685,-66.6666666666667,4,2,0,10,0,0
170727,-200,4,2,0,10,0,0
170769,-100,4,2,0,10,0,0
171769,-95.2380952380952,4,2,0,10,0,0
172102,-90.9090909090909,4,2,0,10,0,0
172435,-86.9565217391304,4,2,0,10,0,0
172769,-83.3333333333333,4,2,0,10,0,0
172935,-100,4,2,0,10,0,0
173435,-66.6666666666667,4,2,0,10,0,0
173519,-100,4,2,0,10,0,0
173685,-66.6666666666667,4,2,0,10,0,0
173769,-100,4,2,0,10,0,0
173935,-66.6666666666667,4,2,0,10,0,0
174019,-100,4,2,0,10,0,0
174185,-66.6666666666667,4,2,0,10,0,0
174269,-100,4,2,0,10,0,0
174435,-111.111111111111,4,2,0,10,0,0
174519,-99.9999999999999,4,2,0,10,0,0
174602,-90.9090909090908,4,2,0,10,0,0
174685,-83.3333333333333,4,2,0,10,0,0
174769,-100,4,2,0,10,0,0
179102,-95.2380952380952,4,2,0,10,0,0
179185,-90.9090909090909,4,2,0,10,0,0
179269,-86.9565217391304,4,2,0,10,0,0
179352,-83.3333333333333,4,2,0,10,0,0
179435,-95.2380952380952,4,2,0,10,0,0
179519,-90.9090909090909,4,2,0,10,0,0
179602,-86.9565217391304,4,2,0,10,0,0
179685,-83.3333333333333,4,2,0,10,0,0
179727,-80,4,2,0,10,0,0
179769,-100,4,2,0,10,0,0
190102,-95.2380952380952,4,2,0,10,0,0
190185,-90.9090909090909,4,2,0,10,0,0
190269,-86.9565217391304,4,2,0,10,0,0
190352,-83.3333333333333,4,2,0,10,0,0
190435,-125,4,2,0,10,0,0
200435,-117.647058823529,4,2,0,10,0,0
200602,-111.111111111111,4,2,0,10,0,0
200769,-105.263157894737,4,2,0,10,0,0
200935,-100,4,2,0,10,0,0
201102,-125,4,2,0,10,0,0
205269,-117.647058823529,4,2,0,10,0,0
205435,-111.111111111111,4,2,0,10,0,0
205602,-105.263157894737,4,2,0,10,0,0
205769,-100,4,2,0,10,0,0
206435,-125,4,2,0,10,0,0
210435,-117.647058823529,4,2,0,10,0,0
210602,-111.111111111111,4,2,0,10,0,0
210769,-105.263157894737,4,2,0,10,0,0
210935,-100,4,2,0,10,0,0
211102,-95.2380952380952,4,2,0,10,0,0
211269,-90.9090909090909,4,2,0,10,0,0
211435,-86.9565217391304,4,2,0,10,0,0
211602,-83.3333333333333,4,2,0,10,0,0
211769,-125,4,2,0,10,0,0
212302.3,-123.456790123457,4,2,0,10,0,0
212835.6,-121.951219512195,4,2,0,10,0,0
213368.9,-120.481927710843,4,2,0,10,0,0
213902.2,-119.047619047619,4,2,0,10,0,0
214435.5,-117.647058823529,4,2,0,10,0,0
214968.8,-116.279069767442,4,2,0,10,0,0
215502.1,-114.942528735632,4,2,0,10,0,0
216035.4,-113.636363636364,4,2,0,10,0,0
216568.7,-112.359550561798,4,2,0,10,0,0
217102,-111.111111111111,4,2,0,10,0,0
217635.3,-109.89010989011,4,2,0,10,0,0
218168.6,-108.695652173913,4,2,0,10,0,0
218701.9,-107.52688172043,4,2,0,10,0,0
219235.2,-106.382978723404,4,2,0,10,0,0
219768.5,-105.263157894737,4,2,0,10,0,0
220301.8,-104.166666666667,4,2,0,10,0,0
220835.1,-103.092783505155,4,2,0,10,0,0
221368.4,-102.040816326531,4,2,0,10,0,0
221901.7,-101.010101010101,4,2,0,10,0,0
222435,-100,4,2,0,10,0,0
229769,-95.2380952380952,4,2,0,10,0,0
229935,-90.9090909090909,4,2,0,10,0,0
230102,-86.9565217391304,4,2,0,10,0,0
230269,-83.3333333333333,4,2,0,10,0,0
230435,-111.111111111111,4,2,0,10,0,0
233102,-166.666666666667,4,2,0,10,0,0
236102,-100,4,2,0,10,0,0
238102,333.333,6,2,0,10,1,0
246101,333.333,3,2,0,10,1,0
246101,-97.0873786407767,3,2,0,10,0,0
247100,-93.4579439252336,3,2,0,10,0,0
248100,-90.9090909090909,3,2,0,10,0,0
249100,-100,3,2,0,10,0,0
251100,-95.2380952380952,3,2,0,10,0,0
251184,-90.9090909090909,3,2,0,10,0,0
251267,-100,3,2,0,10,0,0
253434,-62.5,3,2,0,10,0,0
253475,-250,3,2,0,10,0,0
253517,-35.7142857142857,3,2,0,10,0,0
253559,-250,3,2,0,10,0,0
253684,-25,3,2,0,10,0,0
253725,-250,3,2,0,10,0,0
253934,-125,3,2,0,10,0,0
255100,-111.111111111111,3,2,0,10,0,0
256100,-100,3,2,0,10,0,0
256267,-90.9090909090909,3,2,0,10,0,0
256434,-83.3333333333333,3,2,0,10,0,0
256600,-76.9230769230769,3,2,0,10,0,0
256767,333.333,4,2,0,10,1,0
256767,-117.647058823529,4,2,0,10,0,0
260600,-200,4,2,0,10,0,0
261433,-117.647058823529,4,2,0,10,0,0
261766,-52.6315789473684,4,2,0,10,0,0
261794,-1000,4,2,0,10,0,0
261822,-52.6315789473684,4,2,0,10,0,0
261850,-1000,4,2,0,10,0,0
261878,-52.6315789473684,4,2,0,10,0,0
261905,-1000,4,2,0,10,0,0
261933,-52.6315789473684,4,2,0,10,0,0
261954,-1000,4,2,0,10,0,0
261975,-83.3333333333333,4,2,0,10,0,0
262100,-105.263157894737,4,2,0,10,0,0
266100,-100,4,2,0,10,0,0
277766,-95.2380952380952,4,2,0,10,0,0
277850,-90.9090909090909,4,2,0,10,0,0
277933,-86.9565217391304,4,2,0,10,0,0
278016,-83.3333333333333,4,2,0,10,0,0
278100,333.333,7,2,0,10,1,0
278100,-111.111111111111,7,2,0,10,0,0
282433,-105.263157894737,7,2,0,10,0,0
282516,-100,7,2,0,10,0,0
282599,-90.9090909090908,7,2,0,10,0,0
282683,-83.3333333333333,7,2,0,10,0,0
282766,-100,7,2,0,10,0,0
287099,333.333,7,2,0,10,1,0
294432,333.333,4,2,0,10,1,0
297765,333.333,7,2,0,10,1,0
297765,-50,7,2,0,10,0,0
297785,-100,7,2,0,10,0,0
298014,-50,7,2,0,10,0,0
298035,-100,7,2,0,10,0,0
299098,-50,7,2,0,10,0,0
299119,-100,7,2,0,10,0,0
299181,-50,7,2,0,10,0,0
299202,-100,7,2,0,10,0,0
299348,-50,7,2,0,10,0,0
299369,-100,7,2,0,10,0,0
300098,-50,7,2,0,10,0,0
300119,-100,7,2,0,10,0,0
300348,-50,7,2,0,10,0,0
300369,-100,7,2,0,10,0,0
301431,-50,7,2,0,10,0,0
301452,-100,7,2,0,10,0,0
302431,-50,7,2,0,10,0,0
302452,-100,7,2,0,10,0,0
302681,-50,7,2,0,10,0,0
302702,-100,7,2,0,10,0,0
303431,-50,7,2,0,10,0,0
303452,-100,7,2,0,10,0,0
303764,-66.6666666666667,7,2,0,10,0,0
303785,-100,7,2,0,10,0,0
303848,-66.6666666666667,7,2,0,10,0,0
303869,-100,7,2,0,10,0,0
304014,-66.6666666666667,7,2,0,10,0,0
304035,-100,7,2,0,10,0,0
304098,-66.6666666666667,7,2,0,10,0,0
304119,-100,7,2,0,10,0,0
304264,-66.6666666666667,7,2,0,10,0,0
304285,-100,7,2,0,10,0,0
304348,-66.6666666666667,7,2,0,10,0,0
304369,-100,7,2,0,10,0,0
304514,-66.6666666666667,7,2,0,10,0,0
304535,-100,7,2,0,10,0,0
304598,-66.6666666666667,7,2,0,10,0,0
304619,-100,7,2,0,10,0,0
304764,-66.6666666666667,7,2,0,10,0,0
304785,-100,7,2,0,10,0,0
304848,-66.6666666666667,7,2,0,10,0,0
304869,-100,7,2,0,10,0,0
307431,-95.2380952380952,7,2,0,10,0,0
307514,-90.9090909090909,7,2,0,10,0,0
307598,-86.9565217391304,7,2,0,10,0,0
307681,-83.3333333333333,7,2,0,10,0,0
307764,333.333,4,2,0,10,1,0
313430,-111.111111111111,4,2,0,10,0,0
313763,-76.9230769230769,4,2,0,10,0,0
313930,-111.111111111111,4,2,0,10,0,0
314013,-76.9230769230769,4,2,0,10,0,0
314180,-111.111111111111,4,2,0,10,0,0
314263,-100,4,2,0,10,0,0
315763,-33.3333333333333,4,2,0,10,0,0
315784,-100,4,2,0,10,0,0
316263,-33.3333333333333,4,2,0,10,0,0
316284,-100,4,2,0,10,0,0
316930,-33.3333333333333,4,2,0,10,0,0
316951,-100,4,2,0,10,0,0
322263,-40,4,2,0,10,0,0
322305,-142.857142857143,4,2,0,10,0,0
322513,-100,4,2,0,10,0,0
322597,-52.6315789473684,4,2,0,10,0,0
322638,-142.857142857143,4,2,0,10,0,0
322763,-100,4,2,0,10,0,0
322847,-52.6315789473684,4,2,0,10,0,0
322888,-142.857142857143,4,2,0,10,0,0
323013,-100,4,2,0,10,0,0
323097,-76.9230769230769,4,2,0,10,0,0
323138,-142.857142857143,4,2,0,10,0,0
323180,-52.6315789473684,4,2,0,10,0,0
323222,-142.857142857143,4,2,0,10,0,0
323347,-76.9230769230769,4,2,0,10,0,0
323388,-142.857142857143,4,2,0,10,0,0
323430,-52.6315789473684,4,2,0,10,0,0
323472,-142.857142857143,4,2,0,10,0,0
323597,-76.9230769230769,4,2,0,10,0,0
323638,-142.857142857143,4,2,0,10,0,0
323680,-76.9230769230769,4,2,0,10,0,0
323722,-142.857142857143,4,2,0,10,0,0
323763,-100,4,2,0,10,0,0
324763,-45.4545454545455,4,2,0,10,0,0
324805,-166.666666666667,4,2,0,10,0,0
324930,-100,4,2,0,10,0,0
326430,-33.3333333333333,4,2,0,10,0,0
326451,-100,4,2,0,10,0,0
326930,-33.3333333333333,4,2,0,10,0,0
326951,-100,4,2,0,10,0,0
327597,-33.3333333333333,4,2,0,10,0,0
327618,-100,4,2,0,10,0,0
330263,-33.3333333333333,4,2,0,10,0,0
330284,-100,4,2,0,10,0,0
333263,-125,4,2,0,10,0,0
335097,-117.647058823529,4,2,0,10,0,0
335180,-111.111111111111,4,2,0,10,0,0
335263,-105.263157894737,4,2,0,10,0,0
335347,-100,4,2,0,10,0,0
335430,-95.2380952380952,4,2,0,10,0,0
335513,-90.9090909090909,4,2,0,10,0,0
335763,333.333,6,2,0,10,1,0
335763,-100,6,2,0,10,0,0
345761,333.333,3,2,0,10,1,0
345762,-52.6315789473684,3,2,0,10,0,0
345802,-1000,3,2,0,10,0,0
345844,-52.6315789473684,3,2,0,10,0,0
345885,-1000,3,2,0,10,0,0
345927,-52.6315789473684,3,2,0,10,0,0
345969,-1000,3,2,0,10,0,0
346010,-52.6315789473684,3,2,0,10,0,0
346052,-1000,3,2,0,10,0,0
346094,-52.6315789473684,3,2,0,10,0,0
346135,-1000,3,2,0,10,0,0
346177,-52.6315789473684,3,2,0,10,0,0
346219,-1000,3,2,0,10,0,0
346260,-52.6315789473684,3,2,0,10,0,0
346302,-1000,3,2,0,10,0,0
346344,-52.6315789473684,3,2,0,10,0,0
346385,-1000,3,2,0,10,0,0
346427,-52.6315789473684,3,2,0,10,0,0
346469,-1000,3,2,0,10,0,0
346510,-52.6315789473684,3,2,0,10,0,0
346552,-1000,3,2,0,10,0,0
346594,-52.6315789473684,3,2,0,10,0,0
346635,-1000,3,2,0,10,0,0
346677,-52.6315789473684,3,2,0,10,0,0
346719,-1000,3,2,0,10,0,0
346760,-43.4782608695652,3,2,0,10,0,0
346802,-1000,3,2,0,10,0,0
346844,-43.4782608695652,3,2,0,10,0,0
346885,-1000,3,2,0,10,0,0
346927,-43.4782608695652,3,2,0,10,0,0
346969,-1000,3,2,0,10,0,0
347010,-43.4782608695652,3,2,0,10,0,0
347052,-1000,3,2,0,10,0,0
347094,-43.4782608695652,3,2,0,10,0,0
347135,-1000,3,2,0,10,0,0
347177,-43.4782608695652,3,2,0,10,0,0
347219,-1000,3,2,0,10,0,0
347260,-43.4782608695652,3,2,0,10,0,0
347302,-1000,3,2,0,10,0,0
347344,-43.4782608695652,3,2,0,10,0,0
347385,-1000,3,2,0,10,0,0
347427,-43.4782608695652,3,2,0,10,0,0
347469,-1000,3,2,0,10,0,0
347510,-43.4782608695652,3,2,0,10,0,0
347552,-1000,3,2,0,10,0,0
347594,-43.4782608695652,3,2,0,10,0,0
347635,-1000,3,2,0,10,0,0
347677,-43.4782608695652,3,2,0,10,0,0
347719,-1000,3,2,0,10,0,0
347760,-37.037037037037,3,2,0,10,0,0
347802,-1000,3,2,0,10,0,0
347844,-37.037037037037,3,2,0,10,0,0
347885,-1000,3,2,0,10,0,0
347927,-37.037037037037,3,2,0,10,0,0
347969,-1000,3,2,0,10,0,0
348010,-37.037037037037,3,2,0,10,0,0
348052,-1000,3,2,0,10,0,0
348094,-37.037037037037,3,2,0,10,0,0
348135,-1000,3,2,0,10,0,0
348177,-37.037037037037,3,2,0,10,0,0
348219,-1000,3,2,0,10,0,0
348260,-37.037037037037,3,2,0,10,0,0
348302,-1000,3,2,0,10,0,0
348344,-37.037037037037,3,2,0,10,0,0
348385,-1000,3,2,0,10,0,0
348427,-37.037037037037,3,2,0,10,0,0
348469,-1000,3,2,0,10,0,0
348510,-37.037037037037,3,2,0,10,0,0
348552,-1000,3,2,0,10,0,0
348594,-37.037037037037,3,2,0,10,0,0
348635,-1000,3,2,0,10,0,0
348677,-37.037037037037,3,2,0,10,0,0
348719,-1000,3,2,0,10,0,0
348760,-100,3,2,0,10,0,0
350094,-111.111111111111,3,2,0,10,0,0
350427,666.667,4,2,0,10,1,0
350427,-66.6666666666667,4,2,0,10,0,0
351760,-83.3333333333333,4,2,0,10,0,0
353093,-100,4,2,0,10,0,0
355831,1200,4,2,0,10,1,0
355831,-55.5555555555556,4,2,0,10,0,0
356431,600,4,2,0,10,1,0
356431,-111.111111111111,4,2,0,10,0,0
358868,-10,4,2,0,10,0,0
358981,-250.000000000001,4,2,0,10,0,0
360631,-200,4,2,0,10,0,0
360781,-166.666666666666,4,2,0,10,0,0
360931,-142.857142857143,4,2,0,10,0,0
361081,-125,4,2,0,10,0,0
361231,-111.111111111111,4,2,0,10,0,0
363668,-10,4,2,0,10,0,0
363781,-153.846153846154,4,2,0,10,0,0
364831,-142.857142857143,4,2,0,10,0,0
364981,-133.333333333333,4,2,0,10,0,0
365131,-125,4,2,0,10,0,0
365281,-117.647058823529,4,2,0,10,0,0
365431,-111.111111111111,4,2,0,10,0,0
375631,300,4,2,0,10,1,0
375631,-111.111111111111,4,2,0,10,0,0
376831,300,4,2,0,10,1,0
376831,-111.111111111111,4,2,0,10,0,0
384331,-100,4,2,0,10,0,0
386731,-98.0392156862745,4,2,0,10,0,0
386881,-96.1538461538461,4,2,0,10,0,0
387031,-94.3396226415094,4,2,0,10,0,0
387181,-92.5925925925926,4,2,0,10,0,0
387331,-90.9090909090909,4,2,0,10,0,0
387481,-89.2857142857143,4,2,0,10,0,0
387631,-111.111111111111,4,2,0,10,0,0
389431,-50,4,2,0,10,0,0
389506,-187.5,4,2,0,10,0,0
389731,-50,4,2,0,10,0,0
389806,-187.5,4,2,0,10,0,0
390031,-125,4,2,0,10,0,0
398431,-121.951219512195,4,2,0,10,0,0
398581,-119.047619047619,4,2,0,10,0,0
398731,-116.279069767442,4,2,0,10,0,0
398881,-113.636363636364,4,2,0,10,0,0
399031,-111.111111111111,4,2,0,10,0,0
399181,-108.695652173913,4,2,0,10,0,0
399331,-106.382978723404,4,2,0,10,0,0
399481,-104.166666666667,4,2,0,10,0,0
399631,-111.111111111111,4,2,0,10,0,0
405631,-105.263157894737,4,2,0,10,0,0
406831,-100,4,2,0,10,0,0
408031,-111.111111111111,4,2,0,10,0,0
408931,-105.263157894737,4,2,0,10,0,0
409006,-100,4,2,0,10,0,0
409081,-95.2380952380952,4,2,0,10,0,0
409156,-90.9090909090909,4,2,0,10,0,0
409231,-125,4,2,0,10,0,0
414331,-111.111111111111,4,2,0,10,0,0
428131,-105.263157894737,4,2,0,10,0,0
428206,-100,4,2,0,10,0,0
428281,-95.2380952380952,4,2,0,10,0,0
428356,-90.9090909090908,4,2,0,10,0,0
428431,-125,4,2,0,10,0,0
432631,-111.111111111111,4,2,0,10,0,0
437431,-108.695652173913,4,2,0,10,0,0
437506,-106.382978723404,4,2,0,10,0,0
437581,-104.166666666667,4,2,0,10,0,0
437656,-102.040816326531,4,2,0,10,0,0
437731,-100,4,2,0,10,0,0
437806,-98.0392156862745,4,2,0,10,0,0
437881,-96.1538461538461,4,2,0,10,0,0
437956,-94.3396226415094,4,2,0,10,0,0
438031,-111.111111111111,4,2,0,10,0,0
443431,-47.6190476190476,4,2,0,10,0,0
443468,-200,4,2,0,10,0,0
443581,-27.027027027027,4,2,0,10,0,0
443618,-200,4,2,0,10,0,0
443881,-43.4782608695652,4,2,0,10,0,0
443918,-142.857142857143,4,2,0,10,0,0
444181,-111.111111111111,4,2,0,10,0,0
444631,-47.6190476190476,4,2,0,10,0,0
444668,-200,4,2,0,10,0,0
444781,-27.027027027027,4,2,0,10,0,0
444818,-200,4,2,0,10,0,0
445081,-43.4782608695652,4,2,0,10,0,0
445118,-142.857142857143,4,2,0,10,0,0
445381,-111.111111111111,4,2,0,10,0,0
447031,-105.263157894737,4,2,0,10,0,0
447181,-100,4,2,0,10,0,0
447331,-95.2380952380952,4,2,0,10,0,0
447481,-90.9090909090908,4,2,0,10,0,0
447631,-111.111111111111,4,2,0,10,0,0
449881,-99.9999999999999,4,2,0,10,0,0
449956,-90.9090909090908,4,2,0,10,0,0
450031,-125,4,2,0,10,0,0
454531,-62.5,4,2,0,10,0,0
454568,-500,4,2,0,10,0,0
454606,-62.5,4,2,0,10,0,0
454643,-500,4,2,0,10,0,0
454681,-62.5,4,2,0,10,0,0
454718,-500,4,2,0,10,0,0
454756,-62.5,4,2,0,10,0,0
454793,-500,4,2,0,10,0,0
454831,-111.111111111111,4,2,0,10,0,0
459631,-40,4,2,0,10,0,0
459706,-249.999999999999,4,2,0,10,0,0
459931,-40,4,2,0,10,0,0
460006,-249.999999999999,4,2,0,10,0,0
460231,-40,4,2,0,10,0,0
460306,-249.999999999999,4,2,0,10,0,0
460531,-40,4,2,0,10,0,0
460606,-249.999999999999,4,2,0,10,0,0
460831,-40,4,2,0,10,0,0
460906,-250,4,2,0,10,0,0
461131,-40,4,2,0,10,0,0
461168,-250,4,2,0,10,0,0
461281,-40,4,2,0,10,0,0
461318,-250,4,2,0,10,0,0
461431,-40,4,2,0,10,0,0
461506,-250,4,2,0,10,0,0
461731,-40,4,2,0,10,0,0
461806,-250,4,2,0,10,0,0
462031,-40,4,2,0,10,0,0
462106,-250,4,2,0,10,0,0
462331,-40,4,2,0,10,0,0
462368,-250,4,2,0,10,0,0
462481,-40,4,2,0,10,0,0
462518,-250,4,2,0,10,0,0
462631,-40,4,2,0,10,0,0
462706,-250,4,2,0,10,0,0
462931,-40,4,2,0,10,0,0
463006,-250,4,2,0,10,0,0
463231,-40,4,2,0,10,0,0
463306,-250,4,2,0,10,0,0
463531,-40,4,2,0,10,0,0
463606,-250,4,2,0,10,0,0
463831,-40,4,2,0,10,0,0
463906,-249.999999999999,4,2,0,10,0,0
464131,-111.111111111111,4,2,0,10,0,0
464431,-40,4,2,0,10,0,0
464506,-249.999999999999,4,2,0,10,0,0
464731,-40,4,2,0,10,0,0
464806,-249.999999999999,4,2,0,10,0,0
465031,-40,4,2,0,10,0,0
465106,-249.999999999999,4,2,0,10,0,0
465331,-40,4,2,0,10,0,0
465406,-249.999999999999,4,2,0,10,0,0
465631,-40,4,2,0,10,0,0
465706,-249.999999999999,4,2,0,10,0,0
465931,-40,4,2,0,10,0,0
465968,-249.999999999999,4,2,0,10,0,0
466081,-40,4,2,0,10,0,0
466118,-249.999999999999,4,2,0,10,0,0
466231,-40,4,2,0,10,0,0
466306,-249.999999999999,4,2,0,10,0,0
466531,-40,4,2,0,10,0,0
466606,-249.999999999999,4,2,0,10,0,0
466831,-40,4,2,0,10,0,0
466906,-249.999999999999,4,2,0,10,0,0
467131,-40,4,2,0,10,0,0
467206,-249.999999999999,4,2,0,10,0,0
467431,-40,4,2,0,10,0,0
467506,-249.999999999999,4,2,0,10,0,0
467731,-40,4,2,0,10,0,0
467806,-125,4,2,0,10,0,0
468331,-40,4,2,0,10,0,0
468368,-249.999999999999,4,2,0,10,0,0
468481,-40,4,2,0,10,0,0
468556,-249.999999999999,4,2,0,10,0,0
468781,-111.111111111111,4,2,0,10,0,0
469231,-40,4,2,0,10,0,0
469306,-249.999999999999,4,2,0,10,0,0
469531,-40,4,2,0,10,0,0
469606,-249.999999999999,4,2,0,10,0,0
469831,-40,4,2,0,10,0,0
469906,-249.999999999999,4,2,0,10,0,0
470131,-40,4,2,0,10,0,0
470206,-249.999999999999,4,2,0,10,0,0
470431,-40,4,2,0,10,0,0
470506,-249.999999999999,4,2,0,10,0,0
470731,-40,4,2,0,10,0,0
470768,-249.999999999999,4,2,0,10,0,0
470881,-40,4,2,0,10,0,0
470918,-249.999999999999,4,2,0,10,0,0
471031,-40,4,2,0,10,0,0
471106,-249.999999999999,4,2,0,10,0,0
471331,-40,4,2,0,10,0,0
471406,-249.999999999999,4,2,0,10,0,0
471631,-40,4,2,0,10,0,0
471706,-249.999999999999,4,2,0,10,0,0
471931,-40,4,2,0,10,0,0
471968,-249.999999999999,4,2,0,10,0,0
472081,-40,4,2,0,10,0,0
472118,-249.999999999999,4,2,0,10,0,0
472231,-40,4,2,0,10,0,0
472306,-249.999999999999,4,2,0,10,0,0
472531,-40,4,2,0,10,0,0
472606,-249.999999999999,4,2,0,10,0,0
472831,-40,4,2,0,10,0,0
472881,-250,4,2,0,10,0,0
473031,-40,4,2,0,10,0,0
473081,-250,4,2,0,10,0,0
473231,-40,4,2,0,10,0,0
473281,-250,4,2,0,10,0,0
473431,-40,4,2,0,10,0,0
473481,-250,4,2,0,10,0,0
473631,-40,4,2,0,10,0,0
473681,-250,4,2,0,10,0,0
473831,-40,4,2,0,10,0,0
473881,-250,4,2,0,10,0,0
474031,-133.333333333333,4,2,0,10,0,0
474631,-100,4,2,0,10,0,0
474931,-133.333333333333,4,2,0,10,0,0
475531,-100,4,2,0,10,0,0
475831,-50,4,2,0,10,0,0
475849,-111.111111111111,4,2,0,10,0,0
475981,-50,4,2,0,10,0,0
475999,-111.111111111111,4,2,0,10,0,0
483331,-105.263157894737,4,2,0,10,0,0
483406,-100,4,2,0,10,0,0
483481,-95.2380952380952,4,2,0,10,0,0
483556,-90.9090909090909,4,2,0,10,0,0
483631,-111.111111111111,4,2,0,10,0,0
488131,-105.263157894737,4,2,0,10,0,0
488206,-100,4,2,0,10,0,0
488281,-95.2380952380952,4,2,0,10,0,0
488356,-90.9090909090909,4,2,0,10,0,0
488431,-111.111111111111,4,2,0,10,0,0
492031,-40,4,2,0,10,0,0
492081,-250,4,2,0,10,0,0
492231,-40,4,2,0,10,0,0
492281,-250,4,2,0,10,0,0
492431,-40,4,2,0,10,0,0
492481,-250,4,2,0,10,0,0
492631,-40,4,2,0,10,0,0
492681,-250,4,2,0,10,0,0
492831,-40,4,2,0,10,0,0
492881,-250,4,2,0,10,0,0
493031,-40,4,2,0,10,0,0
493081,-250,4,2,0,10,0,0
493231,-111.111111111111,4,2,0,10,0,0
497431,-111.111111111111,4,2,0,10,0,0
497506,-107.52688172043,4,2,0,10,0,0
497581,-104.166666666667,4,2,0,10,0,0
497656,-100,4,2,0,10,0,0
497731,-97.0873786407767,4,2,0,10,0,0
497806,-94.3396226415094,4,2,0,10,0,0
497881,-90.9090909090908,4,2,0,10,0,0
497956,-88.4955752212389,4,2,0,10,0,0
498031,-125,4,2,0,10,0,0
506431,-121.951219512195,4,2,0,10,0,0
506581,-119.047619047619,4,2,0,10,0,0
506731,-116.279069767442,4,2,0,10,0,0
506881,-113.636363636364,4,2,0,10,0,0
507031,-111.111111111111,4,2,0,10,0,0
507181,-108.695652173913,4,2,0,10,0,0
507331,-105.263157894737,4,2,0,10,0,0
507406,-100,4,2,0,10,0,0
507481,-95.2380952380952,4,2,0,10,0,0
507556,-90.9090909090909,4,2,0,10,0,0
507631,-125,4,2,0,10,0,0
514831,-121.951219512195,4,2,0,10,0,0
515131,-119.047619047619,4,2,0,10,0,0
515431,-116.279069767442,4,2,0,10,0,0
515731,-113.636363636364,4,2,0,10,0,0
516031,-111.111111111111,4,2,0,10,0,0
517231,-200,4,2,0,10,0,0
524431,1193.72,4,2,0,10,1,0
524431,-41.8858693831049,4,2,0,10,0,0
525183,1207.44,4,2,0,10,1,0
525183,-41.4099251308554,4,2,0,10,0,0
525630,1193.5,4,2,0,10,1,0
525630,-41.8935902806871,4,2,0,10,0,0
526155,1186.8,4,2,0,10,1,0
526155,-42.1300977418268,4,2,0,10,0,0
526820,1115.5,4,2,0,10,1,0
526820,-44.8229493500672,4,2,0,10,0,0
527489,1114.56,4,2,0,10,1,0
527489,-44.8607522250933,4,2,0,10,0,0
527935,817.334,4,2,0,10,1,0
527935,-61.1745014889874,4,2,0,10,0,0
528393,849.187,4,2,0,10,1,0
528393,-58.8798462529455,4,2,0,10,0,0
528766,718.585,4,2,0,10,1,0
528766,-69.5811908124996,4,2,0,10,0,0
529140,683.933,4,2,0,10,1,0
529140,-73.1065762289581,4,2,0,10,0,0
529297,696.599,4,2,0,10,1,0
529297,-71.7773065996362,4,2,0,10,0,0
529471,666.939,4,2,0,10,1,0
529471,-74.9693750103083,4,2,0,10,0,0
529752,656.793,4,2,0,10,1,0
529752,-76.1274861333784,4,2,0,10,0,0
530133,715.622,4,2,0,10,1,0
530133,-69.8692885350087,4,2,0,10,0,0
530476,710.531,4,2,0,10,1,0
530476,-70.3699064502464,4,2,0,10,0,0
530625,687.31,4,2,0,10,1,0
530625,-72.7473774570427,4,2,0,10,0,0
530838,807.429,4,2,0,10,1,0
530838,-61.9249494382788,4,2,0,10,0,0
531226,813.628,4,2,0,10,1,0
531226,-61.4531456636202,4,2,0,10,0,0
531649,950.838,4,2,0,10,1,0
531649,-52.5851932716194,4,2,0,10,0,0
532124,957.824,4,2,0,10,1,0
532124,-52.2016570894027,4,2,0,10,0,0
532603,1664.46,4,2,0,10,1,0
532603,-30.0397726590005,4,2,0,10,0,0
533236,1602.17,4,2,0,10,1,0
533236,-31.2076745913355,4,2,0,10,0,0
534229,1015.32,4,2,0,10,1,0
534229,-49.2455580506638,4,2,0,10,0,0
534838,989.903,4,2,0,10,1,0
534838,-50.509999464594,4,2,0,10,0,0
535234,698.066,4,2,0,10,1,0
535234,-71.626465119344,4,2,0,10,0,0
535569,674.307,4,2,0,10,1,0
535569,-74.1502016143982,4,2,0,10,0,0
535920,670.749,4,2,0,10,1,0
535920,-74.5435326776484,4,2,0,10,0,0
536255,710.531,4,2,0,10,1,0
536255,-70.3699064502464,4,2,0,10,0,0
536405,686.647,4,2,0,10,1,0
536405,-72.8176195337633,4,2,0,10,0,0
536604,324.58,4,2,0,10,1,0
536604,-154.045227678847,4,2,0,10,0,0
536928,777.868,4,2,0,10,1,0
536928,-64.2782580077854,4,2,0,10,0,0
537317,754.649,4,2,0,10,1,0
537317,-66.2559680063182,4,2,0,10,0,0
537695,1040.31,4,2,0,10,1,0
537695,-48.0625967259759,4,2,0,10,0,0
538194,1047.68,4,2,0,10,1,0
538194,-47.7244960293219,4,2,0,10,0,0
538739,2181.74,4,2,0,10,1,0
538739,-22.9174878766489,4,2,0,10,0,0
539611,2109.7,4,2,0,10,1,0
539611,-23.7000521401147,4,2,0,10,0,0
539907,2159.45,4,2,0,10,1,0
539907,-23.1540438537591,4,2,0,10,0,0
540900,641.156,4,2,0,10,1,0
540900,-77.9841411450568,4,2,0,10,0,0
541541,885.385,4,2,0,10,1,0
541541,-56.4726079615083,4,2,0,10,0,0
542072,923.91,4,2,0,10,1,0
542072,-54.117825329307,4,2,0,10,0,0
542442,718.281,4,2,0,10,1,0
542442,-69.6106398470794,4,2,0,10,0,0
542816,698.728,4,2,0,10,1,0
542816,-71.5586036340321,4,2,0,10,0,0
543151,800.414,4,2,0,10,1,0
543151,-62.4676729792332,4,2,0,10,0,0
543503,810.587,4,2,0,10,1,0
543503,-61.6836934221743,4,2,0,10,0,0
543690,766.258,4,2,0,10,1,0
543690,-65.2521735499009,4,2,0,10,0,0
543942,372.949,4,2,0,10,1,0
543942,-134.066588193024,4,2,0,10,0,0
544315,852.542,4,2,0,10,1,0
544315,-58.6481369832806,4,2,0,10,0,0
544708,868.195,4,2,0,10,1,0
544708,-57.5907486221413,4,2,0,10,0,0
545176,458.46,4,2,0,10,1,0
545176,-109.060768660298,4,2,0,10,0,0
545406,452.789,4,2,0,10,1,0
545406,-110.426710896245,4,2,0,10,0,0
545632,752.849,4,2,0,10,1,0
545632,-66.4143805729967,4,2,0,10,0,0
546023,739,4,2,0,10,1,0
546023,-67.65899864682,4,2,0,10,0,0
546378,576.768,4,2,0,10,1,0
546378,-86.6899689303151,4,2,0,10,0,0
546632,572.76,4,2,0,10,1,0
546632,-87.2965989245059,4,2,0,10,0,0
546953,655.333,4,2,0,10,1,0
546953,-76.2970886556911,4,2,0,10,0,0
547267,657.633,4,2,0,10,1,0
547267,-76.0302478738141,4,2,0,10,0,0
547609,945.85,4,2,0,10,1,0
547609,-52.8625046254692,4,2,0,10,0,0
547988,984.847,4,2,0,10,1,0
547988,-50.7693073137249,4,2,0,10,0,0
548578,824.739,4,2,0,10,1,0
548578,-60.6252402275144,4,2,0,10,0,0
549403,1045.47,4,2,0,10,1,0
549403,-45.4545454545455,4,2,0,10,0,0
550449,1282.02,4,2,0,10,1,0
550449,-35.7142857142857,4,2,0,10,0,0
551731,1448.41,4,2,0,10,1,0
551731,-34.520612257579,4,2,0,10,0,0
553179,1026.89,4,2,0,10,1,0
553179,-48.6907068916827,4,2,0,10,0,0
554206,1376.64,4,2,0,10,1,0
554206,-36.3203161320316,4,2,0,10,0,0
555583,2380.4,4,2,0,10,1,0
555583,-21.0048731305663,4,2,0,10,0,0
555630,2105.87,4,2,0,10,1,0
555630,-23.7431560352728,4,2,0,10,0,0
557694,2111.59,4,2,0,10,1,0
557694,-23.6788391685886,4,2,0,10,0,0
561917,-12.5,4,2,0,10,0,0
564029,300,4,2,0,10,1,0
564029,-111.111111111111,4,2,0,10,0,0
574829,-40,4,2,0,10,0,0
574904,-249.999999999999,4,2,0,10,0,0
575129,-40,4,2,0,10,0,0
575204,-249.999999999999,4,2,0,10,0,0
575429,-40,4,2,0,10,0,0
575504,-249.999999999999,4,2,0,10,0,0
575729,-40,4,2,0,10,0,0
575804,-249.999999999999,4,2,0,10,0,0
576029,-40,4,2,0,10,0,0
576104,-249.999999999999,4,2,0,10,0,0
576329,-40,4,2,0,10,0,0
576366,-249.999999999999,4,2,0,10,0,0
576479,-40,4,2,0,10,0,0
576516,-249.999999999999,4,2,0,10,0,0
576629,-40,4,2,0,10,0,0
576704,-249.999999999999,4,2,0,10,0,0
576929,-40,4,2,0,10,0,0
577004,-249.999999999999,4,2,0,10,0,0
577229,-40,4,2,0,10,0,0
577304,-249.999999999999,4,2,0,10,0,0
577529,-40,4,2,0,10,0,0
577566,-249.999999999999,4,2,0,10,0,0
577679,-40,4,2,0,10,0,0
577716,-249.999999999999,4,2,0,10,0,0
577829,-40,4,2,0,10,0,0
577904,-249.999999999999,4,2,0,10,0,0
578129,-40,4,2,0,10,0,0
578204,-249.999999999999,4,2,0,10,0,0
578429,-40,4,2,0,10,0,0
578479,-249.999999999999,4,2,0,10,0,0
578629,-40,4,2,0,10,0,0
578679,-249.999999999999,4,2,0,10,0,0
578829,-40,4,2,0,10,0,0
578879,-249.999999999999,4,2,0,10,0,0
579029,-40,4,2,0,10,0,0
579079,-249.999999999999,4,2,0,10,0,0
579229,-40,4,2,0,10,0,0
579279,-249.999999999999,4,2,0,10,0,0
579429,-40,4,2,0,10,0,0
579479,-249.999999999999,4,2,0,10,0,0
579629,-166.666666666666,4,2,0,10,0,0
580229,-100,4,2,0,10,0,0
580529,-166.666666666667,4,2,0,10,0,0
581129,-111.111111111111,4,2,0,10,0,0
581204,-105.263157894737,4,2,0,10,0,0
581279,-100,4,2,0,10,0,0
581354,-95.2380952380952,4,2,0,10,0,0
581429,-50,4,2,0,10,0,0
581447,-111.111111111111,4,2,0,10,0,0
581579,-50,4,2,0,10,0,0
581597,-111.111111111111,4,2,0,10,0,0
583829,-50,4,2,0,10,0,0
583847,-111.111111111111,4,2,0,10,0,0
583979,-50,4,2,0,10,0,0
583997,-111.111111111111,4,2,0,10,0,0
584129,-50,4,2,0,10,0,0
584147,-111.111111111111,4,2,0,10,0,0
588929,-105.263157894737,4,2,0,10,0,0
589004,-100,4,2,0,10,0,0
589079,-95.2380952380952,4,2,0,10,0,0
589154,-90.9090909090909,4,2,0,10,0,0
589229,-111.111111111111,4,2,0,10,0,0
593579,-105.263157894737,4,2,0,10,0,0
593654,-100,4,2,0,10,0,0
593729,-95.2380952380952,4,2,0,10,0,0
593804,-90.9090909090909,4,2,0,10,0,0
593879,-86.9565217391304,4,2,0,10,0,0
593954,-83.3333333333333,4,2,0,10,0,0
594029,-111.111111111111,4,2,0,10,0,0
597629,-40,4,2,0,10,0,0
597679,-250,4,2,0,10,0,0
597829,-40,4,2,0,10,0,0
597879,-250,4,2,0,10,0,0
598029,-40,4,2,0,10,0,0
598079,-250,4,2,0,10,0,0
598229,-40,4,2,0,10,0,0
598279,-250,4,2,0,10,0,0
598429,-40,4,2,0,10,0,0
598479,-250,4,2,0,10,0,0
598629,-40,4,2,0,10,0,0
598679,-250,4,2,0,10,0,0
598829,-166.666666666667,4,2,0,10,0,0
599429,-100,4,2,0,10,0,0
599729,-166.666666666666,4,2,0,10,0,0
600329,-111.111111111111,4,2,0,10,0,0
600404,-105.263157894737,4,2,0,10,0,0
600479,-100,4,2,0,10,0,0
600554,-95.2380952380952,4,2,0,10,0,0
600629,-50,4,2,0,10,0,0
600647,-111.111111111111,4,2,0,10,0,0
600779,-50,4,2,0,10,0,0
600797,-111.111111111111,4,2,0,10,0,0
603029,-50,4,2,0,10,0,0
603047,-111.111111111111,4,2,0,10,0,0
603179,-50,4,2,0,10,0,0
603197,-111.111111111111,4,2,0,10,0,0
603329,-50,4,2,0,10,0,0
603347,-111.111111111111,4,2,0,10,0,0
603479,-33.3333333333333,4,2,0,10,0,0
603497,-111.111111111111,4,2,0,10,0,0
604379,-125,4,2,0,10,0,0
604679,-40,4,2,0,10,0,0
604754,-250,4,2,0,10,0,0
604979,-111.111111111111,4,2,0,10,0,0
606779,-125,4,2,0,10,0,0
607079,-40,4,2,0,10,0,0
607154,-249.999999999999,4,2,0,10,0,0
607379,-111.111111111111,4,2,0,10,0,0
609179,-125,4,2,0,10,0,0
609479,-40,4,2,0,10,0,0
609554,-249.999999999999,4,2,0,10,0,0
609779,-111.111111111111,4,2,0,10,0,0
611579,-125,4,2,0,10,0,0
611879,-40,4,2,0,10,0,0
611954,-249.999999999999,4,2,0,10,0,0
612179,-111.111111111111,4,2,0,10,0,0
615554,-33.3333333333333,4,2,0,10,0,0
615591,-166.666666666667,4,2,0,10,0,0
615779,-111.111111111111,4,2,0,10,0,0
622829,-50,4,2,0,10,0,0
622866,-250,4,2,0,10,0,0
623091,-27.7777777777778,4,2,0,10,0,0
623129,-142.857142857143,4,2,0,10,0,0
626429,-111.111111111111,4,2,0,10,0,0
627629,-142.857142857143,4,2,0,10,0,0
628866,-125,4,2,0,10,0,0
629466,-111.111111111111,4,2,0,10,0,0
639625,-13.6986301369863,4,2,0,10,0,0
639647,-1000,4,2,0,10,0,0
639779,-13.3333333333333,4,2,0,10,0,0
639797,-1000,4,2,0,10,0,0
639929,-12.987012987013,4,2,0,10,0,0
639947,-1000,4,2,0,10,0,0
640079,-12.6582278481013,4,2,0,10,0,0
640097,-1000,4,2,0,10,0,0
640229,-12.1951219512195,4,2,0,10,0,0
640247,-1000,4,2,0,10,0,0
640379,-11.6279069767442,4,2,0,10,0,0
640397,-1000,4,2,0,10,0,0
640529,-10.989010989011,4,2,0,10,0,0
640547,-1000,4,2,0,10,0,0
640679,-10.4166666666667,4,2,0,10,0,0
640697,-1000,4,2,0,10,0,0
640829,-111.111111111111,4,2,0,10,0,0
641654,-111.111111111111,4,2,0,10,0,0
641729,-105.263157894737,4,2,0,10,0,0
641804,-100,4,2,0,10,0,0
641879,-95.2380952380952,4,2,0,10,0,0
641954,-90.9090909090908,4,2,0,10,0,0
642029,-333.333333333333,4,2,0,10,0,0
642254,-32.258064516129,4,2,0,10,0,0
642329,864.966,4,2,0,10,1,0
642329,-43.354375,4,2,0,10,0,0
643194,1166.97,4,2,0,10,1,0
643194,-39.55,4,2,0,10,0,0
643235,1292.68555423893,4,2,0,10,1,0
643235,-35.7038461538462,4,2,0,10,0,0
644314,1218.5,4,2,0,10,1,0
644314,-49.241,4,2,0,10,0,0
644363,1550.9,4,2,0,10,1,0
644363,-38.587,4,2,0,10,0,0
645852,1393.2,4,2,0,10,1,0
645852,-43.066,4,2,0,10,0,0
645907,1676.96,4,2,0,10,1,0
645907,-35.779,4,2,0,10,0,0
647551,1253.88,4,2,0,10,1,0
647551,-68.3585714285714,4,2,0,10,0,0
647579,1416.73160019834,4,2,0,10,1,0
647579,-60.5014285714286,4,2,0,10,0,0

[HitObjects]
182,192,488,5,0,0:0:0:0:
256,192,907,1,0,0:0:0:0:
329,192,1329,1,0,0:0:0:0:
402,192,1845,1,0,0:0:0:0:
109,192,2317,128,0,3266:0:0:0:0:
475,192,2317,1,0,0:0:0:0:
256,192,2317,1,0,0:0:0:0:
329,192,3266,1,0,0:0:0:0:
182,192,3266,1,0,0:0:0:0:
475,192,3266,128,0,4245:0:0:0:0:
256,192,4245,1,0,0:0:0:0:
402,192,4245,1,0,0:0:0:0:
109,192,4245,128,0,5188:0:0:0:0:
329,192,5188,1,0,0:0:0:0:
182,192,5188,1,0,0:0:0:0:
475,192,5188,128,0,6137:0:0:0:0:
402,192,6137,1,0,0:0:0:0:
256,192,6137,1,0,0:0:0:0:
109,192,6137,128,0,7103:0:0:0:0:
182,192,7103,1,0,0:0:0:0:
109,192,7569,1,0,0:0:0:0:
36,192,8079,1,0,0:0:0:0:
329,192,9153,1,0,0:0:0:0:
475,192,10337,1,0,0:0:0:0:
36,192,10337,1,0,0:0:0:0:
182,192,10405,1,0,0:0:0:0:
256,192,10474,1,0,0:0:0:0:
329,192,10543,1,0,0:0:0:0:
109,192,10612,128,0,10680:0:0:0:0:
402,192,10612,128,0,10680:0:0:0:0:
475,192,10612,128,0,10680:0:0:0:0:
402,192,11437,128,0,14037:0:0:0:0:
329,192,11879,128,0,14037:0:0:0:0:
256,192,12327,128,0,14037:0:0:0:0:
182,192,13193,128,0,14037:0:0:0:0:
109,192,14037,1,0,0:0:0:0:
36,192,14037,1,0,0:0:0:0:
329,192,14583,1,0,0:0:0:0:
329,192,15061,1,0,0:0:0:0:
475,192,15129,1,0,0:0:0:0:
182,192,15129,1,0,0:0:0:0:
402,192,16158,1,0,0:0:0:0:
256,192,16158,1,0,0:0:0:0:
109,192,16158,1,0,0:0:0:0:
475,192,19936,1,0,0:0:0:0:
256,192,19936,1,0,0:0:0:0:
36,192,19936,1,0,0:0:0:0:
402,192,20102,1,0,0:0:0:0:
329,192,20158,1,0,0:0:0:0:
109,192,20213,1,0,0:0:0:0:
256,192,20269,1,0,0:0:0:0:
402,192,20436,1,0,0:0:0:0:
329,192,20519,1,0,0:0:0:0:
109,192,20602,1,0,0:0:0:0:
36,192,20602,1,0,0:0:0:0:
329,192,20658,1,0,0:0:0:0:
402,192,20713,1,0,0:0:0:0:
182,192,20769,1,0,0:0:0:0:
256,192,20852,1,0,0:0:0:0:
182,192,20936,1,0,0:0:0:0:
329,192,21019,1,0,0:0:0:0:
475,192,21102,1,0,0:0:0:0:
256,192,21102,1,0,0:0:0:0:
36,192,21102,1,0,0:0:0:0:
109,192,21268,1,0,0:0:0:0:
182,192,21351,1,0,0:0:0:0:
475,192,21435,128,0,21476:0:0:0:0:
402,192,21601,128,0,21643:0:0:0:0:
256,192,21935,128,0,21976:0:0:0:0:
329,192,22268,128,0,22310:0:0:0:0:
36,192,22601,128,0,22643:0:0:0:0:
329,192,22768,128,0,22810:0:0:0:0:
256,192,22935,128,0,22976:0:0:0:0:
109,192,23101,128,0,23143:0:0:0:0:
109,192,23268,128,0,23296:0:0:0:0:
182,192,23324,128,0,23351:0:0:0:0:
329,192,23379,128,0,23407:0:0:0:0:
475,192,23435,128,0,23463:0:0:0:0:
256,192,23601,128,0,23643:0:0:0:0:
329,192,23935,128,0,24185:0:0:0:0:
402,192,23935,128,0,24185:0:0:0:0:
182,192,23935,128,0,24185:0:0:0:0:
36,192,23935,128,0,24185:0:0:0:0:
36,192,24268,128,0,24351:0:0:0:0:
109,192,24268,128,0,24351:0:0:0:0:
256,192,24268,128,0,24351:0:0:0:0:
329,192,24268,128,0,24351:0:0:0:0:
182,192,24435,128,0,24476:0:0:0:0:
329,192,24518,128,0,24560:0:0:0:0:
475,192,24601,128,0,24643:0:0:0:0:
402,192,24685,128,0,24726:0:0:0:0:
256,192,24768,128,0,24810:0:0:0:0:
109,192,24851,128,0,24893:0:0:0:0:
329,192,24935,1,0,0:0:0:0:
475,192,24935,1,0,0:0:0:0:
36,192,24935,1,0,0:0:0:0:
182,192,25185,1,0,0:0:0:0:
475,192,25268,128,0,25310:0:0:0:0:
402,192,25435,128,0,25476:0:0:0:0:
256,192,25601,128,0,25643:0:0:0:0:
182,192,25768,1,0,0:0:0:0:
36,192,25768,1,0,0:0:0:0:
475,192,25768,1,0,0:0:0:0:
329,192,25935,128,0,25976:0:0:0:0:
402,192,26018,128,0,26060:0:0:0:0:
475,192,26101,128,0,26129:0:0:0:0:
256,192,26101,128,0,26129:0:0:0:0:
36,192,26101,128,0,26129:0:0:0:0:
402,192,26213,128,0,26240:0:0:0:0:
109,192,26213,128,0,26240:0:0:0:0:
329,192,26324,128,0,26351:0:0:0:0:
109,192,26324,128,0,26351:0:0:0:0:
36,192,26768,1,0,0:0:0:0:
109,192,26768,1,0,0:0:0:0:
256,192,26768,1,0,0:0:0:0:
402,192,26768,1,0,0:0:0:0:
329,192,26935,128,0,26976:0:0:0:0:
36,192,27101,128,0,27143:0:0:0:0:
182,192,27185,128,0,27226:0:0:0:0:
256,192,27268,128,0,27310:0:0:0:0:
402,192,27351,128,0,27393:0:0:0:0:
329,192,27435,128,0,27476:0:0:0:0:
109,192,27601,1,0,0:0:0:0:
36,192,27601,1,0,0:0:0:0:
256,192,27601,128,0,27643:0:0:0:0:
475,192,27601,128,0,27643:0:0:0:0:
329,192,27851,1,0,0:0:0:0:
402,192,27935,128,0,27976:0:0:0:0:
329,192,28185,1,0,0:0:0:0:
475,192,28268,128,0,28310:0:0:0:0:
109,192,28435,1,0,0:0:0:0:
36,192,28435,1,0,0:0:0:0:
402,192,28435,128,0,28476:0:0:0:0:
329,192,28601,128,0,28643:0:0:0:0:
182,192,28685,128,0,28726:0:0:0:0:
109,192,28768,1,0,0:0:0:0:
256,192,28768,1,0,0:0:0:0:
475,192,28768,1,0,0:0:0:0:
182,192,28879,1,0,0:0:0:0:
402,192,28879,1,0,0:0:0:0:
109,192,28990,1,0,0:0:0:0:
329,192,28990,1,0,0:0:0:0:
36,192,29101,1,0,0:0:0:0:
256,192,29101,1,0,0:0:0:0:
402,192,29101,1,0,0:0:0:0:
329,192,29351,1,0,0:0:0:0:
36,192,29435,1,0,0:0:0:0:
109,192,29435,1,0,0:0:0:0:
182,192,29601,128,0,29643:0:0:0:0:
109,192,29768,128,0,29810:0:0:0:0:
256,192,29768,128,0,29810:0:0:0:0:
182,192,29935,128,0,29976:0:0:0:0:
329,192,29935,128,0,29976:0:0:0:0:
109,192,30101,128,0,30143:0:0:0:0:
402,192,30101,128,0,30143:0:0:0:0:
182,192,30268,128,0,30310:0:0:0:0:
329,192,30268,128,0,30310:0:0:0:0:
36,192,30435,1,0,0:0:0:0:
402,192,30435,128,0,30476:0:0:0:0:
256,192,30435,128,0,30476:0:0:0:0:
36,192,30601,1,0,0:0:0:0:
329,192,30601,128,0,30643:0:0:0:0:
182,192,30601,128,0,30643:0:0:0:0:
475,192,30768,1,0,0:0:0:0:
109,192,30768,128,0,30810:0:0:0:0:
256,192,30768,128,0,30810:0:0:0:0:
475,192,30935,1,0,0:0:0:0:
329,192,30935,128,0,30976:0:0:0:0:
182,192,30935,128,0,30976:0:0:0:0:
475,192,31101,1,0,0:0:0:0:
402,192,31101,128,0,31143:0:0:0:0:
256,192,31101,128,0,31143:0:0:0:0:
329,192,31268,128,0,31310:0:0:0:0:
182,192,31268,128,0,31310:0:0:0:0:
256,192,31435,128,0,31476:0:0:0:0:
402,192,31435,128,0,31476:0:0:0:0:
475,192,31435,128,0,31476:0:0:0:0:
475,192,31601,1,0,0:0:0:0:
402,192,31601,1,0,0:0:0:0:
329,192,31601,1,0,0:0:0:0:
182,192,31601,1,0,0:0:0:0:
36,192,31601,1,0,0:0:0:0:
109,192,31601,1,0,0:0:0:0:
256,192,31767,1,0,0:0:0:0:
36,192,31767,1,0,0:0:0:0:
109,192,31850,1,0,0:0:0:0:
402,192,31934,1,0,0:0:0:0:
329,192,31934,1,0,0:0:0:0:
182,192,31934,1,0,0:0:0:0:
109,192,32017,1,0,0:0:0:0:
36,192,32100,1,0,0:0:0:0:
475,192,32100,1,0,0:0:0:0:
256,192,32100,1,0,0:0:0:0:
402,192,32100,1,0,0:0:0:0:
402,192,32267,1,0,0:0:0:0:
329,192,32267,1,0,0:0:0:0:
182,192,32267,1,0,0:0:0:0:
109,192,32267,1,0,0:0:0:0:
256,192,32434,1,0,0:0:0:0:
36,192,32434,1,0,0:0:0:0:
109,192,32434,1,0,0:0:0:0:
402,192,32434,1,0,0:0:0:0:
329,192,32517,1,0,0:0:0:0:
475,192,32600,1,0,0:0:0:0:
402,192,32600,1,0,0:0:0:0:
182,192,32600,1,0,0:0:0:0:
36,192,32600,1,0,0:0:0:0:
475,192,32767,1,0,0:0:0:0:
36,192,32767,1,0,0:0:0:0:
109,192,32767,1,0,0:0:0:0:
329,192,32767,1,0,0:0:0:0:
256,192,32850,1,0,0:0:0:0:
182,192,32850,1,0,0:0:0:0:
402,192,32850,1,0,0:0:0:0:
36,192,32934,1,0,0:0:0:0:
475,192,32934,1,0,0:0:0:0:
109,192,32934,1,0,0:0:0:0:
329,192,32934,1,0,0:0:0:0:
182,192,33017,1,0,0:0:0:0:
256,192,33017,1,0,0:0:0:0:
475,192,33100,1,0,0:0:0:0:
329,192,33100,1,0,0:0:0:0:
182,192,33184,1,0,0:0:0:0:
109,192,33184,1,0,0:0:0:0:
402,192,33267,1,0,0:0:0:0:
256,192,33267,1,0,0:0:0:0:
109,192,33350,1,0,0:0:0:0:
36,192,33350,1,0,0:0:0:0:
475,192,33434,1,0,0:0:0:0:
182,192,33434,1,0,0:0:0:0:
329,192,33434,1,0,0:0:0:0:
256,192,33434,1,0,0:0:0:0:
402,192,33517,1,0,0:0:0:0:
109,192,33600,1,0,0:0:0:0:
36,192,33600,1,0,0:0:0:0:
329,192,33600,1,0,0:0:0:0:
182,192,33684,1,0,0:0:0:0:
256,192,33767,1,0,0:0:0:0:
402,192,33767,1,0,0:0:0:0:
329,192,33767,1,0,0:0:0:0:
182,192,33850,1,0,0:0:0:0:
402,192,33934,1,0,0:0:0:0:
109,192,33934,1,0,0:0:0:0:
475,192,33934,1,0,0:0:0:0:
36,192,33934,1,0,0:0:0:0:
329,192,34100,1,0,0:0:0:0:
256,192,34100,1,0,0:0:0:0:
36,192,34100,1,0,0:0:0:0:
182,192,34184,1,0,0:0:0:0:
109,192,34267,1,0,0:0:0:0:
36,192,34267,1,0,0:0:0:0:
475,192,34267,1,0,0:0:0:0:
329,192,34267,1,0,0:0:0:0:
402,192,34267,1,0,0:0:0:0:
256,192,34267,1,0,0:0:0:0:
182,192,34350,1,0,0:0:0:0:
402,192,34434,1,0,0:0:0:0:
329,192,34517,1,0,0:0:0:0:
402,192,34600,1,0,0:0:0:0:
109,192,34600,1,0,0:0:0:0:
182,192,34684,1,0,0:0:0:0:
475,192,34767,1,0,0:0:0:0:
329,192,34767,1,0,0:0:0:0:
256,192,34767,1,0,0:0:0:0:
109,192,34767,1,0,0:0:0:0:
109,192,34934,1,0,0:0:0:0:
36,192,34934,1,0,0:0:0:0:
402,192,34934,1,0,0:0:0:0:
329,192,34934,1,0,0:0:0:0:
182,192,35017,1,0,0:0:0:0:
475,192,35100,1,0,0:0:0:0:
402,192,35100,1,0,0:0:0:0:
256,192,35100,1,0,0:0:0:0:
36,192,35100,1,0,0:0:0:0:
109,192,35184,1,0,0:0:0:0:
475,192,35267,1,0,0:0:0:0:
329,192,35267,1,0,0:0:0:0:
182,192,35267,1,0,0:0:0:0:
402,192,35267,1,0,0:0:0:0:
36,192,35434,1,0,0:0:0:0:
182,192,35434,1,0,0:0:0:0:
475,192,35434,1,0,0:0:0:0:
402,192,35434,1,0,0:0:0:0:
109,192,35517,1,0,0:0:0:0:
256,192,35517,1,0,0:0:0:0:
329,192,35517,1,0,0:0:0:0:
182,192,35600,1,0,0:0:0:0:
36,192,35600,1,0,0:0:0:0:
475,192,35600,1,0,0:0:0:0:
402,192,35600,1,0,0:0:0:0:
329,192,35684,1,0,0:0:0:0:
256,192,35684,1,0,0:0:0:0:
109,192,35767,1,0,0:0:0:0:
36,192,35767,1,0,0:0:0:0:
182,192,35850,1,0,0:0:0:0:
475,192,35934,1,0,0:0:0:0:
256,192,35934,1,0,0:0:0:0:
36,192,35934,1,0,0:0:0:0:
402,192,36100,1,0,0:0:0:0:
329,192,36100,1,0,0:0:0:0:
182,192,36100,1,0,0:0:0:0:
109,192,36100,1,0,0:0:0:0:
402,192,36267,1,0,0:0:0:0:
256,192,36267,1,0,0:0:0:0:
109,192,36267,1,0,0:0:0:0:
329,192,36350,1,0,0:0:0:0:
182,192,36434,1,0,0:0:0:0:
36,192,36434,1,0,0:0:0:0:
475,192,36434,1,0,0:0:0:0:
402,192,36434,1,0,0:0:0:0:
475,192,36545,1,0,0:0:0:0:
402,192,36545,1,0,0:0:0:0:
256,192,36545,1,0,0:0:0:0:
109,192,36545,1,0,0:0:0:0:
182,192,36656,1,0,0:0:0:0:
36,192,36656,1,0,0:0:0:0:
329,192,36656,1,0,0:0:0:0:
475,192,36767,1,0,0:0:0:0:
256,192,36767,1,0,0:0:0:0:
36,192,36767,1,0,0:0:0:0:
109,192,36767,1,0,0:0:0:0:
475,192,36878,1,0,0:0:0:0:
329,192,36878,1,0,0:0:0:0:
182,192,36878,1,0,0:0:0:0:
402,192,36989,1,0,0:0:0:0:
256,192,36989,1,0,0:0:0:0:
109,192,36989,1,0,0:0:0:0:
36,192,36989,1,0,0:0:0:0:
475,192,37100,1,0,0:0:0:0:
182,192,37100,1,0,0:0:0:0:
36,192,37100,1,0,0:0:0:0:
109,192,37100,1,0,0:0:0:0:
329,192,37100,1,0,0:0:0:0:
256,192,37269,1,0,0:0:0:0:
475,192,37352,1,0,0:0:0:0:
329,192,37352,1,0,0:0:0:0:
109,192,37352,1,0,0:0:0:0:
182,192,37352,1,0,0:0:0:0:
36,192,37352,1,0,0:0:0:0:
402,192,37602,1,0,0:0:0:0:
329,192,37602,1,0,0:0:0:0:
182,192,37602,1,0,0:0:0:0:
36,192,37602,1,0,0:0:0:0:
109,192,37602,1,0,0:0:0:0:
475,192,37602,1,0,0:0:0:0:
256,192,37769,1,0,0:0:0:0:
402,192,37769,1,0,0:0:0:0:
182,192,37769,1,0,0:0:0:0:
109,192,37852,1,0,0:0:0:0:
329,192,37852,1,0,0:0:0:0:
36,192,37852,1,0,0:0:0:0:
402,192,37936,1,0,0:0:0:0:
182,192,37936,1,0,0:0:0:0:
475,192,38019,1,0,0:0:0:0:
256,192,38019,1,0,0:0:0:0:
109,192,38102,1,0,0:0:0:0:
36,192,38102,1,0,0:0:0:0:
329,192,38102,1,0,0:0:0:0:
402,192,38186,1,0,0:0:0:0:
182,192,38186,1,0,0:0:0:0:
256,192,38269,1,0,0:0:0:0:
36,192,38269,1,0,0:0:0:0:
475,192,38269,1,0,0:0:0:0:
109,192,38352,1,0,0:0:0:0:
329,192,38352,1,0,0:0:0:0:
475,192,38436,1,0,0:0:0:0:
182,192,38436,1,0,0:0:0:0:
36,192,38436,1,0,0:0:0:0:
256,192,38436,1,0,0:0:0:0:
402,192,38436,1,0,0:0:0:0:
329,192,38602,1,0,0:0:0:0:
475,192,38686,1,0,0:0:0:0:
402,192,38686,1,0,0:0:0:0:
256,192,38686,1,0,0:0:0:0:
182,192,38686,1,0,0:0:0:0:
36,192,38686,1,0,0:0:0:0:
475,192,38936,1,0,0:0:0:0:
402,192,38936,1,0,0:0:0:0:
256,192,38936,1,0,0:0:0:0:
182,192,38936,1,0,0:0:0:0:
109,192,38936,1,0,0:0:0:0:
36,192,38936,1,0,0:0:0:0:
329,192,39102,1,0,0:0:0:0:
109,192,39102,1,0,0:0:0:0:
36,192,39102,1,0,0:0:0:0:
402,192,39186,1,0,0:0:0:0:
475,192,39186,1,0,0:0:0:0:
182,192,39186,1,0,0:0:0:0:
256,192,39269,1,0,0:0:0:0:
36,192,39269,1,0,0:0:0:0:
109,192,39352,1,0,0:0:0:0:
329,192,39352,1,0,0:0:0:0:
475,192,39436,1,0,0:0:0:0:
182,192,39436,1,0,0:0:0:0:
36,192,39436,1,0,0:0:0:0:
402,192,39519,1,0,0:0:0:0:
256,192,39519,1,0,0:0:0:0:
36,192,39602,1,0,0:0:0:0:
475,192,39602,1,0,0:0:0:0:
182,192,39602,1,0,0:0:0:0:
109,192,39602,1,0,0:0:0:0:
256,192,39686,1,0,0:0:0:0:
329,192,39686,1,0,0:0:0:0:
36,192,39769,1,0,0:0:0:0:
109,192,39769,1,0,0:0:0:0:
475,192,39769,1,0,0:0:0:0:
402,192,39769,1,0,0:0:0:0:
182,192,39769,1,0,0:0:0:0:
329,192,39936,1,0,0:0:0:0:
402,192,40019,1,0,0:0:0:0:
475,192,40019,1,0,0:0:0:0:
182,192,40019,1,0,0:0:0:0:
109,192,40019,1,0,0:0:0:0:
36,192,40019,1,0,0:0:0:0:
475,192,40269,1,0,0:0:0:0:
36,192,40269,1,0,0:0:0:0:
256,192,40269,1,0,0:0:0:0:
329,192,40352,1,0,0:0:0:0:
109,192,40352,1,0,0:0:0:0:
402,192,40436,1,0,0:0:0:0:
475,192,40436,1,0,0:0:0:0:
182,192,40436,1,0,0:0:0:0:
36,192,40436,1,0,0:0:0:0:
329,192,40519,1,0,0:0:0:0:
256,192,40519,1,0,0:0:0:0:
182,192,40602,1,0,0:0:0:0:
109,192,40602,1,0,0:0:0:0:
475,192,40686,1,0,0:0:0:0:
402,192,40686,1,0,0:0:0:0:
329,192,40686,1,0,0:0:0:0:
256,192,40686,1,0,0:0:0:0:
109,192,40769,1,0,0:0:0:0:
36,192,40769,1,0,0:0:0:0:
256,192,40852,1,0,0:0:0:0:
182,192,40852,1,0,0:0:0:0:
475,192,40936,1,0,0:0:0:0:
402,192,40936,1,0,0:0:0:0:
329,192,40936,1,0,0:0:0:0:
36,192,40936,1,0,0:0:0:0:
182,192,41019,1,0,0:0:0:0:
109,192,41019,1,0,0:0:0:0:
475,192,41102,1,0,0:0:0:0:
402,192,41102,1,0,0:0:0:0:
329,192,41102,1,0,0:0:0:0:
256,192,41102,1,0,0:0:0:0:
182,192,41186,1,0,0:0:0:0:
329,192,41269,1,0,0:0:0:0:
402,192,41352,1,0,0:0:0:0:
182,192,41352,1,0,0:0:0:0:
109,192,41436,1,0,0:0:0:0:
402,192,41519,1,0,0:0:0:0:
475,192,41602,1,0,0:0:0:0:
109,192,41602,1,0,0:0:0:0:
36,192,41686,1,0,0:0:0:0:
329,192,41769,128,0,42352:0:0:0:0:
256,192,41769,128,0,42352:0:0:0:0:
402,192,41769,128,0,42352:0:0:0:0:
475,192,41769,128,0,42352:0:0:0:0:
182,192,41769,128,0,42352:0:0:0:0:
475,192,42436,1,0,0:0:0:0:
402,192,42436,1,0,0:0:0:0:
329,192,42436,1,0,0:0:0:0:
256,192,42436,1,0,0:0:0:0:
182,192,42436,1,0,0:0:0:0:
36,192,42519,1,0,0:0:0:0:
109,192,42602,1,0,0:0:0:0:
256,192,42602,1,0,0:0:0:0:
329,192,42686,1,0,0:0:0:0:
182,192,42769,1,0,0:0:0:0:
256,192,42852,1,0,0:0:0:0:
402,192,42852,1,0,0:0:0:0:
475,192,42936,1,0,0:0:0:0:
329,192,43019,1,0,0:0:0:0:
182,192,43102,1,0,0:0:0:0:
36,192,43102,1,0,0:0:0:0:
256,192,43186,1,0,0:0:0:0:
402,192,43269,1,0,0:0:0:0:
109,192,43269,1,0,0:0:0:0:
329,192,43352,1,0,0:0:0:0:
182,192,43436,1,0,0:0:0:0:
475,192,43436,1,0,0:0:0:0:
256,192,43519,1,0,0:0:0:0:
402,192,43602,1,0,0:0:0:0:
109,192,43602,1,0,0:0:0:0:
182,192,43686,1,0,0:0:0:0:
329,192,43769,1,0,0:0:0:0:
475,192,43769,1,0,0:0:0:0:
402,192,43852,1,0,0:0:0:0:
256,192,43936,1,0,0:0:0:0:
109,192,44019,1,0,0:0:0:0:
329,192,44102,1,0,0:0:0:0:
402,192,44158,1,0,0:0:0:0:
182,192,44186,1,0,0:0:0:0:
475,192,44213,1,0,0:0:0:0:
36,192,44269,1,0,0:0:0:0:
329,192,44269,1,0,0:0:0:0:
109,192,44352,1,0,0:0:0:0:
329,192,44436,1,0,0:0:0:0:
402,192,44519,1,0,0:0:0:0:
182,192,44519,1,0,0:0:0:0:
475,192,44602,1,0,0:0:0:0:
36,192,44602,1,0,0:0:0:0:
329,192,44658,1,0,0:0:0:0:
109,192,44686,1,0,0:0:0:0:
402,192,44713,1,0,0:0:0:0:
475,192,44769,1,0,0:0:0:0:
182,192,44769,1,0,0:0:0:0:
256,192,44825,1,0,0:0:0:0:
329,192,44880,1,0,0:0:0:0:
402,192,44936,1,0,0:0:0:0:
475,192,44936,1,0,0:0:0:0:
109,192,44936,1,0,0:0:0:0:
36,192,44936,1,0,0:0:0:0:
182,192,44936,1,0,0:0:0:0:
475,192,45102,1,0,0:0:0:0:
329,192,45102,1,0,0:0:0:0:
182,192,45186,1,0,0:0:0:0:
402,192,45269,1,0,0:0:0:0:
256,192,45269,1,0,0:0:0:0:
109,192,45269,1,0,0:0:0:0:
36,192,45269,1,0,0:0:0:0:
475,192,45436,1,0,0:0:0:0:
329,192,45436,1,0,0:0:0:0:
182,192,45436,1,0,0:0:0:0:
109,192,45436,1,0,0:0:0:0:
402,192,45602,1,0,0:0:0:0:
329,192,45602,1,0,0:0:0:0:
109,192,45602,1,0,0:0:0:0:
36,192,45602,1,0,0:0:0:0:
402,192,45769,1,0,0:0:0:0:
36,192,45852,1,0,0:0:0:0:
109,192,45852,1,0,0:0:0:0:
256,192,45852,1,0,0:0:0:0:
475,192,45936,1,0,0:0:0:0:
402,192,46102,1,0,0:0:0:0:
256,192,46102,1,0,0:0:0:0:
182,192,46102,1,0,0:0:0:0:
36,192,46102,1,0,0:0:0:0:
475,192,46269,1,0,0:0:0:0:
329,192,46269,1,0,0:0:0:0:
109,192,46269,1,0,0:0:0:0:
109,192,46352,1,0,0:0:0:0:
475,192,46352,1,0,0:0:0:0:
329,192,46352,1,0,0:0:0:0:
475,192,46436,1,0,0:0:0:0:
329,192,46436,1,0,0:0:0:0:
36,192,46436,1,0,0:0:0:0:
182,192,46436,1,0,0:0:0:0:
402,192,46602,1,0,0:0:0:0:
256,192,46602,1,0,0:0:0:0:
109,192,46602,1,0,0:0:0:0:
182,192,46602,1,0,0:0:0:0:
402,192,46769,1,0,0:0:0:0:
329,192,46769,1,0,0:0:0:0:
109,192,46769,1,0,0:0:0:0:
36,192,46769,1,0,0:0:0:0:
475,192,46936,1,0,0:0:0:0:
256,192,46936,1,0,0:0:0:0:
109,192,47019,1,0,0:0:0:0:
329,192,47019,1,0,0:0:0:0:
36,192,47019,1,0,0:0:0:0:
182,192,47102,1,0,0:0:0:0:
475,192,47102,1,0,0:0:0:0:
256,192,47186,1,0,0:0:0:0:
109,192,47269,1,0,0:0:0:0:
36,192,47269,1,0,0:0:0:0:
402,192,47269,1,0,0:0:0:0:
182,192,47269,1,0,0:0:0:0:
329,192,47352,1,0,0:0:0:0:
475,192,47436,1,0,0:0:0:0:
402,192,47436,1,0,0:0:0:0:
256,192,47436,1,0,0:0:0:0:
109,192,47436,1,0,0:0:0:0:
182,192,47519,1,0,0:0:0:0:
402,192,47602,1,0,0:0:0:0:
475,192,47602,1,0,0:0:0:0:
329,192,47602,1,0,0:0:0:0:
36,192,47602,1,0,0:0:0:0:
475,192,47936,1,0,0:0:0:0:
329,192,47936,1,0,0:0:0:0:
36,192,47936,1,0,0:0:0:0:
109,192,47936,1,0,0:0:0:0:
36,192,48019,1,0,0:0:0:0:
109,192,48019,1,0,0:0:0:0:
182,192,48102,1,0,0:0:0:0:
475,192,48102,1,0,0:0:0:0:
256,192,48102,1,0,0:0:0:0:
402,192,48102,1,0,0:0:0:0:
36,192,48269,1,0,0:0:0:0:
402,192,48269,1,0,0:0:0:0:
182,192,48352,1,0,0:0:0:0:
329,192,48352,1,0,0:0:0:0:
256,192,48352,1,0,0:0:0:0:
109,192,48436,1,0,0:0:0:0:
475,192,48436,1,0,0:0:0:0:
329,192,48519,1,0,0:0:0:0:
256,192,48602,1,0,0:0:0:0:
36,192,48602,1,0,0:0:0:0:
402,192,48602,1,0,0:0:0:0:
182,192,48686,1,0,0:0:0:0:
109,192,48769,1,0,0:0:0:0:
36,192,48769,1,0,0:0:0:0:
475,192,48769,1,0,0:0:0:0:
329,192,48769,1,0,0:0:0:0:
402,192,48936,1,0,0:0:0:0:
182,192,48936,1,0,0:0:0:0:
329,192,49019,1,0,0:0:0:0:
475,192,49102,1,0,0:0:0:0:
256,192,49102,1,0,0:0:0:0:
109,192,49102,1,0,0:0:0:0:
36,192,49102,1,0,0:0:0:0:
402,192,49269,1,0,0:0:0:0:
182,192,49269,1,0,0:0:0:0:
36,192,49269,1,0,0:0:0:0:
256,192,49269,1,0,0:0:0:0:
329,192,49352,1,0,0:0:0:0:
475,192,49436,1,0,0:0:0:0:
402,192,49436,1,0,0:0:0:0:
109,192,49436,1,0,0:0:0:0:
182,192,49436,1,0,0:0:0:0:
256,192,49519,1,0,0:0:0:0:
36,192,49602,128,0,49686:0:0:0:0:
475,192,49602,128,0,49686:0:0:0:0:
182,192,49686,128,0,49769:0:0:0:0:
329,192,49686,128,0,49769:0:0:0:0:
109,192,49769,128,0,49852:0:0:0:0:
402,192,49769,128,0,49852:0:0:0:0:
182,192,49852,128,0,49936:0:0:0:0:
329,192,49852,128,0,49936:0:0:0:0:
475,192,49936,128,0,50102:0:0:0:0:
36,192,49936,128,0,50102:0:0:0:0:
109,192,50019,128,0,50102:0:0:0:0:
402,192,50019,128,0,50102:0:0:0:0:
329,192,50102,1,0,0:0:0:0:
256,192,50102,1,0,0:0:0:0:
182,192,50102,1,0,0:0:0:0:
402,192,50269,1,0,0:0:0:0:
109,192,50269,1,0,0:0:0:0:
256,192,50269,128,0,50602:0:0:0:0:
36,192,50602,1,0,0:0:0:0:
475,192,50602,1,0,0:0:0:0:
402,192,50602,1,0,0:0:0:0:
182,192,50686,1,0,0:0:0:0:
475,192,50686,1,0,0:0:0:0:
402,192,50686,1,0,0:0:0:0:
329,192,50769,1,0,0:0:0:0:
256,192,50769,1,0,0:0:0:0:
109,192,50769,1,0,0:0:0:0:
36,192,50769,1,0,0:0:0:0:
182,192,50936,1,0,0:0:0:0:
329,192,50936,1,0,0:0:0:0:
109,192,51019,1,0,0:0:0:0:
36,192,51019,1,0,0:0:0:0:
475,192,51019,1,0,0:0:0:0:
402,192,51102,1,0,0:0:0:0:
256,192,51102,1,0,0:0:0:0:
182,192,51186,1,0,0:0:0:0:
109,192,51269,1,0,0:0:0:0:
475,192,51269,1,0,0:0:0:0:
329,192,51269,1,0,0:0:0:0:
36,192,51269,1,0,0:0:0:0:
182,192,51352,1,0,0:0:0:0:
475,192,51436,1,0,0:0:0:0:
402,192,51436,1,0,0:0:0:0:
256,192,51436,1,0,0:0:0:0:
109,192,51519,1,0,0:0:0:0:
475,192,51602,1,0,0:0:0:0:
402,192,51602,1,0,0:0:0:0:
182,192,51602,1,0,0:0:0:0:
329,192,51686,1,0,0:0:0:0:
256,192,51686,1,0,0:0:0:0:
109,192,51769,1,0,0:0:0:0:
36,192,51769,1,0,0:0:0:0:
475,192,51769,1,0,0:0:0:0:
182,192,51769,1,0,0:0:0:0:
402,192,51852,1,0,0:0:0:0:
329,192,51936,1,0,0:0:0:0:
109,192,51936,1,0,0:0:0:0:
256,192,51936,1,0,0:0:0:0:
36,192,51936,1,0,0:0:0:0:
182,192,52019,1,0,0:0:0:0:
109,192,52102,1,0,0:0:0:0:
36,192,52102,1,0,0:0:0:0:
402,192,52102,1,0,0:0:0:0:
329,192,52102,1,0,0:0:0:0:
182,192,52186,1,0,0:0:0:0:
256,192,52269,1,0,0:0:0:0:
475,192,52269,1,0,0:0:0:0:
329,192,52352,1,0,0:0:0:0:
109,192,52352,1,0,0:0:0:0:
36,192,52352,1,0,0:0:0:0:
402,192,52436,1,0,0:0:0:0:
182,192,52436,1,0,0:0:0:0:
329,192,52519,1,0,0:0:0:0:
256,192,52602,1,0,0:0:0:0:
36,192,52602,1,0,0:0:0:0:
475,192,52602,1,0,0:0:0:0:
402,192,52686,1,0,0:0:0:0:
182,192,52686,1,0,0:0:0:0:
109,192,52769,1,0,0:0:0:0:
329,192,52769,1,0,0:0:0:0:
36,192,52769,1,0,0:0:0:0:
256,192,52852,1,0,0:0:0:0:
475,192,52936,1,0,0:0:0:0:
182,192,52936,1,0,0:0:0:0:
402,192,52936,1,0,0:0:0:0:
329,192,53019,1,0,0:0:0:0:
36,192,53019,1,0,0:0:0:0:
475,192,53102,1,0,0:0:0:0:
256,192,53102,1,0,0:0:0:0:
109,192,53102,1,0,0:0:0:0:
402,192,53186,1,0,0:0:0:0:
329,192,53186,1,0,0:0:0:0:
182,192,53186,1,0,0:0:0:0:
109,192,53269,1,0,0:0:0:0:
36,192,53269,1,0,0:0:0:0:
475,192,53269,1,0,0:0:0:0:
182,192,53352,1,0,0:0:0:0:
475,192,53436,1,0,0:0:0:0:
402,192,53436,1,0,0:0:0:0:
256,192,53436,1,0,0:0:0:0:
36,192,53436,1,0,0:0:0:0:
109,192,53519,1,0,0:0:0:0:
182,192,53602,1,0,0:0:0:0:
402,192,53602,1,0,0:0:0:0:
329,192,53602,1,0,0:0:0:0:
109,192,53686,1,0,0:0:0:0:
36,192,53686,1,0,0:0:0:0:
475,192,53769,1,0,0:0:0:0:
256,192,53769,1,0,0:0:0:0:
182,192,53852,1,0,0:0:0:0:
109,192,53852,1,0,0:0:0:0:
329,192,53852,1,0,0:0:0:0:
475,192,53936,1,0,0:0:0:0:
402,192,53936,1,0,0:0:0:0:
256,192,53936,1,0,0:0:0:0:
36,192,54019,1,0,0:0:0:0:
109,192,54019,1,0,0:0:0:0:
182,192,54102,1,0,0:0:0:0:
402,192,54102,1,0,0:0:0:0:
329,192,54102,1,0,0:0:0:0:
475,192,54186,1,0,0:0:0:0:
256,192,54186,1,0,0:0:0:0:
402,192,54269,1,0,0:0:0:0:
329,192,54269,1,0,0:0:0:0:
182,192,54269,1,0,0:0:0:0:
109,192,54269,1,0,0:0:0:0:
475,192,54352,1,0,0:0:0:0:
36,192,54352,1,0,0:0:0:0:
109,192,54436,1,0,0:0:0:0:
182,192,54519,1,0,0:0:0:0:
475,192,54602,1,0,0:0:0:0:
402,192,54602,1,0,0:0:0:0:
256,192,54602,1,0,0:0:0:0:
182,192,54686,1,0,0:0:0:0:
329,192,54686,1,0,0:0:0:0:
109,192,54769,1,0,0:0:0:0:
36,192,54769,1,0,0:0:0:0:
402,192,54769,1,0,0:0:0:0:
182,192,54852,1,0,0:0:0:0:
256,192,54936,1,0,0:0:0:0:
475,192,54936,1,0,0:0:0:0:
109,192,55019,1,0,0:0:0:0:
36,192,55019,1,0,0:0:0:0:
329,192,55019,1,0,0:0:0:0:
475,192,55102,1,0,0:0:0:0:
402,192,55102,1,0,0:0:0:0:
182,192,55102,1,0,0:0:0:0:
256,192,55186,1,0,0:0:0:0:
475,192,55269,1,0,0:0:0:0:
329,192,55269,1,0,0:0:0:0:
109,192,55269,1,0,0:0:0:0:
182,192,55352,1,0,0:0:0:0:
36,192,55436,1,0,0:0:0:0:
402,192,55436,1,0,0:0:0:0:
256,192,55436,1,0,0:0:0:0:
475,192,55602,1,0,0:0:0:0:
329,192,55602,1,0,0:0:0:0:
256,192,55602,1,0,0:0:0:0:
182,192,55602,1,0,0:0:0:0:
109,192,55602,1,0,0:0:0:0:
402,192,55602,1,0,0:0:0:0:
475,192,55769,1,0,0:0:0:0:
402,192,55936,1,0,0:0:0:0:
256,192,55936,1,0,0:0:0:0:
109,192,55936,1,0,0:0:0:0:
36,192,55936,1,0,0:0:0:0:
182,192,56019,1,0,0:0:0:0:
402,192,56102,1,0,0:0:0:0:
329,192,56102,1,0,0:0:0:0:
475,192,56102,1,0,0:0:0:0:
36,192,56102,1,0,0:0:0:0:
475,192,56269,1,0,0:0:0:0:
109,192,56269,1,0,0:0:0:0:
256,192,56269,1,0,0:0:0:0:
182,192,56269,1,0,0:0:0:0:
475,192,56436,1,0,0:0:0:0:
36,192,56436,1,0,0:0:0:0:
402,192,56519,1,0,0:0:0:0:
256,192,56519,1,0,0:0:0:0:
182,192,56519,1,0,0:0:0:0:
109,192,56602,1,0,0:0:0:0:
36,192,56602,1,0,0:0:0:0:
329,192,56686,1,0,0:0:0:0:
475,192,56769,1,0,0:0:0:0:
256,192,56769,1,0,0:0:0:0:
36,192,56769,1,0,0:0:0:0:
402,192,56769,1,0,0:0:0:0:
182,192,56852,1,0,0:0:0:0:
475,192,56936,1,0,0:0:0:0:
329,192,56936,1,0,0:0:0:0:
402,192,56936,1,0,0:0:0:0:
109,192,56936,1,0,0:0:0:0:
475,192,57019,1,0,0:0:0:0:
329,192,57019,1,0,0:0:0:0:
402,192,57019,1,0,0:0:0:0:
182,192,57102,1,0,0:0:0:0:
109,192,57102,1,0,0:0:0:0:
36,192,57102,1,0,0:0:0:0:
256,192,57186,1,0,0:0:0:0:
475,192,57269,1,0,0:0:0:0:
402,192,57269,1,0,0:0:0:0:
109,192,57269,1,0,0:0:0:0:
36,192,57269,1,0,0:0:0:0:
182,192,57352,1,0,0:0:0:0:
402,192,57436,1,0,0:0:0:0:
329,192,57436,1,0,0:0:0:0:
256,192,57436,1,0,0:0:0:0:
475,192,57436,1,0,0:0:0:0:
182,192,57519,1,0,0:0:0:0:
109,192,57602,1,0,0:0:0:0:
329,192,57602,1,0,0:0:0:0:
402,192,57686,1,0,0:0:0:0:
475,192,57686,1,0,0:0:0:0:
182,192,57686,1,0,0:0:0:0:
256,192,57769,1,0,0:0:0:0:
36,192,57769,1,0,0:0:0:0:
329,192,57852,1,0,0:0:0:0:
109,192,57852,1,0,0:0:0:0:
475,192,57936,1,0,0:0:0:0:
182,192,57936,1,0,0:0:0:0:
402,192,57936,1,0,0:0:0:0:
329,192,58019,1,0,0:0:0:0:
109,192,58019,1,0,0:0:0:0:
256,192,58102,1,0,0:0:0:0:
36,192,58102,1,0,0:0:0:0:
475,192,58102,1,0,0:0:0:0:
475,192,58269,1,0,0:0:0:0:
182,192,58269,1,0,0:0:0:0:
109,192,58269,1,0,0:0:0:0:
329,192,58269,1,0,0:0:0:0:
256,192,58269,1,0,0:0:0:0:
475,192,58602,1,0,0:0:0:0:
402,192,58602,1,0,0:0:0:0:
36,192,58602,1,0,0:0:0:0:
475,192,58686,1,0,0:0:0:0:
182,192,58686,1,0,0:0:0:0:
402,192,58686,1,0,0:0:0:0:
329,192,58769,1,0,0:0:0:0:
256,192,58769,1,0,0:0:0:0:
36,192,58769,1,0,0:0:0:0:
109,192,58825,1,0,0:0:0:0:
182,192,58880,1,0,0:0:0:0:
475,192,58936,1,0,0:0:0:0:
329,192,58936,1,0,0:0:0:0:
182,192,59019,1,0,0:0:0:0:
109,192,59019,1,0,0:0:0:0:
36,192,59019,1,0,0:0:0:0:
402,192,59102,1,0,0:0:0:0:
256,192,59102,1,0,0:0:0:0:
329,192,59186,1,0,0:0:0:0:
475,192,59269,1,0,0:0:0:0:
36,192,59269,1,0,0:0:0:0:
402,192,59269,1,0,0:0:0:0:
182,192,59269,1,0,0:0:0:0:
256,192,59352,1,0,0:0:0:0:
475,192,59436,1,0,0:0:0:0:
329,192,59436,1,0,0:0:0:0:
402,192,59436,1,0,0:0:0:0:
109,192,59436,1,0,0:0:0:0:
182,192,59602,1,0,0:0:0:0:
36,192,59602,1,0,0:0:0:0:
329,192,59602,1,0,0:0:0:0:
402,192,59686,1,0,0:0:0:0:
109,192,59769,1,0,0:0:0:0:
36,192,59769,1,0,0:0:0:0:
256,192,59769,1,0,0:0:0:0:
475,192,59769,1,0,0:0:0:0:
402,192,59936,1,0,0:0:0:0:
256,192,59936,1,0,0:0:0:0:
182,192,59936,1,0,0:0:0:0:
109,192,59936,1,0,0:0:0:0:
329,192,60019,1,0,0:0:0:0:
402,192,60102,1,0,0:0:0:0:
475,192,60102,1,0,0:0:0:0:
109,192,60102,1,0,0:0:0:0:
36,192,60102,1,0,0:0:0:0:
256,192,60269,1,0,0:0:0:0:
475,192,60269,128,0,60352:0:0:0:0:
36,192,60269,128,0,60352:0:0:0:0:
402,192,60352,128,0,60436:0:0:0:0:
109,192,60352,128,0,60436:0:0:0:0:
329,192,60436,128,0,60519:0:0:0:0:
182,192,60436,128,0,60519:0:0:0:0:
402,192,60519,128,0,60602:0:0:0:0:
109,192,60519,128,0,60602:0:0:0:0:
36,192,60602,128,0,60769:0:0:0:0:
475,192,60602,128,0,60769:0:0:0:0:
402,192,60686,128,0,60769:0:0:0:0:
109,192,60686,128,0,60769:0:0:0:0:
182,192,60769,1,0,0:0:0:0:
329,192,60769,1,0,0:0:0:0:
256,192,60769,1,0,0:0:0:0:
109,192,60936,1,0,0:0:0:0:
475,192,60936,1,0,0:0:0:0:
256,192,60936,1,0,0:0:0:0:
182,192,60936,1,0,0:0:0:0:
402,192,60936,1,0,0:0:0:0:
256,192,61269,1,0,0:0:0:0:
329,192,61269,1,0,0:0:0:0:
36,192,61269,1,0,0:0:0:0:
402,192,61352,1,0,0:0:0:0:
182,192,61352,1,0,0:0:0:0:
256,192,61436,1,0,0:0:0:0:
329,192,61436,1,0,0:0:0:0:
36,192,61436,1,0,0:0:0:0:
109,192,61436,1,0,0:0:0:0:
402,192,61519,1,0,0:0:0:0:
475,192,61602,1,0,0:0:0:0:
36,192,61602,1,0,0:0:0:0:
109,192,61602,1,0,0:0:0:0:
256,192,61686,1,0,0:0:0:0:
329,192,61686,1,0,0:0:0:0:
182,192,61686,1,0,0:0:0:0:
402,192,61769,1,0,0:0:0:0:
36,192,61769,1,0,0:0:0:0:
329,192,61852,1,0,0:0:0:0:
109,192,61852,1,0,0:0:0:0:
475,192,61936,1,0,0:0:0:0:
182,192,61936,1,0,0:0:0:0:
256,192,61936,1,0,0:0:0:0:
402,192,62019,1,0,0:0:0:0:
329,192,62102,1,0,0:0:0:0:
36,192,62102,1,0,0:0:0:0:
256,192,62102,1,0,0:0:0:0:
109,192,62102,1,0,0:0:0:0:
402,192,62186,1,0,0:0:0:0:
182,192,62186,1,0,0:0:0:0:
475,192,62269,1,0,0:0:0:0:
109,192,62269,1,0,0:0:0:0:
36,192,62352,1,0,0:0:0:0:
402,192,62352,1,0,0:0:0:0:
109,192,62436,1,0,0:0:0:0:
182,192,62436,1,0,0:0:0:0:
256,192,62436,1,0,0:0:0:0:
402,192,62602,1,0,0:0:0:0:
329,192,62602,1,0,0:0:0:0:
182,192,62602,1,0,0:0:0:0:
36,192,62602,1,0,0:0:0:0:
109,192,62686,1,0,0:0:0:0:
475,192,62769,1,0,0:0:0:0:
402,192,62769,1,0,0:0:0:0:
329,192,62769,1,0,0:0:0:0:
256,192,62769,1,0,0:0:0:0:
182,192,62852,1,0,0:0:0:0:
109,192,62936,1,0,0:0:0:0:
475,192,62936,1,0,0:0:0:0:
402,192,63019,1,0,0:0:0:0:
329,192,63019,1,0,0:0:0:0:
256,192,63019,1,0,0:0:0:0:
36,192,63102,1,0,0:0:0:0:
182,192,63102,1,0,0:0:0:0:
475,192,63269,1,0,0:0:0:0:
402,192,63269,1,0,0:0:0:0:
182,192,63269,1,0,0:0:0:0:
109,192,63269,1,0,0:0:0:0:
256,192,63352,1,0,0:0:0:0:
402,192,63436,1,0,0:0:0:0:
329,192,63436,1,0,0:0:0:0:
109,192,63436,1,0,0:0:0:0:
36,192,63436,1,0,0:0:0:0:
475,192,63602,1,0,0:0:0:0:
256,192,63602,1,0,0:0:0:0:
402,192,63602,1,0,0:0:0:0:
36,192,63602,1,0,0:0:0:0:
109,192,63769,1,0,0:0:0:0:
402,192,63769,1,0,0:0:0:0:
182,192,63769,1,0,0:0:0:0:
329,192,63852,1,0,0:0:0:0:
256,192,63852,1,0,0:0:0:0:
36,192,63936,1,0,0:0:0:0:
475,192,63936,1,0,0:0:0:0:
402,192,63936,1,0,0:0:0:0:
109,192,63991,1,0,0:0:0:0:
182,192,64047,1,0,0:0:0:0:
402,192,64102,1,0,0:0:0:0:
256,192,64102,1,0,0:0:0:0:
475,192,64102,1,0,0:0:0:0:
182,192,64186,1,0,0:0:0:0:
329,192,64269,1,0,0:0:0:0:
109,192,64269,1,0,0:0:0:0:
36,192,64269,1,0,0:0:0:0:
182,192,64352,1,0,0:0:0:0:
402,192,64352,1,0,0:0:0:0:
256,192,64436,1,0,0:0:0:0:
475,192,64436,1,0,0:0:0:0:
109,192,64519,1,0,0:0:0:0:
36,192,64519,1,0,0:0:0:0:
329,192,64519,1,0,0:0:0:0:
182,192,64602,1,0,0:0:0:0:
475,192,64602,1,0,0:0:0:0:
402,192,64602,1,0,0:0:0:0:
329,192,64686,1,0,0:0:0:0:
256,192,64769,1,0,0:0:0:0:
109,192,64769,1,0,0:0:0:0:
36,192,64769,1,0,0:0:0:0:
402,192,64769,1,0,0:0:0:0:
475,192,64769,1,0,0:0:0:0:
329,192,64936,1,0,0:0:0:0:
182,192,64936,1,0,0:0:0:0:
109,192,64936,1,0,0:0:0:0:
36,192,65102,1,0,0:0:0:0:
256,192,65102,1,0,0:0:0:0:
402,192,65102,1,0,0:0:0:0:
475,192,65102,1,0,0:0:0:0:
109,192,65186,1,0,0:0:0:0:
182,192,65269,1,0,0:0:0:0:
402,192,65269,1,0,0:0:0:0:
475,192,65269,1,0,0:0:0:0:
109,192,65352,1,0,0:0:0:0:
36,192,65352,1,0,0:0:0:0:
329,192,65352,1,0,0:0:0:0:
402,192,65436,1,0,0:0:0:0:
475,192,65436,1,0,0:0:0:0:
182,192,65436,1,0,0:0:0:0:
256,192,65519,1,0,0:0:0:0:
109,192,65602,1,0,0:0:0:0:
36,192,65602,1,0,0:0:0:0:
329,192,65602,1,0,0:0:0:0:
402,192,65686,1,0,0:0:0:0:
182,192,65686,1,0,0:0:0:0:
475,192,65686,1,0,0:0:0:0:
256,192,65769,1,0,0:0:0:0:
109,192,65769,1,0,0:0:0:0:
36,192,65769,1,0,0:0:0:0:
475,192,65852,1,0,0:0:0:0:
402,192,65852,1,0,0:0:0:0:
329,192,65852,1,0,0:0:0:0:
182,192,65936,1,0,0:0:0:0:
109,192,65936,1,0,0:0:0:0:
36,192,65936,1,0,0:0:0:0:
109,192,66102,1,0,0:0:0:0:
36,192,66102,1,0,0:0:0:0:
475,192,66102,1,0,0:0:0:0:
402,192,66102,1,0,0:0:0:0:
182,192,66158,1,0,0:0:0:0:
256,192,66213,1,0,0:0:0:0:
475,192,66269,1,0,0:0:0:0:
402,192,66269,1,0,0:0:0:0:
109,192,66269,1,0,0:0:0:0:
36,192,66269,1,0,0:0:0:0:
329,192,66269,1,0,0:0:0:0:
182,192,66436,1,0,0:0:0:0:
109,192,66436,1,0,0:0:0:0:
475,192,66602,1,0,0:0:0:0:
329,192,66602,1,0,0:0:0:0:
36,192,66602,1,0,0:0:0:0:
475,192,66769,1,0,0:0:0:0:
402,192,66769,1,0,0:0:0:0:
256,192,66769,1,0,0:0:0:0:
109,192,66769,1,0,0:0:0:0:
329,192,66936,1,0,0:0:0:0:
182,192,66936,1,0,0:0:0:0:
36,192,66936,1,0,0:0:0:0:
475,192,67102,1,0,0:0:0:0:
256,192,67102,1,0,0:0:0:0:
36,192,67102,1,0,0:0:0:0:
109,192,67102,1,0,0:0:0:0:
329,192,67186,1,0,0:0:0:0:
182,192,67186,1,0,0:0:0:0:
475,192,67269,1,0,0:0:0:0:
402,192,67269,1,0,0:0:0:0:
36,192,67269,1,0,0:0:0:0:
329,192,67436,1,0,0:0:0:0:
256,192,67436,1,0,0:0:0:0:
182,192,67436,1,0,0:0:0:0:
109,192,67436,1,0,0:0:0:0:
329,192,67602,1,0,0:0:0:0:
36,192,67602,1,0,0:0:0:0:
182,192,67602,1,0,0:0:0:0:
329,192,67686,1,0,0:0:0:0:
36,192,67686,1,0,0:0:0:0:
182,192,67686,1,0,0:0:0:0:
36,192,67769,1,0,0:0:0:0:
182,192,67769,1,0,0:0:0:0:
475,192,67769,1,0,0:0:0:0:
402,192,67769,1,0,0:0:0:0:
329,192,67936,1,0,0:0:0:0:
256,192,67936,1,0,0:0:0:0:
109,192,67936,1,0,0:0:0:0:
402,192,68019,1,0,0:0:0:0:
182,192,68102,1,0,0:0:0:0:
329,192,68102,1,0,0:0:0:0:
36,192,68102,1,0,0:0:0:0:
109,192,68102,1,0,0:0:0:0:
402,192,68186,1,0,0:0:0:0:
475,192,68269,1,0,0:0:0:0:
256,192,68269,1,0,0:0:0:0:
36,192,68269,1,0,0:0:0:0:
329,192,68352,1,0,0:0:0:0:
182,192,68352,1,0,0:0:0:0:
109,192,68352,1,0,0:0:0:0:
475,192,68436,1,0,0:0:0:0:
402,192,68436,1,0,0:0:0:0:
329,192,68519,1,0,0:0:0:0:
256,192,68519,1,0,0:0:0:0:
475,192,68602,1,0,0:0:0:0:
402,192,68602,1,0,0:0:0:0:
109,192,68602,1,0,0:0:0:0:
36,192,68602,1,0,0:0:0:0:
182,192,68686,1,0,0:0:0:0:
256,192,68686,1,0,0:0:0:0:
329,192,68769,1,0,0:0:0:0:
475,192,68769,1,0,0:0:0:0:
402,192,68769,1,0,0:0:0:0:
36,192,68769,1,0,0:0:0:0:
329,192,68936,1,0,0:0:0:0:
182,192,68936,1,0,0:0:0:0:
109,192,68936,1,0,0:0:0:0:
256,192,68936,128,0,69269:0:0:0:0:
402,192,69269,1,0,0:0:0:0:
36,192,69269,1,0,0:0:0:0:
475,192,69269,1,0,0:0:0:0:
109,192,69352,1,0,0:0:0:0:
475,192,69352,1,0,0:0:0:0:
402,192,69352,1,0,0:0:0:0:
182,192,69436,1,0,0:0:0:0:
329,192,69436,1,0,0:0:0:0:
256,192,69436,1,0,0:0:0:0:
36,192,69436,1,0,0:0:0:0:
475,192,69602,1,0,0:0:0:0:
109,192,69602,1,0,0:0:0:0:
36,192,69602,1,0,0:0:0:0:
402,192,69686,1,0,0:0:0:0:
329,192,69686,1,0,0:0:0:0:
256,192,69686,1,0,0:0:0:0:
182,192,69769,1,0,0:0:0:0:
109,192,69769,1,0,0:0:0:0:
329,192,69852,1,0,0:0:0:0:
475,192,69852,1,0,0:0:0:0:
182,192,69936,1,0,0:0:0:0:
109,192,69936,1,0,0:0:0:0:
36,192,69936,1,0,0:0:0:0:
329,192,70019,1,0,0:0:0:0:
475,192,70102,1,0,0:0:0:0:
402,192,70102,1,0,0:0:0:0:
256,192,70102,1,0,0:0:0:0:
36,192,70102,1,0,0:0:0:0:
329,192,70269,1,0,0:0:0:0:
109,192,70269,1,0,0:0:0:0:
182,192,70352,1,0,0:0:0:0:
475,192,70436,1,0,0:0:0:0:
36,192,70436,1,0,0:0:0:0:
256,192,70436,1,0,0:0:0:0:
402,192,70436,1,0,0:0:0:0:
402,192,70602,1,0,0:0:0:0:
256,192,70602,1,0,0:0:0:0:
109,192,70602,1,0,0:0:0:0:
36,192,70602,1,0,0:0:0:0:
475,192,70769,1,0,0:0:0:0:
402,192,70769,1,0,0:0:0:0:
329,192,70769,1,0,0:0:0:0:
182,192,70769,1,0,0:0:0:0:
256,192,70936,1,0,0:0:0:0:
109,192,70936,1,0,0:0:0:0:
475,192,71019,1,0,0:0:0:0:
402,192,71019,1,0,0:0:0:0:
329,192,71019,1,0,0:0:0:0:
182,192,71102,1,0,0:0:0:0:
36,192,71102,1,0,0:0:0:0:
402,192,71186,1,0,0:0:0:0:
256,192,71186,1,0,0:0:0:0:
109,192,71269,1,0,0:0:0:0:
36,192,71269,1,0,0:0:0:0:
475,192,71269,1,0,0:0:0:0:
329,192,71352,1,0,0:0:0:0:
182,192,71352,1,0,0:0:0:0:
475,192,71436,1,0,0:0:0:0:
402,192,71436,1,0,0:0:0:0:
256,192,71436,1,0,0:0:0:0:
36,192,71436,1,0,0:0:0:0:
475,192,71602,1,0,0:0:0:0:
182,192,71602,1,0,0:0:0:0:
109,192,71602,1,0,0:0:0:0:
256,192,71602,1,0,0:0:0:0:
329,192,71602,128,0,71936:0:0:0:0:
475,192,71936,128,0,72102:0:0:0:0:
182,192,71936,1,0,0:0:0:0:
109,192,71936,1,0,0:0:0:0:
36,192,71936,1,0,0:0:0:0:
402,192,72102,1,0,0:0:0:0:
256,192,72102,1,0,0:0:0:0:
109,192,72102,1,0,0:0:0:0:
36,192,72102,1,0,0:0:0:0:
182,192,72186,1,0,0:0:0:0:
475,192,72269,1,0,0:0:0:0:
329,192,72269,1,0,0:0:0:0:
36,192,72269,1,0,0:0:0:0:
256,192,72352,1,0,0:0:0:0:
182,192,72352,1,0,0:0:0:0:
109,192,72352,1,0,0:0:0:0:
402,192,72436,1,0,0:0:0:0:
329,192,72519,1,0,0:0:0:0:
109,192,72602,1,0,0:0:0:0:
36,192,72602,1,0,0:0:0:0:
475,192,72602,1,0,0:0:0:0:
402,192,72602,1,0,0:0:0:0:
182,192,72686,1,0,0:0:0:0:
475,192,72769,1,0,0:0:0:0:
402,192,72769,1,0,0:0:0:0:
256,192,72769,1,0,0:0:0:0:
36,192,72769,1,0,0:0:0:0:
109,192,72852,1,0,0:0:0:0:
182,192,72936,1,0,0:0:0:0:
402,192,72936,1,0,0:0:0:0:
329,192,72936,1,0,0:0:0:0:
109,192,73019,1,0,0:0:0:0:
36,192,73019,1,0,0:0:0:0:
475,192,73102,1,0,0:0:0:0:
402,192,73102,1,0,0:0:0:0:
329,192,73102,1,0,0:0:0:0:
256,192,73102,128,0,73269:0:0:0:0:
109,192,73269,1,0,0:0:0:0:
36,192,73269,1,0,0:0:0:0:
182,192,73352,1,0,0:0:0:0:
402,192,73436,1,0,0:0:0:0:
256,192,73436,1,0,0:0:0:0:
36,192,73436,1,0,0:0:0:0:
475,192,73436,1,0,0:0:0:0:
329,192,73519,1,0,0:0:0:0:
109,192,73602,1,0,0:0:0:0:
36,192,73602,1,0,0:0:0:0:
256,192,73686,1,0,0:0:0:0:
475,192,73686,1,0,0:0:0:0:
329,192,73686,1,0,0:0:0:0:
402,192,73769,1,0,0:0:0:0:
182,192,73769,1,0,0:0:0:0:
329,192,73852,1,0,0:0:0:0:
256,192,73936,1,0,0:0:0:0:
109,192,73936,1,0,0:0:0:0:
36,192,73936,1,0,0:0:0:0:
329,192,74019,1,0,0:0:0:0:
475,192,74102,1,0,0:0:0:0:
402,192,74102,1,0,0:0:0:0:
182,192,74102,1,0,0:0:0:0:
36,192,74102,1,0,0:0:0:0:
256,192,74186,1,0,0:0:0:0:
402,192,74269,1,0,0:0:0:0:
329,192,74269,1,0,0:0:0:0:
109,192,74269,1,0,0:0:0:0:
182,192,74352,1,0,0:0:0:0:
475,192,74436,1,0,0:0:0:0:
256,192,74436,1,0,0:0:0:0:
402,192,74436,1,0,0:0:0:0:
36,192,74436,1,0,0:0:0:0:
182,192,74519,1,0,0:0:0:0:
475,192,74519,1,0,0:0:0:0:
402,192,74519,1,0,0:0:0:0:
36,192,74602,1,0,0:0:0:0:
256,192,74602,1,0,0:0:0:0:
329,192,74602,1,0,0:0:0:0:
109,192,74602,1,0,0:0:0:0:
182,192,74686,1,0,0:0:0:0:
475,192,74769,1,0,0:0:0:0:
402,192,74769,1,0,0:0:0:0:
36,192,74769,1,0,0:0:0:0:
329,192,74769,1,0,0:0:0:0:
256,192,74936,1,0,0:0:0:0:
182,192,74936,1,0,0:0:0:0:
109,192,74936,1,0,0:0:0:0:
475,192,74936,1,0,0:0:0:0:
329,192,75019,1,0,0:0:0:0:
402,192,75019,1,0,0:0:0:0:
109,192,75102,1,0,0:0:0:0:
36,192,75102,1,0,0:0:0:0:
475,192,75186,1,0,0:0:0:0:
402,192,75186,1,0,0:0:0:0:
256,192,75186,1,0,0:0:0:0:
182,192,75269,1,0,0:0:0:0:
109,192,75269,1,0,0:0:0:0:
36,192,75269,1,0,0:0:0:0:
329,192,75352,1,0,0:0:0:0:
475,192,75436,1,0,0:0:0:0:
402,192,75436,1,0,0:0:0:0:
256,192,75436,1,0,0:0:0:0:
36,192,75436,1,0,0:0:0:0:
182,192,75519,1,0,0:0:0:0:
109,192,75519,1,0,0:0:0:0:
402,192,75602,1,0,0:0:0:0:
329,192,75602,1,0,0:0:0:0:
402,192,75686,1,0,0:0:0:0:
475,192,75686,1,0,0:0:0:0:
182,192,75686,1,0,0:0:0:0:
256,192,75769,1,0,0:0:0:0:
182,192,75852,1,0,0:0:0:0:
329,192,75936,1,0,0:0:0:0:
475,192,75936,1,0,0:0:0:0:
402,192,75936,1,0,0:0:0:0:
36,192,75936,1,0,0:0:0:0:
109,192,76019,1,0,0:0:0:0:
256,192,76019,1,0,0:0:0:0:
475,192,76102,1,0,0:0:0:0:
402,192,76102,1,0,0:0:0:0:
182,192,76102,1,0,0:0:0:0:
475,192,76269,1,0,0:0:0:0:
402,192,76269,1,0,0:0:0:0:
36,192,76269,1,0,0:0:0:0:
256,192,76352,1,0,0:0:0:0:
329,192,76352,1,0,0:0:0:0:
182,192,76352,1,0,0:0:0:0:
109,192,76436,1,0,0:0:0:0:
36,192,76436,1,0,0:0:0:0:
475,192,76436,1,0,0:0:0:0:
329,192,76519,1,0,0:0:0:0:
182,192,76519,1,0,0:0:0:0:
475,192,76602,1,0,0:0:0:0:
402,192,76602,1,0,0:0:0:0:
256,192,76602,1,0,0:0:0:0:
36,192,76769,1,0,0:0:0:0:
475,192,76769,1,0,0:0:0:0:
402,192,76824,1,0,0:0:0:0:
109,192,76824,1,0,0:0:0:0:
329,192,76880,1,0,0:0:0:0:
182,192,76880,1,0,0:0:0:0:
256,192,76936,1,0,0:0:0:0:
109,192,76936,1,0,0:0:0:0:
402,192,76936,1,0,0:0:0:0:
475,192,76936,128,0,77269:0:0:0:0:
36,192,76936,128,0,77269:0:0:0:0:
182,192,77102,128,0,77269:0:0:0:0:
402,192,77269,1,0,0:0:0:0:
329,192,77269,1,0,0:0:0:0:
256,192,77269,1,0,0:0:0:0:
109,192,77269,1,0,0:0:0:0:
182,192,77352,1,0,0:0:0:0:
475,192,77436,1,0,0:0:0:0:
402,192,77436,1,0,0:0:0:0:
329,192,77436,1,0,0:0:0:0:
36,192,77436,1,0,0:0:0:0:
475,192,77602,1,0,0:0:0:0:
256,192,77602,1,0,0:0:0:0:
109,192,77602,1,0,0:0:0:0:
182,192,77602,1,0,0:0:0:0:
329,192,77686,1,0,0:0:0:0:
36,192,77769,1,0,0:0:0:0:
109,192,77769,1,0,0:0:0:0:
402,192,77769,1,0,0:0:0:0:
256,192,77852,1,0,0:0:0:0:
182,192,77852,1,0,0:0:0:0:
329,192,77852,1,0,0:0:0:0:
402,192,77936,1,0,0:0:0:0:
36,192,77936,1,0,0:0:0:0:
475,192,77936,1,0,0:0:0:0:
402,192,78102,1,0,0:0:0:0:
256,192,78102,1,0,0:0:0:0:
182,192,78102,1,0,0:0:0:0:
109,192,78102,1,0,0:0:0:0:
475,192,78269,1,0,0:0:0:0:
36,192,78269,1,0,0:0:0:0:
182,192,78269,1,0,0:0:0:0:
329,192,78269,1,0,0:0:0:0:
182,192,78352,1,0,0:0:0:0:
36,192,78352,1,0,0:0:0:0:
329,192,78352,1,0,0:0:0:0:
475,192,78352,1,0,0:0:0:0:
475,192,78436,1,0,0:0:0:0:
329,192,78436,1,0,0:0:0:0:
182,192,78436,1,0,0:0:0:0:
36,192,78436,1,0,0:0:0:0:
256,192,78436,1,0,0:0:0:0:
402,192,78602,1,0,0:0:0:0:
256,192,78602,1,0,0:0:0:0:
109,192,78602,1,0,0:0:0:0:
182,192,78686,1,0,0:0:0:0:
475,192,78769,1,0,0:0:0:0:
329,192,78769,1,0,0:0:0:0:
36,192,78769,1,0,0:0:0:0:
402,192,78769,1,0,0:0:0:0:
182,192,78852,1,0,0:0:0:0:
256,192,78936,1,0,0:0:0:0:
475,192,78936,1,0,0:0:0:0:
109,192,78936,1,0,0:0:0:0:
402,192,79019,1,0,0:0:0:0:
329,192,79019,1,0,0:0:0:0:
36,192,79019,1,0,0:0:0:0:
109,192,79102,1,0,0:0:0:0:
475,192,79102,1,0,0:0:0:0:
182,192,79186,1,0,0:0:0:0:
402,192,79186,1,0,0:0:0:0:
329,192,79269,1,0,0:0:0:0:
256,192,79269,1,0,0:0:0:0:
182,192,79352,1,0,0:0:0:0:
402,192,79352,1,0,0:0:0:0:
109,192,79436,1,0,0:0:0:0:
475,192,79436,1,0,0:0:0:0:
36,192,79436,1,0,0:0:0:0:
329,192,79436,1,0,0:0:0:0:
402,192,79602,1,0,0:0:0:0:
256,192,79602,1,0,0:0:0:0:
182,192,79602,1,0,0:0:0:0:
36,192,79602,128,0,79936:0:0:0:0:
402,192,79936,1,0,0:0:0:0:
475,192,79936,1,0,0:0:0:0:
256,192,79936,1,0,0:0:0:0:
109,192,79936,1,0,0:0:0:0:
182,192,80019,1,0,0:0:0:0:
475,192,80102,1,0,0:0:0:0:
402,192,80102,1,0,0:0:0:0:
329,192,80102,1,0,0:0:0:0:
36,192,80102,1,0,0:0:0:0:
182,192,80186,1,0,0:0:0:0:
475,192,80269,1,0,0:0:0:0:
256,192,80269,1,0,0:0:0:0:
109,192,80269,1,0,0:0:0:0:
402,192,80352,1,0,0:0:0:0:
329,192,80352,1,0,0:0:0:0:
182,192,80436,1,0,0:0:0:0:
36,192,80436,1,0,0:0:0:0:
402,192,80602,1,0,0:0:0:0:
256,192,80602,1,0,0:0:0:0:
109,192,80602,1,0,0:0:0:0:
36,192,80602,1,0,0:0:0:0:
182,192,80686,1,0,0:0:0:0:
475,192,80769,1,0,0:0:0:0:
329,192,80769,1,0,0:0:0:0:
109,192,80769,1,0,0:0:0:0:
402,192,80936,1,0,0:0:0:0:
256,192,80936,1,0,0:0:0:0:
36,192,80936,1,0,0:0:0:0:
402,192,81102,1,0,0:0:0:0:
329,192,81102,1,0,0:0:0:0:
109,192,81102,1,0,0:0:0:0:
36,192,81102,1,0,0:0:0:0:
475,192,81269,1,0,0:0:0:0:
256,192,81269,1,0,0:0:0:0:
109,192,81269,1,0,0:0:0:0:
329,192,81269,1,0,0:0:0:0:
475,192,81436,1,0,0:0:0:0:
402,192,81436,1,0,0:0:0:0:
182,192,81436,1,0,0:0:0:0:
256,192,81436,1,0,0:0:0:0:
36,192,81436,1,0,0:0:0:0:
109,192,81602,1,0,0:0:0:0:
36,192,81602,1,0,0:0:0:0:
329,192,81602,1,0,0:0:0:0:
182,192,81686,1,0,0:0:0:0:
402,192,81686,1,0,0:0:0:0:
256,192,81686,1,0,0:0:0:0:
475,192,81769,1,0,0:0:0:0:
36,192,81769,1,0,0:0:0:0:
402,192,81852,1,0,0:0:0:0:
329,192,81852,1,0,0:0:0:0:
256,192,81936,1,0,0:0:0:0:
109,192,81936,1,0,0:0:0:0:
36,192,81936,1,0,0:0:0:0:
329,192,82019,1,0,0:0:0:0:
402,192,82019,1,0,0:0:0:0:
475,192,82102,1,0,0:0:0:0:
182,192,82102,1,0,0:0:0:0:
36,192,82102,1,0,0:0:0:0:
109,192,82102,1,0,0:0:0:0:
329,192,82269,128,0,82602:0:0:0:0:
256,192,82269,1,0,0:0:0:0:
109,192,82269,1,0,0:0:0:0:
475,192,82602,128,0,82769:0:0:0:0:
36,192,82602,1,0,0:0:0:0:
182,192,82686,1,0,0:0:0:0:
109,192,82769,1,0,0:0:0:0:
36,192,82769,1,0,0:0:0:0:
402,192,82769,1,0,0:0:0:0:
256,192,82769,1,0,0:0:0:0:
475,192,82936,1,0,0:0:0:0:
329,192,82936,1,0,0:0:0:0:
182,192,82936,1,0,0:0:0:0:
109,192,83019,1,0,0:0:0:0:
36,192,83019,1,0,0:0:0:0:
256,192,83019,1,0,0:0:0:0:
402,192,83102,1,0,0:0:0:0:
475,192,83102,1,0,0:0:0:0:
475,192,83269,1,0,0:0:0:0:
329,192,83269,1,0,0:0:0:0:
182,192,83269,1,0,0:0:0:0:
475,192,83436,1,0,0:0:0:0:
402,192,83436,1,0,0:0:0:0:
256,192,83436,1,0,0:0:0:0:
109,192,83436,1,0,0:0:0:0:
182,192,83519,1,0,0:0:0:0:
329,192,83602,1,0,0:0:0:0:
36,192,83602,1,0,0:0:0:0:
256,192,83686,1,0,0:0:0:0:
402,192,83769,1,0,0:0:0:0:
182,192,83769,1,0,0:0:0:0:
109,192,83769,1,0,0:0:0:0:
475,192,83769,1,0,0:0:0:0:
329,192,83936,1,0,0:0:0:0:
475,192,83936,1,0,0:0:0:0:
256,192,83936,1,0,0:0:0:0:
36,192,83936,1,0,0:0:0:0:
402,192,84102,1,0,0:0:0:0:
256,192,84102,1,0,0:0:0:0:
109,192,84102,1,0,0:0:0:0:
36,192,84102,1,0,0:0:0:0:
329,192,84186,1,0,0:0:0:0:
182,192,84186,1,0,0:0:0:0:
402,192,84269,1,0,0:0:0:0:
109,192,84269,1,0,0:0:0:0:
329,192,84352,1,0,0:0:0:0:
256,192,84352,1,0,0:0:0:0:
182,192,84352,1,0,0:0:0:0:
475,192,84436,1,0,0:0:0:0:
36,192,84436,1,0,0:0:0:0:
402,192,84602,1,0,0:0:0:0:
256,192,84602,1,0,0:0:0:0:
36,192,84602,1,0,0:0:0:0:
109,192,84686,1,0,0:0:0:0:
475,192,84769,1,0,0:0:0:0:
329,192,84769,1,0,0:0:0:0:
182,192,84769,1,0,0:0:0:0:
402,192,84769,1,0,0:0:0:0:
329,192,84936,1,0,0:0:0:0:
256,192,84936,1,0,0:0:0:0:
109,192,85102,1,0,0:0:0:0:
36,192,85102,1,0,0:0:0:0:
475,192,85102,1,0,0:0:0:0:
402,192,85102,1,0,0:0:0:0:
329,192,85102,1,0,0:0:0:0:
109,192,85186,1,0,0:0:0:0:
36,192,85186,1,0,0:0:0:0:
475,192,85269,1,0,0:0:0:0:
402,192,85269,1,0,0:0:0:0:
256,192,85269,1,0,0:0:0:0:
182,192,85269,1,0,0:0:0:0:
329,192,85352,1,0,0:0:0:0:
109,192,85352,1,0,0:0:0:0:
36,192,85436,1,0,0:0:0:0:
402,192,85436,1,0,0:0:0:0:
109,192,85519,1,0,0:0:0:0:
475,192,85519,1,0,0:0:0:0:
182,192,85602,1,0,0:0:0:0:
402,192,85602,1,0,0:0:0:0:
329,192,85602,1,0,0:0:0:0:
256,192,85602,1,0,0:0:0:0:
109,192,85686,1,0,0:0:0:0:
36,192,85769,1,0,0:0:0:0:
475,192,85769,1,0,0:0:0:0:
402,192,85852,1,0,0:0:0:0:
256,192,85852,1,0,0:0:0:0:
182,192,85936,1,0,0:0:0:0:
109,192,85936,1,0,0:0:0:0:
36,192,85936,1,0,0:0:0:0:
329,192,86019,1,0,0:0:0:0:
475,192,86102,1,0,0:0:0:0:
402,192,86102,1,0,0:0:0:0:
256,192,86102,1,0,0:0:0:0:
36,192,86102,1,0,0:0:0:0:
109,192,86186,1,0,0:0:0:0:
475,192,86269,1,0,0:0:0:0:
329,192,86269,1,0,0:0:0:0:
182,192,86269,1,0,0:0:0:0:
402,192,86436,1,0,0:0:0:0:
109,192,86436,1,0,0:0:0:0:
36,192,86436,1,0,0:0:0:0:
256,192,86436,1,0,0:0:0:0:
475,192,86602,1,0,0:0:0:0:
402,192,86602,1,0,0:0:0:0:
182,192,86602,1,0,0:0:0:0:
256,192,86686,1,0,0:0:0:0:
329,192,86686,1,0,0:0:0:0:
109,192,86686,1,0,0:0:0:0:
36,192,86686,1,0,0:0:0:0:
475,192,86769,1,0,0:0:0:0:
402,192,86769,1,0,0:0:0:0:
475,192,86936,1,0,0:0:0:0:
256,192,86936,1,0,0:0:0:0:
109,192,86936,1,0,0:0:0:0:
329,192,86936,1,0,0:0:0:0:
36,192,86936,1,0,0:0:0:0:
182,192,87019,1,0,0:0:0:0:
109,192,87102,1,0,0:0:0:0:
36,192,87102,1,0,0:0:0:0:
475,192,87102,1,0,0:0:0:0:
402,192,87186,1,0,0:0:0:0:
256,192,87186,1,0,0:0:0:0:
182,192,87186,1,0,0:0:0:0:
329,192,87186,1,0,0:0:0:0:
109,192,87269,1,0,0:0:0:0:
475,192,87269,1,0,0:0:0:0:
36,192,87436,128,0,87769:0:0:0:0:
182,192,87436,128,0,87769:0:0:0:0:
256,192,87436,128,0,87852:0:0:0:0:
329,192,87436,128,0,87936:0:0:0:0:
402,192,87436,128,0,88019:0:0:0:0:
475,192,87436,128,0,88102:0:0:0:0:
109,192,87769,128,0,87936:0:0:0:0:
182,192,87852,128,0,88019:0:0:0:0:
256,192,87936,128,0,88102:0:0:0:0:
329,192,88019,128,0,88186:0:0:0:0:
402,192,88102,128,0,88269:0:0:0:0:
475,192,88186,128,0,88352:0:0:0:0:
329,192,88269,128,0,88436:0:0:0:0:
402,192,88352,128,0,88519:0:0:0:0:
475,192,88436,128,0,88602:0:0:0:0:
182,192,88436,128,0,88602:0:0:0:0:
109,192,88519,128,0,88686:0:0:0:0:
36,192,88602,128,0,88769:0:0:0:0:
256,192,88602,1,0,0:0:0:0:
329,192,88686,1,0,0:0:0:0:
402,192,88769,1,0,0:0:0:0:
475,192,88769,1,0,0:0:0:0:
182,192,88769,1,0,0:0:0:0:
256,192,88852,1,0,0:0:0:0:
329,192,88936,1,0,0:0:0:0:
109,192,88936,1,0,0:0:0:0:
402,192,89019,1,0,0:0:0:0:
182,192,89019,1,0,0:0:0:0:
109,192,89102,128,0,89936:0:0:0:0:
329,192,89102,128,0,90269:0:0:0:0:
475,192,89102,128,0,90102:0:0:0:0:
36,192,89102,1,0,0:0:0:0:
36,192,89269,1,0,0:0:0:0:
36,192,89436,1,0,0:0:0:0:
36,192,89602,1,0,0:0:0:0:
36,192,89769,1,0,0:0:0:0:
36,192,89936,128,0,90436:0:0:0:0:
109,192,90102,128,0,91769:0:0:0:0:
475,192,90269,128,0,90436:0:0:0:0:
182,192,90436,128,0,91436:0:0:0:0:
329,192,90436,1,0,0:0:0:0:
402,192,90436,128,0,91269:0:0:0:0:
329,192,90602,1,0,0:0:0:0:
329,192,90769,1,0,0:0:0:0:
329,192,90936,1,0,0:0:0:0:
329,192,91102,1,0,0:0:0:0:
329,192,91269,128,0,91769:0:0:0:0:
402,192,91436,128,0,92102:0:0:0:0:
182,192,91602,1,0,0:0:0:0:
36,192,91769,1,0,0:0:0:0:
256,192,91769,128,0,92102:0:0:0:0:
182,192,91769,128,0,92102:0:0:0:0:
475,192,91769,128,0,92102:0:0:0:0:
36,192,91936,1,0,0:0:0:0:
36,192,92102,1,0,0:0:0:0:
109,192,92269,1,0,0:0:0:0:
475,192,92269,128,0,94102:0:0:0:0:
402,192,92269,128,0,93102:0:0:0:0:
329,192,92269,128,0,92769:0:0:0:0:
109,192,92436,1,0,0:0:0:0:
109,192,92602,1,0,0:0:0:0:
109,192,92769,1,0,0:0:0:0:
182,192,92769,1,0,0:0:0:0:
182,192,92936,1,0,0:0:0:0:
182,192,93102,1,0,0:0:0:0:
256,192,93102,1,0,0:0:0:0:
256,192,93269,1,0,0:0:0:0:
256,192,93436,1,0,0:0:0:0:
36,192,93436,128,0,94269:0:0:0:0:
109,192,93436,1,0,0:0:0:0:
256,192,93602,1,0,0:0:0:0:
182,192,93769,128,0,94269:0:0:0:0:
256,192,93769,1,0,0:0:0:0:
329,192,93769,1,0,0:0:0:0:
256,192,93936,1,0,0:0:0:0:
329,192,94102,128,0,94269:0:0:0:0:
256,192,94102,1,0,0:0:0:0:
402,192,94102,1,0,0:0:0:0:
256,192,94269,1,0,0:0:0:0:
329,192,94352,1,0,0:0:0:0:
256,192,94436,1,0,0:0:0:0:
329,192,94602,1,0,0:0:0:0:
182,192,94686,1,0,0:0:0:0:
256,192,94769,1,0,0:0:0:0:
182,192,94936,1,0,0:0:0:0:
329,192,95019,1,0,0:0:0:0:
256,192,95102,1,0,0:0:0:0:
109,192,95102,1,0,0:0:0:0:
402,192,95269,1,0,0:0:0:0:
329,192,95269,1,0,0:0:0:0:
182,192,95352,1,0,0:0:0:0:
109,192,95352,1,0,0:0:0:0:
329,192,95436,1,0,0:0:0:0:
256,192,95436,1,0,0:0:0:0:
182,192,95602,1,0,0:0:0:0:
36,192,95602,1,0,0:0:0:0:
475,192,95686,1,0,0:0:0:0:
329,192,95686,1,0,0:0:0:0:
256,192,95769,1,0,0:0:0:0:
109,192,95769,1,0,0:0:0:0:
475,192,95936,1,0,0:0:0:0:
329,192,95936,1,0,0:0:0:0:
109,192,96019,1,0,0:0:0:0:
36,192,96019,1,0,0:0:0:0:
402,192,96102,1,0,0:0:0:0:
256,192,96102,1,0,0:0:0:0:
475,192,96269,1,0,0:0:0:0:
182,192,96269,1,0,0:0:0:0:
36,192,96352,1,0,0:0:0:0:
329,192,96352,1,0,0:0:0:0:
402,192,96436,1,0,0:0:0:0:
256,192,96436,1,0,0:0:0:0:
109,192,96436,1,0,0:0:0:0:
475,192,96602,1,0,0:0:0:0:
402,192,96602,1,0,0:0:0:0:
109,192,96686,1,0,0:0:0:0:
36,192,96686,1,0,0:0:0:0:
402,192,96769,1,0,0:0:0:0:
256,192,96769,1,0,0:0:0:0:
329,192,96936,1,0,0:0:0:0:
182,192,96936,1,0,0:0:0:0:
475,192,97102,1,0,0:0:0:0:
402,192,97102,1,0,0:0:0:0:
256,192,97102,1,0,0:0:0:0:
109,192,97102,1,0,0:0:0:0:
36,192,97102,1,0,0:0:0:0:
256,192,97269,1,0,0:0:0:0:
256,192,97436,1,0,0:0:0:0:
329,192,97519,1,0,0:0:0:0:
402,192,97602,1,0,0:0:0:0:
256,192,97769,1,0,0:0:0:0:
329,192,97769,1,0,0:0:0:0:
402,192,97769,1,0,0:0:0:0:
182,192,97769,1,0,0:0:0:0:
109,192,97769,1,0,0:0:0:0:
182,192,97936,1,0,0:0:0:0:
182,192,98102,1,0,0:0:0:0:
182,192,98269,1,0,0:0:0:0:
109,192,98352,1,0,0:0:0:0:
475,192,98436,1,0,0:0:0:0:
402,192,98436,1,0,0:0:0:0:
329,192,98436,1,0,0:0:0:0:
182,192,98436,1,0,0:0:0:0:
256,192,98436,1,0,0:0:0:0:
109,192,98519,1,0,0:0:0:0:
36,192,98519,1,0,0:0:0:0:
329,192,98602,1,0,0:0:0:0:
256,192,98602,1,0,0:0:0:0:
182,192,98686,1,0,0:0:0:0:
109,192,98686,1,0,0:0:0:0:
402,192,98769,1,0,0:0:0:0:
329,192,98769,1,0,0:0:0:0:
475,192,98769,1,0,0:0:0:0:
36,192,98769,1,0,0:0:0:0:
256,192,98852,1,0,0:0:0:0:
182,192,98852,1,0,0:0:0:0:
475,192,98936,1,0,0:0:0:0:
402,192,98936,1,0,0:0:0:0:
182,192,99019,1,0,0:0:0:0:
109,192,99019,1,0,0:0:0:0:
475,192,99102,1,0,0:0:0:0:
402,192,99102,1,0,0:0:0:0:
256,192,99102,1,0,0:0:0:0:
109,192,99186,1,0,0:0:0:0:
36,192,99186,1,0,0:0:0:0:
329,192,99186,1,0,0:0:0:0:
475,192,99269,1,0,0:0:0:0:
182,192,99269,1,0,0:0:0:0:
402,192,99324,1,0,0:0:0:0:
109,192,99352,1,0,0:0:0:0:
36,192,99352,1,0,0:0:0:0:
329,192,99380,1,0,0:0:0:0:
256,192,99436,1,0,0:0:0:0:
329,192,99519,1,0,0:0:0:0:
182,192,99519,1,0,0:0:0:0:
109,192,99561,1,0,0:0:0:0:
36,192,99602,1,0,0:0:0:0:
475,192,99602,1,0,0:0:0:0:
402,192,99602,1,0,0:0:0:0:
256,192,99686,1,0,0:0:0:0:
182,192,99686,1,0,0:0:0:0:
475,192,99769,1,0,0:0:0:0:
402,192,99769,1,0,0:0:0:0:
329,192,99769,1,0,0:0:0:0:
109,192,99769,1,0,0:0:0:0:
36,192,99769,1,0,0:0:0:0:
182,192,99936,1,0,0:0:0:0:
256,192,100019,1,0,0:0:0:0:
402,192,100102,1,0,0:0:0:0:
329,192,100102,1,0,0:0:0:0:
109,192,100102,1,0,0:0:0:0:
182,192,100269,1,0,0:0:0:0:
256,192,100352,1,0,0:0:0:0:
402,192,100436,1,0,0:0:0:0:
329,192,100436,1,0,0:0:0:0:
109,192,100436,1,0,0:0:0:0:
182,192,100602,1,0,0:0:0:0:
36,192,100602,1,0,0:0:0:0:
256,192,100686,1,0,0:0:0:0:
402,192,100769,1,0,0:0:0:0:
329,192,100769,1,0,0:0:0:0:
109,192,100769,1,0,0:0:0:0:
36,192,100769,1,0,0:0:0:0:
256,192,100936,1,0,0:0:0:0:
475,192,100936,1,0,0:0:0:0:
329,192,101019,1,0,0:0:0:0:
182,192,101102,1,0,0:0:0:0:
109,192,101102,1,0,0:0:0:0:
402,192,101102,1,0,0:0:0:0:
329,192,101269,1,0,0:0:0:0:
256,192,101352,1,0,0:0:0:0:
182,192,101436,1,0,0:0:0:0:
109,192,101436,1,0,0:0:0:0:
402,192,101436,1,0,0:0:0:0:
329,192,101602,1,0,0:0:0:0:
402,192,101602,1,0,0:0:0:0:
256,192,101686,1,0,0:0:0:0:
182,192,101769,1,0,0:0:0:0:
109,192,101769,1,0,0:0:0:0:
402,192,101769,1,0,0:0:0:0:
329,192,101936,1,0,0:0:0:0:
36,192,101936,1,0,0:0:0:0:
256,192,102019,1,0,0:0:0:0:
402,192,102102,1,0,0:0:0:0:
109,192,102102,1,0,0:0:0:0:
182,192,102102,1,0,0:0:0:0:
475,192,102102,1,0,0:0:0:0:
329,192,102269,1,0,0:0:0:0:
256,192,102269,1,0,0:0:0:0:
109,192,102269,1,0,0:0:0:0:
36,192,102269,1,0,0:0:0:0:
182,192,102352,1,0,0:0:0:0:
475,192,102436,1,0,0:0:0:0:
402,192,102436,1,0,0:0:0:0:
329,192,102436,1,0,0:0:0:0:
36,192,102436,1,0,0:0:0:0:
109,192,102436,1,0,0:0:0:0:
329,192,102602,1,0,0:0:0:0:
256,192,102686,1,0,0:0:0:0:
182,192,102769,1,0,0:0:0:0:
109,192,102769,1,0,0:0:0:0:
402,192,102769,1,0,0:0:0:0:
475,192,102769,1,0,0:0:0:0:
329,192,102936,1,0,0:0:0:0:
475,192,102936,1,0,0:0:0:0:
109,192,102936,1,0,0:0:0:0:
182,192,103019,1,0,0:0:0:0:
256,192,103102,1,0,0:0:0:0:
402,192,103102,1,0,0:0:0:0:
36,192,103102,1,0,0:0:0:0:
475,192,103102,1,0,0:0:0:0:
182,192,103269,1,0,0:0:0:0:
329,192,103269,1,0,0:0:0:0:
109,192,103352,1,0,0:0:0:0:
36,192,103436,1,0,0:0:0:0:
256,192,103436,1,0,0:0:0:0:
475,192,103436,1,0,0:0:0:0:
329,192,103436,1,0,0:0:0:0:
182,192,103602,1,0,0:0:0:0:
402,192,103602,1,0,0:0:0:0:
256,192,103686,1,0,0:0:0:0:
475,192,103769,1,0,0:0:0:0:
329,192,103769,1,0,0:0:0:0:
109,192,103769,1,0,0:0:0:0:
36,192,103769,1,0,0:0:0:0:
182,192,103936,1,0,0:0:0:0:
402,192,103936,1,0,0:0:0:0:
256,192,104019,1,0,0:0:0:0:
329,192,104102,1,0,0:0:0:0:
475,192,104102,1,0,0:0:0:0:
36,192,104102,128,0,105102:0:0:0:0:
109,192,104102,1,0,0:0:0:0:
256,192,104269,1,0,0:0:0:0:
475,192,104269,1,0,0:0:0:0:
329,192,104352,1,0,0:0:0:0:
109,192,104436,128,0,105102:0:0:0:0:
402,192,104436,1,0,0:0:0:0:
182,192,104436,1,0,0:0:0:0:
475,192,104436,1,0,0:0:0:0:
329,192,104602,1,0,0:0:0:0:
256,192,104602,1,0,0:0:0:0:
402,192,104686,1,0,0:0:0:0:
182,192,104769,128,0,105102:0:0:0:0:
475,192,104769,1,0,0:0:0:0:
256,192,104769,1,0,0:0:0:0:
329,192,104769,1,0,0:0:0:0:
475,192,104936,1,0,0:0:0:0:
329,192,104936,1,0,0:0:0:0:
256,192,105102,1,0,0:0:0:0:
475,192,105102,128,0,105936:0:0:0:0:
402,192,105102,1,0,0:0:0:0:
256,192,105269,1,0,0:0:0:0:
109,192,105269,1,0,0:0:0:0:
329,192,105436,1,0,0:0:0:0:
182,192,105436,1,0,0:0:0:0:
256,192,105602,1,0,0:0:0:0:
109,192,105602,1,0,0:0:0:0:
402,192,105769,1,0,0:0:0:0:
256,192,105769,1,0,0:0:0:0:
256,192,105936,1,0,0:0:0:0:
402,192,105936,128,0,106269:0:0:0:0:
109,192,105936,1,0,0:0:0:0:
329,192,106102,1,0,0:0:0:0:
182,192,106102,1,0,0:0:0:0:
256,192,106269,128,0,106436:0:0:0:0:
109,192,106269,1,0,0:0:0:0:
182,192,106352,1,0,0:0:0:0:
475,192,106436,1,0,0:0:0:0:
329,192,106436,1,0,0:0:0:0:
402,192,106436,1,0,0:0:0:0:
109,192,106436,128,0,107102:0:0:0:0:
402,192,106602,1,0,0:0:0:0:
256,192,106602,1,0,0:0:0:0:
475,192,106769,1,0,0:0:0:0:
329,192,106769,1,0,0:0:0:0:
182,192,106769,1,0,0:0:0:0:
402,192,106936,1,0,0:0:0:0:
256,192,106936,1,0,0:0:0:0:
36,192,107102,128,0,107769:0:0:0:0:
475,192,107102,1,0,0:0:0:0:
329,192,107102,1,0,0:0:0:0:
182,192,107102,1,0,0:0:0:0:
256,192,107269,1,0,0:0:0:0:
109,192,107269,1,0,0:0:0:0:
475,192,107436,1,0,0:0:0:0:
402,192,107436,1,0,0:0:0:0:
182,192,107436,1,0,0:0:0:0:
329,192,107602,1,0,0:0:0:0:
256,192,107602,1,0,0:0:0:0:
109,192,107686,1,0,0:0:0:0:
475,192,107769,1,0,0:0:0:0:
402,192,107769,1,0,0:0:0:0:
182,192,107769,1,0,0:0:0:0:
329,192,107852,1,0,0:0:0:0:
256,192,107852,1,0,0:0:0:0:
109,192,107936,1,0,0:0:0:0:
36,192,107936,1,0,0:0:0:0:
402,192,108019,1,0,0:0:0:0:
329,192,108019,1,0,0:0:0:0:
182,192,108102,1,0,0:0:0:0:
36,192,108102,1,0,0:0:0:0:
475,192,108102,1,0,0:0:0:0:
329,192,108186,1,0,0:0:0:0:
256,192,108186,1,0,0:0:0:0:
109,192,108269,1,0,0:0:0:0:
36,192,108269,1,0,0:0:0:0:
402,192,108352,1,0,0:0:0:0:
329,192,108352,1,0,0:0:0:0:
256,192,108436,1,0,0:0:0:0:
109,192,108436,1,0,0:0:0:0:
475,192,108436,1,0,0:0:0:0:
402,192,108519,1,0,0:0:0:0:
329,192,108519,1,0,0:0:0:0:
182,192,108602,1,0,0:0:0:0:
36,192,108602,1,0,0:0:0:0:
256,192,108686,1,0,0:0:0:0:
402,192,108686,1,0,0:0:0:0:
475,192,108769,1,0,0:0:0:0:
109,192,108769,1,0,0:0:0:0:
36,192,108769,1,0,0:0:0:0:
329,192,108852,1,0,0:0:0:0:
182,192,108852,1,0,0:0:0:0:
402,192,108936,1,0,0:0:0:0:
475,192,108936,1,0,0:0:0:0:
256,192,109019,1,0,0:0:0:0:
109,192,109019,1,0,0:0:0:0:
329,192,109102,1,0,0:0:0:0:
402,192,109102,1,0,0:0:0:0:
475,192,109102,1,0,0:0:0:0:
36,192,109102,1,0,0:0:0:0:
182,192,109186,1,0,0:0:0:0:
109,192,109186,1,0,0:0:0:0:
475,192,109269,1,0,0:0:0:0:
329,192,109269,1,0,0:0:0:0:
256,192,109352,1,0,0:0:0:0:
182,192,109352,1,0,0:0:0:0:
475,192,109436,1,0,0:0:0:0:
402,192,109436,1,0,0:0:0:0:
36,192,109436,1,0,0:0:0:0:
182,192,109519,1,0,0:0:0:0:
109,192,109519,1,0,0:0:0:0:
402,192,109602,1,0,0:0:0:0:
329,192,109602,1,0,0:0:0:0:
36,192,109686,1,0,0:0:0:0:
182,192,109686,1,0,0:0:0:0:
329,192,109769,1,0,0:0:0:0:
256,192,109769,1,0,0:0:0:0:
475,192,109769,1,0,0:0:0:0:
182,192,109852,1,0,0:0:0:0:
109,192,109852,1,0,0:0:0:0:
329,192,109936,1,0,0:0:0:0:
402,192,109936,1,0,0:0:0:0:
256,192,110019,1,0,0:0:0:0:
182,192,110019,1,0,0:0:0:0:
475,192,110102,1,0,0:0:0:0:
36,192,110102,1,0,0:0:0:0:
402,192,110102,1,0,0:0:0:0:
182,192,110186,1,0,0:0:0:0:
109,192,110186,1,0,0:0:0:0:
402,192,110269,1,0,0:0:0:0:
256,192,110269,1,0,0:0:0:0:
109,192,110352,1,0,0:0:0:0:
36,192,110352,1,0,0:0:0:0:
402,192,110436,1,0,0:0:0:0:
329,192,110436,1,0,0:0:0:0:
182,192,110436,1,0,0:0:0:0:
475,192,110436,1,0,0:0:0:0:
256,192,110436,1,0,0:0:0:0:
36,192,110519,1,0,0:0:0:0:
109,192,110519,1,0,0:0:0:0:
402,192,110602,1,0,0:0:0:0:
329,192,110602,1,0,0:0:0:0:
256,192,110686,1,0,0:0:0:0:
182,192,110686,1,0,0:0:0:0:
402,192,110769,1,0,0:0:0:0:
329,192,110769,1,0,0:0:0:0:
475,192,110769,1,0,0:0:0:0:
36,192,110769,1,0,0:0:0:0:
109,192,110769,1,0,0:0:0:0:
256,192,110852,1,0,0:0:0:0:
182,192,110852,1,0,0:0:0:0:
475,192,110936,1,0,0:0:0:0:
402,192,110936,1,0,0:0:0:0:
109,192,111019,1,0,0:0:0:0:
36,192,111019,1,0,0:0:0:0:
402,192,111102,1,0,0:0:0:0:
256,192,111102,1,0,0:0:0:0:
182,192,111102,1,0,0:0:0:0:
475,192,111102,1,0,0:0:0:0:
109,192,111186,1,0,0:0:0:0:
36,192,111186,1,0,0:0:0:0:
475,192,111269,1,0,0:0:0:0:
402,192,111269,1,0,0:0:0:0:
329,192,111269,1,0,0:0:0:0:
256,192,111269,1,0,0:0:0:0:
182,192,111352,1,0,0:0:0:0:
109,192,111352,1,0,0:0:0:0:
36,192,111436,1,0,0:0:0:0:
329,192,111436,1,0,0:0:0:0:
256,192,111436,1,0,0:0:0:0:
402,192,111519,1,0,0:0:0:0:
475,192,111519,1,0,0:0:0:0:
182,192,111602,1,0,0:0:0:0:
109,192,111602,1,0,0:0:0:0:
256,192,111602,1,0,0:0:0:0:
36,192,111602,1,0,0:0:0:0:
402,192,111686,1,0,0:0:0:0:
329,192,111686,1,0,0:0:0:0:
36,192,111769,1,0,0:0:0:0:
109,192,111769,1,0,0:0:0:0:
182,192,111769,1,0,0:0:0:0:
256,192,111769,1,0,0:0:0:0:
475,192,111769,1,0,0:0:0:0:
402,192,111852,1,0,0:0:0:0:
329,192,111852,1,0,0:0:0:0:
182,192,111936,1,0,0:0:0:0:
109,192,111936,1,0,0:0:0:0:
36,192,111936,1,0,0:0:0:0:
329,192,112019,1,0,0:0:0:0:
256,192,112019,1,0,0:0:0:0:
475,192,112102,1,0,0:0:0:0:
402,192,112102,1,0,0:0:0:0:
182,192,112102,1,0,0:0:0:0:
109,192,112102,1,0,0:0:0:0:
36,192,112102,1,0,0:0:0:0:
329,192,112186,1,0,0:0:0:0:
256,192,112186,1,0,0:0:0:0:
475,192,112269,1,0,0:0:0:0:
402,192,112269,1,0,0:0:0:0:
36,192,112269,1,0,0:0:0:0:
182,192,112352,1,0,0:0:0:0:
109,192,112352,1,0,0:0:0:0:
36,192,112436,1,0,0:0:0:0:
475,192,112436,1,0,0:0:0:0:
402,192,112477,1,0,0:0:0:0:
329,192,112519,1,0,0:0:0:0:
109,192,112561,1,0,0:0:0:0:
182,192,112602,1,0,0:0:0:0:
256,192,112644,1,0,0:0:0:0:
475,192,112686,1,0,0:0:0:0:
402,192,112727,1,0,0:0:0:0:
329,192,112769,1,0,0:0:0:0:
109,192,112769,1,0,0:0:0:0:
36,192,112769,1,0,0:0:0:0:
182,192,112769,1,0,0:0:0:0:
256,192,112769,1,0,0:0:0:0:
109,192,113102,128,0,113269:0:0:0:0:
256,192,113102,128,0,113269:0:0:0:0:
182,192,113102,128,0,113269:0:0:0:0:
329,192,113102,128,0,113269:0:0:0:0:
402,192,113102,128,0,113269:0:0:0:0:
475,192,113102,128,0,113269:0:0:0:0:
329,192,113352,1,0,0:0:0:0:
256,192,113352,1,0,0:0:0:0:
182,192,113352,1,0,0:0:0:0:
36,192,113352,1,0,0:0:0:0:
475,192,113352,1,0,0:0:0:0:
402,192,113352,1,0,0:0:0:0:
475,192,113519,1,0,0:0:0:0:
329,192,113519,1,0,0:0:0:0:
109,192,113519,1,0,0:0:0:0:
36,192,113602,1,0,0:0:0:0:
256,192,113602,1,0,0:0:0:0:
109,192,113686,1,0,0:0:0:0:
329,192,113686,1,0,0:0:0:0:
182,192,113769,1,0,0:0:0:0:
402,192,113769,1,0,0:0:0:0:
329,192,113852,1,0,0:0:0:0:
109,192,113852,1,0,0:0:0:0:
402,192,114019,1,0,0:0:0:0:
182,192,114019,1,0,0:0:0:0:
256,192,114019,1,0,0:0:0:0:
402,192,114186,1,0,0:0:0:0:
182,192,114186,1,0,0:0:0:0:
329,192,114269,1,0,0:0:0:0:
109,192,114269,1,0,0:0:0:0:
36,192,114352,1,0,0:0:0:0:
256,192,114352,1,0,0:0:0:0:
109,192,114436,1,0,0:0:0:0:
475,192,114436,1,0,0:0:0:0:
402,192,114436,1,0,0:0:0:0:
182,192,114519,1,0,0:0:0:0:
329,192,114519,1,0,0:0:0:0:
402,192,114602,1,0,0:0:0:0:
256,192,114602,1,0,0:0:0:0:
36,192,114602,1,0,0:0:0:0:
475,192,114602,1,0,0:0:0:0:
182,192,114686,1,0,0:0:0:0:
329,192,114686,1,0,0:0:0:0:
109,192,114769,1,0,0:0:0:0:
475,192,114769,1,0,0:0:0:0:
36,192,114769,1,0,0:0:0:0:
329,192,114852,1,0,0:0:0:0:
182,192,114852,1,0,0:0:0:0:
402,192,114852,1,0,0:0:0:0:
256,192,114936,1,0,0:0:0:0:
109,192,114936,1,0,0:0:0:0:
402,192,115019,1,0,0:0:0:0:
182,192,115019,1,0,0:0:0:0:
475,192,115019,1,0,0:0:0:0:
109,192,115102,1,0,0:0:0:0:
36,192,115102,1,0,0:0:0:0:
256,192,115102,1,0,0:0:0:0:
475,192,115269,1,0,0:0:0:0:
182,192,115269,1,0,0:0:0:0:
402,192,115352,1,0,0:0:0:0:
329,192,115352,1,0,0:0:0:0:
256,192,115352,1,0,0:0:0:0:
109,192,115352,1,0,0:0:0:0:
36,192,115352,1,0,0:0:0:0:
36,192,115519,1,0,0:0:0:0:
256,192,115519,1,0,0:0:0:0:
109,192,115602,1,0,0:0:0:0:
182,192,115602,1,0,0:0:0:0:
329,192,115602,1,0,0:0:0:0:
402,192,115602,1,0,0:0:0:0:
475,192,115602,1,0,0:0:0:0:
402,192,115769,1,0,0:0:0:0:
182,192,115852,1,0,0:0:0:0:
329,192,115852,1,0,0:0:0:0:
109,192,115936,1,0,0:0:0:0:
402,192,115936,1,0,0:0:0:0:
256,192,115936,1,0,0:0:0:0:
475,192,115936,1,0,0:0:0:0:
36,192,115936,1,0,0:0:0:0:
329,192,116019,1,0,0:0:0:0:
182,192,116019,1,0,0:0:0:0:
36,192,116102,1,0,0:0:0:0:
256,192,116186,1,0,0:0:0:0:
109,192,116186,1,0,0:0:0:0:
329,192,116269,1,0,0:0:0:0:
182,192,116269,1,0,0:0:0:0:
402,192,116352,1,0,0:0:0:0:
256,192,116352,1,0,0:0:0:0:
329,192,116436,1,0,0:0:0:0:
182,192,116436,1,0,0:0:0:0:
109,192,116519,1,0,0:0:0:0:
36,192,116519,1,0,0:0:0:0:
475,192,116519,1,0,0:0:0:0:
402,192,116519,1,0,0:0:0:0:
475,192,116686,1,0,0:0:0:0:
402,192,116686,1,0,0:0:0:0:
109,192,116686,1,0,0:0:0:0:
36,192,116686,1,0,0:0:0:0:
329,192,116769,1,0,0:0:0:0:
475,192,116852,1,0,0:0:0:0:
402,192,116852,1,0,0:0:0:0:
109,192,116852,1,0,0:0:0:0:
36,192,116852,1,0,0:0:0:0:
329,192,116936,1,0,0:0:0:0:
182,192,116936,1,0,0:0:0:0:
402,192,117019,1,0,0:0:0:0:
256,192,117019,1,0,0:0:0:0:
475,192,117102,1,0,0:0:0:0:
329,192,117102,1,0,0:0:0:0:
109,192,117102,1,0,0:0:0:0:
36,192,117102,1,0,0:0:0:0:
402,192,117186,1,0,0:0:0:0:
256,192,117186,1,0,0:0:0:0:
109,192,117186,1,0,0:0:0:0:
36,192,117186,1,0,0:0:0:0:
329,192,117352,1,0,0:0:0:0:
182,192,117352,1,0,0:0:0:0:
402,192,117352,1,0,0:0:0:0:
36,192,117436,1,0,0:0:0:0:
329,192,117519,1,0,0:0:0:0:
256,192,117519,1,0,0:0:0:0:
109,192,117519,1,0,0:0:0:0:
475,192,117602,1,0,0:0:0:0:
402,192,117686,1,0,0:0:0:0:
182,192,117686,1,0,0:0:0:0:
36,192,117686,1,0,0:0:0:0:
329,192,117727,1,0,0:0:0:0:
256,192,117769,1,0,0:0:0:0:
402,192,117811,1,0,0:0:0:0:
36,192,117852,1,0,0:0:0:0:
109,192,117852,1,0,0:0:0:0:
329,192,117852,1,0,0:0:0:0:
329,192,118019,1,0,0:0:0:0:
256,192,118019,1,0,0:0:0:0:
36,192,118019,1,0,0:0:0:0:
402,192,118102,1,0,0:0:0:0:
475,192,118102,1,0,0:0:0:0:
182,192,118102,1,0,0:0:0:0:
109,192,118102,1,0,0:0:0:0:
329,192,118186,1,0,0:0:0:0:
256,192,118186,1,0,0:0:0:0:
402,192,118269,1,0,0:0:0:0:
36,192,118269,1,0,0:0:0:0:
109,192,118311,1,0,0:0:0:0:
182,192,118352,1,0,0:0:0:0:
256,192,118394,1,0,0:0:0:0:
36,192,118436,128,0,118602:0:0:0:0:
329,192,118436,128,0,118602:0:0:0:0:
402,192,118436,128,0,118602:0:0:0:0:
475,192,118436,128,0,118602:0:0:0:0:
475,192,118686,1,0,0:0:0:0:
402,192,118686,1,0,0:0:0:0:
36,192,118686,1,0,0:0:0:0:
329,192,118686,1,0,0:0:0:0:
109,192,118769,1,0,0:0:0:0:
182,192,118852,1,0,0:0:0:0:
329,192,118852,1,0,0:0:0:0:
475,192,118936,1,0,0:0:0:0:
36,192,118936,1,0,0:0:0:0:
402,192,119019,1,0,0:0:0:0:
109,192,119019,1,0,0:0:0:0:
329,192,119102,1,0,0:0:0:0:
182,192,119102,1,0,0:0:0:0:
402,192,119186,1,0,0:0:0:0:
109,192,119186,1,0,0:0:0:0:
182,192,119269,1,0,0:0:0:0:
475,192,119352,1,0,0:0:0:0:
329,192,119352,1,0,0:0:0:0:
36,192,119352,1,0,0:0:0:0:
109,192,119436,1,0,0:0:0:0:
402,192,119519,1,0,0:0:0:0:
256,192,119519,1,0,0:0:0:0:
329,192,119602,1,0,0:0:0:0:
182,192,119602,1,0,0:0:0:0:
36,192,119602,1,0,0:0:0:0:
402,192,119686,1,0,0:0:0:0:
256,192,119686,1,0,0:0:0:0:
109,192,119769,1,0,0:0:0:0:
36,192,119769,1,0,0:0:0:0:
475,192,119769,1,0,0:0:0:0:
329,192,119852,1,0,0:0:0:0:
182,192,119852,1,0,0:0:0:0:
402,192,119852,1,0,0:0:0:0:
256,192,119936,1,0,0:0:0:0:
36,192,119936,1,0,0:0:0:0:
475,192,119936,1,0,0:0:0:0:
109,192,119936,1,0,0:0:0:0:
329,192,120019,1,0,0:0:0:0:
402,192,120102,1,0,0:0:0:0:
109,192,120102,1,0,0:0:0:0:
329,192,120186,1,0,0:0:0:0:
256,192,120186,1,0,0:0:0:0:
182,192,120186,1,0,0:0:0:0:
402,192,120269,1,0,0:0:0:0:
36,192,120269,1,0,0:0:0:0:
475,192,120352,1,0,0:0:0:0:
182,192,120352,1,0,0:0:0:0:
109,192,120352,1,0,0:0:0:0:
402,192,120436,1,0,0:0:0:0:
329,192,120436,1,0,0:0:0:0:
256,192,120436,1,0,0:0:0:0:
36,192,120436,1,0,0:0:0:0:
36,192,120602,1,0,0:0:0:0:
475,192,120602,1,0,0:0:0:0:
329,192,120686,1,0,0:0:0:0:
256,192,120686,1,0,0:0:0:0:
109,192,120686,1,0,0:0:0:0:
402,192,120686,1,0,0:0:0:0:
182,192,120852,1,0,0:0:0:0:
329,192,120852,1,0,0:0:0:0:
475,192,120936,1,0,0:0:0:0:
402,192,120936,1,0,0:0:0:0:
256,192,120936,1,0,0:0:0:0:
36,192,120936,1,0,0:0:0:0:
402,192,121102,1,0,0:0:0:0:
109,192,121102,1,0,0:0:0:0:
182,192,121186,1,0,0:0:0:0:
329,192,121186,1,0,0:0:0:0:
475,192,121269,1,0,0:0:0:0:
256,192,121269,1,0,0:0:0:0:
36,192,121269,1,0,0:0:0:0:
402,192,121269,1,0,0:0:0:0:
109,192,121352,1,0,0:0:0:0:
182,192,121436,1,0,0:0:0:0:
329,192,121436,1,0,0:0:0:0:
402,192,121519,1,0,0:0:0:0:
256,192,121519,1,0,0:0:0:0:
109,192,121602,1,0,0:0:0:0:
475,192,121602,1,0,0:0:0:0:
402,192,121769,1,0,0:0:0:0:
256,192,121769,1,0,0:0:0:0:
36,192,121769,1,0,0:0:0:0:
475,192,121769,1,0,0:0:0:0:
329,192,121852,1,0,0:0:0:0:
182,192,121852,1,0,0:0:0:0:
109,192,121852,1,0,0:0:0:0:
475,192,121936,1,0,0:0:0:0:
402,192,121977,1,0,0:0:0:0:
329,192,122019,1,0,0:0:0:0:
109,192,122019,1,0,0:0:0:0:
36,192,122019,1,0,0:0:0:0:
256,192,122061,1,0,0:0:0:0:
182,192,122102,1,0,0:0:0:0:
475,192,122102,1,0,0:0:0:0:
402,192,122144,1,0,0:0:0:0:
329,192,122186,1,0,0:0:0:0:
109,192,122186,1,0,0:0:0:0:
402,192,122227,1,0,0:0:0:0:
475,192,122269,1,0,0:0:0:0:
182,192,122269,1,0,0:0:0:0:
36,192,122269,1,0,0:0:0:0:
256,192,122269,1,0,0:0:0:0:
475,192,122436,1,0,0:0:0:0:
329,192,122436,1,0,0:0:0:0:
109,192,122436,1,0,0:0:0:0:
402,192,122519,1,0,0:0:0:0:
256,192,122519,1,0,0:0:0:0:
182,192,122519,1,0,0:0:0:0:
329,192,122602,1,0,0:0:0:0:
109,192,122602,1,0,0:0:0:0:
402,192,122686,1,0,0:0:0:0:
36,192,122686,1,0,0:0:0:0:
256,192,122769,1,0,0:0:0:0:
109,192,122769,1,0,0:0:0:0:
475,192,122769,1,0,0:0:0:0:
329,192,122880,1,0,0:0:0:0:
182,192,122880,1,0,0:0:0:0:
475,192,122880,1,0,0:0:0:0:
402,192,122991,1,0,0:0:0:0:
256,192,122991,1,0,0:0:0:0:
109,192,122991,1,0,0:0:0:0:
475,192,123102,1,0,0:0:0:0:
182,192,123102,1,0,0:0:0:0:
36,192,123102,1,0,0:0:0:0:
402,192,123186,1,0,0:0:0:0:
329,192,123186,1,0,0:0:0:0:
182,192,123269,1,0,0:0:0:0:
256,192,123269,1,0,0:0:0:0:
36,192,123352,1,0,0:0:0:0:
109,192,123352,1,0,0:0:0:0:
329,192,123436,1,0,0:0:0:0:
256,192,123436,1,0,0:0:0:0:
402,192,123436,1,0,0:0:0:0:
475,192,123436,1,0,0:0:0:0:
402,192,123547,1,0,0:0:0:0:
475,192,123547,1,0,0:0:0:0:
36,192,123547,1,0,0:0:0:0:
182,192,123547,1,0,0:0:0:0:
109,192,123658,1,0,0:0:0:0:
36,192,123658,1,0,0:0:0:0:
329,192,123658,1,0,0:0:0:0:
475,192,123658,1,0,0:0:0:0:
109,192,123769,128,0,123936:0:0:0:0:
182,192,123769,128,0,123936:0:0:0:0:
256,192,123769,128,0,123936:0:0:0:0:
402,192,123769,128,0,123936:0:0:0:0:
402,192,124019,1,0,0:0:0:0:
256,192,124019,1,0,0:0:0:0:
182,192,124019,1,0,0:0:0:0:
109,192,124019,1,0,0:0:0:0:
36,192,124019,1,0,0:0:0:0:
402,192,124186,1,0,0:0:0:0:
329,192,124186,1,0,0:0:0:0:
36,192,124186,1,0,0:0:0:0:
109,192,124269,1,0,0:0:0:0:
256,192,124269,1,0,0:0:0:0:
182,192,124352,1,0,0:0:0:0:
329,192,124352,1,0,0:0:0:0:
475,192,124436,1,0,0:0:0:0:
36,192,124436,1,0,0:0:0:0:
402,192,124519,1,0,0:0:0:0:
109,192,124519,1,0,0:0:0:0:
256,192,124602,1,0,0:0:0:0:
475,192,124686,1,0,0:0:0:0:
402,192,124686,1,0,0:0:0:0:
182,192,124686,1,0,0:0:0:0:
36,192,124686,1,0,0:0:0:0:
329,192,124769,1,0,0:0:0:0:
256,192,124852,1,0,0:0:0:0:
109,192,124852,1,0,0:0:0:0:
475,192,124936,1,0,0:0:0:0:
402,192,124936,1,0,0:0:0:0:
182,192,125019,1,0,0:0:0:0:
36,192,125019,1,0,0:0:0:0:
475,192,125102,1,0,0:0:0:0:
256,192,125102,1,0,0:0:0:0:
109,192,125102,1,0,0:0:0:0:
402,192,125186,1,0,0:0:0:0:
329,192,125186,1,0,0:0:0:0:
182,192,125186,1,0,0:0:0:0:
109,192,125269,1,0,0:0:0:0:
36,192,125269,1,0,0:0:0:0:
402,192,125269,1,0,0:0:0:0:
329,192,125269,1,0,0:0:0:0:
256,192,125352,1,0,0:0:0:0:
182,192,125352,1,0,0:0:0:0:
329,192,125519,1,0,0:0:0:0:
256,192,125519,1,0,0:0:0:0:
109,192,125519,1,0,0:0:0:0:
402,192,125686,1,0,0:0:0:0:
182,192,125686,1,0,0:0:0:0:
475,192,125686,1,0,0:0:0:0:
329,192,125769,1,0,0:0:0:0:
256,192,125769,1,0,0:0:0:0:
36,192,125769,1,0,0:0:0:0:
109,192,125852,1,0,0:0:0:0:
402,192,125852,1,0,0:0:0:0:
182,192,125936,1,0,0:0:0:0:
475,192,125936,1,0,0:0:0:0:
256,192,125936,1,0,0:0:0:0:
402,192,126019,1,0,0:0:0:0:
329,192,126019,1,0,0:0:0:0:
36,192,126019,1,0,0:0:0:0:
256,192,126102,128,0,126352:0:0:0:0:
182,192,126102,128,0,126352:0:0:0:0:
109,192,126102,128,0,126352:0:0:0:0:
475,192,126102,128,0,126352:0:0:0:0:
475,192,126436,1,0,0:0:0:0:
402,192,126436,1,0,0:0:0:0:
256,192,126436,1,0,0:0:0:0:
182,192,126436,1,0,0:0:0:0:
109,192,126436,1,0,0:0:0:0:
329,192,126602,1,0,0:0:0:0:
329,192,126686,1,0,0:0:0:0:
402,192,126686,1,0,0:0:0:0:
182,192,126686,1,0,0:0:0:0:
109,192,126686,1,0,0:0:0:0:
36,192,126686,1,0,0:0:0:0:
36,192,126852,1,0,0:0:0:0:
475,192,126852,1,0,0:0:0:0:
256,192,126852,1,0,0:0:0:0:
329,192,126936,1,0,0:0:0:0:
109,192,126936,1,0,0:0:0:0:
402,192,127019,1,0,0:0:0:0:
182,192,127019,1,0,0:0:0:0:
475,192,127019,1,0,0:0:0:0:
256,192,127102,1,0,0:0:0:0:
36,192,127102,1,0,0:0:0:0:
475,192,127186,1,0,0:0:0:0:
329,192,127186,1,0,0:0:0:0:
109,192,127186,1,0,0:0:0:0:
182,192,127269,1,0,0:0:0:0:
475,192,127352,1,0,0:0:0:0:
402,192,127352,1,0,0:0:0:0:
256,192,127352,1,0,0:0:0:0:
36,192,127352,1,0,0:0:0:0:
329,192,127519,1,0,0:0:0:0:
182,192,127519,1,0,0:0:0:0:
475,192,127602,1,0,0:0:0:0:
109,192,127602,1,0,0:0:0:0:
36,192,127602,1,0,0:0:0:0:
256,192,127686,1,0,0:0:0:0:
402,192,127769,1,0,0:0:0:0:
475,192,127769,1,0,0:0:0:0:
36,192,127769,1,0,0:0:0:0:
329,192,127769,1,0,0:0:0:0:
182,192,127852,1,0,0:0:0:0:
109,192,127852,1,0,0:0:0:0:
402,192,127936,1,0,0:0:0:0:
329,192,127936,1,0,0:0:0:0:
256,192,127936,1,0,0:0:0:0:
182,192,127977,1,0,0:0:0:0:
109,192,128019,1,0,0:0:0:0:
36,192,128061,1,0,0:0:0:0:
475,192,128102,1,0,0:0:0:0:
402,192,128102,1,0,0:0:0:0:
256,192,128102,1,0,0:0:0:0:
182,192,128186,1,0,0:0:0:0:
109,192,128186,1,0,0:0:0:0:
475,192,128269,1,0,0:0:0:0:
402,192,128269,1,0,0:0:0:0:
329,192,128269,1,0,0:0:0:0:
182,192,128311,1,0,0:0:0:0:
109,192,128352,1,0,0:0:0:0:
36,192,128394,1,0,0:0:0:0:
475,192,128436,1,0,0:0:0:0:
402,192,128436,1,0,0:0:0:0:
256,192,128436,1,0,0:0:0:0:
329,192,128547,1,0,0:0:0:0:
402,192,128547,1,0,0:0:0:0:
182,192,128547,1,0,0:0:0:0:
109,192,128547,1,0,0:0:0:0:
109,192,128658,1,0,0:0:0:0:
36,192,128658,1,0,0:0:0:0:
256,192,128658,1,0,0:0:0:0:
475,192,128769,1,0,0:0:0:0:
182,192,128769,1,0,0:0:0:0:
402,192,128769,1,0,0:0:0:0:
329,192,128769,1,0,0:0:0:0:
109,192,128880,1,0,0:0:0:0:
402,192,128880,1,0,0:0:0:0:
475,192,128880,1,0,0:0:0:0:
256,192,128880,1,0,0:0:0:0:
36,192,128991,1,0,0:0:0:0:
182,192,128991,1,0,0:0:0:0:
329,192,128991,1,0,0:0:0:0:
402,192,128991,1,0,0:0:0:0:
109,192,129102,128,0,129269:0:0:0:0:
36,192,129102,128,0,129269:0:0:0:0:
256,192,129102,128,0,129269:0:0:0:0:
329,192,129102,128,0,129269:0:0:0:0:
402,192,129102,128,0,129269:0:0:0:0:
475,192,129102,128,0,129269:0:0:0:0:
109,192,129352,1,0,0:0:0:0:
36,192,129352,1,0,0:0:0:0:
475,192,129352,1,0,0:0:0:0:
402,192,129352,1,0,0:0:0:0:
329,192,129352,1,0,0:0:0:0:
256,192,129352,1,0,0:0:0:0:
109,192,129602,128,0,129769:0:0:0:0:
182,192,129602,128,0,129769:0:0:0:0:
256,192,129602,128,0,129852:0:0:0:0:
329,192,129602,128,0,129936:0:0:0:0:
402,192,129602,128,0,130019:0:0:0:0:
475,192,129602,128,0,130019:0:0:0:0:
36,192,129769,128,0,130102:0:0:0:0:
109,192,129852,128,0,130102:0:0:0:0:
182,192,129852,128,0,130102:0:0:0:0:
256,192,129936,128,0,130102:0:0:0:0:
329,192,130019,128,0,130102:0:0:0:0:
475,192,130102,1,0,0:0:0:0:
402,192,130102,1,0,0:0:0:0:
36,192,130186,128,0,130352:0:0:0:0:
329,192,130186,1,0,0:0:0:0:
109,192,130269,128,0,130352:0:0:0:0:
182,192,130269,128,0,130352:0:0:0:0:
256,192,130352,1,0,0:0:0:0:
36,192,130436,128,0,130602:0:0:0:0:
109,192,130436,128,0,130602:0:0:0:0:
182,192,130436,128,0,130602:0:0:0:0:
329,192,130436,128,0,130602:0:0:0:0:
402,192,130436,128,0,130602:0:0:0:0:
475,192,130436,128,0,130602:0:0:0:0:
475,192,130686,1,0,0:0:0:0:
402,192,130686,1,0,0:0:0:0:
329,192,130686,1,0,0:0:0:0:
182,192,130686,1,0,0:0:0:0:
36,192,130686,1,0,0:0:0:0:
109,192,130686,1,0,0:0:0:0:
329,192,130936,128,0,131102:0:0:0:0:
256,192,130936,128,0,131186:0:0:0:0:
182,192,130936,128,0,131269:0:0:0:0:
109,192,130936,128,0,131352:0:0:0:0:
36,192,130936,128,0,131352:0:0:0:0:
402,192,130936,128,0,131102:0:0:0:0:
475,192,131102,128,0,131436:0:0:0:0:
402,192,131186,128,0,131436:0:0:0:0:
329,192,131186,128,0,131436:0:0:0:0:
256,192,131269,128,0,131436:0:0:0:0:
182,192,131352,128,0,131436:0:0:0:0:
109,192,131436,1,0,0:0:0:0:
36,192,131436,1,0,0:0:0:0:
475,192,131519,128,0,131686:0:0:0:0:
182,192,131519,1,0,0:0:0:0:
402,192,131602,128,0,131686:0:0:0:0:
329,192,131602,128,0,131686:0:0:0:0:
109,192,131602,1,0,0:0:0:0:
36,192,131602,1,0,0:0:0:0:
256,192,131686,1,0,0:0:0:0:
36,192,131769,128,0,131936:0:0:0:0:
109,192,131769,128,0,131936:0:0:0:0:
182,192,131769,128,0,131936:0:0:0:0:
475,192,131769,128,0,131936:0:0:0:0:
329,192,131769,128,0,131936:0:0:0:0:
402,192,131769,128,0,131936:0:0:0:0:
36,192,132019,1,0,0:0:0:0:
109,192,132019,1,0,0:0:0:0:
182,192,132019,1,0,0:0:0:0:
475,192,132019,1,0,0:0:0:0:
329,192,132019,1,0,0:0:0:0:
402,192,132019,1,0,0:0:0:0:
402,192,132102,1,0,0:0:0:0:
475,192,132102,1,0,0:0:0:0:
109,192,132102,1,0,0:0:0:0:
36,192,132102,1,0,0:0:0:0:
256,192,132186,1,0,0:0:0:0:
182,192,132186,1,0,0:0:0:0:
329,192,132269,1,0,0:0:0:0:
36,192,132269,1,0,0:0:0:0:
475,192,132352,1,0,0:0:0:0:
402,192,132352,1,0,0:0:0:0:
256,192,132436,1,0,0:0:0:0:
182,192,132436,1,0,0:0:0:0:
329,192,132436,1,0,0:0:0:0:
109,192,132436,1,0,0:0:0:0:
36,192,132436,1,0,0:0:0:0:
475,192,132519,1,0,0:0:0:0:
402,192,132519,1,0,0:0:0:0:
36,192,132602,1,0,0:0:0:0:
109,192,132602,1,0,0:0:0:0:
475,192,132686,1,0,0:0:0:0:
402,192,132686,1,0,0:0:0:0:
329,192,132686,1,0,0:0:0:0:
182,192,132686,1,0,0:0:0:0:
256,192,132686,1,0,0:0:0:0:
109,192,132769,1,0,0:0:0:0:
36,192,132769,1,0,0:0:0:0:
475,192,132852,1,0,0:0:0:0:
402,192,132852,1,0,0:0:0:0:
256,192,132936,1,0,0:0:0:0:
329,192,132936,1,0,0:0:0:0:
182,192,132936,1,0,0:0:0:0:
109,192,132936,1,0,0:0:0:0:
36,192,132936,1,0,0:0:0:0:
475,192,133019,1,0,0:0:0:0:
402,192,133019,1,0,0:0:0:0:
36,192,133102,1,0,0:0:0:0:
182,192,133102,1,0,0:0:0:0:
329,192,133102,1,0,0:0:0:0:
256,192,133102,1,0,0:0:0:0:
109,192,133102,1,0,0:0:0:0:
402,192,133186,1,0,0:0:0:0:
475,192,133186,1,0,0:0:0:0:
182,192,133269,1,0,0:0:0:0:
109,192,133269,1,0,0:0:0:0:
402,192,133352,1,0,0:0:0:0:
329,192,133352,1,0,0:0:0:0:
36,192,133436,1,0,0:0:0:0:
109,192,133436,1,0,0:0:0:0:
329,192,133519,1,0,0:0:0:0:
256,192,133519,1,0,0:0:0:0:
182,192,133602,1,0,0:0:0:0:
109,192,133602,1,0,0:0:0:0:
402,192,133686,1,0,0:0:0:0:
329,192,133686,1,0,0:0:0:0:
182,192,133769,128,0,134352:0:0:0:0:
109,192,133769,128,0,134352:0:0:0:0:
36,192,133769,128,0,134352:0:0:0:0:
329,192,133769,128,0,134352:0:0:0:0:
402,192,133769,128,0,134352:0:0:0:0:
475,192,133769,128,0,134352:0:0:0:0:
475,192,134436,1,0,0:0:0:0:
329,192,134436,1,0,0:0:0:0:
256,192,134436,1,0,0:0:0:0:
182,192,134436,1,0,0:0:0:0:
36,192,134436,1,0,0:0:0:0:
182,192,134769,1,0,0:0:0:0:
475,192,134852,1,0,0:0:0:0:
182,192,134936,1,0,0:0:0:0:
402,192,135019,1,0,0:0:0:0:
182,192,135102,1,0,0:0:0:0:
329,192,135186,1,0,0:0:0:0:
182,192,135269,1,0,0:0:0:0:
256,192,135352,1,0,0:0:0:0:
329,192,135436,1,0,0:0:0:0:
182,192,135519,1,0,0:0:0:0:
329,192,135602,1,0,0:0:0:0:
109,192,135686,1,0,0:0:0:0:
402,192,135769,1,0,0:0:0:0:
36,192,135852,1,0,0:0:0:0:
329,192,135936,1,0,0:0:0:0:
402,192,135991,1,0,0:0:0:0:
182,192,136019,1,0,0:0:0:0:
475,192,136047,1,0,0:0:0:0:
329,192,136102,1,0,0:0:0:0:
182,192,136186,1,0,0:0:0:0:
329,192,136269,1,0,0:0:0:0:
109,192,136269,1,0,0:0:0:0:
402,192,136352,1,0,0:0:0:0:
182,192,136352,1,0,0:0:0:0:
475,192,136436,1,0,0:0:0:0:
36,192,136436,1,0,0:0:0:0:
329,192,136491,1,0,0:0:0:0:
109,192,136519,1,0,0:0:0:0:
402,192,136547,1,0,0:0:0:0:
475,192,136602,1,0,0:0:0:0:
256,192,136602,1,0,0:0:0:0:
182,192,136602,1,0,0:0:0:0:
36,192,136686,1,0,0:0:0:0:
329,192,136686,1,0,0:0:0:0:
475,192,136769,1,0,0:0:0:0:
402,192,136769,1,0,0:0:0:0:
182,192,136769,1,0,0:0:0:0:
109,192,136769,1,0,0:0:0:0:
256,192,136852,1,0,0:0:0:0:
329,192,136936,1,0,0:0:0:0:
109,192,136936,1,0,0:0:0:0:
402,192,136936,1,0,0:0:0:0:
182,192,137019,1,0,0:0:0:0:
256,192,137102,1,0,0:0:0:0:
329,192,137102,1,0,0:0:0:0:
402,192,137102,1,0,0:0:0:0:
36,192,137102,128,0,137769:0:0:0:0:
475,192,137102,128,0,137769:0:0:0:0:
402,192,137269,1,0,0:0:0:0:
329,192,137269,1,0,0:0:0:0:
256,192,137269,1,0,0:0:0:0:
182,192,137436,1,0,0:0:0:0:
402,192,137602,1,0,0:0:0:0:
256,192,137686,1,0,0:0:0:0:
402,192,137769,1,0,0:0:0:0:
329,192,137769,1,0,0:0:0:0:
109,192,137769,1,0,0:0:0:0:
475,192,137936,128,0,138019:0:0:0:0:
402,192,137936,128,0,138019:0:0:0:0:
329,192,137936,128,0,138019:0:0:0:0:
256,192,137936,128,0,138019:0:0:0:0:
182,192,137936,128,0,138019:0:0:0:0:
109,192,137936,128,0,138019:0:0:0:0:
402,192,138269,128,0,138352:0:0:0:0:
329,192,138269,128,0,138352:0:0:0:0:
256,192,138269,128,0,138352:0:0:0:0:
182,192,138269,128,0,138352:0:0:0:0:
109,192,138269,128,0,138352:0:0:0:0:
36,192,138269,128,0,138352:0:0:0:0:
36,192,138602,128,0,138686:0:0:0:0:
109,192,138602,128,0,138686:0:0:0:0:
182,192,138602,128,0,138686:0:0:0:0:
256,192,138602,128,0,138686:0:0:0:0:
329,192,138602,128,0,138686:0:0:0:0:
402,192,138602,128,0,138686:0:0:0:0:
182,192,138769,1,0,0:0:0:0:
109,192,138769,1,0,0:0:0:0:
36,192,138769,1,0,0:0:0:0:
475,192,138769,1,0,0:0:0:0:
402,192,138769,1,0,0:0:0:0:
329,192,138852,1,0,0:0:0:0:
256,192,138936,1,0,0:0:0:0:
182,192,138936,1,0,0:0:0:0:
402,192,139019,1,0,0:0:0:0:
109,192,139019,1,0,0:0:0:0:
329,192,139102,1,0,0:0:0:0:
256,192,139102,1,0,0:0:0:0:
36,192,139102,1,0,0:0:0:0:
182,192,139186,1,0,0:0:0:0:
402,192,139186,1,0,0:0:0:0:
109,192,139269,1,0,0:0:0:0:
475,192,139269,1,0,0:0:0:0:
182,192,139352,1,0,0:0:0:0:
329,192,139352,1,0,0:0:0:0:
36,192,139436,128,0,139769:0:0:0:0:
109,192,139436,128,0,139769:0:0:0:0:
402,192,139436,128,0,139769:0:0:0:0:
475,192,139436,128,0,139769:0:0:0:0:
256,192,139436,128,0,139602:0:0:0:0:
182,192,139602,128,0,139769:0:0:0:0:
329,192,139602,128,0,139769:0:0:0:0:
109,192,139936,128,0,140019:0:0:0:0:
182,192,139936,128,0,140019:0:0:0:0:
256,192,139936,128,0,140019:0:0:0:0:
329,192,139936,128,0,140019:0:0:0:0:
402,192,139936,128,0,140019:0:0:0:0:
475,192,139936,128,0,140019:0:0:0:0:
402,192,140102,1,0,0:0:0:0:
36,192,140102,1,0,0:0:0:0:
182,192,140102,1,0,0:0:0:0:
109,192,140186,1,0,0:0:0:0:
256,192,140186,1,0,0:0:0:0:
182,192,140269,1,0,0:0:0:0:
329,192,140269,1,0,0:0:0:0:
402,192,140352,1,0,0:0:0:0:
256,192,140352,1,0,0:0:0:0:
475,192,140436,1,0,0:0:0:0:
109,192,140436,1,0,0:0:0:0:
36,192,140436,1,0,0:0:0:0:
329,192,140519,1,0,0:0:0:0:
182,192,140519,1,0,0:0:0:0:
36,192,140602,128,0,140686:0:0:0:0:
109,192,140602,128,0,140686:0:0:0:0:
402,192,140602,128,0,140686:0:0:0:0:
256,192,140602,128,0,140686:0:0:0:0:
475,192,140602,128,0,140686:0:0:0:0:
402,192,140769,128,0,140852:0:0:0:0:
329,192,140769,128,0,140852:0:0:0:0:
182,192,140769,128,0,140852:0:0:0:0:
109,192,140769,128,0,140852:0:0:0:0:
36,192,140769,128,0,140852:0:0:0:0:
329,192,140936,128,0,141186:0:0:0:0:
182,192,140936,128,0,141186:0:0:0:0:
109,192,140936,128,0,141186:0:0:0:0:
36,192,140936,128,0,141186:0:0:0:0:
256,192,140936,128,0,141186:0:0:0:0:
36,192,141269,1,0,0:0:0:0:
182,192,141269,1,0,0:0:0:0:
475,192,141269,1,0,0:0:0:0:
329,192,141269,1,0,0:0:0:0:
36,192,141352,1,0,0:0:0:0:
182,192,141352,1,0,0:0:0:0:
475,192,141352,1,0,0:0:0:0:
329,192,141352,1,0,0:0:0:0:
402,192,141436,1,0,0:0:0:0:
256,192,141436,1,0,0:0:0:0:
109,192,141436,1,0,0:0:0:0:
329,192,141519,1,0,0:0:0:0:
182,192,141519,1,0,0:0:0:0:
402,192,141602,1,0,0:0:0:0:
109,192,141602,1,0,0:0:0:0:
329,192,141686,1,0,0:0:0:0:
182,192,141686,1,0,0:0:0:0:
256,192,141769,1,0,0:0:0:0:
36,192,141769,1,0,0:0:0:0:
475,192,141769,1,0,0:0:0:0:
109,192,141852,1,0,0:0:0:0:
402,192,141852,1,0,0:0:0:0:
182,192,141936,1,0,0:0:0:0:
329,192,141936,1,0,0:0:0:0:
402,192,142019,1,0,0:0:0:0:
256,192,142019,1,0,0:0:0:0:
475,192,142102,1,0,0:0:0:0:
36,192,142102,1,0,0:0:0:0:
109,192,142186,1,0,0:0:0:0:
329,192,142186,1,0,0:0:0:0:
182,192,142269,1,0,0:0:0:0:
402,192,142269,1,0,0:0:0:0:
256,192,142269,1,0,0:0:0:0:
329,192,142352,1,0,0:0:0:0:
36,192,142352,1,0,0:0:0:0:
475,192,142436,1,0,0:0:0:0:
402,192,142436,1,0,0:0:0:0:
109,192,142436,1,0,0:0:0:0:
182,192,142436,1,0,0:0:0:0:
256,192,142519,1,0,0:0:0:0:
329,192,142519,1,0,0:0:0:0:
475,192,142602,1,0,0:0:0:0:
402,192,142602,1,0,0:0:0:0:
182,192,142602,1,0,0:0:0:0:
109,192,142602,1,0,0:0:0:0:
475,192,142769,1,0,0:0:0:0:
329,192,142769,1,0,0:0:0:0:
182,192,142769,1,0,0:0:0:0:
36,192,142769,1,0,0:0:0:0:
475,192,142936,128,0,143019:0:0:0:0:
402,192,142936,128,0,143019:0:0:0:0:
256,192,142936,128,0,143019:0:0:0:0:
182,192,142936,128,0,143019:0:0:0:0:
109,192,142936,128,0,143019:0:0:0:0:
36,192,142936,128,0,143019:0:0:0:0:
475,192,143269,128,0,143352:0:0:0:0:
402,192,143269,128,0,143352:0:0:0:0:
329,192,143269,128,0,143352:0:0:0:0:
182,192,143269,128,0,143352:0:0:0:0:
109,192,143269,128,0,143352:0:0:0:0:
36,192,143269,128,0,143352:0:0:0:0:
475,192,143602,128,0,144186:0:0:0:0:
402,192,143602,128,0,144102:0:0:0:0:
256,192,143602,128,0,143936:0:0:0:0:
329,192,143602,128,0,144019:0:0:0:0:
109,192,143602,128,0,143852:0:0:0:0:
36,192,143602,128,0,143852:0:0:0:0:
182,192,143936,128,0,144436:0:0:0:0:
109,192,143936,128,0,144352:0:0:0:0:
36,192,143936,128,0,144352:0:0:0:0:
256,192,144019,128,0,144436:0:0:0:0:
329,192,144102,1,0,0:0:0:0:
402,192,144186,1,0,0:0:0:0:
329,192,144269,128,0,144436:0:0:0:0:
402,192,144352,128,0,144436:0:0:0:0:
475,192,144436,1,0,0:0:0:0:
109,192,144436,1,0,0:0:0:0:
36,192,144436,1,0,0:0:0:0:
329,192,144519,1,0,0:0:0:0:
402,192,144519,1,0,0:0:0:0:
182,192,144602,1,0,0:0:0:0:
109,192,144602,1,0,0:0:0:0:
402,192,144686,1,0,0:0:0:0:
475,192,144686,1,0,0:0:0:0:
36,192,144769,1,0,0:0:0:0:
182,192,144769,1,0,0:0:0:0:
256,192,144769,1,0,0:0:0:0:
475,192,144852,1,0,0:0:0:0:
329,192,144852,1,0,0:0:0:0:
109,192,144936,1,0,0:0:0:0:
36,192,144936,1,0,0:0:0:0:
475,192,145019,1,0,0:0:0:0:
402,192,145019,1,0,0:0:0:0:
329,192,145102,1,0,0:0:0:0:
256,192,145102,1,0,0:0:0:0:
182,192,145102,1,0,0:0:0:0:
109,192,145102,1,0,0:0:0:0:
36,192,145102,1,0,0:0:0:0:
182,192,145186,1,0,0:0:0:0:
36,192,145186,1,0,0:0:0:0:
109,192,145186,1,0,0:0:0:0:
402,192,145269,1,0,0:0:0:0:
475,192,145269,1,0,0:0:0:0:
256,192,145269,1,0,0:0:0:0:
329,192,145352,1,0,0:0:0:0:
182,192,145352,1,0,0:0:0:0:
402,192,145436,1,0,0:0:0:0:
475,192,145436,1,0,0:0:0:0:
109,192,145436,1,0,0:0:0:0:
36,192,145436,1,0,0:0:0:0:
475,192,145602,1,0,0:0:0:0:
109,192,145602,1,0,0:0:0:0:
256,192,145602,1,0,0:0:0:0:
36,192,145602,1,0,0:0:0:0:
402,192,145602,1,0,0:0:0:0:
329,192,145686,1,0,0:0:0:0:
182,192,145686,1,0,0:0:0:0:
402,192,145769,1,0,0:0:0:0:
256,192,145769,1,0,0:0:0:0:
109,192,145852,1,0,0:0:0:0:
36,192,145852,1,0,0:0:0:0:
182,192,145936,128,0,146019:0:0:0:0:
256,192,145936,128,0,146019:0:0:0:0:
329,192,145936,128,0,146019:0:0:0:0:
402,192,145936,128,0,146019:0:0:0:0:
475,192,145936,128,0,146019:0:0:0:0:
182,192,146269,128,0,146519:0:0:0:0:
109,192,146269,128,0,146519:0:0:0:0:
329,192,146269,128,0,146519:0:0:0:0:
402,192,146269,128,0,146519:0:0:0:0:
475,192,146269,1,0,0:0:0:0:
36,192,146269,1,0,0:0:0:0:
256,192,146436,128,0,146519:0:0:0:0:
475,192,146602,1,0,0:0:0:0:
402,192,146602,1,0,0:0:0:0:
329,192,146602,1,0,0:0:0:0:
36,192,146602,1,0,0:0:0:0:
109,192,146686,1,0,0:0:0:0:
402,192,146769,1,0,0:0:0:0:
329,192,146769,1,0,0:0:0:0:
256,192,146769,1,0,0:0:0:0:
182,192,146769,1,0,0:0:0:0:
109,192,146852,1,0,0:0:0:0:
36,192,146936,1,0,0:0:0:0:
475,192,146936,1,0,0:0:0:0:
402,192,146936,1,0,0:0:0:0:
109,192,147019,1,0,0:0:0:0:
182,192,147102,1,0,0:0:0:0:
475,192,147102,1,0,0:0:0:0:
402,192,147102,1,0,0:0:0:0:
256,192,147102,1,0,0:0:0:0:
109,192,147186,1,0,0:0:0:0:
329,192,147186,1,0,0:0:0:0:
36,192,147269,1,0,0:0:0:0:
402,192,147269,1,0,0:0:0:0:
109,192,147352,1,0,0:0:0:0:
475,192,147352,1,0,0:0:0:0:
256,192,147352,1,0,0:0:0:0:
182,192,147436,1,0,0:0:0:0:
329,192,147436,1,0,0:0:0:0:
36,192,147519,1,0,0:0:0:0:
256,192,147519,1,0,0:0:0:0:
109,192,147602,1,0,0:0:0:0:
329,192,147602,1,0,0:0:0:0:
402,192,147686,1,0,0:0:0:0:
182,192,147686,1,0,0:0:0:0:
256,192,147769,1,0,0:0:0:0:
329,192,147769,1,0,0:0:0:0:
36,192,147769,128,0,148436:0:0:0:0:
109,192,147769,1,0,0:0:0:0:
475,192,147769,128,0,148436:0:0:0:0:
182,192,147852,1,0,0:0:0:0:
402,192,147936,1,0,0:0:0:0:
329,192,147936,1,0,0:0:0:0:
256,192,147936,1,0,0:0:0:0:
402,192,148102,1,0,0:0:0:0:
182,192,148102,1,0,0:0:0:0:
109,192,148102,1,0,0:0:0:0:
329,192,148102,1,0,0:0:0:0:
256,192,148186,1,0,0:0:0:0:
329,192,148269,1,0,0:0:0:0:
182,192,148269,1,0,0:0:0:0:
256,192,148352,1,0,0:0:0:0:
329,192,148436,1,0,0:0:0:0:
402,192,148436,1,0,0:0:0:0:
475,192,148602,128,0,148686:0:0:0:0:
402,192,148602,128,0,148686:0:0:0:0:
329,192,148602,128,0,148686:0:0:0:0:
256,192,148602,128,0,148686:0:0:0:0:
182,192,148602,128,0,148686:0:0:0:0:
109,192,148602,128,0,148686:0:0:0:0:
402,192,148936,128,0,149019:0:0:0:0:
329,192,148936,128,0,149019:0:0:0:0:
256,192,148936,128,0,149019:0:0:0:0:
182,192,148936,128,0,149019:0:0:0:0:
109,192,148936,128,0,149019:0:0:0:0:
36,192,148936,128,0,149019:0:0:0:0:
36,192,149269,128,0,149352:0:0:0:0:
109,192,149269,128,0,149352:0:0:0:0:
182,192,149269,128,0,149352:0:0:0:0:
256,192,149269,128,0,149352:0:0:0:0:
329,192,149269,128,0,149352:0:0:0:0:
402,192,149269,128,0,149352:0:0:0:0:
475,192,149436,1,0,0:0:0:0:
256,192,149436,1,0,0:0:0:0:
109,192,149436,1,0,0:0:0:0:
36,192,149436,1,0,0:0:0:0:
182,192,149436,1,0,0:0:0:0:
402,192,149519,1,0,0:0:0:0:
329,192,149602,1,0,0:0:0:0:
182,192,149602,1,0,0:0:0:0:
109,192,149686,1,0,0:0:0:0:
36,192,149686,1,0,0:0:0:0:
402,192,149686,1,0,0:0:0:0:
475,192,149769,1,0,0:0:0:0:
182,192,149769,1,0,0:0:0:0:
256,192,149852,1,0,0:0:0:0:
402,192,149852,1,0,0:0:0:0:
329,192,149852,1,0,0:0:0:0:
109,192,149936,1,0,0:0:0:0:
182,192,149936,1,0,0:0:0:0:
475,192,150019,1,0,0:0:0:0:
256,192,150019,1,0,0:0:0:0:
329,192,150102,1,0,0:0:0:0:
109,192,150102,1,0,0:0:0:0:
36,192,150102,1,0,0:0:0:0:
402,192,150102,1,0,0:0:0:0:
182,192,150102,1,0,0:0:0:0:
402,192,150269,1,0,0:0:0:0:
329,192,150269,1,0,0:0:0:0:
182,192,150269,1,0,0:0:0:0:
109,192,150269,1,0,0:0:0:0:
36,192,150269,1,0,0:0:0:0:
36,192,150436,128,0,150519:0:0:0:0:
109,192,150436,128,0,150519:0:0:0:0:
182,192,150436,128,0,150519:0:0:0:0:
329,192,150436,128,0,150519:0:0:0:0:
256,192,150436,128,0,150519:0:0:0:0:
36,192,150602,128,0,150686:0:0:0:0:
109,192,150602,128,0,150686:0:0:0:0:
182,192,150602,128,0,150686:0:0:0:0:
256,192,150602,128,0,150686:0:0:0:0:
329,192,150602,128,0,150686:0:0:0:0:
109,192,150769,128,0,150852:0:0:0:0:
182,192,150769,128,0,150852:0:0:0:0:
256,192,150769,128,0,150852:0:0:0:0:
329,192,150769,128,0,150852:0:0:0:0:
402,192,150769,128,0,150852:0:0:0:0:
109,192,150936,128,0,151019:0:0:0:0:
182,192,150936,128,0,151019:0:0:0:0:
256,192,150936,128,0,151019:0:0:0:0:
329,192,150936,128,0,151019:0:0:0:0:
402,192,150936,128,0,151019:0:0:0:0:
475,192,151102,128,0,151186:0:0:0:0:
402,192,151102,128,0,151186:0:0:0:0:
329,192,151102,128,0,151186:0:0:0:0:
256,192,151102,128,0,151186:0:0:0:0:
182,192,151102,128,0,151186:0:0:0:0:
182,192,151269,128,0,151352:0:0:0:0:
256,192,151269,128,0,151352:0:0:0:0:
329,192,151269,128,0,151352:0:0:0:0:
402,192,151269,128,0,151352:0:0:0:0:
475,192,151269,128,0,151352:0:0:0:0:
36,192,151436,128,0,151519:0:0:0:0:
109,192,151436,128,0,151519:0:0:0:0:
182,192,151436,128,0,151519:0:0:0:0:
256,192,151436,128,0,151519:0:0:0:0:
329,192,151436,128,0,151519:0:0:0:0:
402,192,151436,128,0,151519:0:0:0:0:
475,192,151602,128,0,151852:0:0:0:0:
402,192,151602,128,0,151852:0:0:0:0:
329,192,151602,128,0,151852:0:0:0:0:
256,192,151602,128,0,151852:0:0:0:0:
182,192,151602,128,0,151852:0:0:0:0:
109,192,151602,128,0,151852:0:0:0:0:
182,192,151936,128,0,152102:0:0:0:0:
256,192,151936,128,0,152102:0:0:0:0:
329,192,151936,128,0,152102:0:0:0:0:
402,192,151936,128,0,152102:0:0:0:0:
475,192,151936,128,0,152102:0:0:0:0:
402,192,152186,128,0,152352:0:0:0:0:
329,192,152186,128,0,152352:0:0:0:0:
256,192,152186,128,0,152352:0:0:0:0:
182,192,152186,128,0,152352:0:0:0:0:
109,192,152186,128,0,152352:0:0:0:0:
329,192,152436,128,0,152602:0:0:0:0:
256,192,152436,128,0,152602:0:0:0:0:
182,192,152436,128,0,152602:0:0:0:0:
109,192,152436,128,0,152602:0:0:0:0:
36,192,152436,128,0,152602:0:0:0:0:
402,192,152686,128,0,152852:0:0:0:0:
329,192,152686,128,0,152852:0:0:0:0:
256,192,152686,128,0,152852:0:0:0:0:
182,192,152686,128,0,152852:0:0:0:0:
109,192,152686,128,0,152852:0:0:0:0:
182,192,152936,128,0,153102:0:0:0:0:
329,192,152936,128,0,153102:0:0:0:0:
475,192,152936,128,0,153102:0:0:0:0:
402,192,152936,128,0,153102:0:0:0:0:
256,192,152936,128,0,153102:0:0:0:0:
109,192,153102,1,0,0:0:0:0:
36,192,153102,1,0,0:0:0:0:
329,192,153186,1,0,0:0:0:0:
109,192,153269,1,0,0:0:0:0:
36,192,153269,1,0,0:0:0:0:
329,192,153352,1,0,0:0:0:0:
475,192,153436,128,0,153686:0:0:0:0:
402,192,153436,128,0,153686:0:0:0:0:
256,192,153436,128,0,153769:0:0:0:0:
182,192,153436,128,0,153852:0:0:0:0:
109,192,153436,128,0,153936:0:0:0:0:
36,192,153436,128,0,153936:0:0:0:0:
475,192,153769,1,0,0:0:0:0:
402,192,153769,1,0,0:0:0:0:
329,192,153769,1,0,0:0:0:0:
256,192,153852,1,0,0:0:0:0:
182,192,153936,1,0,0:0:0:0:
402,192,154019,1,0,0:0:0:0:
329,192,154019,1,0,0:0:0:0:
256,192,154019,1,0,0:0:0:0:
182,192,154102,1,0,0:0:0:0:
109,192,154186,1,0,0:0:0:0:
329,192,154269,1,0,0:0:0:0:
256,192,154269,1,0,0:0:0:0:
182,192,154269,1,0,0:0:0:0:
109,192,154352,1,0,0:0:0:0:
36,192,154436,1,0,0:0:0:0:
475,192,154436,1,0,0:0:0:0:
402,192,154436,1,0,0:0:0:0:
329,192,154436,1,0,0:0:0:0:
182,192,154519,1,0,0:0:0:0:
256,192,154519,1,0,0:0:0:0:
402,192,154602,1,0,0:0:0:0:
109,192,154602,1,0,0:0:0:0:
329,192,154686,1,0,0:0:0:0:
256,192,154686,1,0,0:0:0:0:
182,192,154769,1,0,0:0:0:0:
36,192,154769,1,0,0:0:0:0:
475,192,154769,1,0,0:0:0:0:
402,192,154852,1,0,0:0:0:0:
329,192,154852,1,0,0:0:0:0:
109,192,154936,1,0,0:0:0:0:
36,192,154936,1,0,0:0:0:0:
329,192,155019,1,0,0:0:0:0:
256,192,155019,1,0,0:0:0:0:
475,192,155102,1,0,0:0:0:0:
182,192,155102,1,0,0:0:0:0:
36,192,155102,1,0,0:0:0:0:
402,192,155186,1,0,0:0:0:0:
329,192,155186,1,0,0:0:0:0:
109,192,155269,1,0,0:0:0:0:
36,192,155269,1,0,0:0:0:0:
329,192,155352,1,0,0:0:0:0:
256,192,155352,1,0,0:0:0:0:
475,192,155436,1,0,0:0:0:0:
182,192,155436,1,0,0:0:0:0:
36,192,155436,1,0,0:0:0:0:
402,192,155519,1,0,0:0:0:0:
329,192,155519,1,0,0:0:0:0:
182,192,155602,1,0,0:0:0:0:
109,192,155602,1,0,0:0:0:0:
402,192,155686,1,0,0:0:0:0:
256,192,155686,1,0,0:0:0:0:
475,192,155769,1,0,0:0:0:0:
109,192,155769,1,0,0:0:0:0:
36,192,155769,1,0,0:0:0:0:
402,192,155852,1,0,0:0:0:0:
182,192,155852,1,0,0:0:0:0:
329,192,155936,1,0,0:0:0:0:
36,192,155936,1,0,0:0:0:0:
402,192,156019,1,0,0:0:0:0:
109,192,156019,1,0,0:0:0:0:
475,192,156102,1,0,0:0:0:0:
182,192,156102,1,0,0:0:0:0:
256,192,156102,1,0,0:0:0:0:
36,192,156186,1,0,0:0:0:0:
402,192,156186,1,0,0:0:0:0:
109,192,156269,1,0,0:0:0:0:
182,192,156269,1,0,0:0:0:0:
402,192,156352,1,0,0:0:0:0:
329,192,156352,1,0,0:0:0:0:
109,192,156436,1,0,0:0:0:0:
36,192,156436,1,0,0:0:0:0:
475,192,156436,1,0,0:0:0:0:
402,192,156519,1,0,0:0:0:0:
329,192,156519,1,0,0:0:0:0:
109,192,156602,1,0,0:0:0:0:
182,192,156602,1,0,0:0:0:0:
36,192,156686,1,0,0:0:0:0:
329,192,156686,1,0,0:0:0:0:
475,192,156769,1,0,0:0:0:0:
402,192,156769,1,0,0:0:0:0:
182,192,156769,1,0,0:0:0:0:
109,192,156852,1,0,0:0:0:0:
256,192,156852,1,0,0:0:0:0:
329,192,156936,1,0,0:0:0:0:
36,192,156936,1,0,0:0:0:0:
182,192,157019,1,0,0:0:0:0:
402,192,157019,1,0,0:0:0:0:
256,192,157102,1,0,0:0:0:0:
475,192,157102,1,0,0:0:0:0:
109,192,157102,1,0,0:0:0:0:
36,192,157102,1,0,0:0:0:0:
402,192,157186,1,0,0:0:0:0:
329,192,157186,1,0,0:0:0:0:
182,192,157269,1,0,0:0:0:0:
109,192,157269,1,0,0:0:0:0:
402,192,157352,1,0,0:0:0:0:
329,192,157352,1,0,0:0:0:0:
475,192,157436,1,0,0:0:0:0:
36,192,157436,1,0,0:0:0:0:
109,192,157436,1,0,0:0:0:0:
402,192,157519,1,0,0:0:0:0:
329,192,157519,1,0,0:0:0:0:
182,192,157602,1,0,0:0:0:0:
109,192,157602,1,0,0:0:0:0:
402,192,157686,1,0,0:0:0:0:
329,192,157686,1,0,0:0:0:0:
256,192,157769,1,0,0:0:0:0:
36,192,157769,1,0,0:0:0:0:
475,192,157769,1,0,0:0:0:0:
109,192,157811,1,0,0:0:0:0:
182,192,157852,1,0,0:0:0:0:
329,192,157894,1,0,0:0:0:0:
402,192,157936,1,0,0:0:0:0:
475,192,157977,1,0,0:0:0:0:
109,192,157977,1,0,0:0:0:0:
182,192,158019,1,0,0:0:0:0:
329,192,158061,1,0,0:0:0:0:
402,192,158102,1,0,0:0:0:0:
109,192,158102,1,0,0:0:0:0:
36,192,158102,1,0,0:0:0:0:
475,192,158102,1,0,0:0:0:0:
256,192,158102,1,0,0:0:0:0:
182,192,158186,1,0,0:0:0:0:
329,192,158269,1,0,0:0:0:0:
402,192,158352,1,0,0:0:0:0:
182,192,158436,1,0,0:0:0:0:
109,192,158436,1,0,0:0:0:0:
256,192,158436,1,0,0:0:0:0:
36,192,158436,128,0,159102:0:0:0:0:
475,192,158436,128,0,159102:0:0:0:0:
402,192,158519,1,0,0:0:0:0:
329,192,158519,1,0,0:0:0:0:
182,192,158602,1,0,0:0:0:0:
109,192,158602,1,0,0:0:0:0:
402,192,158769,1,0,0:0:0:0:
329,192,158769,1,0,0:0:0:0:
256,192,158769,1,0,0:0:0:0:
109,192,158769,1,0,0:0:0:0:
182,192,158936,1,0,0:0:0:0:
402,192,158936,1,0,0:0:0:0:
329,192,159019,1,0,0:0:0:0:
256,192,159019,1,0,0:0:0:0:
402,192,159102,1,0,0:0:0:0:
182,192,159102,1,0,0:0:0:0:
109,192,159102,1,0,0:0:0:0:
475,192,159269,128,0,159352:0:0:0:0:
402,192,159269,128,0,159352:0:0:0:0:
329,192,159269,128,0,159352:0:0:0:0:
256,192,159269,128,0,159352:0:0:0:0:
182,192,159269,128,0,159352:0:0:0:0:
109,192,159269,128,0,159352:0:0:0:0:
36,192,159602,128,0,159686:0:0:0:0:
109,192,159602,128,0,159686:0:0:0:0:
182,192,159602,128,0,159686:0:0:0:0:
256,192,159602,128,0,159686:0:0:0:0:
329,192,159602,128,0,159686:0:0:0:0:
402,192,159602,128,0,159686:0:0:0:0:
36,192,159936,128,0,160019:0:0:0:0:
109,192,159936,128,0,160019:0:0:0:0:
182,192,159936,128,0,160019:0:0:0:0:
256,192,159936,128,0,160019:0:0:0:0:
329,192,159936,128,0,160019:0:0:0:0:
402,192,159936,128,0,160019:0:0:0:0:
475,192,160102,1,0,0:0:0:0:
402,192,160102,1,0,0:0:0:0:
109,192,160102,1,0,0:0:0:0:
36,192,160102,1,0,0:0:0:0:
329,192,160102,1,0,0:0:0:0:
256,192,160102,1,0,0:0:0:0:
182,192,160186,1,0,0:0:0:0:
109,192,160269,1,0,0:0:0:0:
402,192,160269,1,0,0:0:0:0:
36,192,160269,1,0,0:0:0:0:
329,192,160352,1,0,0:0:0:0:
182,192,160352,1,0,0:0:0:0:
256,192,160436,1,0,0:0:0:0:
475,192,160436,1,0,0:0:0:0:
36,192,160436,1,0,0:0:0:0:
182,192,160519,1,0,0:0:0:0:
109,192,160519,1,0,0:0:0:0:
402,192,160519,1,0,0:0:0:0:
475,192,160602,1,0,0:0:0:0:
36,192,160602,1,0,0:0:0:0:
182,192,160686,1,0,0:0:0:0:
329,192,160686,1,0,0:0:0:0:
36,192,160769,128,0,161102:0:0:0:0:
109,192,160769,128,0,161102:0:0:0:0:
402,192,160769,128,0,161102:0:0:0:0:
475,192,160769,128,0,161102:0:0:0:0:
256,192,160769,1,0,0:0:0:0:
182,192,160936,128,0,161102:0:0:0:0:
329,192,160936,128,0,161102:0:0:0:0:
402,192,161269,1,0,0:0:0:0:
329,192,161269,1,0,0:0:0:0:
256,192,161269,1,0,0:0:0:0:
182,192,161269,1,0,0:0:0:0:
36,192,161269,1,0,0:0:0:0:
109,192,161352,1,0,0:0:0:0:
475,192,161436,1,0,0:0:0:0:
329,192,161436,1,0,0:0:0:0:
182,192,161436,1,0,0:0:0:0:
402,192,161436,1,0,0:0:0:0:
109,192,161519,1,0,0:0:0:0:
256,192,161519,1,0,0:0:0:0:
329,192,161602,1,0,0:0:0:0:
182,192,161602,1,0,0:0:0:0:
402,192,161686,1,0,0:0:0:0:
256,192,161686,1,0,0:0:0:0:
475,192,161769,1,0,0:0:0:0:
109,192,161769,1,0,0:0:0:0:
329,192,161852,1,0,0:0:0:0:
256,192,161852,1,0,0:0:0:0:
182,192,161852,1,0,0:0:0:0:
475,192,161936,1,0,0:0:0:0:
402,192,161936,1,0,0:0:0:0:
36,192,161936,1,0,0:0:0:0:
182,192,162019,1,0,0:0:0:0:
475,192,162102,1,0,0:0:0:0:
256,192,162102,1,0,0:0:0:0:
109,192,162102,1,0,0:0:0:0:
182,192,162269,1,0,0:0:0:0:
329,192,162269,128,0,162602:0:0:0:0:
402,192,162269,128,0,162602:0:0:0:0:
475,192,162269,128,0,162602:0:0:0:0:
36,192,162269,128,0,162602:0:0:0:0:
256,192,162436,1,0,0:0:0:0:
256,192,162602,1,0,0:0:0:0:
182,192,162602,1,0,0:0:0:0:
109,192,162602,1,0,0:0:0:0:
329,192,162686,1,0,0:0:0:0:
402,192,162686,1,0,0:0:0:0:
109,192,162769,1,0,0:0:0:0:
36,192,162769,1,0,0:0:0:0:
182,192,162769,1,0,0:0:0:0:
475,192,162769,1,0,0:0:0:0:
256,192,162852,1,0,0:0:0:0:
402,192,162936,1,0,0:0:0:0:
475,192,162936,1,0,0:0:0:0:
109,192,162936,1,0,0:0:0:0:
36,192,162936,1,0,0:0:0:0:
182,192,163019,1,0,0:0:0:0:
329,192,163019,1,0,0:0:0:0:
402,192,163102,1,0,0:0:0:0:
36,192,163102,1,0,0:0:0:0:
475,192,163102,1,0,0:0:0:0:
256,192,163186,1,0,0:0:0:0:
109,192,163186,1,0,0:0:0:0:
475,192,163269,1,0,0:0:0:0:
329,192,163269,1,0,0:0:0:0:
182,192,163352,1,0,0:0:0:0:
109,192,163352,1,0,0:0:0:0:
256,192,163436,1,0,0:0:0:0:
402,192,163436,1,0,0:0:0:0:
329,192,163436,1,0,0:0:0:0:
182,192,163519,1,0,0:0:0:0:
36,192,163519,1,0,0:0:0:0:
109,192,163602,1,0,0:0:0:0:
256,192,163602,1,0,0:0:0:0:
329,192,163686,1,0,0:0:0:0:
402,192,163686,1,0,0:0:0:0:
475,192,163769,1,0,0:0:0:0:
182,192,163769,1,0,0:0:0:0:
36,192,163769,1,0,0:0:0:0:
109,192,163769,1,0,0:0:0:0:
329,192,163852,1,0,0:0:0:0:
256,192,163852,1,0,0:0:0:0:
475,192,163936,1,0,0:0:0:0:
402,192,163936,1,0,0:0:0:0:
182,192,163936,1,0,0:0:0:0:
109,192,163936,1,0,0:0:0:0:
36,192,163936,1,0,0:0:0:0:
475,192,164102,1,0,0:0:0:0:
256,192,164102,1,0,0:0:0:0:
182,192,164102,1,0,0:0:0:0:
36,192,164102,1,0,0:0:0:0:
109,192,164269,128,0,164352:0:0:0:0:
182,192,164269,128,0,164352:0:0:0:0:
256,192,164269,128,0,164352:0:0:0:0:
329,192,164269,128,0,164352:0:0:0:0:
402,192,164269,128,0,164352:0:0:0:0:
475,192,164269,128,0,164352:0:0:0:0:
475,192,164602,128,0,164686:0:0:0:0:
402,192,164602,128,0,164686:0:0:0:0:
329,192,164602,128,0,164686:0:0:0:0:
182,192,164602,128,0,164686:0:0:0:0:
109,192,164602,128,0,164686:0:0:0:0:
36,192,164602,128,0,164686:0:0:0:0:
402,192,164936,128,0,165186:0:0:0:0:
329,192,164936,128,0,165269:0:0:0:0:
256,192,164936,128,0,165352:0:0:0:0:
182,192,164936,128,0,165352:0:0:0:0:
109,192,164936,128,0,165352:0:0:0:0:
36,192,164936,128,0,165352:0:0:0:0:
475,192,165269,1,0,0:0:0:0:
402,192,165269,1,0,0:0:0:0:
329,192,165352,1,0,0:0:0:0:
256,192,165436,1,0,0:0:0:0:
182,192,165436,1,0,0:0:0:0:
109,192,165436,1,0,0:0:0:0:
36,192,165436,1,0,0:0:0:0:
329,192,165519,1,0,0:0:0:0:
475,192,165602,1,0,0:0:0:0:
109,192,165602,1,0,0:0:0:0:
36,192,165602,1,0,0:0:0:0:
402,192,165602,1,0,0:0:0:0:
182,192,165686,1,0,0:0:0:0:
475,192,165769,1,0,0:0:0:0:
109,192,165769,1,0,0:0:0:0:
36,192,165769,1,0,0:0:0:0:
329,192,165769,1,0,0:0:0:0:
182,192,165852,1,0,0:0:0:0:
256,192,165852,1,0,0:0:0:0:
402,192,165852,1,0,0:0:0:0:
109,192,165936,1,0,0:0:0:0:
36,192,165936,1,0,0:0:0:0:
329,192,165936,1,0,0:0:0:0:
402,192,166019,1,0,0:0:0:0:
182,192,166019,1,0,0:0:0:0:
475,192,166102,1,0,0:0:0:0:
256,192,166102,1,0,0:0:0:0:
109,192,166102,1,0,0:0:0:0:
329,192,166186,1,0,0:0:0:0:
182,192,166186,1,0,0:0:0:0:
109,192,166269,1,0,0:0:0:0:
402,192,166269,1,0,0:0:0:0:
36,192,166269,1,0,0:0:0:0:
329,192,166352,1,0,0:0:0:0:
256,192,166352,1,0,0:0:0:0:
475,192,166436,1,0,0:0:0:0:
402,192,166436,1,0,0:0:0:0:
36,192,166436,1,0,0:0:0:0:
109,192,166436,1,0,0:0:0:0:
182,192,166436,1,0,0:0:0:0:
475,192,166519,1,0,0:0:0:0:
402,192,166519,1,0,0:0:0:0:
329,192,166602,1,0,0:0:0:0:
256,192,166602,1,0,0:0:0:0:
36,192,166602,1,0,0:0:0:0:
109,192,166686,1,0,0:0:0:0:
402,192,166686,1,0,0:0:0:0:
182,192,166769,1,0,0:0:0:0:
475,192,166769,1,0,0:0:0:0:
256,192,166769,1,0,0:0:0:0:
329,192,166769,1,0,0:0:0:0:
475,192,166936,1,0,0:0:0:0:
329,192,166936,1,0,0:0:0:0:
402,192,166936,1,0,0:0:0:0:
256,192,166936,1,0,0:0:0:0:
36,192,166936,1,0,0:0:0:0:
109,192,167019,1,0,0:0:0:0:
182,192,167102,1,0,0:0:0:0:
256,192,167186,1,0,0:0:0:0:
36,192,167269,128,0,167352:0:0:0:0:
109,192,167269,128,0,167352:0:0:0:0:
182,192,167269,128,0,167352:0:0:0:0:
329,192,167269,128,0,167352:0:0:0:0:
475,192,167269,128,0,167352:0:0:0:0:
402,192,167269,128,0,167352:0:0:0:0:
256,192,167436,1,0,0:0:0:0:
182,192,167519,1,0,0:0:0:0:
402,192,167602,128,0,167852:0:0:0:0:
475,192,167602,128,0,167852:0:0:0:0:
329,192,167602,128,0,167936:0:0:0:0:
256,192,167602,128,0,168019:0:0:0:0:
109,192,167602,128,0,168019:0:0:0:0:
36,192,167602,128,0,168019:0:0:0:0:
402,192,167936,1,0,0:0:0:0:
475,192,167936,1,0,0:0:0:0:
329,192,168019,1,0,0:0:0:0:
256,192,168102,1,0,0:0:0:0:
109,192,168102,1,0,0:0:0:0:
36,192,168102,1,0,0:0:0:0:
329,192,168186,1,0,0:0:0:0:
402,192,168269,1,0,0:0:0:0:
182,192,168269,1,0,0:0:0:0:
109,192,168269,1,0,0:0:0:0:
475,192,168269,1,0,0:0:0:0:
256,192,168352,1,0,0:0:0:0:
329,192,168436,1,0,0:0:0:0:
475,192,168436,1,0,0:0:0:0:
402,192,168436,1,0,0:0:0:0:
36,192,168436,1,0,0:0:0:0:
109,192,168436,1,0,0:0:0:0:
402,192,168602,1,0,0:0:0:0:
109,192,168602,1,0,0:0:0:0:
36,192,168602,1,0,0:0:0:0:
329,192,168686,1,0,0:0:0:0:
256,192,168686,1,0,0:0:0:0:
475,192,168769,1,0,0:0:0:0:
402,192,168769,1,0,0:0:0:0:
182,192,168769,1,0,0:0:0:0:
109,192,168769,1,0,0:0:0:0:
36,192,168852,1,0,0:0:0:0:
256,192,168852,1,0,0:0:0:0:
329,192,168936,1,0,0:0:0:0:
109,192,168936,1,0,0:0:0:0:
182,192,169019,1,0,0:0:0:0:
402,192,169019,1,0,0:0:0:0:
256,192,169102,1,0,0:0:0:0:
109,192,169102,1,0,0:0:0:0:
329,192,169102,1,0,0:0:0:0:
36,192,169102,128,0,169769:0:0:0:0:
475,192,169102,128,0,169769:0:0:0:0:
182,192,169186,1,0,0:0:0:0:
402,192,169269,1,0,0:0:0:0:
329,192,169269,1,0,0:0:0:0:
256,192,169269,1,0,0:0:0:0:
329,192,169436,1,0,0:0:0:0:
256,192,169436,1,0,0:0:0:0:
109,192,169436,1,0,0:0:0:0:
402,192,169436,1,0,0:0:0:0:
182,192,169519,1,0,0:0:0:0:
329,192,169602,1,0,0:0:0:0:
402,192,169602,1,0,0:0:0:0:
182,192,169686,1,0,0:0:0:0:
109,192,169686,1,0,0:0:0:0:
256,192,169769,1,0,0:0:0:0:
329,192,169769,1,0,0:0:0:0:
402,192,169769,1,0,0:0:0:0:
109,192,169936,128,0,170019:0:0:0:0:
182,192,169936,128,0,170019:0:0:0:0:
256,192,169936,128,0,170019:0:0:0:0:
329,192,169936,128,0,170019:0:0:0:0:
402,192,169936,128,0,170019:0:0:0:0:
475,192,169936,128,0,170019:0:0:0:0:
402,192,170269,128,0,170352:0:0:0:0:
256,192,170269,128,0,170352:0:0:0:0:
329,192,170269,128,0,170352:0:0:0:0:
182,192,170269,128,0,170352:0:0:0:0:
109,192,170269,128,0,170352:0:0:0:0:
36,192,170269,128,0,170352:0:0:0:0:
36,192,170602,128,0,170685:0:0:0:0:
109,192,170602,128,0,170685:0:0:0:0:
182,192,170602,128,0,170685:0:0:0:0:
256,192,170602,128,0,170685:0:0:0:0:
329,192,170602,128,0,170685:0:0:0:0:
402,192,170602,128,0,170685:0:0:0:0:
256,192,170769,1,0,0:0:0:0:
475,192,170769,1,0,0:0:0:0:
402,192,170769,1,0,0:0:0:0:
36,192,170769,1,0,0:0:0:0:
109,192,170769,1,0,0:0:0:0:
329,192,170852,1,0,0:0:0:0:
182,192,170852,1,0,0:0:0:0:
256,192,170935,1,0,0:0:0:0:
109,192,170935,1,0,0:0:0:0:
329,192,171019,1,0,0:0:0:0:
36,192,171019,1,0,0:0:0:0:
475,192,171102,1,0,0:0:0:0:
109,192,171102,1,0,0:0:0:0:
182,192,171102,1,0,0:0:0:0:
402,192,171102,1,0,0:0:0:0:
256,192,171185,1,0,0:0:0:0:
36,192,171185,1,0,0:0:0:0:
329,192,171269,1,0,0:0:0:0:
109,192,171269,1,0,0:0:0:0:
182,192,171352,1,0,0:0:0:0:
402,192,171352,1,0,0:0:0:0:
475,192,171435,1,0,0:0:0:0:
256,192,171435,1,0,0:0:0:0:
329,192,171435,1,0,0:0:0:0:
109,192,171435,1,0,0:0:0:0:
36,192,171435,1,0,0:0:0:0:
329,192,171602,1,0,0:0:0:0:
256,192,171602,1,0,0:0:0:0:
109,192,171602,1,0,0:0:0:0:
36,192,171602,1,0,0:0:0:0:
475,192,171602,1,0,0:0:0:0:
36,192,171769,128,0,171852:0:0:0:0:
182,192,171769,128,0,171852:0:0:0:0:
256,192,171769,128,0,171852:0:0:0:0:
329,192,171769,128,0,171852:0:0:0:0:
402,192,171769,128,0,171852:0:0:0:0:
475,192,171769,128,0,171852:0:0:0:0:
36,192,171935,128,0,172019:0:0:0:0:
182,192,171935,128,0,172019:0:0:0:0:
256,192,171935,128,0,172019:0:0:0:0:
329,192,171935,128,0,172019:0:0:0:0:
402,192,171935,128,0,172019:0:0:0:0:
475,192,171935,128,0,172019:0:0:0:0:
36,192,172102,128,0,172185:0:0:0:0:
109,192,172102,128,0,172185:0:0:0:0:
256,192,172102,128,0,172185:0:0:0:0:
329,192,172102,128,0,172185:0:0:0:0:
402,192,172102,128,0,172185:0:0:0:0:
475,192,172102,128,0,172185:0:0:0:0:
36,192,172269,128,0,172352:0:0:0:0:
109,192,172269,128,0,172352:0:0:0:0:
256,192,172269,128,0,172352:0:0:0:0:
402,192,172269,128,0,172352:0:0:0:0:
329,192,172269,128,0,172352:0:0:0:0:
475,192,172269,128,0,172352:0:0:0:0:
36,192,172435,128,0,172519:0:0:0:0:
109,192,172435,128,0,172519:0:0:0:0:
182,192,172435,128,0,172519:0:0:0:0:
329,192,172435,128,0,172519:0:0:0:0:
402,192,172435,128,0,172519:0:0:0:0:
475,192,172435,128,0,172519:0:0:0:0:
182,192,172602,128,0,172685:0:0:0:0:
109,192,172602,128,0,172685:0:0:0:0:
36,192,172602,128,0,172685:0:0:0:0:
329,192,172602,128,0,172685:0:0:0:0:
402,192,172602,128,0,172685:0:0:0:0:
475,192,172602,128,0,172685:0:0:0:0:
256,192,172769,128,0,172852:0:0:0:0:
402,192,172769,128,0,172852:0:0:0:0:
475,192,172769,128,0,172852:0:0:0:0:
182,192,172769,128,0,172852:0:0:0:0:
36,192,172769,128,0,172852:0:0:0:0:
109,192,172769,128,0,172852:0:0:0:0:
329,192,172935,128,0,173185:0:0:0:0:
256,192,172935,128,0,173185:0:0:0:0:
182,192,172935,128,0,173185:0:0:0:0:
109,192,172935,128,0,173185:0:0:0:0:
36,192,172935,128,0,173185:0:0:0:0:
475,192,172935,128,0,173185:0:0:0:0:
475,192,173269,128,0,173435:0:0:0:0:
402,192,173269,128,0,173435:0:0:0:0:
329,192,173269,128,0,173435:0:0:0:0:
256,192,173269,128,0,173435:0:0:0:0:
182,192,173269,128,0,173435:0:0:0:0:
109,192,173269,128,0,173435:0:0:0:0:
402,192,173519,128,0,173685:0:0:0:0:
329,192,173519,128,0,173685:0:0:0:0:
109,192,173519,128,0,173685:0:0:0:0:
36,192,173519,128,0,173685:0:0:0:0:
475,192,173519,128,0,173685:0:0:0:0:
182,192,173519,128,0,173685:0:0:0:0:
402,192,173769,128,0,173935:0:0:0:0:
329,192,173769,128,0,173935:0:0:0:0:
256,192,173769,128,0,173935:0:0:0:0:
182,192,173769,128,0,173935:0:0:0:0:
109,192,173769,128,0,173935:0:0:0:0:
36,192,173769,128,0,173935:0:0:0:0:
36,192,174019,128,0,174185:0:0:0:0:
109,192,174019,128,0,174185:0:0:0:0:
182,192,174019,128,0,174185:0:0:0:0:
329,192,174019,128,0,174185:0:0:0:0:
402,192,174019,128,0,174185:0:0:0:0:
475,192,174019,128,0,174185:0:0:0:0:
109,192,174269,128,0,174352:0:0:0:0:
182,192,174269,128,0,174352:0:0:0:0:
329,192,174269,128,0,174352:0:0:0:0:
402,192,174269,128,0,174352:0:0:0:0:
475,192,174269,128,0,174352:0:0:0:0:
256,192,174269,128,0,174352:0:0:0:0:
475,192,174435,1,0,0:0:0:0:
402,192,174435,1,0,0:0:0:0:
36,192,174435,1,0,0:0:0:0:
182,192,174435,1,0,0:0:0:0:
329,192,174519,1,0,0:0:0:0:
182,192,174602,1,0,0:0:0:0:
329,192,174685,1,0,0:0:0:0:
475,192,174769,128,0,175019:0:0:0:0:
402,192,174769,128,0,175019:0:0:0:0:
256,192,174769,128,0,175185:0:0:0:0:
182,192,174769,128,0,175435:0:0:0:0:
109,192,174769,128,0,175685:0:0:0:0:
36,192,174769,128,0,175769:0:0:0:0:
402,192,175102,128,0,175185:0:0:0:0:
475,192,175102,128,0,175185:0:0:0:0:
329,192,175185,128,0,175269:0:0:0:0:
256,192,175269,128,0,175352:0:0:0:0:
402,192,175352,128,0,175435:0:0:0:0:
329,192,175352,128,0,175435:0:0:0:0:
256,192,175435,128,0,175519:0:0:0:0:
182,192,175519,128,0,175602:0:0:0:0:
329,192,175602,128,0,175685:0:0:0:0:
256,192,175602,128,0,175685:0:0:0:0:
182,192,175685,128,0,175769:0:0:0:0:
109,192,175769,1,0,0:0:0:0:
475,192,175769,1,0,0:0:0:0:
402,192,175769,1,0,0:0:0:0:
329,192,175769,1,0,0:0:0:0:
256,192,175852,1,0,0:0:0:0:
182,192,175852,1,0,0:0:0:0:
109,192,175935,1,0,0:0:0:0:
36,192,175935,1,0,0:0:0:0:
402,192,175935,1,0,0:0:0:0:
329,192,176019,1,0,0:0:0:0:
256,192,176019,1,0,0:0:0:0:
182,192,176102,1,0,0:0:0:0:
475,192,176102,1,0,0:0:0:0:
402,192,176102,1,0,0:0:0:0:
36,192,176102,1,0,0:0:0:0:
329,192,176185,1,0,0:0:0:0:
182,192,176269,1,0,0:0:0:0:
109,192,176269,1,0,0:0:0:0:
329,192,176352,1,0,0:0:0:0:
256,192,176352,1,0,0:0:0:0:
475,192,176435,1,0,0:0:0:0:
402,192,176435,1,0,0:0:0:0:
109,192,176435,1,0,0:0:0:0:
36,192,176435,1,0,0:0:0:0:
256,192,176519,1,0,0:0:0:0:
182,192,176519,1,0,0:0:0:0:
402,192,176602,1,0,0:0:0:0:
329,192,176602,1,0,0:0:0:0:
182,192,176685,1,0,0:0:0:0:
36,192,176685,1,0,0:0:0:0:
475,192,176769,1,0,0:0:0:0:
329,192,176769,1,0,0:0:0:0:
109,192,176769,1,0,0:0:0:0:
402,192,176769,1,0,0:0:0:0:
256,192,176852,1,0,0:0:0:0:
182,192,176852,1,0,0:0:0:0:
475,192,176935,1,0,0:0:0:0:
36,192,176935,1,0,0:0:0:0:
329,192,177019,1,0,0:0:0:0:
182,192,177019,1,0,0:0:0:0:
475,192,177102,1,0,0:0:0:0:
402,192,177102,1,0,0:0:0:0:
36,192,177102,1,0,0:0:0:0:
256,192,177102,128,0,179102:0:0:0:0:
182,192,177269,1,0,0:0:0:0:
109,192,177269,1,0,0:0:0:0:
402,192,177269,1,0,0:0:0:0:
475,192,177435,1,0,0:0:0:0:
402,192,177435,1,0,0:0:0:0:
182,192,177435,1,0,0:0:0:0:
36,192,177435,1,0,0:0:0:0:
36,192,177602,1,0,0:0:0:0:
329,192,177602,1,0,0:0:0:0:
109,192,177685,1,0,0:0:0:0:
402,192,177685,1,0,0:0:0:0:
182,192,177769,1,0,0:0:0:0:
475,192,177769,1,0,0:0:0:0:
329,192,177769,1,0,0:0:0:0:
36,192,177769,1,0,0:0:0:0:
402,192,177852,1,0,0:0:0:0:
109,192,177852,1,0,0:0:0:0:
182,192,177935,1,0,0:0:0:0:
329,192,177935,1,0,0:0:0:0:
475,192,178102,1,0,0:0:0:0:
329,192,178102,1,0,0:0:0:0:
182,192,178102,1,0,0:0:0:0:
36,192,178102,1,0,0:0:0:0:
36,192,178269,1,0,0:0:0:0:
402,192,178269,1,0,0:0:0:0:
109,192,178352,1,0,0:0:0:0:
329,192,178352,1,0,0:0:0:0:
182,192,178435,1,0,0:0:0:0:
475,192,178435,1,0,0:0:0:0:
402,192,178435,1,0,0:0:0:0:
109,192,178519,1,0,0:0:0:0:
36,192,178519,1,0,0:0:0:0:
329,192,178519,1,0,0:0:0:0:
475,192,178602,1,0,0:0:0:0:
402,192,178602,1,0,0:0:0:0:
182,192,178602,1,0,0:0:0:0:
109,192,178685,1,0,0:0:0:0:
36,192,178685,1,0,0:0:0:0:
329,192,178685,1,0,0:0:0:0:
475,192,178769,1,0,0:0:0:0:
402,192,178769,1,0,0:0:0:0:
182,192,178769,1,0,0:0:0:0:
329,192,178852,1,0,0:0:0:0:
109,192,178852,1,0,0:0:0:0:
36,192,178852,1,0,0:0:0:0:
475,192,178935,1,0,0:0:0:0:
402,192,178935,1,0,0:0:0:0:
182,192,178935,1,0,0:0:0:0:
329,192,179019,1,0,0:0:0:0:
109,192,179019,1,0,0:0:0:0:
36,192,179019,1,0,0:0:0:0:
475,192,179102,1,0,0:0:0:0:
402,192,179102,1,0,0:0:0:0:
182,192,179102,1,0,0:0:0:0:
109,192,179144,1,0,0:0:0:0:
36,192,179185,1,0,0:0:0:0:
329,192,179185,1,0,0:0:0:0:
402,192,179227,1,0,0:0:0:0:
475,192,179269,1,0,0:0:0:0:
109,192,179269,1,0,0:0:0:0:
182,192,179310,1,0,0:0:0:0:
256,192,179352,1,0,0:0:0:0:
329,192,179394,1,0,0:0:0:0:
475,192,179435,1,0,0:0:0:0:
402,192,179435,1,0,0:0:0:0:
182,192,179435,1,0,0:0:0:0:
109,192,179435,1,0,0:0:0:0:
36,192,179435,1,0,0:0:0:0:
36,192,179769,128,0,179935:0:0:0:0:
109,192,179769,128,0,179935:0:0:0:0:
256,192,179769,128,0,179935:0:0:0:0:
402,192,179769,128,0,179935:0:0:0:0:
329,192,179769,128,0,179935:0:0:0:0:
475,192,179769,1,0,0:0:0:0:
475,192,180019,128,0,180185:0:0:0:0:
402,192,180019,128,0,180185:0:0:0:0:
256,192,180019,128,0,180185:0:0:0:0:
182,192,180019,128,0,180185:0:0:0:0:
36,192,180019,128,0,180185:0:0:0:0:
402,192,180269,128,0,180435:0:0:0:0:
329,192,180269,128,0,180435:0:0:0:0:
256,192,180269,128,0,180435:0:0:0:0:
182,192,180269,128,0,180435:0:0:0:0:
109,192,180269,128,0,180435:0:0:0:0:
475,192,180519,128,0,180685:0:0:0:0:
402,192,180519,128,0,180685:0:0:0:0:
329,192,180519,128,0,180685:0:0:0:0:
182,192,180519,128,0,180685:0:0:0:0:
36,192,180519,128,0,180685:0:0:0:0:
329,192,180769,128,0,181019:0:0:0:0:
109,192,180769,128,0,181019:0:0:0:0:
256,192,180769,128,0,181019:0:0:0:0:
402,192,180769,128,0,181019:0:0:0:0:
475,192,180769,128,0,181019:0:0:0:0:
182,192,181102,1,0,0:0:0:0:
36,192,181102,1,0,0:0:0:0:
475,192,181185,1,0,0:0:0:0:
329,192,181185,1,0,0:0:0:0:
182,192,181269,1,0,0:0:0:0:
36,192,181269,1,0,0:0:0:0:
329,192,181352,1,0,0:0:0:0:
475,192,181352,1,0,0:0:0:0:
182,192,181435,1,0,0:0:0:0:
109,192,181435,1,0,0:0:0:0:
402,192,181519,1,0,0:0:0:0:
329,192,181519,1,0,0:0:0:0:
182,192,181602,1,0,0:0:0:0:
109,192,181602,1,0,0:0:0:0:
402,192,181685,1,0,0:0:0:0:
329,192,181685,1,0,0:0:0:0:
109,192,181769,1,0,0:0:0:0:
36,192,181769,1,0,0:0:0:0:
256,192,181769,1,0,0:0:0:0:
402,192,181852,1,0,0:0:0:0:
475,192,181852,1,0,0:0:0:0:
182,192,181852,1,0,0:0:0:0:
109,192,181935,1,0,0:0:0:0:
36,192,181935,1,0,0:0:0:0:
329,192,181935,1,0,0:0:0:0:
402,192,182019,1,0,0:0:0:0:
475,192,182019,1,0,0:0:0:0:
109,192,182102,1,0,0:0:0:0:
182,192,182102,1,0,0:0:0:0:
256,192,182102,1,0,0:0:0:0:
329,192,182185,1,0,0:0:0:0:
256,192,182269,1,0,0:0:0:0:
182,192,182269,1,0,0:0:0:0:
329,192,182352,1,0,0:0:0:0:
36,192,182435,128,0,182602:0:0:0:0:
109,192,182435,128,0,182602:0:0:0:0:
182,192,182435,128,0,182602:0:0:0:0:
402,192,182435,128,0,182602:0:0:0:0:
475,192,182435,128,0,182602:0:0:0:0:
109,192,182685,128,0,182852:0:0:0:0:
256,192,182685,128,0,182852:0:0:0:0:
402,192,182685,128,0,182852:0:0:0:0:
329,192,182685,128,0,182852:0:0:0:0:
475,192,182685,128,0,182852:0:0:0:0:
182,192,182935,128,0,183102:0:0:0:0:
109,192,182935,128,0,183102:0:0:0:0:
402,192,182935,128,0,183102:0:0:0:0:
256,192,182935,128,0,183102:0:0:0:0:
329,192,182935,128,0,183102:0:0:0:0:
475,192,183185,128,0,183352:0:0:0:0:
402,192,183185,128,0,183352:0:0:0:0:
329,192,183185,128,0,183352:0:0:0:0:
256,192,183185,128,0,183352:0:0:0:0:
36,192,183185,128,0,183352:0:0:0:0:
402,192,183435,128,0,183685:0:0:0:0:
329,192,183435,128,0,183685:0:0:0:0:
256,192,183435,128,0,183685:0:0:0:0:
182,192,183435,128,0,183685:0:0:0:0:
36,192,183435,128,0,183685:0:0:0:0:
109,192,183769,1,0,0:0:0:0:
36,192,183769,1,0,0:0:0:0:
475,192,183769,1,0,0:0:0:0:
402,192,183769,1,0,0:0:0:0:
182,192,183852,1,0,0:0:0:0:
329,192,183852,1,0,0:0:0:0:
36,192,183935,1,0,0:0:0:0:
475,192,183935,1,0,0:0:0:0:
402,192,183935,1,0,0:0:0:0:
182,192,184019,1,0,0:0:0:0:
329,192,184019,1,0,0:0:0:0:
256,192,184102,1,0,0:0:0:0:
36,192,184102,1,0,0:0:0:0:
475,192,184102,1,0,0:0:0:0:
182,192,184185,1,0,0:0:0:0:
109,192,184269,1,0,0:0:0:0:
329,192,184269,1,0,0:0:0:0:
182,192,184352,1,0,0:0:0:0:
402,192,184352,1,0,0:0:0:0:
256,192,184435,1,0,0:0:0:0:
36,192,184435,1,0,0:0:0:0:
475,192,184435,1,0,0:0:0:0:
402,192,184519,1,0,0:0:0:0:
182,192,184519,1,0,0:0:0:0:
329,192,184602,1,0,0:0:0:0:
109,192,184602,1,0,0:0:0:0:
182,192,184685,1,0,0:0:0:0:
402,192,184685,1,0,0:0:0:0:
36,192,184769,1,0,0:0:0:0:
475,192,184769,1,0,0:0:0:0:
256,192,184769,1,0,0:0:0:0:
109,192,184769,1,0,0:0:0:0:
182,192,184852,1,0,0:0:0:0:
402,192,184852,1,0,0:0:0:0:
329,192,184935,1,0,0:0:0:0:
109,192,184935,1,0,0:0:0:0:
36,192,185019,1,0,0:0:0:0:
256,192,185019,1,0,0:0:0:0:
109,192,185102,128,0,185269:0:0:0:0:
182,192,185102,128,0,185269:0:0:0:0:
329,192,185102,128,0,185269:0:0:0:0:
402,192,185102,128,0,185269:0:0:0:0:
475,192,185102,128,0,185269:0:0:0:0:
475,192,185352,128,0,185519:0:0:0:0:
402,192,185352,128,0,185519:0:0:0:0:
329,192,185352,128,0,185519:0:0:0:0:
256,192,185352,128,0,185519:0:0:0:0:
182,192,185352,128,0,185519:0:0:0:0:
36,192,185602,128,0,185769:0:0:0:0:
109,192,185602,128,0,185769:0:0:0:0:
256,192,185602,128,0,185769:0:0:0:0:
402,192,185602,128,0,185769:0:0:0:0:
329,192,185602,128,0,185769:0:0:0:0:
475,192,185852,128,0,186019:0:0:0:0:
402,192,185852,128,0,186019:0:0:0:0:
182,192,185852,128,0,186019:0:0:0:0:
109,192,185852,128,0,186019:0:0:0:0:
256,192,185852,128,0,186019:0:0:0:0:
402,192,186102,128,0,186352:0:0:0:0:
329,192,186102,128,0,186352:0:0:0:0:
182,192,186102,128,0,186352:0:0:0:0:
109,192,186102,128,0,186352:0:0:0:0:
256,192,186102,128,0,186352:0:0:0:0:
36,192,186435,1,0,0:0:0:0:
475,192,186435,1,0,0:0:0:0:
402,192,186435,1,0,0:0:0:0:
109,192,186519,1,0,0:0:0:0:
36,192,186602,1,0,0:0:0:0:
475,192,186602,1,0,0:0:0:0:
402,192,186602,1,0,0:0:0:0:
109,192,186685,1,0,0:0:0:0:
36,192,186769,1,0,0:0:0:0:
475,192,186769,1,0,0:0:0:0:
329,192,186769,1,0,0:0:0:0:
109,192,186852,1,0,0:0:0:0:
182,192,186935,1,0,0:0:0:0:
402,192,186935,1,0,0:0:0:0:
256,192,187019,1,0,0:0:0:0:
329,192,187102,1,0,0:0:0:0:
475,192,187102,1,0,0:0:0:0:
109,192,187102,1,0,0:0:0:0:
36,192,187102,1,0,0:0:0:0:
109,192,187269,128,0,187519:0:0:0:0:
36,192,187269,128,0,187519:0:0:0:0:
256,192,187269,128,0,187519:0:0:0:0:
402,192,187269,128,0,187519:0:0:0:0:
36,192,187602,128,0,188019:0:0:0:0:
109,192,187602,128,0,188019:0:0:0:0:
182,192,187602,128,0,188019:0:0:0:0:
256,192,187602,128,0,188019:0:0:0:0:
329,192,187602,128,0,187935:0:0:0:0:
402,192,187602,128,0,187852:0:0:0:0:
475,192,187935,1,0,0:0:0:0:
402,192,187935,1,0,0:0:0:0:
329,192,188019,1,0,0:0:0:0:
256,192,188102,1,0,0:0:0:0:
109,192,188102,1,0,0:0:0:0:
36,192,188102,1,0,0:0:0:0:
475,192,188102,1,0,0:0:0:0:
402,192,188102,1,0,0:0:0:0:
36,192,188269,128,0,189102:0:0:0:0:
109,192,188269,128,0,189102:0:0:0:0:
182,192,188269,128,0,188769:0:0:0:0:
329,192,188269,1,0,0:0:0:0:
475,192,188435,1,0,0:0:0:0:
402,192,188435,1,0,0:0:0:0:
256,192,188435,1,0,0:0:0:0:
329,192,188519,1,0,0:0:0:0:
402,192,188602,1,0,0:0:0:0:
475,192,188602,1,0,0:0:0:0:
256,192,188685,1,0,0:0:0:0:
329,192,188769,1,0,0:0:0:0:
402,192,188769,1,0,0:0:0:0:
475,192,188769,1,0,0:0:0:0:
182,192,188935,1,0,0:0:0:0:
402,192,188935,1,0,0:0:0:0:
475,192,188935,1,0,0:0:0:0:
256,192,189019,1,0,0:0:0:0:
475,192,189102,1,0,0:0:0:0:
329,192,189102,1,0,0:0:0:0:
182,192,189102,1,0,0:0:0:0:
109,192,189269,128,0,189435:0:0:0:0:
36,192,189269,128,0,189435:0:0:0:0:
256,192,189269,128,0,189435:0:0:0:0:
402,192,189269,128,0,189435:0:0:0:0:
329,192,189269,128,0,189435:0:0:0:0:
182,192,189602,128,0,189769:0:0:0:0:
109,192,189602,128,0,189769:0:0:0:0:
329,192,189602,128,0,189769:0:0:0:0:
402,192,189602,128,0,189769:0:0:0:0:
475,192,189602,128,0,189769:0:0:0:0:
256,192,189769,1,0,0:0:0:0:
36,192,189769,1,0,0:0:0:0:
109,192,189852,1,0,0:0:0:0:
329,192,189852,1,0,0:0:0:0:
182,192,189935,1,0,0:0:0:0:
402,192,189935,1,0,0:0:0:0:
475,192,189935,1,0,0:0:0:0:
36,192,190019,1,0,0:0:0:0:
256,192,190019,1,0,0:0:0:0:
109,192,190102,1,0,0:0:0:0:
329,192,190102,1,0,0:0:0:0:
475,192,190102,1,0,0:0:0:0:
402,192,190102,1,0,0:0:0:0:
256,192,190185,1,0,0:0:0:0:
36,192,190185,1,0,0:0:0:0:
182,192,190269,1,0,0:0:0:0:
402,192,190269,1,0,0:0:0:0:
329,192,190352,1,0,0:0:0:0:
109,192,190352,1,0,0:0:0:0:
256,192,190435,1,0,0:0:0:0:
36,192,190435,1,0,0:0:0:0:
475,192,190435,1,0,0:0:0:0:
402,192,190435,1,0,0:0:0:0:
182,192,190435,1,0,0:0:0:0:
402,192,190602,1,0,0:0:0:0:
329,192,190769,1,0,0:0:0:0:
256,192,190935,1,0,0:0:0:0:
329,192,191102,1,0,0:0:0:0:
402,192,191435,1,0,0:0:0:0:
256,192,191602,1,0,0:0:0:0:
402,192,191935,1,0,0:0:0:0:
329,192,192102,1,0,0:0:0:0:
256,192,192269,1,0,0:0:0:0:
329,192,192435,1,0,0:0:0:0:
402,192,192769,1,0,0:0:0:0:
256,192,192935,1,0,0:0:0:0:
109,192,193102,128,0,193185:0:0:0:0:
182,192,193102,128,0,193185:0:0:0:0:
402,192,193269,1,0,0:0:0:0:
329,192,193435,1,0,0:0:0:0:
256,192,193602,1,0,0:0:0:0:
329,192,193769,1,0,0:0:0:0:
402,192,194102,1,0,0:0:0:0:
256,192,194269,1,0,0:0:0:0:
402,192,194602,1,0,0:0:0:0:
329,192,194769,1,0,0:0:0:0:
256,192,194935,1,0,0:0:0:0:
329,192,195102,1,0,0:0:0:0:
402,192,195435,1,0,0:0:0:0:
256,192,195602,1,0,0:0:0:0:
36,192,195769,128,0,195852:0:0:0:0:
109,192,195769,128,0,195852:0:0:0:0:
402,192,195935,1,0,0:0:0:0:
329,192,196102,1,0,0:0:0:0:
256,192,196269,1,0,0:0:0:0:
329,192,196435,1,0,0:0:0:0:
402,192,196769,1,0,0:0:0:0:
256,192,196935,1,0,0:0:0:0:
402,192,197269,1,0,0:0:0:0:
329,192,197435,1,0,0:0:0:0:
256,192,197602,1,0,0:0:0:0:
329,192,197769,1,0,0:0:0:0:
402,192,198102,1,0,0:0:0:0:
256,192,198269,1,0,0:0:0:0:
36,192,198435,128,0,198519:0:0:0:0:
182,192,198435,128,0,198519:0:0:0:0:
402,192,198602,1,0,0:0:0:0:
329,192,198769,1,0,0:0:0:0:
256,192,198935,1,0,0:0:0:0:
329,192,199102,1,0,0:0:0:0:
402,192,199435,1,0,0:0:0:0:
256,192,199602,1,0,0:0:0:0:
475,192,199769,1,0,0:0:0:0:
329,192,199935,1,0,0:0:0:0:
402,192,200102,1,0,0:0:0:0:
256,192,200269,1,0,0:0:0:0:
329,192,200435,1,0,0:0:0:0:
402,192,200602,1,0,0:0:0:0:
36,192,200602,1,0,0:0:0:0:
329,192,200769,1,0,0:0:0:0:
109,192,200769,1,0,0:0:0:0:
475,192,200935,1,0,0:0:0:0:
182,192,200935,1,0,0:0:0:0:
475,192,201102,1,0,0:0:0:0:
256,192,201102,1,0,0:0:0:0:
109,192,201102,1,0,0:0:0:0:
36,192,201102,1,0,0:0:0:0:
402,192,201269,1,0,0:0:0:0:
36,192,201269,1,0,0:0:0:0:
329,192,201435,1,0,0:0:0:0:
36,192,201435,1,0,0:0:0:0:
256,192,201602,1,0,0:0:0:0:
182,192,201602,1,0,0:0:0:0:
329,192,201769,1,0,0:0:0:0:
182,192,201769,1,0,0:0:0:0:
109,192,201769,1,0,0:0:0:0:
109,192,201935,1,0,0:0:0:0:
402,192,202102,1,0,0:0:0:0:
182,192,202102,1,0,0:0:0:0:
256,192,202269,1,0,0:0:0:0:
182,192,202269,1,0,0:0:0:0:
402,192,202602,1,0,0:0:0:0:
36,192,202602,1,0,0:0:0:0:
329,192,202769,1,0,0:0:0:0:
36,192,202769,1,0,0:0:0:0:
256,192,202935,1,0,0:0:0:0:
182,192,202935,1,0,0:0:0:0:
329,192,203102,1,0,0:0:0:0:
182,192,203102,1,0,0:0:0:0:
109,192,203102,1,0,0:0:0:0:
402,192,203435,1,0,0:0:0:0:
475,192,203435,1,0,0:0:0:0:
182,192,203435,1,0,0:0:0:0:
256,192,203602,1,0,0:0:0:0:
329,192,203602,1,0,0:0:0:0:
182,192,203602,1,0,0:0:0:0:
109,192,203769,1,0,0:0:0:0:
36,192,203769,1,0,0:0:0:0:
402,192,203935,1,0,0:0:0:0:
36,192,203935,1,0,0:0:0:0:
329,192,204102,1,0,0:0:0:0:
36,192,204102,1,0,0:0:0:0:
256,192,204269,1,0,0:0:0:0:
182,192,204269,1,0,0:0:0:0:
329,192,204435,1,0,0:0:0:0:
182,192,204435,1,0,0:0:0:0:
109,192,204435,1,0,0:0:0:0:
109,192,204602,1,0,0:0:0:0:
402,192,204769,1,0,0:0:0:0:
182,192,204769,1,0,0:0:0:0:
329,192,204769,1,0,0:0:0:0:
256,192,204935,1,0,0:0:0:0:
182,192,204935,1,0,0:0:0:0:
329,192,204935,1,0,0:0:0:0:
402,192,205269,1,0,0:0:0:0:
36,192,205269,1,0,0:0:0:0:
329,192,205435,1,0,0:0:0:0:
36,192,205435,1,0,0:0:0:0:
256,192,205602,1,0,0:0:0:0:
182,192,205602,1,0,0:0:0:0:
329,192,205769,1,0,0:0:0:0:
182,192,205769,1,0,0:0:0:0:
109,192,205769,1,0,0:0:0:0:
36,192,205935,1,0,0:0:0:0:
256,192,205935,1,0,0:0:0:0:
402,192,205935,1,0,0:0:0:0:
109,192,206019,1,0,0:0:0:0:
402,192,206102,1,0,0:0:0:0:
182,192,206102,1,0,0:0:0:0:
329,192,206102,1,0,0:0:0:0:
36,192,206185,1,0,0:0:0:0:
256,192,206269,1,0,0:0:0:0:
109,192,206269,1,0,0:0:0:0:
402,192,206269,1,0,0:0:0:0:
36,192,206352,1,0,0:0:0:0:
182,192,206435,1,0,0:0:0:0:
475,192,206435,1,0,0:0:0:0:
329,192,206435,1,0,0:0:0:0:
109,192,206435,1,0,0:0:0:0:
402,192,206602,1,0,0:0:0:0:
36,192,206602,1,0,0:0:0:0:
329,192,206769,1,0,0:0:0:0:
36,192,206769,1,0,0:0:0:0:
256,192,206935,1,0,0:0:0:0:
182,192,206935,1,0,0:0:0:0:
329,192,207102,1,0,0:0:0:0:
182,192,207102,1,0,0:0:0:0:
109,192,207102,1,0,0:0:0:0:
109,192,207269,1,0,0:0:0:0:
402,192,207435,1,0,0:0:0:0:
182,192,207435,1,0,0:0:0:0:
256,192,207602,1,0,0:0:0:0:
182,192,207602,128,0,207685:0:0:0:0:
109,192,207602,128,0,207685:0:0:0:0:
402,192,207935,1,0,0:0:0:0:
36,192,207935,1,0,0:0:0:0:
329,192,208102,1,0,0:0:0:0:
36,192,208102,1,0,0:0:0:0:
256,192,208269,1,0,0:0:0:0:
182,192,208269,1,0,0:0:0:0:
329,192,208435,1,0,0:0:0:0:
182,192,208435,1,0,0:0:0:0:
109,192,208435,1,0,0:0:0:0:
402,192,208769,1,0,0:0:0:0:
475,192,208769,1,0,0:0:0:0:
182,192,208769,1,0,0:0:0:0:
256,192,208935,1,0,0:0:0:0:
329,192,208935,1,0,0:0:0:0:
182,192,208935,1,0,0:0:0:0:
109,192,209102,1,0,0:0:0:0:
36,192,209102,1,0,0:0:0:0:
402,192,209269,1,0,0:0:0:0:
36,192,209269,1,0,0:0:0:0:
329,192,209435,1,0,0:0:0:0:
36,192,209435,1,0,0:0:0:0:
256,192,209602,1,0,0:0:0:0:
182,192,209602,1,0,0:0:0:0:
329,192,209769,1,0,0:0:0:0:
182,192,209769,1,0,0:0:0:0:
109,192,209769,1,0,0:0:0:0:
109,192,209935,1,0,0:0:0:0:
402,192,210102,1,0,0:0:0:0:
182,192,210102,1,0,0:0:0:0:
329,192,210102,1,0,0:0:0:0:
256,192,210269,1,0,0:0:0:0:
182,192,210269,1,0,0:0:0:0:
402,192,210269,1,0,0:0:0:0:
475,192,210435,1,0,0:0:0:0:
36,192,210435,1,0,0:0:0:0:
329,192,210602,1,0,0:0:0:0:
182,192,210602,128,0,210769:0:0:0:0:
402,192,210769,1,0,0:0:0:0:
36,192,210769,1,0,0:0:0:0:
109,192,210824,1,0,0:0:0:0:
182,192,210880,1,0,0:0:0:0:
256,192,210935,1,0,0:0:0:0:
36,192,210935,1,0,0:0:0:0:
329,192,211102,1,0,0:0:0:0:
109,192,211102,1,0,0:0:0:0:
182,192,211185,1,0,0:0:0:0:
402,192,211269,1,0,0:0:0:0:
36,192,211269,1,0,0:0:0:0:
109,192,211324,1,0,0:0:0:0:
182,192,211380,1,0,0:0:0:0:
329,192,211435,1,0,0:0:0:0:
36,192,211435,1,0,0:0:0:0:
182,192,211519,1,0,0:0:0:0:
475,192,211602,1,0,0:0:0:0:
109,192,211602,1,0,0:0:0:0:
182,192,211685,1,0,0:0:0:0:
256,192,211769,1,0,0:0:0:0:
475,192,211769,1,0,0:0:0:0:
109,192,211769,1,0,0:0:0:0:
36,192,211769,1,0,0:0:0:0:
329,192,211769,1,0,0:0:0:0:
402,192,211935,1,0,0:0:0:0:
329,192,212102,1,0,0:0:0:0:
109,192,212102,1,0,0:0:0:0:
36,192,212102,1,0,0:0:0:0:
256,192,212269,1,0,0:0:0:0:
329,192,212435,1,0,0:0:0:0:
109,192,212435,1,0,0:0:0:0:
36,192,212435,1,0,0:0:0:0:
402,192,212769,1,0,0:0:0:0:
109,192,212769,1,0,0:0:0:0:
36,192,212769,1,0,0:0:0:0:
256,192,212935,1,0,0:0:0:0:
109,192,213102,1,0,0:0:0:0:
36,192,213102,1,0,0:0:0:0:
402,192,213269,1,0,0:0:0:0:
329,192,213435,1,0,0:0:0:0:
109,192,213435,1,0,0:0:0:0:
36,192,213435,1,0,0:0:0:0:
256,192,213602,1,0,0:0:0:0:
329,192,213769,1,0,0:0:0:0:
109,192,213769,1,0,0:0:0:0:
36,192,213769,1,0,0:0:0:0:
402,192,214102,1,0,0:0:0:0:
109,192,214102,1,0,0:0:0:0:
36,192,214102,1,0,0:0:0:0:
475,192,214102,1,0,0:0:0:0:
256,192,214269,1,0,0:0:0:0:
329,192,214269,1,0,0:0:0:0:
109,192,214435,1,0,0:0:0:0:
36,192,214435,1,0,0:0:0:0:
402,192,214602,1,0,0:0:0:0:
329,192,214769,1,0,0:0:0:0:
109,192,214769,1,0,0:0:0:0:
36,192,214769,1,0,0:0:0:0:
256,192,214935,1,0,0:0:0:0:
329,192,215102,1,0,0:0:0:0:
109,192,215102,1,0,0:0:0:0:
36,192,215102,1,0,0:0:0:0:
402,192,215435,1,0,0:0:0:0:
109,192,215435,1,0,0:0:0:0:
36,192,215435,1,0,0:0:0:0:
329,192,215435,1,0,0:0:0:0:
256,192,215602,1,0,0:0:0:0:
329,192,215602,1,0,0:0:0:0:
109,192,215769,1,0,0:0:0:0:
36,192,215769,1,0,0:0:0:0:
402,192,215935,1,0,0:0:0:0:
329,192,216102,1,0,0:0:0:0:
109,192,216102,1,0,0:0:0:0:
36,192,216102,1,0,0:0:0:0:
256,192,216269,1,0,0:0:0:0:
329,192,216435,1,0,0:0:0:0:
109,192,216435,1,0,0:0:0:0:
36,192,216435,1,0,0:0:0:0:
256,192,216602,1,0,0:0:0:0:
402,192,216602,1,0,0:0:0:0:
402,192,216769,1,0,0:0:0:0:
109,192,216769,1,0,0:0:0:0:
36,192,216769,1,0,0:0:0:0:
329,192,216769,1,0,0:0:0:0:
256,192,216935,1,0,0:0:0:0:
475,192,216935,1,0,0:0:0:0:
109,192,217102,1,0,0:0:0:0:
36,192,217102,1,0,0:0:0:0:
475,192,217102,1,0,0:0:0:0:
329,192,217102,1,0,0:0:0:0:
402,192,217269,1,0,0:0:0:0:
329,192,217435,1,0,0:0:0:0:
109,192,217435,1,0,0:0:0:0:
36,192,217435,1,0,0:0:0:0:
256,192,217602,1,0,0:0:0:0:
329,192,217769,1,0,0:0:0:0:
109,192,217769,1,0,0:0:0:0:
36,192,217769,1,0,0:0:0:0:
402,192,218102,1,0,0:0:0:0:
109,192,218102,1,0,0:0:0:0:
36,192,218102,1,0,0:0:0:0:
256,192,218269,1,0,0:0:0:0:
109,192,218435,1,0,0:0:0:0:
36,192,218435,1,0,0:0:0:0:
402,192,218602,1,0,0:0:0:0:
329,192,218769,1,0,0:0:0:0:
109,192,218769,1,0,0:0:0:0:
36,192,218769,1,0,0:0:0:0:
256,192,218935,1,0,0:0:0:0:
329,192,219102,1,0,0:0:0:0:
109,192,219102,1,0,0:0:0:0:
36,192,219102,1,0,0:0:0:0:
402,192,219435,1,0,0:0:0:0:
109,192,219435,1,0,0:0:0:0:
36,192,219435,1,0,0:0:0:0:
475,192,219435,1,0,0:0:0:0:
256,192,219602,1,0,0:0:0:0:
329,192,219602,1,0,0:0:0:0:
109,192,219769,1,0,0:0:0:0:
36,192,219769,1,0,0:0:0:0:
402,192,219935,1,0,0:0:0:0:
329,192,220102,1,0,0:0:0:0:
109,192,220102,1,0,0:0:0:0:
36,192,220102,1,0,0:0:0:0:
256,192,220269,1,0,0:0:0:0:
329,192,220435,1,0,0:0:0:0:
109,192,220435,1,0,0:0:0:0:
36,192,220435,1,0,0:0:0:0:
402,192,220769,1,0,0:0:0:0:
109,192,220769,1,0,0:0:0:0:
36,192,220769,1,0,0:0:0:0:
475,192,220769,1,0,0:0:0:0:
256,192,220935,1,0,0:0:0:0:
402,192,220935,1,0,0:0:0:0:
475,192,221102,1,0,0:0:0:0:
109,192,221102,1,0,0:0:0:0:
36,192,221102,1,0,0:0:0:0:
329,192,221269,1,0,0:0:0:0:
109,192,221435,1,0,0:0:0:0:
36,192,221435,1,0,0:0:0:0:
402,192,221435,1,0,0:0:0:0:
475,192,221435,1,0,0:0:0:0:
256,192,221602,1,0,0:0:0:0:
402,192,221602,1,0,0:0:0:0:
329,192,221769,1,0,0:0:0:0:
109,192,221769,1,0,0:0:0:0:
36,192,221769,1,0,0:0:0:0:
402,192,221935,1,0,0:0:0:0:
329,192,222102,1,0,0:0:0:0:
109,192,222102,1,0,0:0:0:0:
36,192,222102,1,0,0:0:0:0:
256,192,222102,1,0,0:0:0:0:
475,192,222269,1,0,0:0:0:0:
329,192,222269,1,0,0:0:0:0:
109,192,222435,1,0,0:0:0:0:
36,192,222435,1,0,0:0:0:0:
475,192,222435,1,0,0:0:0:0:
402,192,222435,1,0,0:0:0:0:
256,192,222602,1,0,0:0:0:0:
402,192,222602,1,0,0:0:0:0:
36,192,222602,1,0,0:0:0:0:
475,192,222602,1,0,0:0:0:0:
475,192,222769,1,0,0:0:0:0:
36,192,222769,1,0,0:0:0:0:
329,192,222769,1,0,0:0:0:0:
182,192,222769,1,0,0:0:0:0:
256,192,222935,1,0,0:0:0:0:
109,192,222935,1,0,0:0:0:0:
36,192,222935,1,0,0:0:0:0:
475,192,222935,1,0,0:0:0:0:
36,192,223102,1,0,0:0:0:0:
475,192,223102,1,0,0:0:0:0:
329,192,223102,1,0,0:0:0:0:
182,192,223102,1,0,0:0:0:0:
36,192,223269,1,0,0:0:0:0:
475,192,223269,1,0,0:0:0:0:
36,192,223435,1,0,0:0:0:0:
329,192,223435,1,0,0:0:0:0:
182,192,223435,1,0,0:0:0:0:
475,192,223435,1,0,0:0:0:0:
256,192,223602,1,0,0:0:0:0:
109,192,223602,1,0,0:0:0:0:
36,192,223602,1,0,0:0:0:0:
475,192,223602,1,0,0:0:0:0:
36,192,223769,1,0,0:0:0:0:
475,192,223769,1,0,0:0:0:0:
402,192,223935,1,0,0:0:0:0:
329,192,223935,1,0,0:0:0:0:
36,192,223935,1,0,0:0:0:0:
475,192,223935,1,0,0:0:0:0:
36,192,224102,1,0,0:0:0:0:
329,192,224102,1,0,0:0:0:0:
256,192,224102,1,0,0:0:0:0:
475,192,224102,1,0,0:0:0:0:
256,192,224269,1,0,0:0:0:0:
182,192,224269,1,0,0:0:0:0:
36,192,224269,1,0,0:0:0:0:
475,192,224269,1,0,0:0:0:0:
329,192,224435,1,0,0:0:0:0:
256,192,224435,1,0,0:0:0:0:
36,192,224435,1,0,0:0:0:0:
475,192,224435,1,0,0:0:0:0:
36,192,224602,1,0,0:0:0:0:
475,192,224602,1,0,0:0:0:0:
329,192,224769,1,0,0:0:0:0:
256,192,224769,1,0,0:0:0:0:
36,192,224769,1,0,0:0:0:0:
475,192,224769,1,0,0:0:0:0:
256,192,224935,1,0,0:0:0:0:
182,192,224935,1,0,0:0:0:0:
36,192,224935,1,0,0:0:0:0:
475,192,224935,1,0,0:0:0:0:
36,192,225102,1,0,0:0:0:0:
402,192,225102,1,0,0:0:0:0:
329,192,225102,1,0,0:0:0:0:
109,192,225102,1,0,0:0:0:0:
475,192,225102,1,0,0:0:0:0:
402,192,225269,1,0,0:0:0:0:
256,192,225269,1,0,0:0:0:0:
475,192,225269,1,0,0:0:0:0:
36,192,225269,1,0,0:0:0:0:
329,192,225435,1,0,0:0:0:0:
182,192,225435,1,0,0:0:0:0:
475,192,225435,1,0,0:0:0:0:
36,192,225435,1,0,0:0:0:0:
256,192,225602,1,0,0:0:0:0:
109,192,225602,1,0,0:0:0:0:
475,192,225602,1,0,0:0:0:0:
36,192,225602,1,0,0:0:0:0:
329,192,225769,1,0,0:0:0:0:
182,192,225769,1,0,0:0:0:0:
475,192,225769,1,0,0:0:0:0:
36,192,225769,1,0,0:0:0:0:
475,192,225935,1,0,0:0:0:0:
36,192,225935,1,0,0:0:0:0:
329,192,226102,1,0,0:0:0:0:
182,192,226102,1,0,0:0:0:0:
475,192,226102,1,0,0:0:0:0:
36,192,226102,1,0,0:0:0:0:
256,192,226269,1,0,0:0:0:0:
109,192,226269,1,0,0:0:0:0:
475,192,226269,1,0,0:0:0:0:
36,192,226269,1,0,0:0:0:0:
475,192,226435,1,0,0:0:0:0:
36,192,226435,1,0,0:0:0:0:
475,192,226602,1,0,0:0:0:0:
36,192,226602,1,0,0:0:0:0:
329,192,226602,1,0,0:0:0:0:
256,192,226602,1,0,0:0:0:0:
36,192,226769,1,0,0:0:0:0:
475,192,226769,1,0,0:0:0:0:
256,192,226769,1,0,0:0:0:0:
182,192,226769,1,0,0:0:0:0:
36,192,226935,1,0,0:0:0:0:
475,192,226935,1,0,0:0:0:0:
109,192,226935,1,0,0:0:0:0:
182,192,226935,1,0,0:0:0:0:
36,192,227102,1,0,0:0:0:0:
475,192,227102,1,0,0:0:0:0:
256,192,227102,1,0,0:0:0:0:
182,192,227102,1,0,0:0:0:0:
36,192,227269,1,0,0:0:0:0:
475,192,227269,1,0,0:0:0:0:
36,192,227435,1,0,0:0:0:0:
475,192,227435,1,0,0:0:0:0:
256,192,227435,1,0,0:0:0:0:
182,192,227435,1,0,0:0:0:0:
36,192,227602,1,0,0:0:0:0:
475,192,227602,1,0,0:0:0:0:
182,192,227602,1,0,0:0:0:0:
109,192,227602,1,0,0:0:0:0:
36,192,227769,1,0,0:0:0:0:
475,192,227769,1,0,0:0:0:0:
402,192,227769,1,0,0:0:0:0:
329,192,227769,1,0,0:0:0:0:
182,192,227852,1,0,0:0:0:0:
109,192,227852,1,0,0:0:0:0:
402,192,227935,1,0,0:0:0:0:
329,192,227935,1,0,0:0:0:0:
475,192,227935,1,0,0:0:0:0:
182,192,228019,1,0,0:0:0:0:
109,192,228019,1,0,0:0:0:0:
402,192,228102,1,0,0:0:0:0:
329,192,228102,1,0,0:0:0:0:
256,192,228102,1,0,0:0:0:0:
182,192,228185,1,0,0:0:0:0:
109,192,228185,1,0,0:0:0:0:
402,192,228269,1,0,0:0:0:0:
329,192,228269,1,0,0:0:0:0:
256,192,228269,1,0,0:0:0:0:
182,192,228352,1,0,0:0:0:0:
109,192,228352,1,0,0:0:0:0:
475,192,228435,1,0,0:0:0:0:
402,192,228435,1,0,0:0:0:0:
329,192,228435,1,0,0:0:0:0:
36,192,228435,1,0,0:0:0:0:
256,192,228435,1,0,0:0:0:0:
182,192,228519,1,0,0:0:0:0:
109,192,228519,1,0,0:0:0:0:
402,192,228602,1,0,0:0:0:0:
329,192,228602,1,0,0:0:0:0:
182,192,228685,1,0,0:0:0:0:
109,192,228685,1,0,0:0:0:0:
475,192,228769,1,0,0:0:0:0:
402,192,228769,1,0,0:0:0:0:
329,192,228769,1,0,0:0:0:0:
182,192,228852,1,0,0:0:0:0:
109,192,228852,1,0,0:0:0:0:
402,192,228935,1,0,0:0:0:0:
329,192,228935,1,0,0:0:0:0:
256,192,228935,1,0,0:0:0:0:
36,192,229019,1,0,0:0:0:0:
109,192,229019,1,0,0:0:0:0:
475,192,229102,1,0,0:0:0:0:
402,192,229102,1,0,0:0:0:0:
329,192,229102,1,0,0:0:0:0:
256,192,229102,1,0,0:0:0:0:
182,192,229102,1,0,0:0:0:0:
109,192,229185,1,0,0:0:0:0:
36,192,229185,1,0,0:0:0:0:
475,192,229269,1,0,0:0:0:0:
402,192,229269,1,0,0:0:0:0:
329,192,229269,1,0,0:0:0:0:
256,192,229269,1,0,0:0:0:0:
109,192,229352,1,0,0:0:0:0:
36,192,229352,1,0,0:0:0:0:
475,192,229435,1,0,0:0:0:0:
402,192,229435,1,0,0:0:0:0:
329,192,229435,1,0,0:0:0:0:
256,192,229435,1,0,0:0:0:0:
182,192,229435,1,0,0:0:0:0:
109,192,229519,1,0,0:0:0:0:
36,192,229519,1,0,0:0:0:0:
475,192,229602,1,0,0:0:0:0:
402,192,229602,1,0,0:0:0:0:
329,192,229602,1,0,0:0:0:0:
256,192,229602,1,0,0:0:0:0:
109,192,229685,1,0,0:0:0:0:
36,192,229685,1,0,0:0:0:0:
475,192,229769,1,0,0:0:0:0:
402,192,229769,1,0,0:0:0:0:
329,192,229769,1,0,0:0:0:0:
182,192,229769,1,0,0:0:0:0:
256,192,229769,1,0,0:0:0:0:
109,192,229852,1,0,0:0:0:0:
36,192,229852,1,0,0:0:0:0:
475,192,229935,1,0,0:0:0:0:
402,192,229935,1,0,0:0:0:0:
329,192,229935,1,0,0:0:0:0:
256,192,229935,1,0,0:0:0:0:
109,192,230019,1,0,0:0:0:0:
36,192,230019,1,0,0:0:0:0:
475,192,230102,1,0,0:0:0:0:
402,192,230102,1,0,0:0:0:0:
329,192,230102,1,0,0:0:0:0:
256,192,230102,1,0,0:0:0:0:
182,192,230102,1,0,0:0:0:0:
36,192,230185,1,0,0:0:0:0:
109,192,230185,1,0,0:0:0:0:
182,192,230269,1,0,0:0:0:0:
256,192,230269,1,0,0:0:0:0:
329,192,230269,1,0,0:0:0:0:
402,192,230269,1,0,0:0:0:0:
475,192,230269,1,0,0:0:0:0:
109,192,230352,1,0,0:0:0:0:
36,192,230352,1,0,0:0:0:0:
475,192,230435,1,0,0:0:0:0:
402,192,230435,1,0,0:0:0:0:
329,192,230435,1,0,0:0:0:0:
256,192,230435,1,0,0:0:0:0:
182,192,230435,1,0,0:0:0:0:
329,192,230602,1,0,0:0:0:0:
256,192,230769,1,0,0:0:0:0:
182,192,230935,1,0,0:0:0:0:
256,192,231102,1,0,0:0:0:0:
256,192,231435,1,0,0:0:0:0:
182,192,231602,1,0,0:0:0:0:
402,192,231769,128,0,231935:0:0:0:0:
256,192,231935,1,0,0:0:0:0:
329,192,232102,128,0,232269:0:0:0:0:
182,192,232269,1,0,0:0:0:0:
402,192,232435,128,0,232602:0:0:0:0:
329,192,232602,1,0,0:0:0:0:
475,192,232769,128,0,232935:0:0:0:0:
402,192,232935,128,0,233102:0:0:0:0:
256,192,237269,1,0,0:0:0:0:
36,192,237269,1,0,0:0:0:0:
109,192,237352,1,0,0:0:0:0:
475,192,237352,1,0,0:0:0:0:
402,192,237435,1,0,0:0:0:0:
182,192,237435,1,0,0:0:0:0:
329,192,237519,1,0,0:0:0:0:
109,192,237519,1,0,0:0:0:0:
402,192,237602,1,0,0:0:0:0:
256,192,237602,1,0,0:0:0:0:
329,192,237685,1,0,0:0:0:0:
182,192,237685,1,0,0:0:0:0:
109,192,237769,1,0,0:0:0:0:
475,192,237769,1,0,0:0:0:0:
402,192,237852,1,0,0:0:0:0:
256,192,237852,1,0,0:0:0:0:
329,192,237935,1,0,0:0:0:0:
182,192,237935,1,0,0:0:0:0:
109,192,238019,1,0,0:0:0:0:
36,192,238019,1,0,0:0:0:0:
475,192,238102,1,0,0:0:0:0:
402,192,238102,1,0,0:0:0:0:
329,192,238102,1,0,0:0:0:0:
256,192,238102,1,0,0:0:0:0:
182,192,238102,1,0,0:0:0:0:
109,192,238185,1,0,0:0:0:0:
36,192,238185,1,0,0:0:0:0:
475,192,238268,1,0,0:0:0:0:
329,192,238351,1,0,0:0:0:0:
256,192,238351,1,0,0:0:0:0:
182,192,238351,1,0,0:0:0:0:
109,192,238351,1,0,0:0:0:0:
36,192,238351,1,0,0:0:0:0:
402,192,238435,1,0,0:0:0:0:
256,192,238518,1,0,0:0:0:0:
475,192,238601,1,0,0:0:0:0:
182,192,238601,1,0,0:0:0:0:
109,192,238601,1,0,0:0:0:0:
36,192,238601,1,0,0:0:0:0:
329,192,238601,1,0,0:0:0:0:
402,192,238768,1,0,0:0:0:0:
475,192,238768,1,0,0:0:0:0:
182,192,238851,1,0,0:0:0:0:
329,192,238851,1,0,0:0:0:0:
256,192,238935,1,0,0:0:0:0:
36,192,238935,1,0,0:0:0:0:
109,192,238935,1,0,0:0:0:0:
402,192,238935,1,0,0:0:0:0:
475,192,238935,1,0,0:0:0:0:
109,192,239018,1,0,0:0:0:0:
36,192,239018,1,0,0:0:0:0:
402,192,239101,1,0,0:0:0:0:
329,192,239101,1,0,0:0:0:0:
182,192,239101,1,0,0:0:0:0:
475,192,239101,1,0,0:0:0:0:
256,192,239101,1,0,0:0:0:0:
109,192,239185,1,0,0:0:0:0:
329,192,239268,1,0,0:0:0:0:
109,192,239351,1,0,0:0:0:0:
36,192,239351,1,0,0:0:0:0:
402,192,239435,1,0,0:0:0:0:
256,192,239435,1,0,0:0:0:0:
182,192,239435,1,0,0:0:0:0:
475,192,239435,1,0,0:0:0:0:
402,192,239601,1,0,0:0:0:0:
329,192,239601,1,0,0:0:0:0:
182,192,239601,1,0,0:0:0:0:
109,192,239601,1,0,0:0:0:0:
329,192,239685,1,0,0:0:0:0:
182,192,239685,1,0,0:0:0:0:
402,192,239768,1,0,0:0:0:0:
36,192,239768,1,0,0:0:0:0:
109,192,239768,1,0,0:0:0:0:
256,192,239768,1,0,0:0:0:0:
475,192,239768,1,0,0:0:0:0:
182,192,239935,1,0,0:0:0:0:
402,192,240018,1,0,0:0:0:0:
475,192,240018,1,0,0:0:0:0:
109,192,240018,1,0,0:0:0:0:
256,192,240101,1,0,0:0:0:0:
182,192,240101,1,0,0:0:0:0:
36,192,240101,1,0,0:0:0:0:
329,192,240101,1,0,0:0:0:0:
402,192,240185,1,0,0:0:0:0:
182,192,240268,1,0,0:0:0:0:
475,192,240351,1,0,0:0:0:0:
329,192,240351,1,0,0:0:0:0:
109,192,240351,1,0,0:0:0:0:
36,192,240351,1,0,0:0:0:0:
402,192,240351,1,0,0:0:0:0:
256,192,240435,1,0,0:0:0:0:
182,192,240435,1,0,0:0:0:0:
475,192,240435,1,0,0:0:0:0:
402,192,240435,1,0,0:0:0:0:
109,192,240518,1,0,0:0:0:0:
256,192,240601,1,0,0:0:0:0:
329,192,240601,1,0,0:0:0:0:
475,192,240601,1,0,0:0:0:0:
402,192,240601,1,0,0:0:0:0:
182,192,240601,1,0,0:0:0:0:
36,192,240685,1,0,0:0:0:0:
109,192,240685,1,0,0:0:0:0:
475,192,240851,1,0,0:0:0:0:
402,192,240851,1,0,0:0:0:0:
329,192,240851,1,0,0:0:0:0:
256,192,240851,1,0,0:0:0:0:
182,192,240851,1,0,0:0:0:0:
36,192,240935,1,0,0:0:0:0:
109,192,240935,1,0,0:0:0:0:
475,192,241101,1,0,0:0:0:0:
402,192,241101,1,0,0:0:0:0:
256,192,241101,1,0,0:0:0:0:
329,192,241101,1,0,0:0:0:0:
182,192,241101,1,0,0:0:0:0:
109,192,241185,1,0,0:0:0:0:
475,192,241268,1,0,0:0:0:0:
402,192,241268,1,0,0:0:0:0:
182,192,241268,1,0,0:0:0:0:
256,192,241351,1,0,0:0:0:0:
36,192,241351,1,0,0:0:0:0:
475,192,241435,1,0,0:0:0:0:
402,192,241435,1,0,0:0:0:0:
182,192,241435,1,0,0:0:0:0:
109,192,241435,1,0,0:0:0:0:
329,192,241435,1,0,0:0:0:0:
256,192,241518,1,0,0:0:0:0:
475,192,241601,1,0,0:0:0:0:
402,192,241601,1,0,0:0:0:0:
109,192,241601,1,0,0:0:0:0:
36,192,241601,1,0,0:0:0:0:
182,192,241685,1,0,0:0:0:0:
475,192,241768,1,0,0:0:0:0:
402,192,241768,1,0,0:0:0:0:
329,192,241768,1,0,0:0:0:0:
256,192,241768,1,0,0:0:0:0:
36,192,241768,1,0,0:0:0:0:
182,192,241935,1,0,0:0:0:0:
109,192,241935,1,0,0:0:0:0:
402,192,241935,1,0,0:0:0:0:
329,192,242018,1,0,0:0:0:0:
182,192,242101,1,0,0:0:0:0:
109,192,242101,1,0,0:0:0:0:
36,192,242101,1,0,0:0:0:0:
402,192,242101,1,0,0:0:0:0:
256,192,242101,1,0,0:0:0:0:
475,192,242101,1,0,0:0:0:0:
329,192,242213,1,0,0:0:0:0:
36,192,242213,1,0,0:0:0:0:
109,192,242324,1,0,0:0:0:0:
256,192,242324,1,0,0:0:0:0:
475,192,242324,1,0,0:0:0:0:
329,192,242435,1,0,0:0:0:0:
182,192,242435,1,0,0:0:0:0:
329,192,242601,1,0,0:0:0:0:
109,192,242601,1,0,0:0:0:0:
256,192,242601,1,0,0:0:0:0:
475,192,242768,1,0,0:0:0:0:
182,192,242768,1,0,0:0:0:0:
36,192,242768,1,0,0:0:0:0:
256,192,242879,1,0,0:0:0:0:
36,192,242879,1,0,0:0:0:0:
402,192,242935,1,0,0:0:0:0:
329,192,242935,1,0,0:0:0:0:
109,192,242990,1,0,0:0:0:0:
182,192,243018,1,0,0:0:0:0:
475,192,243101,1,0,0:0:0:0:
36,192,243101,1,0,0:0:0:0:
402,192,243101,1,0,0:0:0:0:
256,192,243185,1,0,0:0:0:0:
329,192,243213,1,0,0:0:0:0:
182,192,243213,1,0,0:0:0:0:
402,192,243268,1,0,0:0:0:0:
109,192,243324,1,0,0:0:0:0:
36,192,243324,1,0,0:0:0:0:
475,192,243351,1,0,0:0:0:0:
256,192,243351,1,0,0:0:0:0:
402,192,243435,1,0,0:0:0:0:
329,192,243435,1,0,0:0:0:0:
182,192,243435,1,0,0:0:0:0:
329,192,243601,1,0,0:0:0:0:
256,192,243601,1,0,0:0:0:0:
109,192,243601,1,0,0:0:0:0:
36,192,243601,1,0,0:0:0:0:
402,192,243685,1,0,0:0:0:0:
182,192,243685,1,0,0:0:0:0:
475,192,243685,1,0,0:0:0:0:
329,192,243768,1,0,0:0:0:0:
256,192,243768,1,0,0:0:0:0:
36,192,243768,1,0,0:0:0:0:
182,192,243851,1,0,0:0:0:0:
109,192,243851,1,0,0:0:0:0:
402,192,243935,1,0,0:0:0:0:
329,192,243935,1,0,0:0:0:0:
256,192,243935,1,0,0:0:0:0:
475,192,244101,1,0,0:0:0:0:
182,192,244101,1,0,0:0:0:0:
109,192,244101,1,0,0:0:0:0:
36,192,244101,1,0,0:0:0:0:
256,192,244268,1,0,0:0:0:0:
36,192,244268,1,0,0:0:0:0:
109,192,244351,1,0,0:0:0:0:
329,192,244351,1,0,0:0:0:0:
182,192,244435,1,0,0:0:0:0:
475,192,244435,1,0,0:0:0:0:
402,192,244518,1,0,0:0:0:0:
109,192,244518,1,0,0:0:0:0:
329,192,244601,1,0,0:0:0:0:
182,192,244601,1,0,0:0:0:0:
256,192,244685,1,0,0:0:0:0:
402,192,244685,1,0,0:0:0:0:
475,192,244768,1,0,0:0:0:0:
109,192,244768,1,0,0:0:0:0:
36,192,244768,1,0,0:0:0:0:
402,192,244851,1,0,0:0:0:0:
256,192,244851,1,0,0:0:0:0:
329,192,244935,1,0,0:0:0:0:
182,192,244935,1,0,0:0:0:0:
109,192,245018,1,0,0:0:0:0:
256,192,245018,1,0,0:0:0:0:
36,192,245101,1,0,0:0:0:0:
475,192,245101,1,0,0:0:0:0:
402,192,245101,1,0,0:0:0:0:
329,192,245185,1,0,0:0:0:0:
182,192,245185,1,0,0:0:0:0:
256,192,245268,1,0,0:0:0:0:
109,192,245268,1,0,0:0:0:0:
475,192,245351,1,0,0:0:0:0:
402,192,245351,1,0,0:0:0:0:
36,192,245351,1,0,0:0:0:0:
329,192,245435,1,0,0:0:0:0:
182,192,245435,1,0,0:0:0:0:
256,192,245518,1,0,0:0:0:0:
109,192,245518,1,0,0:0:0:0:
402,192,245601,1,0,0:0:0:0:
329,192,245601,1,0,0:0:0:0:
475,192,245601,1,0,0:0:0:0:
182,192,245685,1,0,0:0:0:0:
109,192,245685,1,0,0:0:0:0:
475,192,245768,1,0,0:0:0:0:
256,192,245768,1,0,0:0:0:0:
402,192,245768,1,0,0:0:0:0:
109,192,245851,1,0,0:0:0:0:
329,192,245851,1,0,0:0:0:0:
182,192,245935,1,0,0:0:0:0:
402,192,245935,1,0,0:0:0:0:
36,192,246018,1,0,0:0:0:0:
256,192,246018,1,0,0:0:0:0:
109,192,246101,1,0,0:0:0:0:
329,192,246101,1,0,0:0:0:0:
402,192,246101,1,0,0:0:0:0:
475,192,246101,1,0,0:0:0:0:
182,192,246101,1,0,0:0:0:0:
182,192,246184,1,0,0:0:0:0:
109,192,246184,1,0,0:0:0:0:
402,192,246184,1,0,0:0:0:0:
475,192,246184,1,0,0:0:0:0:
475,192,246350,1,0,0:0:0:0:
402,192,246350,1,0,0:0:0:0:
182,192,246350,1,0,0:0:0:0:
109,192,246350,1,0,0:0:0:0:
475,192,246517,1,0,0:0:0:0:
402,192,246517,1,0,0:0:0:0:
182,192,246517,1,0,0:0:0:0:
109,192,246517,1,0,0:0:0:0:
475,192,246684,1,0,0:0:0:0:
402,192,246684,1,0,0:0:0:0:
182,192,246684,1,0,0:0:0:0:
109,192,246684,1,0,0:0:0:0:
182,192,246767,1,0,0:0:0:0:
109,192,246767,1,0,0:0:0:0:
402,192,246767,1,0,0:0:0:0:
475,192,246767,1,0,0:0:0:0:
475,192,246934,1,0,0:0:0:0:
402,192,246934,1,0,0:0:0:0:
182,192,246934,1,0,0:0:0:0:
109,192,246934,1,0,0:0:0:0:
182,192,247100,1,0,0:0:0:0:
109,192,247100,1,0,0:0:0:0:
36,192,247100,1,0,0:0:0:0:
402,192,247100,1,0,0:0:0:0:
475,192,247100,1,0,0:0:0:0:
182,192,247184,1,0,0:0:0:0:
36,192,247184,1,0,0:0:0:0:
109,192,247184,1,0,0:0:0:0:
402,192,247184,1,0,0:0:0:0:
475,192,247184,1,0,0:0:0:0:
109,192,247350,1,0,0:0:0:0:
36,192,247350,1,0,0:0:0:0:
182,192,247350,1,0,0:0:0:0:
475,192,247350,1,0,0:0:0:0:
402,192,247350,1,0,0:0:0:0:
182,192,247517,1,0,0:0:0:0:
109,192,247517,1,0,0:0:0:0:
36,192,247517,1,0,0:0:0:0:
475,192,247517,1,0,0:0:0:0:
402,192,247517,1,0,0:0:0:0:
475,192,247684,1,0,0:0:0:0:
402,192,247684,1,0,0:0:0:0:
182,192,247684,1,0,0:0:0:0:
109,192,247684,1,0,0:0:0:0:
36,192,247684,1,0,0:0:0:0:
182,192,247767,1,0,0:0:0:0:
109,192,247767,1,0,0:0:0:0:
36,192,247767,1,0,0:0:0:0:
475,192,247767,1,0,0:0:0:0:
402,192,247767,1,0,0:0:0:0:
182,192,247934,1,0,0:0:0:0:
109,192,247934,1,0,0:0:0:0:
36,192,247934,1,0,0:0:0:0:
475,192,247934,1,0,0:0:0:0:
402,192,247934,1,0,0:0:0:0:
182,192,248100,1,0,0:0:0:0:
36,192,248100,1,0,0:0:0:0:
475,192,248100,1,0,0:0:0:0:
329,192,248100,1,0,0:0:0:0:
402,192,248100,1,0,0:0:0:0:
109,192,248100,1,0,0:0:0:0:
182,192,248184,1,0,0:0:0:0:
109,192,248184,1,0,0:0:0:0:
36,192,248184,1,0,0:0:0:0:
475,192,248184,1,0,0:0:0:0:
402,192,248184,1,0,0:0:0:0:
329,192,248184,1,0,0:0:0:0:
182,192,248350,1,0,0:0:0:0:
109,192,248350,1,0,0:0:0:0:
36,192,248350,1,0,0:0:0:0:
475,192,248350,1,0,0:0:0:0:
402,192,248350,1,0,0:0:0:0:
329,192,248350,1,0,0:0:0:0:
182,192,248517,1,0,0:0:0:0:
109,192,248517,1,0,0:0:0:0:
36,192,248517,1,0,0:0:0:0:
329,192,248517,1,0,0:0:0:0:
402,192,248517,1,0,0:0:0:0:
475,192,248517,1,0,0:0:0:0:
475,192,248684,1,0,0:0:0:0:
329,192,248684,1,0,0:0:0:0:
402,192,248684,1,0,0:0:0:0:
36,192,248684,1,0,0:0:0:0:
109,192,248684,1,0,0:0:0:0:
182,192,248684,1,0,0:0:0:0:
475,192,248767,1,0,0:0:0:0:
402,192,248767,1,0,0:0:0:0:
329,192,248767,1,0,0:0:0:0:
182,192,248767,1,0,0:0:0:0:
109,192,248767,1,0,0:0:0:0:
36,192,248767,1,0,0:0:0:0:
475,192,248934,1,0,0:0:0:0:
402,192,248934,1,0,0:0:0:0:
329,192,248934,1,0,0:0:0:0:
182,192,248934,1,0,0:0:0:0:
109,192,248934,1,0,0:0:0:0:
36,192,248934,1,0,0:0:0:0:
256,192,249100,1,0,0:0:0:0:
109,192,249100,1,0,0:0:0:0:
36,192,249100,1,0,0:0:0:0:
475,192,249100,1,0,0:0:0:0:
402,192,249184,1,0,0:0:0:0:
329,192,249267,1,0,0:0:0:0:
256,192,249350,1,0,0:0:0:0:
329,192,249434,1,0,0:0:0:0:
402,192,249434,1,0,0:0:0:0:
109,192,249434,1,0,0:0:0:0:
475,192,249517,1,0,0:0:0:0:
256,192,249600,1,0,0:0:0:0:
329,192,249684,1,0,0:0:0:0:
182,192,249767,1,0,0:0:0:0:
36,192,249767,1,0,0:0:0:0:
402,192,249767,1,0,0:0:0:0:
475,192,249850,1,0,0:0:0:0:
329,192,249850,1,0,0:0:0:0:
256,192,250017,1,0,0:0:0:0:
182,192,250017,1,0,0:0:0:0:
329,192,250184,1,0,0:0:0:0:
182,192,250184,1,0,0:0:0:0:
256,192,250267,1,0,0:0:0:0:
109,192,250267,1,0,0:0:0:0:
36,192,250350,1,0,0:0:0:0:
402,192,250350,1,0,0:0:0:0:
329,192,250434,1,0,0:0:0:0:
182,192,250434,1,0,0:0:0:0:
256,192,250517,1,0,0:0:0:0:
109,192,250517,1,0,0:0:0:0:
329,192,250600,1,0,0:0:0:0:
182,192,250600,1,0,0:0:0:0:
402,192,250684,1,0,0:0:0:0:
36,192,250684,1,0,0:0:0:0:
109,192,250767,1,0,0:0:0:0:
256,192,250767,1,0,0:0:0:0:
475,192,250934,1,0,0:0:0:0:
256,192,250934,1,0,0:0:0:0:
36,192,250934,1,0,0:0:0:0:
109,192,250989,1,0,0:0:0:0:
329,192,251045,1,0,0:0:0:0:
402,192,251100,1,0,0:0:0:0:
475,192,251100,1,0,0:0:0:0:
36,192,251267,1,0,0:0:0:0:
475,192,251267,1,0,0:0:0:0:
256,192,251267,128,0,253434:0:0:0:0:
182,192,251267,128,0,251767:0:0:0:0:
329,192,251267,128,0,251767:0:0:0:0:
109,192,251434,128,0,251600:0:0:0:0:
402,192,251434,128,0,251600:0:0:0:0:
36,192,251600,128,0,252100:0:0:0:0:
475,192,251600,128,0,252100:0:0:0:0:
109,192,251767,128,0,251934:0:0:0:0:
402,192,251767,128,0,251934:0:0:0:0:
182,192,251934,128,0,252434:0:0:0:0:
329,192,251934,128,0,252434:0:0:0:0:
109,192,252100,128,0,252267:0:0:0:0:
402,192,252100,128,0,252267:0:0:0:0:
36,192,252267,128,0,252767:0:0:0:0:
475,192,252267,128,0,252767:0:0:0:0:
109,192,252434,128,0,252600:0:0:0:0:
402,192,252434,128,0,252600:0:0:0:0:
182,192,252600,128,0,253100:0:0:0:0:
329,192,252600,128,0,253100:0:0:0:0:
402,192,252767,128,0,252934:0:0:0:0:
109,192,252767,128,0,252934:0:0:0:0:
475,192,252934,128,0,253267:0:0:0:0:
36,192,252934,128,0,253267:0:0:0:0:
402,192,253100,128,0,253267:0:0:0:0:
109,192,253100,128,0,253267:0:0:0:0:
329,192,253267,128,0,253434:0:0:0:0:
182,192,253267,128,0,253434:0:0:0:0:
36,192,253434,1,0,0:0:0:0:
109,192,253434,1,0,0:0:0:0:
475,192,253434,1,0,0:0:0:0:
402,192,253434,1,0,0:0:0:0:
109,192,253517,1,0,0:0:0:0:
36,192,253517,1,0,0:0:0:0:
475,192,253517,1,0,0:0:0:0:
402,192,253517,1,0,0:0:0:0:
109,192,253684,1,0,0:0:0:0:
36,192,253684,1,0,0:0:0:0:
475,192,253684,1,0,0:0:0:0:
402,192,253684,1,0,0:0:0:0:
256,192,253934,128,0,256767:0:0:0:0:
182,192,253934,128,0,253975:0:0:0:0:
109,192,256767,1,0,0:0:0:0:
36,192,256767,1,0,0:0:0:0:
329,192,256767,1,0,0:0:0:0:
475,192,256794,1,0,0:0:0:0:
402,192,256794,1,0,0:0:0:0:
256,192,257266,1,0,0:0:0:0:
182,192,257266,1,0,0:0:0:0:
329,192,257294,1,0,0:0:0:0:
402,192,257294,1,0,0:0:0:0:
256,192,257766,1,0,0:0:0:0:
109,192,257766,1,0,0:0:0:0:
182,192,257794,1,0,0:0:0:0:
329,192,257794,1,0,0:0:0:0:
329,192,258266,1,0,0:0:0:0:
182,192,258266,1,0,0:0:0:0:
402,192,258294,1,0,0:0:0:0:
256,192,258294,1,0,0:0:0:0:
36,192,258766,1,0,0:0:0:0:
256,192,258766,1,0,0:0:0:0:
109,192,258794,1,0,0:0:0:0:
329,192,258794,1,0,0:0:0:0:
109,192,259100,1,0,0:0:0:0:
402,192,259266,1,0,0:0:0:0:
36,192,259350,1,0,0:0:0:0:
182,192,259391,1,0,0:0:0:0:
256,192,259433,1,0,0:0:0:0:
475,192,259433,1,0,0:0:0:0:
329,192,259933,1,0,0:0:0:0:
109,192,259933,1,0,0:0:0:0:
182,192,259961,1,0,0:0:0:0:
402,192,259961,1,0,0:0:0:0:
256,192,260433,1,0,0:0:0:0:
36,192,260433,1,0,0:0:0:0:
475,192,260433,1,0,0:0:0:0:
475,192,260516,1,0,0:0:0:0:
182,192,260600,128,0,261433:0:0:0:0:
402,192,261433,1,0,0:0:0:0:
36,192,261433,1,0,0:0:0:0:
329,192,261516,1,0,0:0:0:0:
109,192,261600,1,0,0:0:0:0:
182,192,261683,1,0,0:0:0:0:
475,192,261766,1,0,0:0:0:0:
329,192,261766,1,0,0:0:0:0:
36,192,261766,1,0,0:0:0:0:
109,192,261822,1,0,0:0:0:0:
182,192,261878,1,0,0:0:0:0:
402,192,261933,1,0,0:0:0:0:
329,192,261975,128,0,262100:0:0:0:0:
109,192,262100,1,0,0:0:0:0:
402,192,262100,1,0,0:0:0:0:
475,192,262100,1,0,0:0:0:0:
109,192,262266,1,0,0:0:0:0:
182,192,262350,1,0,0:0:0:0:
109,192,262433,1,0,0:0:0:0:
256,192,262433,1,0,0:0:0:0:
329,192,262433,1,0,0:0:0:0:
182,192,262600,1,0,0:0:0:0:
402,192,262600,1,0,0:0:0:0:
182,192,262683,1,0,0:0:0:0:
109,192,262766,1,0,0:0:0:0:
36,192,262766,1,0,0:0:0:0:
109,192,262933,1,0,0:0:0:0:
182,192,263016,1,0,0:0:0:0:
256,192,263100,1,0,0:0:0:0:
109,192,263100,1,0,0:0:0:0:
475,192,263100,1,0,0:0:0:0:
256,192,263266,1,0,0:0:0:0:
182,192,263266,1,0,0:0:0:0:
36,192,263266,1,0,0:0:0:0:
402,192,263266,1,0,0:0:0:0:
36,192,263433,1,0,0:0:0:0:
109,192,263600,1,0,0:0:0:0:
182,192,263683,1,0,0:0:0:0:
256,192,263766,1,0,0:0:0:0:
109,192,263766,1,0,0:0:0:0:
329,192,263766,1,0,0:0:0:0:
256,192,263933,1,0,0:0:0:0:
182,192,263933,1,0,0:0:0:0:
36,192,263933,1,0,0:0:0:0:
402,192,263933,1,0,0:0:0:0:
36,192,264100,1,0,0:0:0:0:
109,192,264266,1,0,0:0:0:0:
402,192,264266,1,0,0:0:0:0:
182,192,264350,1,0,0:0:0:0:
256,192,264433,1,0,0:0:0:0:
109,192,264433,1,0,0:0:0:0:
475,192,264433,1,0,0:0:0:0:
256,192,264600,1,0,0:0:0:0:
182,192,264600,1,0,0:0:0:0:
36,192,264600,1,0,0:0:0:0:
329,192,264600,1,0,0:0:0:0:
182,192,264766,1,0,0:0:0:0:
109,192,264766,1,0,0:0:0:0:
182,192,264933,1,0,0:0:0:0:
329,192,264933,1,0,0:0:0:0:
109,192,265016,1,0,0:0:0:0:
36,192,265016,1,0,0:0:0:0:
256,192,265100,1,0,0:0:0:0:
182,192,265100,1,0,0:0:0:0:
402,192,265100,1,0,0:0:0:0:
109,192,265266,1,0,0:0:0:0:
36,192,265266,1,0,0:0:0:0:
475,192,265266,1,0,0:0:0:0:
256,192,265433,1,0,0:0:0:0:
182,192,265433,1,0,0:0:0:0:
109,192,265516,1,0,0:0:0:0:
36,192,265516,1,0,0:0:0:0:
182,192,265600,1,0,0:0:0:0:
402,192,265600,1,0,0:0:0:0:
109,192,265683,1,0,0:0:0:0:
256,192,265766,1,0,0:0:0:0:
182,192,265766,1,0,0:0:0:0:
256,192,265933,1,0,0:0:0:0:
109,192,265933,1,0,0:0:0:0:
36,192,265933,1,0,0:0:0:0:
475,192,265933,1,0,0:0:0:0:
182,192,266100,1,0,0:0:0:0:
256,192,266100,1,0,0:0:0:0:
329,192,266100,1,0,0:0:0:0:
256,192,266266,1,0,0:0:0:0:
182,192,266266,1,0,0:0:0:0:
402,192,266266,1,0,0:0:0:0:
329,192,266266,1,0,0:0:0:0:
256,192,266433,1,0,0:0:0:0:
182,192,266433,1,0,0:0:0:0:
256,192,266600,1,0,0:0:0:0:
182,192,266600,1,0,0:0:0:0:
475,192,266600,1,0,0:0:0:0:
329,192,266600,1,0,0:0:0:0:
256,192,266766,1,0,0:0:0:0:
182,192,266766,1,0,0:0:0:0:
109,192,266850,1,0,0:0:0:0:
36,192,266850,1,0,0:0:0:0:
256,192,266933,1,0,0:0:0:0:
182,192,266933,1,0,0:0:0:0:
475,192,266933,1,0,0:0:0:0:
402,192,266933,1,0,0:0:0:0:
109,192,267016,1,0,0:0:0:0:
36,192,267016,1,0,0:0:0:0:
256,192,267100,1,0,0:0:0:0:
182,192,267100,1,0,0:0:0:0:
109,192,267183,1,0,0:0:0:0:
36,192,267183,1,0,0:0:0:0:
256,192,267266,1,0,0:0:0:0:
329,192,267266,1,0,0:0:0:0:
109,192,267266,1,0,0:0:0:0:
36,192,267266,1,0,0:0:0:0:
402,192,267266,1,0,0:0:0:0:
475,192,267266,1,0,0:0:0:0:
182,192,267433,1,0,0:0:0:0:
109,192,267433,1,0,0:0:0:0:
329,192,267516,1,0,0:0:0:0:
256,192,267516,1,0,0:0:0:0:
475,192,267600,1,0,0:0:0:0:
402,192,267600,1,0,0:0:0:0:
182,192,267600,1,0,0:0:0:0:
36,192,267600,1,0,0:0:0:0:
329,192,267683,1,0,0:0:0:0:
256,192,267683,1,0,0:0:0:0:
329,192,267933,1,0,0:0:0:0:
182,192,267933,1,0,0:0:0:0:
36,192,267933,128,0,268433:0:0:0:0:
475,192,267933,128,0,268433:0:0:0:0:
256,192,268100,1,0,0:0:0:0:
329,192,268183,1,0,0:0:0:0:
182,192,268266,1,0,0:0:0:0:
109,192,268266,1,0,0:0:0:0:
256,192,268350,1,0,0:0:0:0:
329,192,268433,1,0,0:0:0:0:
402,192,268433,1,0,0:0:0:0:
109,192,268433,1,0,0:0:0:0:
182,192,268516,1,0,0:0:0:0:
256,192,268600,1,0,0:0:0:0:
402,192,268600,1,0,0:0:0:0:
329,192,268683,1,0,0:0:0:0:
182,192,268683,1,0,0:0:0:0:
402,192,268766,1,0,0:0:0:0:
109,192,268766,1,0,0:0:0:0:
329,192,268850,1,0,0:0:0:0:
402,192,268933,1,0,0:0:0:0:
182,192,268933,1,0,0:0:0:0:
329,192,269016,1,0,0:0:0:0:
109,192,269016,1,0,0:0:0:0:
402,192,269100,1,0,0:0:0:0:
182,192,269100,1,0,0:0:0:0:
36,192,269100,1,0,0:0:0:0:
329,192,269183,1,0,0:0:0:0:
402,192,269266,1,0,0:0:0:0:
109,192,269266,1,0,0:0:0:0:
36,192,269266,1,0,0:0:0:0:
329,192,269350,1,0,0:0:0:0:
182,192,269350,1,0,0:0:0:0:
402,192,269433,1,0,0:0:0:0:
109,192,269433,1,0,0:0:0:0:
36,192,269433,1,0,0:0:0:0:
182,192,269516,1,0,0:0:0:0:
329,192,269600,1,0,0:0:0:0:
475,192,269600,1,0,0:0:0:0:
109,192,269683,1,0,0:0:0:0:
36,192,269683,1,0,0:0:0:0:
256,192,269683,1,0,0:0:0:0:
329,192,269766,1,0,0:0:0:0:
182,192,269766,1,0,0:0:0:0:
256,192,269933,1,0,0:0:0:0:
182,192,269933,1,0,0:0:0:0:
36,192,269933,1,0,0:0:0:0:
475,192,269933,128,0,270266:0:0:0:0:
329,192,269933,128,0,270266:0:0:0:0:
109,192,270266,1,0,0:0:0:0:
36,192,270266,1,0,0:0:0:0:
475,192,270433,1,0,0:0:0:0:
329,192,270433,1,0,0:0:0:0:
182,192,270433,1,0,0:0:0:0:
109,192,270433,1,0,0:0:0:0:
402,192,270544,1,0,0:0:0:0:
256,192,270544,1,0,0:0:0:0:
182,192,270600,1,0,0:0:0:0:
329,192,270655,1,0,0:0:0:0:
109,192,270683,1,0,0:0:0:0:
36,192,270683,1,0,0:0:0:0:
475,192,270766,1,0,0:0:0:0:
402,192,270766,1,0,0:0:0:0:
256,192,270766,1,0,0:0:0:0:
182,192,270878,1,0,0:0:0:0:
475,192,270933,1,0,0:0:0:0:
402,192,270933,1,0,0:0:0:0:
329,192,270933,1,0,0:0:0:0:
109,192,271016,1,0,0:0:0:0:
475,192,271100,1,0,0:0:0:0:
256,192,271100,1,0,0:0:0:0:
36,192,271100,1,0,0:0:0:0:
329,192,271100,1,0,0:0:0:0:
109,192,271266,1,0,0:0:0:0:
182,192,271433,1,0,0:0:0:0:
329,192,271433,128,0,271600:0:0:0:0:
475,192,271433,128,0,271600:0:0:0:0:
182,192,271600,1,0,0:0:0:0:
109,192,271600,1,0,0:0:0:0:
36,192,271600,1,0,0:0:0:0:
182,192,271766,1,0,0:0:0:0:
109,192,271766,1,0,0:0:0:0:
36,192,271766,1,0,0:0:0:0:
402,192,271850,1,0,0:0:0:0:
475,192,271850,1,0,0:0:0:0:
329,192,271933,1,0,0:0:0:0:
256,192,271933,1,0,0:0:0:0:
182,192,271933,1,0,0:0:0:0:
36,192,271933,1,0,0:0:0:0:
109,192,272266,128,0,272766:0:0:0:0:
256,192,272266,128,0,272433:0:0:0:0:
475,192,272266,128,0,272433:0:0:0:0:
36,192,272266,128,0,272766:0:0:0:0:
402,192,272433,1,0,0:0:0:0:
329,192,272433,1,0,0:0:0:0:
402,192,272600,1,0,0:0:0:0:
329,192,272683,1,0,0:0:0:0:
475,192,272766,1,0,0:0:0:0:
402,192,272766,1,0,0:0:0:0:
256,192,272766,1,0,0:0:0:0:
182,192,272766,1,0,0:0:0:0:
475,192,273100,1,0,0:0:0:0:
329,192,273100,1,0,0:0:0:0:
256,192,273100,1,0,0:0:0:0:
109,192,273100,1,0,0:0:0:0:
256,192,273211,1,0,0:0:0:0:
109,192,273211,1,0,0:0:0:0:
475,192,273211,1,0,0:0:0:0:
329,192,273211,1,0,0:0:0:0:
256,192,273322,1,0,0:0:0:0:
109,192,273322,1,0,0:0:0:0:
475,192,273322,1,0,0:0:0:0:
329,192,273322,1,0,0:0:0:0:
475,192,273433,128,0,273544:0:0:0:0:
329,192,273433,128,0,273544:0:0:0:0:
256,192,273433,128,0,273544:0:0:0:0:
109,192,273433,128,0,273544:0:0:0:0:
109,192,273655,128,0,273766:0:0:0:0:
256,192,273655,128,0,273766:0:0:0:0:
329,192,273655,128,0,273766:0:0:0:0:
475,192,273655,128,0,273766:0:0:0:0:
256,192,273878,128,0,273989:0:0:0:0:
329,192,273878,128,0,273989:0:0:0:0:
109,192,273878,128,0,273989:0:0:0:0:
475,192,273878,128,0,273989:0:0:0:0:
475,192,274100,1,0,0:0:0:0:
402,192,274100,1,0,0:0:0:0:
256,192,274100,1,0,0:0:0:0:
182,192,274100,1,0,0:0:0:0:
36,192,274100,1,0,0:0:0:0:
36,192,274433,1,0,0:0:0:0:
182,192,274433,1,0,0:0:0:0:
329,192,274433,1,0,0:0:0:0:
475,192,274433,1,0,0:0:0:0:
36,192,274544,1,0,0:0:0:0:
182,192,274544,1,0,0:0:0:0:
329,192,274544,1,0,0:0:0:0:
475,192,274544,1,0,0:0:0:0:
36,192,274655,1,0,0:0:0:0:
182,192,274655,1,0,0:0:0:0:
329,192,274655,1,0,0:0:0:0:
475,192,274655,1,0,0:0:0:0:
36,192,274766,128,0,274878:0:0:0:0:
182,192,274766,128,0,274878:0:0:0:0:
329,192,274766,128,0,274878:0:0:0:0:
475,192,274766,128,0,274878:0:0:0:0:
36,192,274989,128,0,275100:0:0:0:0:
182,192,274989,128,0,275100:0:0:0:0:
329,192,274989,128,0,275100:0:0:0:0:
402,192,274989,128,0,275100:0:0:0:0:
182,192,275211,128,0,275322:0:0:0:0:
36,192,275211,128,0,275322:0:0:0:0:
329,192,275211,128,0,275322:0:0:0:0:
256,192,275211,128,0,275322:0:0:0:0:
475,192,275433,1,0,0:0:0:0:
402,192,275433,1,0,0:0:0:0:
329,192,275433,1,0,0:0:0:0:
109,192,275433,1,0,0:0:0:0:
36,192,275433,1,0,0:0:0:0:
329,192,275600,1,0,0:0:0:0:
402,192,275600,1,0,0:0:0:0:
475,192,275766,1,0,0:0:0:0:
256,192,275766,1,0,0:0:0:0:
182,192,275766,1,0,0:0:0:0:
36,192,275766,1,0,0:0:0:0:
329,192,275766,1,0,0:0:0:0:
109,192,275933,1,0,0:0:0:0:
182,192,275933,1,0,0:0:0:0:
475,192,276100,1,0,0:0:0:0:
402,192,276100,1,0,0:0:0:0:
182,192,276100,1,0,0:0:0:0:
109,192,276100,1,0,0:0:0:0:
36,192,276100,1,0,0:0:0:0:
402,192,276266,1,0,0:0:0:0:
329,192,276266,1,0,0:0:0:0:
402,192,276433,1,0,0:0:0:0:
256,192,276433,1,0,0:0:0:0:
182,192,276433,1,0,0:0:0:0:
36,192,276433,1,0,0:0:0:0:
475,192,276433,1,0,0:0:0:0:
329,192,276544,1,0,0:0:0:0:
182,192,276600,1,0,0:0:0:0:
109,192,276600,1,0,0:0:0:0:
402,192,276655,1,0,0:0:0:0:
475,192,276655,1,0,0:0:0:0:
109,192,276766,1,0,0:0:0:0:
36,192,276766,1,0,0:0:0:0:
402,192,276766,1,0,0:0:0:0:
475,192,276766,1,0,0:0:0:0:
256,192,276766,1,0,0:0:0:0:
182,192,276850,1,0,0:0:0:0:
329,192,276850,1,0,0:0:0:0:
402,192,276933,1,0,0:0:0:0:
256,192,276933,1,0,0:0:0:0:
36,192,277016,1,0,0:0:0:0:
182,192,277016,1,0,0:0:0:0:
329,192,277100,1,0,0:0:0:0:
475,192,277100,1,0,0:0:0:0:
402,192,277100,1,0,0:0:0:0:
36,192,277183,1,0,0:0:0:0:
109,192,277183,1,0,0:0:0:0:
402,192,277266,1,0,0:0:0:0:
329,192,277266,1,0,0:0:0:0:
182,192,277350,1,0,0:0:0:0:
109,192,277350,1,0,0:0:0:0:
475,192,277433,1,0,0:0:0:0:
36,192,277433,1,0,0:0:0:0:
402,192,277433,1,0,0:0:0:0:
329,192,277489,1,0,0:0:0:0:
256,192,277516,1,0,0:0:0:0:
182,192,277544,1,0,0:0:0:0:
475,192,277600,1,0,0:0:0:0:
402,192,277600,1,0,0:0:0:0:
329,192,277655,1,0,0:0:0:0:
256,192,277683,1,0,0:0:0:0:
36,192,277711,1,0,0:0:0:0:
109,192,277766,1,0,0:0:0:0:
475,192,277766,1,0,0:0:0:0:
402,192,277766,1,0,0:0:0:0:
329,192,277822,1,0,0:0:0:0:
182,192,277878,1,0,0:0:0:0:
475,192,277933,1,0,0:0:0:0:
256,192,277933,1,0,0:0:0:0:
36,192,277989,1,0,0:0:0:0:
109,192,278016,1,0,0:0:0:0:
329,192,278016,1,0,0:0:0:0:
182,192,278044,1,0,0:0:0:0:
402,192,278100,1,0,0:0:0:0:
256,192,278100,1,0,0:0:0:0:
36,192,278100,1,0,0:0:0:0:
109,192,278100,1,0,0:0:0:0:
475,192,278100,128,0,278183:0:0:0:0:
182,192,278266,1,0,0:0:0:0:
36,192,278433,1,0,0:0:0:0:
182,192,278599,1,0,0:0:0:0:
402,192,278599,128,0,278683:0:0:0:0:
36,192,278766,1,0,0:0:0:0:
182,192,278933,1,0,0:0:0:0:
36,192,279099,1,0,0:0:0:0:
329,192,279099,128,0,279183:0:0:0:0:
182,192,279266,1,0,0:0:0:0:
36,192,279433,1,0,0:0:0:0:
402,192,279433,128,0,279516:0:0:0:0:
182,192,279599,1,0,0:0:0:0:
36,192,279766,1,0,0:0:0:0:
182,192,279933,1,0,0:0:0:0:
36,192,280099,1,0,0:0:0:0:
256,192,280099,128,0,280183:0:0:0:0:
182,192,280266,1,0,0:0:0:0:
36,192,280433,1,0,0:0:0:0:
475,192,280433,128,0,280516:0:0:0:0:
182,192,280599,1,0,0:0:0:0:
182,192,280683,1,0,0:0:0:0:
36,192,280766,1,0,0:0:0:0:
182,192,280933,1,0,0:0:0:0:
402,192,280933,128,0,281016:0:0:0:0:
36,192,281099,1,0,0:0:0:0:
182,192,281266,1,0,0:0:0:0:
36,192,281433,1,0,0:0:0:0:
329,192,281433,128,0,281516:0:0:0:0:
182,192,281599,1,0,0:0:0:0:
36,192,281766,1,0,0:0:0:0:
402,192,281766,128,0,281849:0:0:0:0:
182,192,281933,1,0,0:0:0:0:
36,192,282099,1,0,0:0:0:0:
182,192,282266,1,0,0:0:0:0:
329,192,282266,128,0,282349:0:0:0:0:
36,192,282433,1,0,0:0:0:0:
256,192,282433,1,0,0:0:0:0:
329,192,282544,1,0,0:0:0:0:
182,192,282599,1,0,0:0:0:0:
329,192,282655,1,0,0:0:0:0:
475,192,282766,1,0,0:0:0:0:
256,192,282766,1,0,0:0:0:0:
36,192,282766,1,0,0:0:0:0:
402,192,282766,1,0,0:0:0:0:
109,192,282766,1,0,0:0:0:0:
182,192,282933,1,0,0:0:0:0:
36,192,283099,1,0,0:0:0:0:
182,192,283266,1,0,0:0:0:0:
402,192,283266,128,0,283349:0:0:0:0:
182,192,283433,1,0,0:0:0:0:
109,192,283433,1,0,0:0:0:0:
36,192,283433,1,0,0:0:0:0:
182,192,283599,1,0,0:0:0:0:
36,192,283766,1,0,0:0:0:0:
329,192,283766,128,0,283849:0:0:0:0:
182,192,283933,1,0,0:0:0:0:
36,192,284099,1,0,0:0:0:0:
402,192,284099,128,0,284183:0:0:0:0:
182,192,284266,1,0,0:0:0:0:
36,192,284433,1,0,0:0:0:0:
182,192,284599,1,0,0:0:0:0:
36,192,284766,1,0,0:0:0:0:
256,192,284766,128,0,284849:0:0:0:0:
182,192,284933,1,0,0:0:0:0:
109,192,285099,1,0,0:0:0:0:
256,192,285099,128,0,285183:0:0:0:0:
402,192,285099,128,0,285183:0:0:0:0:
182,192,285266,1,0,0:0:0:0:
109,192,285433,1,0,0:0:0:0:
182,192,285599,1,0,0:0:0:0:
256,192,285599,1,0,0:0:0:0:
329,192,285655,1,0,0:0:0:0:
475,192,285711,1,0,0:0:0:0:
109,192,285766,1,0,0:0:0:0:
402,192,285766,1,0,0:0:0:0:
256,192,285766,1,0,0:0:0:0:
182,192,285933,1,0,0:0:0:0:
402,192,286099,1,0,0:0:0:0:
256,192,286099,1,0,0:0:0:0:
109,192,286099,1,0,0:0:0:0:
182,192,286266,1,0,0:0:0:0:
109,192,286433,1,0,0:0:0:0:
36,192,286433,1,0,0:0:0:0:
182,192,286599,1,0,0:0:0:0:
36,192,286599,1,0,0:0:0:0:
475,192,286766,1,0,0:0:0:0:
256,192,286766,1,0,0:0:0:0:
109,192,286766,1,0,0:0:0:0:
182,192,286849,1,0,0:0:0:0:
329,192,286849,1,0,0:0:0:0:
109,192,286933,1,0,0:0:0:0:
36,192,286933,1,0,0:0:0:0:
402,192,287016,1,0,0:0:0:0:
256,192,287016,1,0,0:0:0:0:
475,192,287099,1,0,0:0:0:0:
329,192,287099,1,0,0:0:0:0:
182,192,287099,1,0,0:0:0:0:
36,192,287099,1,0,0:0:0:0:
109,192,287099,1,0,0:0:0:0:
329,192,287265,1,0,0:0:0:0:
256,192,287348,1,0,0:0:0:0:
475,192,287432,1,0,0:0:0:0:
329,192,287432,1,0,0:0:0:0:
109,192,287432,1,0,0:0:0:0:
36,192,287432,1,0,0:0:0:0:
182,192,287598,1,0,0:0:0:0:
256,192,287682,1,0,0:0:0:0:
402,192,287682,1,0,0:0:0:0:
475,192,287682,1,0,0:0:0:0:
109,192,287765,1,0,0:0:0:0:
182,192,287848,1,0,0:0:0:0:
402,192,287932,1,0,0:0:0:0:
256,192,287932,1,0,0:0:0:0:
475,192,287932,1,0,0:0:0:0:
182,192,288015,1,0,0:0:0:0:
475,192,288098,1,0,0:0:0:0:
329,192,288098,1,0,0:0:0:0:
109,192,288098,1,0,0:0:0:0:
36,192,288098,1,0,0:0:0:0:
402,192,288265,1,0,0:0:0:0:
329,192,288348,1,0,0:0:0:0:
256,192,288432,1,0,0:0:0:0:
109,192,288432,1,0,0:0:0:0:
36,192,288432,1,0,0:0:0:0:
182,192,288598,1,0,0:0:0:0:
256,192,288682,1,0,0:0:0:0:
475,192,288765,1,0,0:0:0:0:
402,192,288765,1,0,0:0:0:0:
36,192,288765,1,0,0:0:0:0:
329,192,288765,1,0,0:0:0:0:
182,192,288848,1,0,0:0:0:0:
109,192,288932,1,0,0:0:0:0:
402,192,288932,1,0,0:0:0:0:
329,192,289015,1,0,0:0:0:0:
475,192,289098,1,0,0:0:0:0:
256,192,289098,1,0,0:0:0:0:
402,192,289098,1,0,0:0:0:0:
182,192,289098,1,0,0:0:0:0:
475,192,289265,1,0,0:0:0:0:
109,192,289265,1,0,0:0:0:0:
36,192,289265,1,0,0:0:0:0:
402,192,289348,1,0,0:0:0:0:
182,192,289348,1,0,0:0:0:0:
329,192,289348,1,0,0:0:0:0:
256,192,289348,1,0,0:0:0:0:
109,192,289432,1,0,0:0:0:0:
402,192,289432,1,0,0:0:0:0:
36,192,289432,1,0,0:0:0:0:
329,192,289432,1,0,0:0:0:0:
475,192,289432,1,0,0:0:0:0:
182,192,289598,1,0,0:0:0:0:
475,192,289682,1,0,0:0:0:0:
329,192,289682,1,0,0:0:0:0:
256,192,289682,1,0,0:0:0:0:
36,192,289682,1,0,0:0:0:0:
182,192,289765,1,0,0:0:0:0:
329,192,289848,1,0,0:0:0:0:
475,192,289932,1,0,0:0:0:0:
256,192,289932,1,0,0:0:0:0:
109,192,289932,1,0,0:0:0:0:
402,192,290015,1,0,0:0:0:0:
182,192,290098,1,0,0:0:0:0:
475,192,290182,1,0,0:0:0:0:
329,192,290182,1,0,0:0:0:0:
256,192,290182,1,0,0:0:0:0:
36,192,290182,1,0,0:0:0:0:
182,192,290265,1,0,0:0:0:0:
109,192,290265,1,0,0:0:0:0:
402,192,290265,1,0,0:0:0:0:
256,192,290348,1,0,0:0:0:0:
475,192,290432,1,0,0:0:0:0:
329,192,290432,1,0,0:0:0:0:
109,192,290432,1,0,0:0:0:0:
36,192,290432,1,0,0:0:0:0:
182,192,290515,1,0,0:0:0:0:
475,192,290598,1,0,0:0:0:0:
402,192,290598,1,0,0:0:0:0:
256,192,290598,1,0,0:0:0:0:
329,192,290682,1,0,0:0:0:0:
109,192,290765,1,0,0:0:0:0:
36,192,290765,1,0,0:0:0:0:
402,192,290765,1,0,0:0:0:0:
182,192,290848,1,0,0:0:0:0:
475,192,290932,1,0,0:0:0:0:
256,192,290932,1,0,0:0:0:0:
36,192,290932,1,0,0:0:0:0:
109,192,291015,1,0,0:0:0:0:
402,192,291098,1,0,0:0:0:0:
329,192,291098,1,0,0:0:0:0:
182,192,291098,1,0,0:0:0:0:
475,192,291098,1,0,0:0:0:0:
109,192,291182,1,0,0:0:0:0:
475,192,291265,1,0,0:0:0:0:
256,192,291265,1,0,0:0:0:0:
36,192,291265,1,0,0:0:0:0:
182,192,291432,1,0,0:0:0:0:
36,192,291432,1,0,0:0:0:0:
329,192,291432,1,0,0:0:0:0:
109,192,291543,1,0,0:0:0:0:
256,192,291543,1,0,0:0:0:0:
402,192,291543,1,0,0:0:0:0:
475,192,291654,1,0,0:0:0:0:
329,192,291654,1,0,0:0:0:0:
182,192,291654,1,0,0:0:0:0:
402,192,291765,1,0,0:0:0:0:
256,192,291765,1,0,0:0:0:0:
109,192,291765,1,0,0:0:0:0:
36,192,291765,1,0,0:0:0:0:
475,192,291765,128,0,292265:0:0:0:0:
182,192,292015,1,0,0:0:0:0:
109,192,292098,1,0,0:0:0:0:
329,192,292098,1,0,0:0:0:0:
256,192,292098,1,0,0:0:0:0:
36,192,292098,1,0,0:0:0:0:
402,192,292265,128,0,292765:0:0:0:0:
182,192,292265,1,0,0:0:0:0:
256,192,292348,1,0,0:0:0:0:
109,192,292348,1,0,0:0:0:0:
36,192,292348,1,0,0:0:0:0:
182,192,292432,1,0,0:0:0:0:
329,192,292515,1,0,0:0:0:0:
109,192,292598,1,0,0:0:0:0:
36,192,292598,1,0,0:0:0:0:
256,192,292598,1,0,0:0:0:0:
182,192,292682,1,0,0:0:0:0:
329,192,292765,128,0,293098:0:0:0:0:
256,192,292765,1,0,0:0:0:0:
36,192,292765,1,0,0:0:0:0:
475,192,292765,1,0,0:0:0:0:
109,192,292848,1,0,0:0:0:0:
182,192,292932,1,0,0:0:0:0:
256,192,292932,1,0,0:0:0:0:
36,192,293015,1,0,0:0:0:0:
475,192,293098,128,0,293432:0:0:0:0:
256,192,293098,1,0,0:0:0:0:
182,192,293098,1,0,0:0:0:0:
109,192,293098,1,0,0:0:0:0:
402,192,293182,1,0,0:0:0:0:
256,192,293265,1,0,0:0:0:0:
182,192,293348,1,0,0:0:0:0:
329,192,293432,1,0,0:0:0:0:
109,192,293432,1,0,0:0:0:0:
36,192,293432,1,0,0:0:0:0:
402,192,293432,1,0,0:0:0:0:
256,192,293515,1,0,0:0:0:0:
36,192,293598,1,0,0:0:0:0:
329,192,293598,1,0,0:0:0:0:
402,192,293598,1,0,0:0:0:0:
475,192,293682,1,0,0:0:0:0:
109,192,293682,1,0,0:0:0:0:
329,192,293765,128,0,294098:0:0:0:0:
402,192,293765,128,0,294098:0:0:0:0:
182,192,293765,1,0,0:0:0:0:
182,192,293932,1,0,0:0:0:0:
109,192,294015,1,0,0:0:0:0:
36,192,294098,1,0,0:0:0:0:
256,192,294098,1,0,0:0:0:0:
329,192,294182,1,0,0:0:0:0:
402,192,294182,1,0,0:0:0:0:
182,192,294265,1,0,0:0:0:0:
109,192,294265,1,0,0:0:0:0:
402,192,294348,1,0,0:0:0:0:
329,192,294348,1,0,0:0:0:0:
182,192,294432,1,0,0:0:0:0:
109,192,294432,1,0,0:0:0:0:
36,192,294432,128,0,297598:0:0:0:0:
475,192,294432,128,0,297598:0:0:0:0:
256,192,294432,128,0,295265:0:0:0:0:
109,192,295265,128,0,295598:0:0:0:0:
329,192,295265,128,0,295431:0:0:0:0:
256,192,295431,128,0,295598:0:0:0:0:
402,192,295431,128,0,295931:0:0:0:0:
329,192,295598,128,0,295765:0:0:0:0:
182,192,295598,128,0,295765:0:0:0:0:
109,192,295765,128,0,296098:0:0:0:0:
256,192,295765,128,0,295931:0:0:0:0:
182,192,295931,128,0,296265:0:0:0:0:
329,192,295931,128,0,296098:0:0:0:0:
402,192,296098,128,0,296265:0:0:0:0:
256,192,296098,128,0,296598:0:0:0:0:
329,192,296265,128,0,296431:0:0:0:0:
109,192,296265,128,0,296431:0:0:0:0:
182,192,296431,128,0,296598:0:0:0:0:
402,192,296431,128,0,296931:0:0:0:0:
329,192,296598,128,0,296765:0:0:0:0:
109,192,296598,128,0,296765:0:0:0:0:
182,192,296765,128,0,297098:0:0:0:0:
256,192,296765,128,0,296931:0:0:0:0:
109,192,296931,128,0,297265:0:0:0:0:
329,192,296931,128,0,297098:0:0:0:0:
402,192,297098,128,0,297265:0:0:0:0:
256,192,297098,128,0,297431:0:0:0:0:
329,192,297265,128,0,297431:0:0:0:0:
182,192,297265,128,0,297431:0:0:0:0:
109,192,297431,1,0,0:0:0:0:
402,192,297431,1,0,0:0:0:0:
329,192,297515,1,0,0:0:0:0:
182,192,297515,1,0,0:0:0:0:
109,192,297598,1,0,0:0:0:0:
402,192,297598,1,0,0:0:0:0:
256,192,297598,1,0,0:0:0:0:
182,192,297681,1,0,0:0:0:0:
329,192,297681,1,0,0:0:0:0:
109,192,297765,1,0,0:0:0:0:
402,192,297765,1,0,0:0:0:0:
36,192,297765,1,0,0:0:0:0:
475,192,297765,1,0,0:0:0:0:
256,192,297765,1,0,0:0:0:0:
329,192,297931,1,0,0:0:0:0:
109,192,298014,1,0,0:0:0:0:
36,192,298014,1,0,0:0:0:0:
475,192,298014,1,0,0:0:0:0:
402,192,298014,1,0,0:0:0:0:
256,192,298014,1,0,0:0:0:0:
36,192,298264,128,0,298431:0:0:0:0:
256,192,298264,128,0,298431:0:0:0:0:
182,192,298431,128,0,298598:0:0:0:0:
475,192,298431,128,0,298598:0:0:0:0:
256,192,298598,1,0,0:0:0:0:
36,192,298598,1,0,0:0:0:0:
329,192,298653,1,0,0:0:0:0:
109,192,298653,1,0,0:0:0:0:
402,192,298709,1,0,0:0:0:0:
182,192,298709,1,0,0:0:0:0:
36,192,298764,128,0,299098:0:0:0:0:
256,192,298764,128,0,299098:0:0:0:0:
475,192,299098,1,0,0:0:0:0:
402,192,299098,1,0,0:0:0:0:
329,192,299098,1,0,0:0:0:0:
182,192,299098,1,0,0:0:0:0:
109,192,299098,1,0,0:0:0:0:
182,192,299181,1,0,0:0:0:0:
109,192,299181,1,0,0:0:0:0:
475,192,299181,1,0,0:0:0:0:
402,192,299181,1,0,0:0:0:0:
329,192,299181,1,0,0:0:0:0:
475,192,299348,1,0,0:0:0:0:
402,192,299348,1,0,0:0:0:0:
329,192,299348,1,0,0:0:0:0:
182,192,299348,1,0,0:0:0:0:
109,192,299348,1,0,0:0:0:0:
256,192,299431,1,0,0:0:0:0:
36,192,299431,1,0,0:0:0:0:
475,192,299598,128,0,299681:0:0:0:0:
182,192,299598,128,0,299681:0:0:0:0:
36,192,299681,128,0,299764:0:0:0:0:
402,192,299681,128,0,299764:0:0:0:0:
329,192,299764,1,0,0:0:0:0:
256,192,299764,1,0,0:0:0:0:
182,192,299820,1,0,0:0:0:0:
109,192,299820,1,0,0:0:0:0:
475,192,299876,1,0,0:0:0:0:
402,192,299876,1,0,0:0:0:0:
36,192,299931,1,0,0:0:0:0:
256,192,299931,1,0,0:0:0:0:
329,192,299987,1,0,0:0:0:0:
109,192,299987,1,0,0:0:0:0:
402,192,300042,1,0,0:0:0:0:
182,192,300042,1,0,0:0:0:0:
475,192,300098,1,0,0:0:0:0:
256,192,300098,1,0,0:0:0:0:
109,192,300098,1,0,0:0:0:0:
36,192,300098,1,0,0:0:0:0:
329,192,300264,1,0,0:0:0:0:
475,192,300348,1,0,0:0:0:0:
256,192,300348,1,0,0:0:0:0:
109,192,300348,1,0,0:0:0:0:
36,192,300348,1,0,0:0:0:0:
402,192,300348,1,0,0:0:0:0:
402,192,300598,1,0,0:0:0:0:
256,192,300598,1,0,0:0:0:0:
109,192,300598,1,0,0:0:0:0:
36,192,300598,1,0,0:0:0:0:
475,192,300764,1,0,0:0:0:0:
329,192,300764,1,0,0:0:0:0:
182,192,300764,1,0,0:0:0:0:
109,192,300764,1,0,0:0:0:0:
402,192,300931,1,0,0:0:0:0:
256,192,300931,1,0,0:0:0:0:
36,192,300931,1,0,0:0:0:0:
329,192,301014,1,0,0:0:0:0:
475,192,301098,1,0,0:0:0:0:
182,192,301098,1,0,0:0:0:0:
109,192,301098,1,0,0:0:0:0:
402,192,301098,1,0,0:0:0:0:
329,192,301181,1,0,0:0:0:0:
256,192,301181,1,0,0:0:0:0:
402,192,301264,1,0,0:0:0:0:
109,192,301264,1,0,0:0:0:0:
36,192,301264,1,0,0:0:0:0:
256,192,301348,1,0,0:0:0:0:
182,192,301348,1,0,0:0:0:0:
475,192,301431,1,0,0:0:0:0:
402,192,301431,1,0,0:0:0:0:
329,192,301431,1,0,0:0:0:0:
109,192,301431,1,0,0:0:0:0:
36,192,301431,1,0,0:0:0:0:
182,192,301598,1,0,0:0:0:0:
109,192,301598,1,0,0:0:0:0:
329,192,301598,1,0,0:0:0:0:
36,192,301764,1,0,0:0:0:0:
256,192,301764,1,0,0:0:0:0:
475,192,301764,1,0,0:0:0:0:
402,192,301848,1,0,0:0:0:0:
329,192,301848,1,0,0:0:0:0:
109,192,301848,1,0,0:0:0:0:
182,192,301931,1,0,0:0:0:0:
109,192,302014,1,0,0:0:0:0:
36,192,302014,1,0,0:0:0:0:
329,192,302014,1,0,0:0:0:0:
475,192,302098,1,0,0:0:0:0:
402,192,302098,1,0,0:0:0:0:
256,192,302098,1,0,0:0:0:0:
182,192,302181,1,0,0:0:0:0:
109,192,302264,1,0,0:0:0:0:
329,192,302264,1,0,0:0:0:0:
475,192,302431,1,0,0:0:0:0:
256,192,302431,1,0,0:0:0:0:
36,192,302431,1,0,0:0:0:0:
402,192,302431,1,0,0:0:0:0:
109,192,302431,1,0,0:0:0:0:
182,192,302598,1,0,0:0:0:0:
109,192,302681,1,0,0:0:0:0:
36,192,302681,1,0,0:0:0:0:
256,192,302681,1,0,0:0:0:0:
402,192,302681,1,0,0:0:0:0:
475,192,302681,1,0,0:0:0:0:
256,192,302931,1,0,0:0:0:0:
475,192,302931,1,0,0:0:0:0:
36,192,302931,1,0,0:0:0:0:
109,192,303014,1,0,0:0:0:0:
182,192,303098,1,0,0:0:0:0:
402,192,303098,1,0,0:0:0:0:
329,192,303098,1,0,0:0:0:0:
109,192,303181,1,0,0:0:0:0:
36,192,303181,1,0,0:0:0:0:
256,192,303181,1,0,0:0:0:0:
475,192,303264,1,0,0:0:0:0:
402,192,303264,1,0,0:0:0:0:
329,192,303320,1,0,0:0:0:0:
256,192,303320,1,0,0:0:0:0:
182,192,303376,1,0,0:0:0:0:
109,192,303376,1,0,0:0:0:0:
402,192,303431,1,0,0:0:0:0:
475,192,303431,1,0,0:0:0:0:
36,192,303431,1,0,0:0:0:0:
329,192,303431,1,0,0:0:0:0:
182,192,303598,1,0,0:0:0:0:
109,192,303598,1,0,0:0:0:0:
36,192,303764,1,0,0:0:0:0:
109,192,303764,1,0,0:0:0:0:
256,192,303764,1,0,0:0:0:0:
329,192,303764,1,0,0:0:0:0:
109,192,303848,1,0,0:0:0:0:
36,192,303848,1,0,0:0:0:0:
475,192,303848,1,0,0:0:0:0:
402,192,303848,1,0,0:0:0:0:
109,192,304014,1,0,0:0:0:0:
36,192,304014,1,0,0:0:0:0:
475,192,304014,1,0,0:0:0:0:
402,192,304014,1,0,0:0:0:0:
109,192,304098,1,0,0:0:0:0:
36,192,304098,1,0,0:0:0:0:
329,192,304098,1,0,0:0:0:0:
256,192,304098,1,0,0:0:0:0:
109,192,304264,1,0,0:0:0:0:
36,192,304264,1,0,0:0:0:0:
329,192,304264,1,0,0:0:0:0:
256,192,304264,1,0,0:0:0:0:
109,192,304348,1,0,0:0:0:0:
36,192,304348,1,0,0:0:0:0:
475,192,304348,1,0,0:0:0:0:
402,192,304348,1,0,0:0:0:0:
109,192,304514,1,0,0:0:0:0:
36,192,304514,1,0,0:0:0:0:
475,192,304514,1,0,0:0:0:0:
402,192,304514,1,0,0:0:0:0:
109,192,304598,1,0,0:0:0:0:
36,192,304598,1,0,0:0:0:0:
329,192,304598,1,0,0:0:0:0:
256,192,304598,1,0,0:0:0:0:
109,192,304764,1,0,0:0:0:0:
36,192,304764,1,0,0:0:0:0:
329,192,304764,1,0,0:0:0:0:
256,192,304764,1,0,0:0:0:0:
109,192,304848,1,0,0:0:0:0:
36,192,304848,1,0,0:0:0:0:
475,192,304848,1,0,0:0:0:0:
402,192,304848,1,0,0:0:0:0:
182,192,304931,1,0,0:0:0:0:
36,192,305098,128,0,305264:0:0:0:0:
109,192,305098,128,0,305264:0:0:0:0:
256,192,305098,128,0,305264:0:0:0:0:
402,192,305098,128,0,305264:0:0:0:0:
475,192,305098,128,0,305264:0:0:0:0:
109,192,305348,128,0,305514:0:0:0:0:
182,192,305348,128,0,305514:0:0:0:0:
256,192,305348,128,0,305514:0:0:0:0:
329,192,305348,128,0,305514:0:0:0:0:
475,192,305348,128,0,305514:0:0:0:0:
475,192,305598,128,0,306098:0:0:0:0:
402,192,305598,128,0,305848:0:0:0:0:
329,192,305598,128,0,305848:0:0:0:0:
256,192,305598,128,0,305848:0:0:0:0:
182,192,305598,128,0,305848:0:0:0:0:
109,192,305848,1,0,0:0:0:0:
36,192,305848,1,0,0:0:0:0:
109,192,305931,1,0,0:0:0:0:
36,192,305931,1,0,0:0:0:0:
329,192,306014,1,0,0:0:0:0:
256,192,306014,1,0,0:0:0:0:
402,192,306098,1,0,0:0:0:0:
182,192,306098,1,0,0:0:0:0:
109,192,306098,1,0,0:0:0:0:
329,192,306181,1,0,0:0:0:0:
256,192,306181,1,0,0:0:0:0:
109,192,306264,1,0,0:0:0:0:
36,192,306264,1,0,0:0:0:0:
182,192,306348,1,0,0:0:0:0:
256,192,306348,1,0,0:0:0:0:
329,192,306431,1,0,0:0:0:0:
402,192,306431,1,0,0:0:0:0:
475,192,306431,1,0,0:0:0:0:
36,192,306431,1,0,0:0:0:0:
329,192,306514,1,0,0:0:0:0:
402,192,306514,1,0,0:0:0:0:
475,192,306514,1,0,0:0:0:0:
109,192,306514,1,0,0:0:0:0:
182,192,306598,1,0,0:0:0:0:
329,192,306681,1,0,0:0:0:0:
402,192,306681,1,0,0:0:0:0:
475,192,306681,1,0,0:0:0:0:
109,192,306681,1,0,0:0:0:0:
329,192,306764,1,0,0:0:0:0:
402,192,306764,1,0,0:0:0:0:
475,192,306764,1,0,0:0:0:0:
36,192,306764,1,0,0:0:0:0:
182,192,306848,1,0,0:0:0:0:
329,192,306931,1,0,0:0:0:0:
402,192,306931,1,0,0:0:0:0:
475,192,306931,1,0,0:0:0:0:
109,192,306931,1,0,0:0:0:0:
329,192,307014,1,0,0:0:0:0:
402,192,307014,1,0,0:0:0:0:
475,192,307014,1,0,0:0:0:0:
36,192,307014,1,0,0:0:0:0:
109,192,307098,1,0,0:0:0:0:
256,192,307098,1,0,0:0:0:0:
329,192,307181,1,0,0:0:0:0:
182,192,307264,1,0,0:0:0:0:
109,192,307264,1,0,0:0:0:0:
329,192,307348,1,0,0:0:0:0:
475,192,307431,1,0,0:0:0:0:
402,192,307431,1,0,0:0:0:0:
36,192,307431,1,0,0:0:0:0:
256,192,307431,1,0,0:0:0:0:
182,192,307514,1,0,0:0:0:0:
109,192,307514,1,0,0:0:0:0:
402,192,307598,1,0,0:0:0:0:
329,192,307598,1,0,0:0:0:0:
475,192,307598,1,0,0:0:0:0:
36,192,307681,1,0,0:0:0:0:
109,192,307681,1,0,0:0:0:0:
475,192,307764,128,0,308930:0:0:0:0:
182,192,307764,128,0,308263:0:0:0:0:
256,192,307764,128,0,308430:0:0:0:0:
329,192,307764,128,0,308597:0:0:0:0:
402,192,307764,128,0,308763:0:0:0:0:
36,192,308097,128,0,309097:0:0:0:0:
109,192,308263,128,0,309430:0:0:0:0:
182,192,308430,128,0,309597:0:0:0:0:
256,192,308597,128,0,309763:0:0:0:0:
329,192,308763,128,0,309263:0:0:0:0:
402,192,308930,128,0,309097:0:0:0:0:
475,192,309097,128,0,309430:0:0:0:0:
402,192,309263,128,0,309930:0:0:0:0:
329,192,309430,128,0,310097:0:0:0:0:
109,192,309597,128,0,310430:0:0:0:0:
182,192,309763,128,0,310430:0:0:0:0:
256,192,309930,128,0,310430:0:0:0:0:
402,192,310097,128,0,310430:0:0:0:0:
329,192,310263,128,0,310430:0:0:0:0:
475,192,310430,128,0,310597:0:0:0:0:
402,192,310513,128,0,310680:0:0:0:0:
329,192,310597,128,0,310763:0:0:0:0:
36,192,310597,128,0,310763:0:0:0:0:
109,192,310680,128,0,310847:0:0:0:0:
182,192,310763,128,0,310930:0:0:0:0:
256,192,310763,128,0,311097:0:0:0:0:
329,192,311097,128,0,311263:0:0:0:0:
402,192,311180,128,0,311347:0:0:0:0:
475,192,311263,128,0,311430:0:0:0:0:
182,192,311263,128,0,311430:0:0:0:0:
109,192,311347,128,0,311513:0:0:0:0:
36,192,311430,128,0,311597:0:0:0:0:
256,192,311430,128,0,311763:0:0:0:0:
329,192,311541,128,0,311763:0:0:0:0:
402,192,311652,128,0,311763:0:0:0:0:
475,192,311763,128,0,312097:0:0:0:0:
36,192,312097,128,0,312430:0:0:0:0:
402,192,312430,128,0,312597:0:0:0:0:
256,192,312597,128,0,312652:0:0:0:0:
329,192,312652,128,0,312708:0:0:0:0:
182,192,312708,128,0,312763:0:0:0:0:
109,192,312763,128,0,312930:0:0:0:0:
36,192,312930,128,0,313097:0:0:0:0:
402,192,313097,1,0,0:0:0:0:
329,192,313097,1,0,0:0:0:0:
182,192,313097,1,0,0:0:0:0:
475,192,313097,1,0,0:0:0:0:
256,192,313097,1,0,0:0:0:0:
109,192,313263,128,0,313430:0:0:0:0:
36,192,313263,128,0,313430:0:0:0:0:
256,192,313263,128,0,313430:0:0:0:0:
475,192,313430,1,0,0:0:0:0:
402,192,313430,1,0,0:0:0:0:
329,192,313430,1,0,0:0:0:0:
182,192,313430,1,0,0:0:0:0:
109,192,313763,128,0,313930:0:0:0:0:
182,192,313763,128,0,313930:0:0:0:0:
329,192,313763,128,0,313930:0:0:0:0:
256,192,313763,128,0,313930:0:0:0:0:
182,192,314013,128,0,314180:0:0:0:0:
256,192,314013,128,0,314180:0:0:0:0:
329,192,314013,128,0,314180:0:0:0:0:
402,192,314013,128,0,314180:0:0:0:0:
475,192,314263,128,0,314763:0:0:0:0:
402,192,314263,128,0,314763:0:0:0:0:
256,192,314263,128,0,314597:0:0:0:0:
329,192,314263,128,0,314597:0:0:0:0:
109,192,314263,1,0,0:0:0:0:
36,192,314263,1,0,0:0:0:0:
182,192,314597,1,0,0:0:0:0:
109,192,314597,1,0,0:0:0:0:
36,192,314597,1,0,0:0:0:0:
182,192,314763,1,0,0:0:0:0:
329,192,314763,1,0,0:0:0:0:
256,192,314763,1,0,0:0:0:0:
475,192,314847,1,0,0:0:0:0:
402,192,314847,1,0,0:0:0:0:
109,192,315013,128,0,315347:0:0:0:0:
36,192,315013,128,0,315347:0:0:0:0:
475,192,315013,128,0,315430:0:0:0:0:
182,192,315013,1,0,0:0:0:0:
256,192,315097,1,0,0:0:0:0:
329,192,315180,1,0,0:0:0:0:
402,192,315263,128,0,315430:0:0:0:0:
256,192,315347,1,0,0:0:0:0:
182,192,315347,1,0,0:0:0:0:
329,192,315430,1,0,0:0:0:0:
109,192,315430,1,0,0:0:0:0:
36,192,315430,1,0,0:0:0:0:
182,192,315513,1,0,0:0:0:0:
256,192,315597,1,0,0:0:0:0:
475,192,315597,1,0,0:0:0:0:
402,192,315597,1,0,0:0:0:0:
109,192,315652,1,0,0:0:0:0:
182,192,315708,1,0,0:0:0:0:
36,192,315763,128,0,315930:0:0:0:0:
256,192,315763,128,0,316013:0:0:0:0:
329,192,315763,128,0,316013:0:0:0:0:
402,192,315763,128,0,316013:0:0:0:0:
475,192,315763,128,0,316013:0:0:0:0:
182,192,315930,128,0,316097:0:0:0:0:
109,192,316097,128,0,316263:0:0:0:0:
475,192,316097,1,0,0:0:0:0:
402,192,316097,1,0,0:0:0:0:
329,192,316097,1,0,0:0:0:0:
36,192,316263,128,0,316597:0:0:0:0:
256,192,316263,128,0,316680:0:0:0:0:
329,192,316263,128,0,316680:0:0:0:0:
402,192,316263,128,0,316680:0:0:0:0:
475,192,316263,128,0,316680:0:0:0:0:
182,192,316597,128,0,316763:0:0:0:0:
329,192,316763,1,0,0:0:0:0:
475,192,316763,1,0,0:0:0:0:
402,192,316763,1,0,0:0:0:0:
109,192,316763,128,0,316930:0:0:0:0:
36,192,316930,128,0,317430:0:0:0:0:
256,192,316930,128,0,317347:0:0:0:0:
329,192,316930,128,0,317347:0:0:0:0:
402,192,316930,128,0,317347:0:0:0:0:
475,192,316930,128,0,317347:0:0:0:0:
182,192,317263,128,0,317430:0:0:0:0:
109,192,317430,128,0,317763:0:0:0:0:
402,192,317430,1,0,0:0:0:0:
329,192,317430,1,0,0:0:0:0:
475,192,317430,1,0,0:0:0:0:
256,192,317597,1,0,0:0:0:0:
329,192,317680,1,0,0:0:0:0:
475,192,317763,1,0,0:0:0:0:
182,192,317763,1,0,0:0:0:0:
402,192,317763,1,0,0:0:0:0:
329,192,317930,1,0,0:0:0:0:
256,192,317930,1,0,0:0:0:0:
109,192,317930,1,0,0:0:0:0:
36,192,317930,1,0,0:0:0:0:
182,192,318097,1,0,0:0:0:0:
36,192,318097,1,0,0:0:0:0:
402,192,318097,1,0,0:0:0:0:
329,192,318097,1,0,0:0:0:0:
475,192,318263,1,0,0:0:0:0:
329,192,318263,1,0,0:0:0:0:
256,192,318263,1,0,0:0:0:0:
109,192,318263,1,0,0:0:0:0:
402,192,318430,1,0,0:0:0:0:
182,192,318430,1,0,0:0:0:0:
109,192,318430,1,0,0:0:0:0:
36,192,318430,1,0,0:0:0:0:
329,192,318430,1,0,0:0:0:0:
109,192,318597,128,0,318763:0:0:0:0:
36,192,318597,128,0,318763:0:0:0:0:
475,192,318597,1,0,0:0:0:0:
329,192,318597,1,0,0:0:0:0:
256,192,318597,1,0,0:0:0:0:
402,192,318763,128,0,318930:0:0:0:0:
475,192,318763,128,0,318930:0:0:0:0:
329,192,318763,1,0,0:0:0:0:
182,192,318763,1,0,0:0:0:0:
256,192,318763,1,0,0:0:0:0:
36,192,318930,128,0,319097:0:0:0:0:
256,192,318930,1,0,0:0:0:0:
109,192,318930,1,0,0:0:0:0:
182,192,319097,128,0,319180:0:0:0:0:
329,192,319097,128,0,319180:0:0:0:0:
402,192,319180,128,0,319263:0:0:0:0:
256,192,319180,128,0,319263:0:0:0:0:
109,192,319263,128,0,319347:0:0:0:0:
36,192,319263,128,0,319347:0:0:0:0:
182,192,319347,128,0,319430:0:0:0:0:
329,192,319347,128,0,319430:0:0:0:0:
402,192,319430,128,0,319513:0:0:0:0:
256,192,319430,128,0,319513:0:0:0:0:
475,192,319513,128,0,319597:0:0:0:0:
329,192,319513,128,0,319597:0:0:0:0:
182,192,319597,128,0,319930:0:0:0:0:
109,192,319597,128,0,320097:0:0:0:0:
36,192,319597,128,0,320097:0:0:0:0:
475,192,319930,1,0,0:0:0:0:
329,192,319930,1,0,0:0:0:0:
256,192,319930,1,0,0:0:0:0:
475,192,320097,1,0,0:0:0:0:
402,192,320097,1,0,0:0:0:0:
182,192,320097,1,0,0:0:0:0:
256,192,320097,1,0,0:0:0:0:
182,192,320263,128,0,320597:0:0:0:0:
109,192,320263,128,0,320763:0:0:0:0:
36,192,320263,128,0,320930:0:0:0:0:
256,192,320263,1,0,0:0:0:0:
475,192,320263,1,0,0:0:0:0:
402,192,320347,1,0,0:0:0:0:
329,192,320347,1,0,0:0:0:0:
402,192,320513,1,0,0:0:0:0:
329,192,320513,1,0,0:0:0:0:
256,192,320597,1,0,0:0:0:0:
475,192,320597,128,0,320930:0:0:0:0:
182,192,320680,1,0,0:0:0:0:
329,192,320763,128,0,320930:0:0:0:0:
256,192,320763,1,0,0:0:0:0:
182,192,320930,128,0,321097:0:0:0:0:
402,192,320930,128,0,321097:0:0:0:0:
109,192,320930,1,0,0:0:0:0:
256,192,321097,1,0,0:0:0:0:
109,192,321097,1,0,0:0:0:0:
36,192,321097,1,0,0:0:0:0:
329,192,321097,1,0,0:0:0:0:
475,192,321097,128,0,321597:0:0:0:0:
182,192,321180,1,0,0:0:0:0:
402,192,321180,1,0,0:0:0:0:
402,192,321430,1,0,0:0:0:0:
256,192,321430,1,0,0:0:0:0:
109,192,321430,1,0,0:0:0:0:
36,192,321430,1,0,0:0:0:0:
329,192,321597,128,0,321930:0:0:0:0:
182,192,321597,1,0,0:0:0:0:
36,192,321597,1,0,0:0:0:0:
109,192,321680,1,0,0:0:0:0:
256,192,321680,1,0,0:0:0:0:
36,192,321763,1,0,0:0:0:0:
256,192,321847,1,0,0:0:0:0:
182,192,321847,1,0,0:0:0:0:
109,192,321930,1,0,0:0:0:0:
36,192,321930,1,0,0:0:0:0:
402,192,321930,128,0,322097:0:0:0:0:
182,192,322013,1,0,0:0:0:0:
329,192,322097,1,0,0:0:0:0:
256,192,322097,1,0,0:0:0:0:
36,192,322097,1,0,0:0:0:0:
475,192,322097,128,0,322263:0:0:0:0:
402,192,322263,1,0,0:0:0:0:
329,192,322263,1,0,0:0:0:0:
182,192,322263,1,0,0:0:0:0:
109,192,322263,1,0,0:0:0:0:
256,192,322263,1,0,0:0:0:0:
256,192,322513,1,0,0:0:0:0:
475,192,322597,1,0,0:0:0:0:
402,192,322597,1,0,0:0:0:0:
329,192,322597,1,0,0:0:0:0:
182,192,322597,1,0,0:0:0:0:
36,192,322597,1,0,0:0:0:0:
256,192,322763,1,0,0:0:0:0:
182,192,322847,1,0,0:0:0:0:
36,192,322847,1,0,0:0:0:0:
329,192,322847,1,0,0:0:0:0:
402,192,322847,1,0,0:0:0:0:
109,192,322847,1,0,0:0:0:0:
256,192,323013,1,0,0:0:0:0:
475,192,323097,1,0,0:0:0:0:
402,192,323097,1,0,0:0:0:0:
182,192,323097,1,0,0:0:0:0:
36,192,323097,1,0,0:0:0:0:
109,192,323097,1,0,0:0:0:0:
475,192,323180,1,0,0:0:0:0:
402,192,323180,1,0,0:0:0:0:
109,192,323180,1,0,0:0:0:0:
36,192,323180,1,0,0:0:0:0:
475,192,323347,1,0,0:0:0:0:
256,192,323347,1,0,0:0:0:0:
182,192,323347,1,0,0:0:0:0:
109,192,323347,1,0,0:0:0:0:
402,192,323347,1,0,0:0:0:0:
402,192,323430,1,0,0:0:0:0:
475,192,323430,1,0,0:0:0:0:
256,192,323430,1,0,0:0:0:0:
182,192,323430,1,0,0:0:0:0:
475,192,323597,1,0,0:0:0:0:
402,192,323597,1,0,0:0:0:0:
329,192,323597,1,0,0:0:0:0:
36,192,323597,1,0,0:0:0:0:
182,192,323597,1,0,0:0:0:0:
475,192,323680,1,0,0:0:0:0:
402,192,323680,1,0,0:0:0:0:
329,192,323680,1,0,0:0:0:0:
182,192,323763,1,0,0:0:0:0:
256,192,323763,128,0,324263:0:0:0:0:
109,192,323763,128,0,324263:0:0:0:0:
36,192,323763,128,0,324680:0:0:0:0:
329,192,323847,1,0,0:0:0:0:
402,192,323930,1,0,0:0:0:0:
475,192,323930,1,0,0:0:0:0:
329,192,324013,1,0,0:0:0:0:
475,192,324097,1,0,0:0:0:0:
402,192,324097,1,0,0:0:0:0:
182,192,324097,1,0,0:0:0:0:
329,192,324263,128,0,324763:0:0:0:0:
182,192,324263,128,0,324763:0:0:0:0:
475,192,324430,1,0,0:0:0:0:
402,192,324430,1,0,0:0:0:0:
109,192,324680,1,0,0:0:0:0:
475,192,324680,1,0,0:0:0:0:
256,192,324763,1,0,0:0:0:0:
402,192,324763,1,0,0:0:0:0:
475,192,324930,128,0,325263:0:0:0:0:
402,192,324930,128,0,325263:0:0:0:0:
256,192,324930,128,0,325263:0:0:0:0:
182,192,324930,1,0,0:0:0:0:
109,192,324930,1,0,0:0:0:0:
329,192,325263,1,0,0:0:0:0:
182,192,325263,1,0,0:0:0:0:
256,192,325430,1,0,0:0:0:0:
402,192,325430,1,0,0:0:0:0:
109,192,325430,1,0,0:0:0:0:
36,192,325430,1,0,0:0:0:0:
329,192,325513,1,0,0:0:0:0:
182,192,325513,1,0,0:0:0:0:
475,192,325597,1,0,0:0:0:0:
402,192,325597,1,0,0:0:0:0:
109,192,325680,128,0,325930:0:0:0:0:
256,192,325680,128,0,325930:0:0:0:0:
329,192,325763,1,0,0:0:0:0:
475,192,325847,1,0,0:0:0:0:
402,192,325847,1,0,0:0:0:0:
182,192,325930,128,0,326097:0:0:0:0:
329,192,325930,1,0,0:0:0:0:
475,192,326013,1,0,0:0:0:0:
109,192,326097,1,0,0:0:0:0:
36,192,326097,1,0,0:0:0:0:
256,192,326097,1,0,0:0:0:0:
402,192,326097,1,0,0:0:0:0:
182,192,326180,1,0,0:0:0:0:
329,192,326180,1,0,0:0:0:0:
109,192,326263,1,0,0:0:0:0:
36,192,326263,1,0,0:0:0:0:
402,192,326263,1,0,0:0:0:0:
182,192,326347,1,0,0:0:0:0:
329,192,326430,128,0,326680:0:0:0:0:
475,192,326430,128,0,326680:0:0:0:0:
402,192,326430,128,0,326680:0:0:0:0:
36,192,326430,128,0,326763:0:0:0:0:
256,192,326430,128,0,326680:0:0:0:0:
109,192,326430,1,0,0:0:0:0:
109,192,326597,128,0,326763:0:0:0:0:
329,192,326763,1,0,0:0:0:0:
256,192,326763,1,0,0:0:0:0:
182,192,326763,1,0,0:0:0:0:
109,192,326930,128,0,327347:0:0:0:0:
256,192,326930,128,0,327347:0:0:0:0:
36,192,326930,128,0,327347:0:0:0:0:
475,192,326930,128,0,327430:0:0:0:0:
182,192,326930,128,0,327347:0:0:0:0:
402,192,326930,1,0,0:0:0:0:
402,192,327263,128,0,327430:0:0:0:0:
182,192,327430,1,0,0:0:0:0:
329,192,327430,1,0,0:0:0:0:
256,192,327430,1,0,0:0:0:0:
475,192,327597,128,0,328013:0:0:0:0:
329,192,327597,128,0,328013:0:0:0:0:
256,192,327597,128,0,328013:0:0:0:0:
36,192,327597,128,0,328097:0:0:0:0:
402,192,327597,128,0,328013:0:0:0:0:
109,192,327597,1,0,0:0:0:0:
109,192,327930,128,0,328097:0:0:0:0:
329,192,328097,1,0,0:0:0:0:
256,192,328097,1,0,0:0:0:0:
182,192,328097,1,0,0:0:0:0:
402,192,328180,1,0,0:0:0:0:
475,192,328180,1,0,0:0:0:0:
329,192,328263,1,0,0:0:0:0:
109,192,328347,1,0,0:0:0:0:
36,192,328347,1,0,0:0:0:0:
475,192,328430,1,0,0:0:0:0:
182,192,328430,1,0,0:0:0:0:
36,192,328597,1,0,0:0:0:0:
402,192,328597,1,0,0:0:0:0:
109,192,328597,1,0,0:0:0:0:
182,192,328680,1,0,0:0:0:0:
475,192,328763,1,0,0:0:0:0:
402,192,328763,1,0,0:0:0:0:
329,192,328763,1,0,0:0:0:0:
109,192,328763,1,0,0:0:0:0:
475,192,328930,1,0,0:0:0:0:
402,192,328930,1,0,0:0:0:0:
256,192,328930,1,0,0:0:0:0:
109,192,328930,1,0,0:0:0:0:
329,192,329097,1,0,0:0:0:0:
402,192,329097,1,0,0:0:0:0:
182,192,329097,1,0,0:0:0:0:
109,192,329097,1,0,0:0:0:0:
36,192,329097,1,0,0:0:0:0:
36,192,329263,128,0,329597:0:0:0:0:
256,192,329263,128,0,329430:0:0:0:0:
182,192,329430,128,0,329597:0:0:0:0:
402,192,329430,128,0,329597:0:0:0:0:
475,192,329430,1,0,0:0:0:0:
329,192,329597,128,0,329763:0:0:0:0:
109,192,329597,128,0,329763:0:0:0:0:
36,192,329763,1,0,0:0:0:0:
256,192,329763,1,0,0:0:0:0:
109,192,329847,1,0,0:0:0:0:
329,192,329847,1,0,0:0:0:0:
36,192,329930,1,0,0:0:0:0:
256,192,329930,1,0,0:0:0:0:
109,192,330013,1,0,0:0:0:0:
329,192,330013,1,0,0:0:0:0:
402,192,330097,1,0,0:0:0:0:
182,192,330097,1,0,0:0:0:0:
475,192,330097,1,0,0:0:0:0:
475,192,330180,1,0,0:0:0:0:
402,192,330180,1,0,0:0:0:0:
256,192,330180,1,0,0:0:0:0:
329,192,330263,1,0,0:0:0:0:
36,192,330263,128,0,330763:0:0:0:0:
109,192,330263,128,0,330763:0:0:0:0:
182,192,330263,128,0,330763:0:0:0:0:
475,192,330597,1,0,0:0:0:0:
402,192,330597,1,0,0:0:0:0:
475,192,330763,1,0,0:0:0:0:
256,192,330763,1,0,0:0:0:0:
182,192,330930,128,0,331180:0:0:0:0:
109,192,330930,128,0,331180:0:0:0:0:
36,192,330930,128,0,331180:0:0:0:0:
329,192,330930,1,0,0:0:0:0:
475,192,331097,1,0,0:0:0:0:
402,192,331097,1,0,0:0:0:0:
329,192,331180,1,0,0:0:0:0:
256,192,331180,1,0,0:0:0:0:
402,192,331263,128,0,331430:0:0:0:0:
182,192,331263,128,0,331347:0:0:0:0:
109,192,331263,128,0,331347:0:0:0:0:
475,192,331263,128,0,331430:0:0:0:0:
329,192,331430,128,0,331513:0:0:0:0:
256,192,331430,128,0,331513:0:0:0:0:
36,192,331430,128,0,331763:0:0:0:0:
182,192,331597,128,0,331763:0:0:0:0:
109,192,331597,128,0,331763:0:0:0:0:
256,192,331597,1,0,0:0:0:0:
329,192,331680,1,0,0:0:0:0:
402,192,331763,1,0,0:0:0:0:
256,192,331763,1,0,0:0:0:0:
475,192,331763,128,0,332763:0:0:0:0:
182,192,331847,1,0,0:0:0:0:
109,192,331847,1,0,0:0:0:0:
402,192,331930,1,0,0:0:0:0:
329,192,331930,1,0,0:0:0:0:
109,192,332097,1,0,0:0:0:0:
329,192,332097,1,0,0:0:0:0:
256,192,332097,1,0,0:0:0:0:
36,192,332097,1,0,0:0:0:0:
402,192,332263,128,0,332763:0:0:0:0:
182,192,332263,1,0,0:0:0:0:
109,192,332263,1,0,0:0:0:0:
329,192,332347,1,0,0:0:0:0:
256,192,332347,1,0,0:0:0:0:
109,192,332430,1,0,0:0:0:0:
256,192,332513,1,0,0:0:0:0:
182,192,332513,1,0,0:0:0:0:
109,192,332597,1,0,0:0:0:0:
36,192,332597,1,0,0:0:0:0:
329,192,332597,1,0,0:0:0:0:
182,192,332680,1,0,0:0:0:0:
329,192,332763,1,0,0:0:0:0:
256,192,332763,1,0,0:0:0:0:
36,192,332763,1,0,0:0:0:0:
109,192,332847,1,0,0:0:0:0:
182,192,332930,1,0,0:0:0:0:
475,192,332930,128,0,333097:0:0:0:0:
402,192,332930,128,0,333097:0:0:0:0:
329,192,332930,128,0,333097:0:0:0:0:
475,192,333263,128,0,335097:0:0:0:0:
402,192,333597,128,0,333763:0:0:0:0:
329,192,333763,128,0,333847:0:0:0:0:
256,192,333847,128,0,333930:0:0:0:0:
182,192,333930,128,0,334013:0:0:0:0:
36,192,334013,128,0,334097:0:0:0:0:
329,192,334097,128,0,334180:0:0:0:0:
182,192,334180,128,0,334263:0:0:0:0:
109,192,334263,128,0,334347:0:0:0:0:
402,192,334347,128,0,334430:0:0:0:0:
256,192,334430,128,0,334513:0:0:0:0:
329,192,334513,128,0,334597:0:0:0:0:
182,192,334597,128,0,334680:0:0:0:0:
36,192,334680,128,0,334763:0:0:0:0:
256,192,334763,128,0,334847:0:0:0:0:
109,192,334847,128,0,334930:0:0:0:0:
329,192,334930,128,0,335013:0:0:0:0:
182,192,335013,128,0,335097:0:0:0:0:
36,192,335097,128,0,335763:0:0:0:0:
109,192,335097,128,0,335763:0:0:0:0:
475,192,335263,128,0,335597:0:0:0:0:
402,192,335486,1,0,0:0:0:0:
256,192,335541,1,0,0:0:0:0:
329,192,335597,1,0,0:0:0:0:
182,192,335652,128,0,335763:0:0:0:0:
475,192,335763,1,0,0:0:0:0:
402,192,335763,1,0,0:0:0:0:
329,192,335763,1,0,0:0:0:0:
256,192,335763,1,0,0:0:0:0:
182,192,335929,1,0,0:0:0:0:
475,192,336012,1,0,0:0:0:0:
329,192,336012,1,0,0:0:0:0:
256,192,336012,1,0,0:0:0:0:
109,192,336012,1,0,0:0:0:0:
36,192,336012,1,0,0:0:0:0:
402,192,336262,1,0,0:0:0:0:
329,192,336262,1,0,0:0:0:0:
182,192,336262,1,0,0:0:0:0:
36,192,336262,1,0,0:0:0:0:
475,192,336262,128,0,336596:0:0:0:0:
182,192,336429,1,0,0:0:0:0:
109,192,336512,1,0,0:0:0:0:
329,192,336596,1,0,0:0:0:0:
256,192,336596,1,0,0:0:0:0:
36,192,336596,1,0,0:0:0:0:
329,192,336679,1,0,0:0:0:0:
256,192,336679,1,0,0:0:0:0:
475,192,336762,1,0,0:0:0:0:
182,192,336762,1,0,0:0:0:0:
36,192,336762,1,0,0:0:0:0:
402,192,336762,1,0,0:0:0:0:
256,192,336846,1,0,0:0:0:0:
109,192,336929,1,0,0:0:0:0:
329,192,336929,1,0,0:0:0:0:
182,192,337012,1,0,0:0:0:0:
256,192,337012,1,0,0:0:0:0:
402,192,337012,1,0,0:0:0:0:
36,192,337096,1,0,0:0:0:0:
475,192,337096,128,0,337429:0:0:0:0:
402,192,337262,1,0,0:0:0:0:
182,192,337262,1,0,0:0:0:0:
109,192,337262,1,0,0:0:0:0:
329,192,337346,1,0,0:0:0:0:
256,192,337346,1,0,0:0:0:0:
402,192,337429,1,0,0:0:0:0:
109,192,337429,1,0,0:0:0:0:
36,192,337429,1,0,0:0:0:0:
402,192,337596,128,0,337762:0:0:0:0:
256,192,337596,128,0,337762:0:0:0:0:
109,192,337679,1,0,0:0:0:0:
36,192,337679,1,0,0:0:0:0:
329,192,337762,1,0,0:0:0:0:
182,192,337762,1,0,0:0:0:0:
475,192,337762,1,0,0:0:0:0:
109,192,337929,1,0,0:0:0:0:
475,192,338012,1,0,0:0:0:0:
402,192,338012,1,0,0:0:0:0:
256,192,338012,1,0,0:0:0:0:
36,192,338012,1,0,0:0:0:0:
182,192,338012,1,0,0:0:0:0:
329,192,338096,1,0,0:0:0:0:
475,192,338262,1,0,0:0:0:0:
256,192,338262,1,0,0:0:0:0:
182,192,338262,1,0,0:0:0:0:
109,192,338262,1,0,0:0:0:0:
36,192,338262,1,0,0:0:0:0:
402,192,338346,1,0,0:0:0:0:
329,192,338346,1,0,0:0:0:0:
182,192,338429,1,0,0:0:0:0:
109,192,338429,1,0,0:0:0:0:
475,192,338512,1,0,0:0:0:0:
402,192,338512,1,0,0:0:0:0:
182,192,338596,1,0,0:0:0:0:
36,192,338596,1,0,0:0:0:0:
329,192,338596,1,0,0:0:0:0:
256,192,338679,1,0,0:0:0:0:
109,192,338762,1,0,0:0:0:0:
36,192,338762,1,0,0:0:0:0:
402,192,338762,1,0,0:0:0:0:
475,192,338762,128,0,339012:0:0:0:0:
182,192,338846,1,0,0:0:0:0:
402,192,338929,1,0,0:0:0:0:
256,192,338929,1,0,0:0:0:0:
329,192,339012,1,0,0:0:0:0:
182,192,339012,1,0,0:0:0:0:
109,192,339012,1,0,0:0:0:0:
36,192,339012,128,0,339262:0:0:0:0:
402,192,339096,1,0,0:0:0:0:
182,192,339179,1,0,0:0:0:0:
329,192,339262,1,0,0:0:0:0:
256,192,339262,1,0,0:0:0:0:
109,192,339262,1,0,0:0:0:0:
475,192,339262,1,0,0:0:0:0:
402,192,339262,128,0,339596:0:0:0:0:
256,192,339429,1,0,0:0:0:0:
182,192,339429,1,0,0:0:0:0:
329,192,339512,1,0,0:0:0:0:
109,192,339596,128,0,339762:0:0:0:0:
475,192,339596,1,0,0:0:0:0:
182,192,339596,1,0,0:0:0:0:
256,192,339679,1,0,0:0:0:0:
475,192,339762,1,0,0:0:0:0:
402,192,339762,1,0,0:0:0:0:
329,192,339762,1,0,0:0:0:0:
182,192,339762,1,0,0:0:0:0:
36,192,339762,1,0,0:0:0:0:
329,192,339985,1,0,0:0:0:0:
475,192,340012,1,0,0:0:0:0:
256,192,340012,1,0,0:0:0:0:
182,192,340012,1,0,0:0:0:0:
109,192,340012,1,0,0:0:0:0:
36,192,340096,1,0,0:0:0:0:
402,192,340096,1,0,0:0:0:0:
329,192,340207,1,0,0:0:0:0:
475,192,340262,1,0,0:0:0:0:
402,192,340262,1,0,0:0:0:0:
36,192,340262,1,0,0:0:0:0:
182,192,340318,1,0,0:0:0:0:
109,192,340429,1,0,0:0:0:0:
329,192,340429,1,0,0:0:0:0:
256,192,340540,1,0,0:0:0:0:
475,192,340596,1,0,0:0:0:0:
182,192,340596,1,0,0:0:0:0:
109,192,340651,1,0,0:0:0:0:
329,192,340679,1,0,0:0:0:0:
402,192,340679,1,0,0:0:0:0:
182,192,340762,1,0,0:0:0:0:
36,192,340762,1,0,0:0:0:0:
256,192,340762,1,0,0:0:0:0:
329,192,340874,1,0,0:0:0:0:
36,192,340929,1,0,0:0:0:0:
109,192,340929,1,0,0:0:0:0:
402,192,340929,1,0,0:0:0:0:
182,192,340985,1,0,0:0:0:0:
256,192,341012,1,0,0:0:0:0:
329,192,341012,1,0,0:0:0:0:
402,192,341096,1,0,0:0:0:0:
36,192,341096,128,0,341262:0:0:0:0:
109,192,341096,128,0,341262:0:0:0:0:
182,192,341262,1,0,0:0:0:0:
402,192,341262,1,0,0:0:0:0:
329,192,341262,1,0,0:0:0:0:
402,192,341346,1,0,0:0:0:0:
329,192,341346,1,0,0:0:0:0:
475,192,341429,1,0,0:0:0:0:
256,192,341429,1,0,0:0:0:0:
109,192,341429,1,0,0:0:0:0:
182,192,341512,1,0,0:0:0:0:
329,192,341596,1,0,0:0:0:0:
402,192,341596,1,0,0:0:0:0:
109,192,341596,1,0,0:0:0:0:
182,192,341679,1,0,0:0:0:0:
329,192,341762,1,0,0:0:0:0:
475,192,341762,1,0,0:0:0:0:
402,192,341762,1,0,0:0:0:0:
256,192,341762,1,0,0:0:0:0:
36,192,341762,1,0,0:0:0:0:
182,192,341929,1,0,0:0:0:0:
109,192,342012,1,0,0:0:0:0:
36,192,342012,1,0,0:0:0:0:
402,192,342012,1,0,0:0:0:0:
256,192,342012,1,0,0:0:0:0:
329,192,342012,1,0,0:0:0:0:
475,192,342096,1,0,0:0:0:0:
329,192,342179,1,0,0:0:0:0:
182,192,342179,1,0,0:0:0:0:
36,192,342262,1,0,0:0:0:0:
402,192,342262,1,0,0:0:0:0:
109,192,342262,1,0,0:0:0:0:
329,192,342346,1,0,0:0:0:0:
182,192,342346,1,0,0:0:0:0:
256,192,342429,1,0,0:0:0:0:
475,192,342429,1,0,0:0:0:0:
402,192,342512,1,0,0:0:0:0:
109,192,342512,1,0,0:0:0:0:
36,192,342512,1,0,0:0:0:0:
329,192,342596,1,0,0:0:0:0:
182,192,342596,1,0,0:0:0:0:
256,192,342679,1,0,0:0:0:0:
109,192,342679,1,0,0:0:0:0:
36,192,342762,1,0,0:0:0:0:
475,192,342762,1,0,0:0:0:0:
402,192,342762,1,0,0:0:0:0:
329,192,342846,1,0,0:0:0:0:
182,192,342846,1,0,0:0:0:0:
256,192,342929,1,0,0:0:0:0:
109,192,342929,1,0,0:0:0:0:
475,192,343012,1,0,0:0:0:0:
36,192,343012,1,0,0:0:0:0:
402,192,343096,1,0,0:0:0:0:
256,192,343096,1,0,0:0:0:0:
329,192,343179,1,0,0:0:0:0:
182,192,343179,1,0,0:0:0:0:
109,192,343262,1,0,0:0:0:0:
36,192,343262,1,0,0:0:0:0:
475,192,343346,1,0,0:0:0:0:
329,192,343346,1,0,0:0:0:0:
402,192,343429,1,0,0:0:0:0:
256,192,343429,1,0,0:0:0:0:
182,192,343429,1,0,0:0:0:0:
109,192,343512,1,0,0:0:0:0:
36,192,343512,1,0,0:0:0:0:
329,192,343596,1,0,0:0:0:0:
182,192,343596,1,0,0:0:0:0:
475,192,343596,1,0,0:0:0:0:
402,192,343679,1,0,0:0:0:0:
256,192,343679,1,0,0:0:0:0:
475,192,343679,1,0,0:0:0:0:
182,192,343762,1,0,0:0:0:0:
109,192,343762,1,0,0:0:0:0:
36,192,343762,1,0,0:0:0:0:
329,192,343762,1,0,0:0:0:0:
36,192,344096,128,0,344929:0:0:0:0:
182,192,344096,128,0,344262:0:0:0:0:
109,192,344262,128,0,344596:0:0:0:0:
256,192,344262,128,0,344429:0:0:0:0:
182,192,344429,128,0,344762:0:0:0:0:
329,192,344429,128,0,344596:0:0:0:0:
402,192,344596,128,0,344762:0:0:0:0:
256,192,344596,128,0,344929:0:0:0:0:
109,192,344762,128,0,345096:0:0:0:0:
329,192,344762,128,0,345096:0:0:0:0:
182,192,344929,128,0,345096:0:0:0:0:
402,192,344929,128,0,345096:0:0:0:0:
36,192,345096,128,0,345429:0:0:0:0:
256,192,345096,128,0,345318:0:0:0:0:
109,192,345207,128,0,345429:0:0:0:0:
329,192,345207,128,0,345429:0:0:0:0:
182,192,345318,128,0,345429:0:0:0:0:
402,192,345318,128,0,345429:0:0:0:0:
256,192,345429,128,0,345596:0:0:0:0:
475,192,345429,128,0,345596:0:0:0:0:
329,192,345596,128,0,345761:0:0:0:0:
182,192,345596,128,0,345761:0:0:0:0:
256,192,345761,128,0,346677:0:0:0:0:
475,192,345761,1,0,0:0:0:0:
402,192,345761,1,0,0:0:0:0:
109,192,345844,1,0,0:0:0:0:
36,192,345844,1,0,0:0:0:0:
475,192,345927,1,0,0:0:0:0:
402,192,345927,1,0,0:0:0:0:
109,192,346010,1,0,0:0:0:0:
36,192,346010,1,0,0:0:0:0:
475,192,346094,1,0,0:0:0:0:
402,192,346094,1,0,0:0:0:0:
109,192,346177,1,0,0:0:0:0:
36,192,346177,1,0,0:0:0:0:
475,192,346260,1,0,0:0:0:0:
402,192,346260,1,0,0:0:0:0:
109,192,346344,1,0,0:0:0:0:
36,192,346344,1,0,0:0:0:0:
475,192,346427,1,0,0:0:0:0:
402,192,346427,1,0,0:0:0:0:
109,192,346510,1,0,0:0:0:0:
36,192,346510,1,0,0:0:0:0:
475,192,346594,1,0,0:0:0:0:
402,192,346594,1,0,0:0:0:0:
109,192,346677,1,0,0:0:0:0:
36,192,346677,1,0,0:0:0:0:
256,192,346760,128,0,347677:0:0:0:0:
402,192,346760,1,0,0:0:0:0:
329,192,346760,1,0,0:0:0:0:
182,192,346844,1,0,0:0:0:0:
109,192,346844,1,0,0:0:0:0:
402,192,346927,1,0,0:0:0:0:
329,192,346927,1,0,0:0:0:0:
182,192,347010,1,0,0:0:0:0:
109,192,347010,1,0,0:0:0:0:
402,192,347094,1,0,0:0:0:0:
329,192,347094,1,0,0:0:0:0:
182,192,347177,1,0,0:0:0:0:
109,192,347177,1,0,0:0:0:0:
402,192,347260,1,0,0:0:0:0:
329,192,347260,1,0,0:0:0:0:
182,192,347344,1,0,0:0:0:0:
109,192,347344,1,0,0:0:0:0:
402,192,347427,1,0,0:0:0:0:
329,192,347427,1,0,0:0:0:0:
182,192,347510,1,0,0:0:0:0:
109,192,347510,1,0,0:0:0:0:
402,192,347594,1,0,0:0:0:0:
329,192,347594,1,0,0:0:0:0:
182,192,347677,1,0,0:0:0:0:
109,192,347677,1,0,0:0:0:0:
256,192,347760,128,0,348760:0:0:0:0:
475,192,347760,1,0,0:0:0:0:
402,192,347760,1,0,0:0:0:0:
329,192,347760,1,0,0:0:0:0:
182,192,347844,1,0,0:0:0:0:
109,192,347844,1,0,0:0:0:0:
36,192,347844,1,0,0:0:0:0:
475,192,347927,1,0,0:0:0:0:
402,192,347927,1,0,0:0:0:0:
329,192,347927,1,0,0:0:0:0:
182,192,348010,1,0,0:0:0:0:
109,192,348010,1,0,0:0:0:0:
36,192,348010,1,0,0:0:0:0:
475,192,348094,1,0,0:0:0:0:
402,192,348094,1,0,0:0:0:0:
329,192,348094,1,0,0:0:0:0:
182,192,348177,1,0,0:0:0:0:
109,192,348177,1,0,0:0:0:0:
36,192,348177,1,0,0:0:0:0:
475,192,348260,1,0,0:0:0:0:
402,192,348260,1,0,0:0:0:0:
329,192,348260,1,0,0:0:0:0:
182,192,348344,1,0,0:0:0:0:
109,192,348344,1,0,0:0:0:0:
36,192,348344,1,0,0:0:0:0:
475,192,348427,1,0,0:0:0:0:
402,192,348427,1,0,0:0:0:0:
329,192,348427,1,0,0:0:0:0:
182,192,348510,1,0,0:0:0:0:
109,192,348510,1,0,0:0:0:0:
36,192,348510,1,0,0:0:0:0:
475,192,348594,1,0,0:0:0:0:
402,192,348594,1,0,0:0:0:0:
329,192,348594,1,0,0:0:0:0:
182,192,348677,1,0,0:0:0:0:
109,192,348677,1,0,0:0:0:0:
36,192,348677,1,0,0:0:0:0:
475,192,348760,1,0,0:0:0:0:
402,192,348760,1,0,0:0:0:0:
329,192,348760,1,0,0:0:0:0:
182,192,348760,1,0,0:0:0:0:
109,192,348760,1,0,0:0:0:0:
36,192,348760,1,0,0:0:0:0:
402,192,348927,1,0,0:0:0:0:
109,192,348927,1,0,0:0:0:0:
475,192,349010,1,0,0:0:0:0:
36,192,349010,1,0,0:0:0:0:
402,192,349094,1,0,0:0:0:0:
109,192,349094,1,0,0:0:0:0:
329,192,349177,1,0,0:0:0:0:
182,192,349177,1,0,0:0:0:0:
256,192,349260,1,0,0:0:0:0:
109,192,349344,1,0,0:0:0:0:
402,192,349344,1,0,0:0:0:0:
36,192,349427,1,0,0:0:0:0:
475,192,349427,1,0,0:0:0:0:
182,192,349510,1,0,0:0:0:0:
329,192,349510,1,0,0:0:0:0:
402,192,349677,1,0,0:0:0:0:
109,192,349677,1,0,0:0:0:0:
475,192,349760,1,0,0:0:0:0:
36,192,349760,1,0,0:0:0:0:
329,192,349844,1,0,0:0:0:0:
182,192,349844,1,0,0:0:0:0:
256,192,349927,1,0,0:0:0:0:
329,192,350010,1,0,0:0:0:0:
182,192,350010,1,0,0:0:0:0:
36,192,350094,1,0,0:0:0:0:
475,192,350094,1,0,0:0:0:0:
182,192,350427,128,0,351760:0:0:0:0:
109,192,350427,128,0,351093:0:0:0:0:
36,192,350427,128,0,355831:0:0:0:0:
329,192,350427,128,0,351760:0:0:0:0:
402,192,350427,128,0,352760:0:0:0:0:
475,192,350427,128,0,355831:0:0:0:0:
402,192,355831,1,0,0:0:0:0:
329,192,356131,1,0,0:0:0:0:
256,192,356431,1,0,0:0:0:0:
109,192,356431,1,0,0:0:0:0:
182,192,356431,1,0,0:0:0:0:
329,192,356918,1,0,0:0:0:0:
402,192,357406,1,0,0:0:0:0:
329,192,357893,1,0,0:0:0:0:
402,192,358231,1,0,0:0:0:0:
36,192,358831,128,0,358868:0:0:0:0:
402,192,360631,1,0,0:0:0:0:
329,192,360931,1,0,0:0:0:0:
36,192,361231,1,0,0:0:0:0:
256,192,361231,1,0,0:0:0:0:
109,192,361231,1,0,0:0:0:0:
329,192,361718,1,0,0:0:0:0:
402,192,362168,1,0,0:0:0:0:
329,192,362731,1,0,0:0:0:0:
402,192,363068,1,0,0:0:0:0:
36,192,363631,128,0,363668:0:0:0:0:
329,192,364831,1,0,0:0:0:0:
182,192,364831,1,0,0:0:0:0:
109,192,364831,1,0,0:0:0:0:
402,192,364868,1,0,0:0:0:0:
329,192,365131,1,0,0:0:0:0:
256,192,365431,1,0,0:0:0:0:
182,192,365731,1,0,0:0:0:0:
402,192,366031,1,0,0:0:0:0:
256,192,366031,1,0,0:0:0:0:
109,192,366031,1,0,0:0:0:0:
36,192,366031,1,0,0:0:0:0:
329,192,366481,1,0,0:0:0:0:
402,192,366931,1,0,0:0:0:0:
329,192,367531,1,0,0:0:0:0:
402,192,367793,1,0,0:0:0:0:
475,192,368131,1,0,0:0:0:0:
256,192,368431,1,0,0:0:0:0:
36,192,368431,1,0,0:0:0:0:
109,192,368468,1,0,0:0:0:0:
402,192,368731,1,0,0:0:0:0:
475,192,368881,1,0,0:0:0:0:
329,192,369031,1,0,0:0:0:0:
256,192,369331,1,0,0:0:0:0:
182,192,369631,1,0,0:0:0:0:
109,192,370081,1,0,0:0:0:0:
36,192,370531,1,0,0:0:0:0:
109,192,370831,1,0,0:0:0:0:
256,192,370831,1,0,0:0:0:0:
329,192,370881,1,0,0:0:0:0:
329,192,371981,128,0,372081:0:0:0:0:
402,192,372031,128,0,372131:0:0:0:0:
402,192,372856,128,0,373006:0:0:0:0:
475,192,372931,128,0,373081:0:0:0:0:
36,192,376231,1,0,0:0:0:0:
402,192,376231,1,0,0:0:0:0:
182,192,376381,1,0,0:0:0:0:
329,192,376381,1,0,0:0:0:0:
109,192,376456,1,0,0:0:0:0:
402,192,376456,1,0,0:0:0:0:
36,192,376506,1,0,0:0:0:0:
475,192,376531,1,0,0:0:0:0:
182,192,376556,1,0,0:0:0:0:
109,192,376606,1,0,0:0:0:0:
36,192,376656,1,0,0:0:0:0:
182,192,376681,128,0,376831:0:0:0:0:
475,192,376681,1,0,0:0:0:0:
475,192,376831,1,0,0:0:0:0:
402,192,376831,1,0,0:0:0:0:
256,192,376831,1,0,0:0:0:0:
109,192,376831,1,0,0:0:0:0:
36,192,376831,1,0,0:0:0:0:
329,192,376981,1,0,0:0:0:0:
256,192,376981,1,0,0:0:0:0:
182,192,377131,1,0,0:0:0:0:
109,192,377131,1,0,0:0:0:0:
402,192,377131,1,0,0:0:0:0:
329,192,377281,128,0,377506:0:0:0:0:
182,192,377281,128,0,377506:0:0:0:0:
36,192,377431,1,0,0:0:0:0:
109,192,377506,1,0,0:0:0:0:
329,192,377581,1,0,0:0:0:0:
182,192,377581,1,0,0:0:0:0:
256,192,377656,1,0,0:0:0:0:
475,192,377731,1,0,0:0:0:0:
402,192,377731,1,0,0:0:0:0:
109,192,377731,1,0,0:0:0:0:
402,192,377881,1,0,0:0:0:0:
182,192,377881,1,0,0:0:0:0:
329,192,377956,1,0,0:0:0:0:
256,192,378031,1,0,0:0:0:0:
109,192,378031,1,0,0:0:0:0:
36,192,378031,1,0,0:0:0:0:
475,192,378031,1,0,0:0:0:0:
182,192,378031,1,0,0:0:0:0:
329,192,378181,1,0,0:0:0:0:
182,192,378181,1,0,0:0:0:0:
402,192,378256,1,0,0:0:0:0:
256,192,378331,1,0,0:0:0:0:
109,192,378331,1,0,0:0:0:0:
36,192,378331,1,0,0:0:0:0:
475,192,378481,1,0,0:0:0:0:
109,192,378481,1,0,0:0:0:0:
329,192,378481,1,0,0:0:0:0:
182,192,378556,1,0,0:0:0:0:
402,192,378631,1,0,0:0:0:0:
256,192,378631,1,0,0:0:0:0:
475,192,378631,128,0,379231:0:0:0:0:
109,192,378706,1,0,0:0:0:0:
36,192,378706,1,0,0:0:0:0:
329,192,378781,1,0,0:0:0:0:
402,192,378931,1,0,0:0:0:0:
329,192,378931,1,0,0:0:0:0:
36,192,378931,1,0,0:0:0:0:
109,192,378931,1,0,0:0:0:0:
182,192,379006,1,0,0:0:0:0:
256,192,379081,1,0,0:0:0:0:
329,192,379156,1,0,0:0:0:0:
402,192,379231,1,0,0:0:0:0:
182,192,379231,1,0,0:0:0:0:
109,192,379231,1,0,0:0:0:0:
36,192,379231,1,0,0:0:0:0:
329,192,379381,1,0,0:0:0:0:
109,192,379381,1,0,0:0:0:0:
182,192,379456,1,0,0:0:0:0:
475,192,379531,1,0,0:0:0:0:
256,192,379531,1,0,0:0:0:0:
36,192,379531,1,0,0:0:0:0:
329,192,379606,1,0,0:0:0:0:
402,192,379681,1,0,0:0:0:0:
109,192,379681,1,0,0:0:0:0:
182,192,379681,1,0,0:0:0:0:
475,192,379681,128,0,379981:0:0:0:0:
329,192,379831,1,0,0:0:0:0:
36,192,379906,1,0,0:0:0:0:
109,192,379906,1,0,0:0:0:0:
402,192,379981,1,0,0:0:0:0:
256,192,379981,1,0,0:0:0:0:
182,192,379981,1,0,0:0:0:0:
329,192,380056,1,0,0:0:0:0:
475,192,380131,1,0,0:0:0:0:
402,192,380131,1,0,0:0:0:0:
109,192,380131,1,0,0:0:0:0:
36,192,380131,1,0,0:0:0:0:
329,192,380281,1,0,0:0:0:0:
182,192,380281,1,0,0:0:0:0:
475,192,380356,1,0,0:0:0:0:
402,192,380431,1,0,0:0:0:0:
256,192,380431,1,0,0:0:0:0:
36,192,380431,1,0,0:0:0:0:
109,192,380431,1,0,0:0:0:0:
182,192,380431,1,0,0:0:0:0:
329,192,380581,1,0,0:0:0:0:
182,192,380581,1,0,0:0:0:0:
402,192,380656,1,0,0:0:0:0:
475,192,380731,1,0,0:0:0:0:
256,192,380731,1,0,0:0:0:0:
109,192,380731,1,0,0:0:0:0:
36,192,380731,1,0,0:0:0:0:
329,192,380806,1,0,0:0:0:0:
475,192,380881,1,0,0:0:0:0:
109,192,380881,1,0,0:0:0:0:
36,192,380881,1,0,0:0:0:0:
329,192,380956,1,0,0:0:0:0:
182,192,381031,1,0,0:0:0:0:
402,192,381031,128,0,381331:0:0:0:0:
36,192,381181,1,0,0:0:0:0:
256,192,381181,1,0,0:0:0:0:
109,192,381256,1,0,0:0:0:0:
182,192,381331,1,0,0:0:0:0:
329,192,381331,1,0,0:0:0:0:
475,192,381331,1,0,0:0:0:0:
402,192,381406,1,0,0:0:0:0:
329,192,381481,1,0,0:0:0:0:
256,192,381481,1,0,0:0:0:0:
182,192,381556,1,0,0:0:0:0:
109,192,381631,1,0,0:0:0:0:
475,192,381631,1,0,0:0:0:0:
402,192,381631,1,0,0:0:0:0:
36,192,381631,1,0,0:0:0:0:
329,192,381631,1,0,0:0:0:0:
256,192,381706,1,0,0:0:0:0:
182,192,381781,1,0,0:0:0:0:
109,192,381781,1,0,0:0:0:0:
329,192,381856,1,0,0:0:0:0:
475,192,381931,1,0,0:0:0:0:
256,192,381931,1,0,0:0:0:0:
402,192,381931,1,0,0:0:0:0:
36,192,381931,1,0,0:0:0:0:
182,192,382006,1,0,0:0:0:0:
109,192,382081,1,0,0:0:0:0:
475,192,382081,1,0,0:0:0:0:
402,192,382081,1,0,0:0:0:0:
329,192,382231,1,0,0:0:0:0:
182,192,382231,1,0,0:0:0:0:
36,192,382231,1,0,0:0:0:0:
109,192,382231,1,0,0:0:0:0:
402,192,382231,1,0,0:0:0:0:
36,192,382381,1,0,0:0:0:0:
256,192,382381,1,0,0:0:0:0:
329,192,382456,1,0,0:0:0:0:
109,192,382456,1,0,0:0:0:0:
256,192,382531,1,0,0:0:0:0:
182,192,382531,1,0,0:0:0:0:
475,192,382531,1,0,0:0:0:0:
402,192,382531,1,0,0:0:0:0:
329,192,382681,1,0,0:0:0:0:
256,192,382681,1,0,0:0:0:0:
109,192,382681,1,0,0:0:0:0:
36,192,382681,1,0,0:0:0:0:
475,192,382756,1,0,0:0:0:0:
402,192,382831,1,0,0:0:0:0:
182,192,382831,1,0,0:0:0:0:
329,192,382831,1,0,0:0:0:0:
109,192,382831,1,0,0:0:0:0:
36,192,382831,1,0,0:0:0:0:
256,192,382981,1,0,0:0:0:0:
475,192,383131,1,0,0:0:0:0:
329,192,383131,1,0,0:0:0:0:
109,192,383131,1,0,0:0:0:0:
256,192,383131,1,0,0:0:0:0:
36,192,383131,1,0,0:0:0:0:
182,192,383206,1,0,0:0:0:0:
402,192,383281,1,0,0:0:0:0:
109,192,383281,1,0,0:0:0:0:
182,192,383356,1,0,0:0:0:0:
329,192,383356,1,0,0:0:0:0:
256,192,383431,1,0,0:0:0:0:
475,192,383431,1,0,0:0:0:0:
36,192,383431,1,0,0:0:0:0:
402,192,383431,1,0,0:0:0:0:
109,192,383506,1,0,0:0:0:0:
182,192,383581,1,0,0:0:0:0:
475,192,383731,1,0,0:0:0:0:
402,192,383731,1,0,0:0:0:0:
36,192,383731,1,0,0:0:0:0:
256,192,383731,1,0,0:0:0:0:
109,192,383731,1,0,0:0:0:0:
182,192,383806,1,0,0:0:0:0:
329,192,383806,1,0,0:0:0:0:
109,192,383881,1,0,0:0:0:0:
402,192,383881,1,0,0:0:0:0:
475,192,383956,1,0,0:0:0:0:
36,192,383956,1,0,0:0:0:0:
402,192,384031,1,0,0:0:0:0:
329,192,384031,1,0,0:0:0:0:
256,192,384031,1,0,0:0:0:0:
182,192,384031,1,0,0:0:0:0:
109,192,384031,1,0,0:0:0:0:
475,192,384331,1,0,0:0:0:0:
329,192,384331,1,0,0:0:0:0:
182,192,384331,1,0,0:0:0:0:
36,192,384331,1,0,0:0:0:0:
256,192,384331,1,0,0:0:0:0:
475,192,384481,1,0,0:0:0:0:
329,192,384481,1,0,0:0:0:0:
182,192,384481,1,0,0:0:0:0:
36,192,384481,1,0,0:0:0:0:
475,192,384631,1,0,0:0:0:0:
329,192,384631,1,0,0:0:0:0:
36,192,384631,1,0,0:0:0:0:
182,192,384631,1,0,0:0:0:0:
256,192,384631,1,0,0:0:0:0:
475,192,384781,1,0,0:0:0:0:
329,192,384781,1,0,0:0:0:0:
182,192,384781,1,0,0:0:0:0:
36,192,384781,1,0,0:0:0:0:
475,192,384931,1,0,0:0:0:0:
329,192,384931,1,0,0:0:0:0:
182,192,384931,1,0,0:0:0:0:
36,192,384931,1,0,0:0:0:0:
256,192,384931,1,0,0:0:0:0:
475,192,385081,1,0,0:0:0:0:
329,192,385081,1,0,0:0:0:0:
182,192,385081,1,0,0:0:0:0:
36,192,385081,1,0,0:0:0:0:
402,192,385231,1,0,0:0:0:0:
256,192,385231,1,0,0:0:0:0:
109,192,385231,1,0,0:0:0:0:
475,192,385381,1,0,0:0:0:0:
329,192,385381,1,0,0:0:0:0:
182,192,385381,1,0,0:0:0:0:
36,192,385381,1,0,0:0:0:0:
475,192,385531,1,0,0:0:0:0:
329,192,385531,1,0,0:0:0:0:
256,192,385531,1,0,0:0:0:0:
36,192,385531,1,0,0:0:0:0:
182,192,385531,1,0,0:0:0:0:
475,192,385831,1,0,0:0:0:0:
329,192,385831,1,0,0:0:0:0:
256,192,385831,1,0,0:0:0:0:
182,192,385831,1,0,0:0:0:0:
36,192,385831,1,0,0:0:0:0:
475,192,385981,1,0,0:0:0:0:
329,192,385981,1,0,0:0:0:0:
182,192,385981,1,0,0:0:0:0:
36,192,385981,1,0,0:0:0:0:
475,192,386131,1,0,0:0:0:0:
329,192,386131,1,0,0:0:0:0:
256,192,386131,1,0,0:0:0:0:
182,192,386131,1,0,0:0:0:0:
36,192,386131,1,0,0:0:0:0:
475,192,386281,1,0,0:0:0:0:
329,192,386281,1,0,0:0:0:0:
256,192,386281,1,0,0:0:0:0:
182,192,386281,1,0,0:0:0:0:
36,192,386281,1,0,0:0:0:0:
256,192,386581,1,0,0:0:0:0:
475,192,386581,1,0,0:0:0:0:
182,192,386581,1,0,0:0:0:0:
329,192,386581,1,0,0:0:0:0:
36,192,386581,1,0,0:0:0:0:
475,192,386731,1,0,0:0:0:0:
256,192,386731,1,0,0:0:0:0:
329,192,386731,1,0,0:0:0:0:
36,192,386731,1,0,0:0:0:0:
182,192,386731,1,0,0:0:0:0:
475,192,386881,1,0,0:0:0:0:
329,192,386881,1,0,0:0:0:0:
256,192,386881,1,0,0:0:0:0:
182,192,386881,1,0,0:0:0:0:
36,192,386881,1,0,0:0:0:0:
329,192,387031,1,0,0:0:0:0:
475,192,387031,1,0,0:0:0:0:
182,192,387031,1,0,0:0:0:0:
256,192,387031,1,0,0:0:0:0:
36,192,387031,1,0,0:0:0:0:
182,192,387181,1,0,0:0:0:0:
329,192,387181,1,0,0:0:0:0:
475,192,387181,1,0,0:0:0:0:
36,192,387181,1,0,0:0:0:0:
256,192,387181,1,0,0:0:0:0:
475,192,387331,1,0,0:0:0:0:
256,192,387331,1,0,0:0:0:0:
329,192,387331,1,0,0:0:0:0:
36,192,387331,1,0,0:0:0:0:
182,192,387331,1,0,0:0:0:0:
475,192,387481,1,0,0:0:0:0:
329,192,387481,1,0,0:0:0:0:
182,192,387481,1,0,0:0:0:0:
36,192,387481,1,0,0:0:0:0:
256,192,387481,1,0,0:0:0:0:
475,192,387631,1,0,0:0:0:0:
329,192,387631,1,0,0:0:0:0:
256,192,387631,1,0,0:0:0:0:
182,192,387631,1,0,0:0:0:0:
36,192,387631,1,0,0:0:0:0:
402,192,387781,1,0,0:0:0:0:
475,192,387856,1,0,0:0:0:0:
329,192,387931,1,0,0:0:0:0:
402,192,388006,1,0,0:0:0:0:
256,192,388081,1,0,0:0:0:0:
329,192,388156,1,0,0:0:0:0:
182,192,388231,1,0,0:0:0:0:
109,192,388306,1,0,0:0:0:0:
36,192,388381,1,0,0:0:0:0:
182,192,388456,1,0,0:0:0:0:
109,192,388531,1,0,0:0:0:0:
329,192,388606,1,0,0:0:0:0:
182,192,388681,1,0,0:0:0:0:
256,192,388756,1,0,0:0:0:0:
475,192,388831,1,0,0:0:0:0:
402,192,388906,1,0,0:0:0:0:
256,192,388981,1,0,0:0:0:0:
109,192,389056,1,0,0:0:0:0:
36,192,389131,1,0,0:0:0:0:
182,192,389206,1,0,0:0:0:0:
402,192,389281,1,0,0:0:0:0:
475,192,389356,1,0,0:0:0:0:
329,192,389431,1,0,0:0:0:0:
182,192,389431,1,0,0:0:0:0:
109,192,389431,1,0,0:0:0:0:
36,192,389431,1,0,0:0:0:0:
402,192,389731,1,0,0:0:0:0:
256,192,389731,1,0,0:0:0:0:
109,192,389731,1,0,0:0:0:0:
182,192,389731,1,0,0:0:0:0:
36,192,390031,128,0,391081:0:0:0:0:
402,192,390031,128,0,390781:0:0:0:0:
329,192,390031,128,0,390781:0:0:0:0:
182,192,390031,128,0,390781:0:0:0:0:
109,192,390031,128,0,390781:0:0:0:0:
475,192,390931,1,0,0:0:0:0:
329,192,390931,1,0,0:0:0:0:
256,192,390931,1,0,0:0:0:0:
109,192,390931,1,0,0:0:0:0:
329,192,391081,1,0,0:0:0:0:
256,192,391081,1,0,0:0:0:0:
109,192,391081,1,0,0:0:0:0:
475,192,391081,128,0,392431:0:0:0:0:
402,192,391531,128,0,391606:0:0:0:0:
329,192,391606,128,0,391681:0:0:0:0:
182,192,391681,128,0,391756:0:0:0:0:
36,192,391756,128,0,391831:0:0:0:0:
329,192,391831,128,0,391906:0:0:0:0:
256,192,391906,128,0,391981:0:0:0:0:
109,192,391981,128,0,392056:0:0:0:0:
36,192,392056,128,0,392131:0:0:0:0:
256,192,392131,128,0,392206:0:0:0:0:
182,192,392206,128,0,392281:0:0:0:0:
109,192,392281,128,0,392356:0:0:0:0:
36,192,392356,128,0,392431:0:0:0:0:
402,192,392431,128,0,392506:0:0:0:0:
329,192,392506,128,0,392581:0:0:0:0:
182,192,392581,128,0,392656:0:0:0:0:
109,192,392656,128,0,392731:0:0:0:0:
475,192,392731,1,0,0:0:0:0:
402,192,392731,1,0,0:0:0:0:
36,192,392731,128,0,393331:0:0:0:0:
256,192,392731,128,0,392806:0:0:0:0:
182,192,392806,128,0,392881:0:0:0:0:
329,192,392881,128,0,392956:0:0:0:0:
402,192,392956,128,0,393031:0:0:0:0:
256,192,393031,128,0,393106:0:0:0:0:
182,192,393106,128,0,393181:0:0:0:0:
475,192,393181,128,0,393256:0:0:0:0:
402,192,393256,128,0,393331:0:0:0:0:
256,192,393331,1,0,0:0:0:0:
182,192,393331,1,0,0:0:0:0:
329,192,393331,128,0,393631:0:0:0:0:
109,192,393331,128,0,393406:0:0:0:0:
36,192,393406,128,0,393481:0:0:0:0:
182,192,393481,128,0,393556:0:0:0:0:
256,192,393556,128,0,393631:0:0:0:0:
402,192,393631,128,0,394231:0:0:0:0:
109,192,393631,128,0,393706:0:0:0:0:
475,192,393631,1,0,0:0:0:0:
36,192,393631,1,0,0:0:0:0:
182,192,393706,128,0,393781:0:0:0:0:
256,192,393781,128,0,393856:0:0:0:0:
109,192,393856,128,0,393931:0:0:0:0:
329,192,393931,128,0,394006:0:0:0:0:
182,192,394006,128,0,394081:0:0:0:0:
256,192,394081,128,0,394156:0:0:0:0:
109,192,394156,128,0,394231:0:0:0:0:
475,192,394231,128,0,394831:0:0:0:0:
329,192,394231,128,0,394306:0:0:0:0:
36,192,394231,1,0,0:0:0:0:
182,192,394306,128,0,394381:0:0:0:0:
402,192,394381,128,0,394456:0:0:0:0:
329,192,394456,128,0,394531:0:0:0:0:
182,192,394531,128,0,394606:0:0:0:0:
36,192,394606,128,0,394681:0:0:0:0:
256,192,394681,128,0,394756:0:0:0:0:
109,192,394756,128,0,394831:0:0:0:0:
402,192,394831,1,0,0:0:0:0:
329,192,394831,1,0,0:0:0:0:
36,192,394831,128,0,395731:0:0:0:0:
182,192,394831,128,0,394906:0:0:0:0:
256,192,394906,128,0,394981:0:0:0:0:
402,192,394981,128,0,395056:0:0:0:0:
182,192,395056,128,0,395131:0:0:0:0:
329,192,395131,128,0,395206:0:0:0:0:
402,192,395206,128,0,395281:0:0:0:0:
256,192,395281,128,0,395356:0:0:0:0:
329,192,395356,128,0,395431:0:0:0:0:
402,192,395431,128,0,395531:0:0:0:0:
329,192,395531,128,0,395631:0:0:0:0:
402,192,395631,128,0,395731:0:0:0:0:
256,192,395731,1,0,0:0:0:0:
182,192,395731,1,0,0:0:0:0:
109,192,395731,1,0,0:0:0:0:
475,192,395731,1,0,0:0:0:0:
475,192,395881,1,0,0:0:0:0:
182,192,395881,1,0,0:0:0:0:
109,192,395881,1,0,0:0:0:0:
256,192,395881,128,0,397231:0:0:0:0:
402,192,396031,128,0,396631:0:0:0:0:
36,192,396031,128,0,396106:0:0:0:0:
182,192,396106,128,0,396181:0:0:0:0:
109,192,396181,128,0,396256:0:0:0:0:
36,192,396256,128,0,396331:0:0:0:0:
182,192,396331,128,0,396406:0:0:0:0:
329,192,396406,128,0,396481:0:0:0:0:
475,192,396481,128,0,396556:0:0:0:0:
182,192,396556,128,0,396631:0:0:0:0:
329,192,396631,128,0,397231:0:0:0:0:
109,192,396631,128,0,396706:0:0:0:0:
475,192,396706,128,0,396781:0:0:0:0:
402,192,396781,128,0,396856:0:0:0:0:
182,192,396856,128,0,396931:0:0:0:0:
36,192,396931,128,0,397006:0:0:0:0:
109,192,397006,128,0,397081:0:0:0:0:
402,192,397081,128,0,397156:0:0:0:0:
475,192,397156,128,0,397231:0:0:0:0:
36,192,397231,128,0,397831:0:0:0:0:
109,192,397231,128,0,397306:0:0:0:0:
182,192,397306,128,0,397381:0:0:0:0:
329,192,397381,128,0,397456:0:0:0:0:
402,192,397456,128,0,397531:0:0:0:0:
182,192,397531,128,0,397606:0:0:0:0:
256,192,397606,128,0,397681:0:0:0:0:
329,192,397681,128,0,397756:0:0:0:0:
182,192,397756,128,0,397831:0:0:0:0:
256,192,397831,128,0,397906:0:0:0:0:
402,192,397906,128,0,397981:0:0:0:0:
329,192,397981,128,0,398056:0:0:0:0:
182,192,398056,128,0,398131:0:0:0:0:
475,192,398131,128,0,398431:0:0:0:0:
402,192,398131,128,0,398206:0:0:0:0:
256,192,398206,128,0,398281:0:0:0:0:
109,192,398281,128,0,398356:0:0:0:0:
329,192,398356,128,0,398431:0:0:0:0:
36,192,398431,128,0,399031:0:0:0:0:
182,192,398431,128,0,398506:0:0:0:0:
402,192,398506,128,0,398581:0:0:0:0:
256,192,398581,128,0,398656:0:0:0:0:
329,192,398656,128,0,398731:0:0:0:0:
475,192,398731,128,0,398806:0:0:0:0:
182,192,398806,128,0,398881:0:0:0:0:
256,192,398881,128,0,398956:0:0:0:0:
109,192,398956,128,0,399031:0:0:0:0:
402,192,399031,128,0,399631:0:0:0:0:
329,192,399031,128,0,399106:0:0:0:0:
182,192,399106,128,0,399181:0:0:0:0:
109,192,399181,128,0,399256:0:0:0:0:
256,192,399256,128,0,399331:0:0:0:0:
329,192,399331,128,0,399406:0:0:0:0:
182,192,399406,128,0,399481:0:0:0:0:
36,192,399481,128,0,399556:0:0:0:0:
256,192,399556,128,0,399631:0:0:0:0:
475,192,399631,128,0,404431:0:0:0:0:
329,192,399631,1,0,0:0:0:0:
182,192,399631,1,0,0:0:0:0:
109,192,399631,1,0,0:0:0:0:
256,192,399781,1,0,0:0:0:0:
329,192,399856,1,0,0:0:0:0:
182,192,399931,1,0,0:0:0:0:
109,192,399931,1,0,0:0:0:0:
402,192,399931,1,0,0:0:0:0:
36,192,399931,1,0,0:0:0:0:
256,192,400081,1,0,0:0:0:0:
109,192,400231,1,0,0:0:0:0:
36,192,400231,1,0,0:0:0:0:
329,192,400231,1,0,0:0:0:0:
182,192,400381,1,0,0:0:0:0:
256,192,400456,1,0,0:0:0:0:
36,192,400531,1,0,0:0:0:0:
109,192,400531,1,0,0:0:0:0:
402,192,400531,1,0,0:0:0:0:
329,192,400531,1,0,0:0:0:0:
182,192,400681,1,0,0:0:0:0:
402,192,400831,1,0,0:0:0:0:
256,192,400831,1,0,0:0:0:0:
109,192,400831,1,0,0:0:0:0:
329,192,400981,1,0,0:0:0:0:
182,192,401056,1,0,0:0:0:0:
402,192,401131,1,0,0:0:0:0:
256,192,401131,1,0,0:0:0:0:
109,192,401131,1,0,0:0:0:0:
36,192,401131,1,0,0:0:0:0:
182,192,401281,1,0,0:0:0:0:
402,192,401431,1,0,0:0:0:0:
329,192,401431,1,0,0:0:0:0:
109,192,401431,1,0,0:0:0:0:
182,192,401581,1,0,0:0:0:0:
256,192,401656,1,0,0:0:0:0:
402,192,401731,1,0,0:0:0:0:
329,192,401731,1,0,0:0:0:0:
109,192,401731,1,0,0:0:0:0:
36,192,401731,1,0,0:0:0:0:
182,192,401881,1,0,0:0:0:0:
329,192,402031,1,0,0:0:0:0:
256,192,402031,1,0,0:0:0:0:
36,192,402031,1,0,0:0:0:0:
109,192,402181,1,0,0:0:0:0:
182,192,402256,1,0,0:0:0:0:
402,192,402331,1,0,0:0:0:0:
329,192,402331,1,0,0:0:0:0:
256,192,402331,1,0,0:0:0:0:
36,192,402331,1,0,0:0:0:0:
182,192,402481,1,0,0:0:0:0:
402,192,402631,1,0,0:0:0:0:
256,192,402631,1,0,0:0:0:0:
36,192,402631,1,0,0:0:0:0:
329,192,402781,1,0,0:0:0:0:
182,192,402856,1,0,0:0:0:0:
402,192,402931,1,0,0:0:0:0:
256,192,402931,1,0,0:0:0:0:
109,192,402931,1,0,0:0:0:0:
36,192,402931,1,0,0:0:0:0:
182,192,403081,1,0,0:0:0:0:
402,192,403231,1,0,0:0:0:0:
329,192,403231,1,0,0:0:0:0:
109,192,403231,1,0,0:0:0:0:
182,192,403381,1,0,0:0:0:0:
256,192,403456,1,0,0:0:0:0:
402,192,403531,1,0,0:0:0:0:
329,192,403531,1,0,0:0:0:0:
182,192,403531,1,0,0:0:0:0:
36,192,403531,1,0,0:0:0:0:
109,192,403681,1,0,0:0:0:0:
402,192,403831,1,0,0:0:0:0:
256,192,403831,1,0,0:0:0:0:
182,192,403831,1,0,0:0:0:0:
329,192,403981,1,0,0:0:0:0:
256,192,404056,1,0,0:0:0:0:
109,192,404131,1,0,0:0:0:0:
36,192,404131,1,0,0:0:0:0:
402,192,404131,1,0,0:0:0:0:
182,192,404131,1,0,0:0:0:0:
256,192,404281,1,0,0:0:0:0:
402,192,404431,1,0,0:0:0:0:
329,192,404431,1,0,0:0:0:0:
182,192,404431,1,0,0:0:0:0:
36,192,404431,1,0,0:0:0:0:
109,192,404431,1,0,0:0:0:0:
36,192,404581,1,0,0:0:0:0:
329,192,404581,1,0,0:0:0:0:
256,192,404581,1,0,0:0:0:0:
36,192,404731,1,0,0:0:0:0:
475,192,404731,1,0,0:0:0:0:
329,192,404731,1,0,0:0:0:0:
182,192,404731,1,0,0:0:0:0:
36,192,404881,1,0,0:0:0:0:
475,192,404881,1,0,0:0:0:0:
402,192,404881,1,0,0:0:0:0:
36,192,405031,1,0,0:0:0:0:
256,192,405031,1,0,0:0:0:0:
182,192,405031,1,0,0:0:0:0:
402,192,405031,1,0,0:0:0:0:
36,192,405181,1,0,0:0:0:0:
329,192,405181,1,0,0:0:0:0:
182,192,405181,1,0,0:0:0:0:
36,192,405331,1,0,0:0:0:0:
475,192,405331,1,0,0:0:0:0:
402,192,405331,1,0,0:0:0:0:
256,192,405331,1,0,0:0:0:0:
36,192,405481,1,0,0:0:0:0:
329,192,405481,1,0,0:0:0:0:
182,192,405481,1,0,0:0:0:0:
36,192,405631,1,0,0:0:0:0:
475,192,405631,1,0,0:0:0:0:
402,192,405631,1,0,0:0:0:0:
256,192,405631,1,0,0:0:0:0:
109,192,405631,1,0,0:0:0:0:
475,192,405781,1,0,0:0:0:0:
329,192,405781,1,0,0:0:0:0:
109,192,405781,1,0,0:0:0:0:
475,192,405931,1,0,0:0:0:0:
329,192,405931,1,0,0:0:0:0:
256,192,405931,1,0,0:0:0:0:
36,192,405931,1,0,0:0:0:0:
475,192,406081,1,0,0:0:0:0:
182,192,406081,1,0,0:0:0:0:
36,192,406081,1,0,0:0:0:0:
475,192,406231,1,0,0:0:0:0:
329,192,406231,1,0,0:0:0:0:
256,192,406231,1,0,0:0:0:0:
109,192,406231,1,0,0:0:0:0:
36,192,406231,1,0,0:0:0:0:
475,192,406381,1,0,0:0:0:0:
329,192,406381,1,0,0:0:0:0:
182,192,406381,1,0,0:0:0:0:
475,192,406531,1,0,0:0:0:0:
402,192,406531,1,0,0:0:0:0:
256,192,406531,1,0,0:0:0:0:
36,192,406531,1,0,0:0:0:0:
109,192,406681,1,0,0:0:0:0:
256,192,406681,1,0,0:0:0:0:
402,192,406681,1,0,0:0:0:0:
475,192,406831,1,0,0:0:0:0:
329,192,406831,1,0,0:0:0:0:
182,192,406831,1,0,0:0:0:0:
36,192,406831,1,0,0:0:0:0:
256,192,406831,1,0,0:0:0:0:
182,192,406981,1,0,0:0:0:0:
36,192,406981,1,0,0:0:0:0:
329,192,406981,1,0,0:0:0:0:
475,192,406981,1,0,0:0:0:0:
36,192,407131,1,0,0:0:0:0:
329,192,407131,1,0,0:0:0:0:
182,192,407131,1,0,0:0:0:0:
475,192,407131,1,0,0:0:0:0:
256,192,407131,1,0,0:0:0:0:
36,192,407281,1,0,0:0:0:0:
329,192,407281,1,0,0:0:0:0:
182,192,407281,1,0,0:0:0:0:
475,192,407281,1,0,0:0:0:0:
36,192,407431,1,0,0:0:0:0:
329,192,407431,1,0,0:0:0:0:
182,192,407431,1,0,0:0:0:0:
475,192,407431,1,0,0:0:0:0:
256,192,407431,1,0,0:0:0:0:
36,192,407581,1,0,0:0:0:0:
329,192,407581,1,0,0:0:0:0:
182,192,407581,1,0,0:0:0:0:
475,192,407581,1,0,0:0:0:0:
329,192,407731,1,0,0:0:0:0:
182,192,407731,1,0,0:0:0:0:
36,192,407731,1,0,0:0:0:0:
475,192,407731,1,0,0:0:0:0:
256,192,407731,1,0,0:0:0:0:
329,192,407881,1,0,0:0:0:0:
182,192,407881,1,0,0:0:0:0:
36,192,407881,1,0,0:0:0:0:
475,192,407881,1,0,0:0:0:0:
329,192,408031,1,0,0:0:0:0:
182,192,408031,1,0,0:0:0:0:
402,192,408331,1,0,0:0:0:0:
475,192,408368,1,0,0:0:0:0:
329,192,408631,1,0,0:0:0:0:
402,192,408681,1,0,0:0:0:0:
475,192,408881,1,0,0:0:0:0:
402,192,408906,1,0,0:0:0:0:
329,192,408931,1,0,0:0:0:0:
256,192,408956,1,0,0:0:0:0:
182,192,408981,1,0,0:0:0:0:
109,192,409006,1,0,0:0:0:0:
36,192,409031,1,0,0:0:0:0:
475,192,409056,1,0,0:0:0:0:
402,192,409081,1,0,0:0:0:0:
329,192,409106,1,0,0:0:0:0:
182,192,409131,1,0,0:0:0:0:
109,192,409156,1,0,0:0:0:0:
36,192,409181,1,0,0:0:0:0:
256,192,409181,1,0,0:0:0:0:
329,192,409206,1,0,0:0:0:0:
402,192,409231,1,0,0:0:0:0:
475,192,409231,1,0,0:0:0:0:
182,192,409231,1,0,0:0:0:0:
182,192,409381,1,0,0:0:0:0:
36,192,409381,1,0,0:0:0:0:
182,192,409531,1,0,0:0:0:0:
36,192,409531,1,0,0:0:0:0:
256,192,409681,1,0,0:0:0:0:
109,192,409681,1,0,0:0:0:0:
36,192,409981,1,0,0:0:0:0:
109,192,410131,1,0,0:0:0:0:
329,192,410281,1,0,0:0:0:0:
475,192,410581,1,0,0:0:0:0:
402,192,410581,128,0,410881:0:0:0:0:
256,192,410581,128,0,410881:0:0:0:0:
475,192,411031,128,0,411331:0:0:0:0:
329,192,411031,128,0,411181:0:0:0:0:
182,192,411031,1,0,0:0:0:0:
402,192,411181,1,0,0:0:0:0:
329,192,411256,1,0,0:0:0:0:
256,192,411331,1,0,0:0:0:0:
182,192,411481,128,0,411631:0:0:0:0:
256,192,411631,128,0,411931:0:0:0:0:
36,192,411631,128,0,411931:0:0:0:0:
109,192,411631,1,0,0:0:0:0:
329,192,411931,1,0,0:0:0:0:
109,192,412081,1,0,0:0:0:0:
36,192,412081,128,0,412231:0:0:0:0:
256,192,412081,128,0,412231:0:0:0:0:
182,192,412381,1,0,0:0:0:0:
402,192,412681,128,0,412981:0:0:0:0:
256,192,412681,128,0,412981:0:0:0:0:
109,192,412681,1,0,0:0:0:0:
182,192,413131,1,0,0:0:0:0:
256,192,413131,128,0,413281:0:0:0:0:
402,192,413131,128,0,413281:0:0:0:0:
109,192,413431,1,0,0:0:0:0:
329,192,413431,128,0,413731:0:0:0:0:
475,192,413431,128,0,413731:0:0:0:0:
182,192,413581,1,0,0:0:0:0:
256,192,413656,1,0,0:0:0:0:
109,192,413731,1,0,0:0:0:0:
402,192,413881,128,0,414031:0:0:0:0:
109,192,414031,1,0,0:0:0:0:
36,192,414031,1,0,0:0:0:0:
109,192,414331,1,0,0:0:0:0:
36,192,414331,1,0,0:0:0:0:
402,192,414331,1,0,0:0:0:0:
256,192,414331,1,0,0:0:0:0:
402,192,414481,1,0,0:0:0:0:
256,192,414481,1,0,0:0:0:0:
109,192,414631,1,0,0:0:0:0:
36,192,414631,1,0,0:0:0:0:
402,192,414631,1,0,0:0:0:0:
256,192,414631,1,0,0:0:0:0:
475,192,414781,1,0,0:0:0:0:
329,192,414781,1,0,0:0:0:0:
109,192,414931,1,0,0:0:0:0:
36,192,414931,1,0,0:0:0:0:
256,192,415081,128,0,415381:0:0:0:0:
475,192,415081,128,0,415381:0:0:0:0:
109,192,415231,1,0,0:0:0:0:
36,192,415231,1,0,0:0:0:0:
329,192,415381,1,0,0:0:0:0:
109,192,415531,1,0,0:0:0:0:
36,192,415531,1,0,0:0:0:0:
475,192,415681,128,0,415981:0:0:0:0:
402,192,415681,128,0,415981:0:0:0:0:
109,192,415831,1,0,0:0:0:0:
36,192,415831,1,0,0:0:0:0:
329,192,415981,1,0,0:0:0:0:
109,192,416131,1,0,0:0:0:0:
36,192,416131,1,0,0:0:0:0:
475,192,416131,1,0,0:0:0:0:
402,192,416281,1,0,0:0:0:0:
475,192,416331,1,0,0:0:0:0:
402,192,416381,1,0,0:0:0:0:
109,192,416431,1,0,0:0:0:0:
36,192,416431,1,0,0:0:0:0:
109,192,416731,1,0,0:0:0:0:
36,192,416731,1,0,0:0:0:0:
402,192,416731,128,0,417031:0:0:0:0:
256,192,416731,128,0,417031:0:0:0:0:
109,192,417031,1,0,0:0:0:0:
36,192,417031,1,0,0:0:0:0:
402,192,417131,1,0,0:0:0:0:
329,192,417131,1,0,0:0:0:0:
402,192,417231,1,0,0:0:0:0:
329,192,417231,1,0,0:0:0:0:
109,192,417331,1,0,0:0:0:0:
36,192,417331,1,0,0:0:0:0:
475,192,417431,1,0,0:0:0:0:
329,192,417431,1,0,0:0:0:0:
329,192,417531,1,0,0:0:0:0:
475,192,417531,1,0,0:0:0:0:
109,192,417631,1,0,0:0:0:0:
36,192,417631,1,0,0:0:0:0:
475,192,417631,1,0,0:0:0:0:
402,192,417631,1,0,0:0:0:0:
109,192,417931,1,0,0:0:0:0:
36,192,417931,1,0,0:0:0:0:
329,192,417931,128,0,418081:0:0:0:0:
475,192,418081,128,0,418231:0:0:0:0:
256,192,418231,1,0,0:0:0:0:
109,192,418231,1,0,0:0:0:0:
329,192,418306,1,0,0:0:0:0:
182,192,418381,1,0,0:0:0:0:
256,192,418456,1,0,0:0:0:0:
475,192,418531,1,0,0:0:0:0:
36,192,418531,1,0,0:0:0:0:
109,192,418531,1,0,0:0:0:0:
182,192,418606,1,0,0:0:0:0:
402,192,418606,1,0,0:0:0:0:
329,192,418681,1,0,0:0:0:0:
109,192,418681,1,0,0:0:0:0:
36,192,418681,1,0,0:0:0:0:
256,192,418756,1,0,0:0:0:0:
182,192,418756,1,0,0:0:0:0:
109,192,418831,1,0,0:0:0:0:
36,192,418831,1,0,0:0:0:0:
475,192,418831,1,0,0:0:0:0:
329,192,418831,1,0,0:0:0:0:
402,192,418831,1,0,0:0:0:0:
329,192,418981,1,0,0:0:0:0:
109,192,418981,1,0,0:0:0:0:
36,192,418981,1,0,0:0:0:0:
109,192,419131,1,0,0:0:0:0:
36,192,419131,1,0,0:0:0:0:
329,192,419131,1,0,0:0:0:0:
475,192,419281,1,0,0:0:0:0:
109,192,419281,1,0,0:0:0:0:
182,192,419281,1,0,0:0:0:0:
256,192,419281,1,0,0:0:0:0:
256,192,419506,1,0,0:0:0:0:
109,192,419506,1,0,0:0:0:0:
475,192,419506,1,0,0:0:0:0:
402,192,419581,1,0,0:0:0:0:
329,192,419581,1,0,0:0:0:0:
182,192,419581,1,0,0:0:0:0:
475,192,419731,1,0,0:0:0:0:
256,192,419731,1,0,0:0:0:0:
109,192,419731,1,0,0:0:0:0:
402,192,419731,1,0,0:0:0:0:
475,192,419881,1,0,0:0:0:0:
329,192,419881,1,0,0:0:0:0:
182,192,419881,1,0,0:0:0:0:
402,192,419881,1,0,0:0:0:0:
36,192,420181,128,0,420331:0:0:0:0:
182,192,420181,128,0,420331:0:0:0:0:
329,192,420181,128,0,420331:0:0:0:0:
475,192,420181,128,0,420331:0:0:0:0:
402,192,420481,128,0,420631:0:0:0:0:
475,192,420481,128,0,420631:0:0:0:0:
256,192,420481,128,0,420631:0:0:0:0:
109,192,420481,128,0,420631:0:0:0:0:
329,192,420631,128,0,420781:0:0:0:0:
402,192,420781,1,0,0:0:0:0:
182,192,420781,1,0,0:0:0:0:
36,192,420781,1,0,0:0:0:0:
475,192,420831,1,0,0:0:0:0:
402,192,420881,1,0,0:0:0:0:
329,192,420931,1,0,0:0:0:0:
109,192,420931,1,0,0:0:0:0:
36,192,420931,1,0,0:0:0:0:
256,192,420931,128,0,421081:0:0:0:0:
182,192,421081,128,0,421231:0:0:0:0:
36,192,421231,128,0,421531:0:0:0:0:
475,192,421231,128,0,421531:0:0:0:0:
109,192,421231,1,0,0:0:0:0:
402,192,421231,1,0,0:0:0:0:
182,192,421381,1,0,0:0:0:0:
256,192,421381,1,0,0:0:0:0:
402,192,421531,1,0,0:0:0:0:
182,192,421531,1,0,0:0:0:0:
329,192,421531,1,0,0:0:0:0:
109,192,421531,1,0,0:0:0:0:
402,192,421681,1,0,0:0:0:0:
36,192,421681,128,0,421831:0:0:0:0:
109,192,421681,1,0,0:0:0:0:
475,192,421681,128,0,421831:0:0:0:0:
36,192,421981,128,0,422131:0:0:0:0:
182,192,421981,128,0,422131:0:0:0:0:
329,192,421981,128,0,422131:0:0:0:0:
402,192,421981,1,0,0:0:0:0:
256,192,422281,128,0,422581:0:0:0:0:
109,192,422281,128,0,422581:0:0:0:0:
402,192,422281,128,0,422581:0:0:0:0:
475,192,422281,1,0,0:0:0:0:
329,192,422581,1,0,0:0:0:0:
182,192,422581,1,0,0:0:0:0:
475,192,422731,1,0,0:0:0:0:
109,192,422731,128,0,422881:0:0:0:0:
256,192,422731,128,0,422881:0:0:0:0:
402,192,422731,128,0,422881:0:0:0:0:
475,192,423031,128,0,423181:0:0:0:0:
329,192,423031,1,0,0:0:0:0:
182,192,423031,1,0,0:0:0:0:
36,192,423031,1,0,0:0:0:0:
402,192,423181,128,0,423331:0:0:0:0:
109,192,423181,1,0,0:0:0:0:
36,192,423181,1,0,0:0:0:0:
256,192,423181,1,0,0:0:0:0:
182,192,423256,1,0,0:0:0:0:
329,192,423331,128,0,423481:0:0:0:0:
109,192,423331,1,0,0:0:0:0:
36,192,423331,1,0,0:0:0:0:
402,192,423481,128,0,423631:0:0:0:0:
256,192,423481,1,0,0:0:0:0:
182,192,423481,1,0,0:0:0:0:
109,192,423481,1,0,0:0:0:0:
329,192,423631,1,0,0:0:0:0:
256,192,423631,1,0,0:0:0:0:
182,192,423631,1,0,0:0:0:0:
475,192,423631,1,0,0:0:0:0:
36,192,423631,128,0,423781:0:0:0:0:
475,192,423781,1,0,0:0:0:0:
402,192,423781,1,0,0:0:0:0:
36,192,423931,1,0,0:0:0:0:
256,192,423931,1,0,0:0:0:0:
475,192,423931,1,0,0:0:0:0:
109,192,424006,1,0,0:0:0:0:
329,192,424006,1,0,0:0:0:0:
182,192,424081,1,0,0:0:0:0:
402,192,424081,1,0,0:0:0:0:
329,192,424156,1,0,0:0:0:0:
402,192,424231,1,0,0:0:0:0:
109,192,424231,1,0,0:0:0:0:
36,192,424231,1,0,0:0:0:0:
475,192,424306,1,0,0:0:0:0:
182,192,424381,1,0,0:0:0:0:
402,192,424381,1,0,0:0:0:0:
329,192,424456,1,0,0:0:0:0:
256,192,424531,1,0,0:0:0:0:
36,192,424531,1,0,0:0:0:0:
109,192,424531,1,0,0:0:0:0:
475,192,424531,1,0,0:0:0:0:
329,192,424606,1,0,0:0:0:0:
109,192,424681,1,0,0:0:0:0:
36,192,424681,1,0,0:0:0:0:
402,192,424681,1,0,0:0:0:0:
329,192,424756,1,0,0:0:0:0:
475,192,424831,1,0,0:0:0:0:
402,192,424831,1,0,0:0:0:0:
182,192,424831,1,0,0:0:0:0:
36,192,424831,1,0,0:0:0:0:
109,192,424906,1,0,0:0:0:0:
329,192,424906,1,0,0:0:0:0:
402,192,424981,1,0,0:0:0:0:
182,192,424981,1,0,0:0:0:0:
256,192,425056,1,0,0:0:0:0:
475,192,425056,1,0,0:0:0:0:
329,192,425131,1,0,0:0:0:0:
109,192,425131,1,0,0:0:0:0:
36,192,425131,1,0,0:0:0:0:
182,192,425206,1,0,0:0:0:0:
402,192,425206,1,0,0:0:0:0:
329,192,425281,1,0,0:0:0:0:
109,192,425281,1,0,0:0:0:0:
36,192,425356,1,0,0:0:0:0:
256,192,425356,1,0,0:0:0:0:
109,192,425431,1,0,0:0:0:0:
475,192,425431,1,0,0:0:0:0:
402,192,425431,1,0,0:0:0:0:
329,192,425506,1,0,0:0:0:0:
182,192,425506,1,0,0:0:0:0:
256,192,425581,1,0,0:0:0:0:
36,192,425581,1,0,0:0:0:0:
329,192,425656,1,0,0:0:0:0:
109,192,425656,1,0,0:0:0:0:
402,192,425731,1,0,0:0:0:0:
182,192,425731,1,0,0:0:0:0:
475,192,425731,1,0,0:0:0:0:
109,192,425806,1,0,0:0:0:0:
329,192,425806,1,0,0:0:0:0:
182,192,425881,1,0,0:0:0:0:
402,192,425881,1,0,0:0:0:0:
109,192,425956,1,0,0:0:0:0:
36,192,425956,1,0,0:0:0:0:
475,192,426031,1,0,0:0:0:0:
402,192,426031,1,0,0:0:0:0:
329,192,426031,1,0,0:0:0:0:
256,192,426031,1,0,0:0:0:0:
182,192,426031,1,0,0:0:0:0:
475,192,426181,1,0,0:0:0:0:
402,192,426181,1,0,0:0:0:0:
329,192,426181,1,0,0:0:0:0:
256,192,426181,1,0,0:0:0:0:
182,192,426181,1,0,0:0:0:0:
36,192,426331,1,0,0:0:0:0:
256,192,426331,1,0,0:0:0:0:
475,192,426331,1,0,0:0:0:0:
402,192,426331,1,0,0:0:0:0:
109,192,426406,1,0,0:0:0:0:
329,192,426406,1,0,0:0:0:0:
402,192,426481,1,0,0:0:0:0:
182,192,426481,1,0,0:0:0:0:
475,192,426556,1,0,0:0:0:0:
256,192,426556,1,0,0:0:0:0:
182,192,426631,1,0,0:0:0:0:
109,192,426631,1,0,0:0:0:0:
36,192,426631,1,0,0:0:0:0:
402,192,426631,1,0,0:0:0:0:
329,192,426631,1,0,0:0:0:0:
402,192,426781,1,0,0:0:0:0:
329,192,426781,1,0,0:0:0:0:
182,192,426781,1,0,0:0:0:0:
109,192,426781,1,0,0:0:0:0:
36,192,426781,1,0,0:0:0:0:
109,192,426931,1,0,0:0:0:0:
256,192,426931,1,0,0:0:0:0:
475,192,426931,1,0,0:0:0:0:
36,192,426931,1,0,0:0:0:0:
182,192,427006,1,0,0:0:0:0:
329,192,427006,1,0,0:0:0:0:
256,192,427081,1,0,0:0:0:0:
402,192,427081,1,0,0:0:0:0:
109,192,427156,1,0,0:0:0:0:
36,192,427156,1,0,0:0:0:0:
182,192,427231,128,0,427381:0:0:0:0:
256,192,427231,128,0,427381:0:0:0:0:
329,192,427231,128,0,427381:0:0:0:0:
402,192,427231,128,0,427381:0:0:0:0:
475,192,427231,128,0,427381:0:0:0:0:
475,192,427456,128,0,427606:0:0:0:0:
402,192,427456,128,0,427606:0:0:0:0:
329,192,427456,128,0,427606:0:0:0:0:
256,192,427456,128,0,427606:0:0:0:0:
182,192,427456,128,0,427606:0:0:0:0:
182,192,427681,128,0,427831:0:0:0:0:
256,192,427681,128,0,427831:0:0:0:0:
329,192,427681,128,0,427831:0:0:0:0:
402,192,427681,128,0,427831:0:0:0:0:
475,192,427681,128,0,427831:0:0:0:0:
36,192,427906,128,0,428056:0:0:0:0:
109,192,427906,128,0,428056:0:0:0:0:
182,192,427906,128,0,428056:0:0:0:0:
329,192,427906,128,0,428056:0:0:0:0:
402,192,427906,128,0,428056:0:0:0:0:
36,192,428131,128,0,428206:0:0:0:0:
182,192,428131,128,0,428206:0:0:0:0:
256,192,428131,128,0,428206:0:0:0:0:
402,192,428131,128,0,428206:0:0:0:0:
475,192,428131,128,0,428206:0:0:0:0:
475,192,428281,128,0,428356:0:0:0:0:
402,192,428281,128,0,428356:0:0:0:0:
329,192,428281,128,0,428356:0:0:0:0:
256,192,428281,128,0,428356:0:0:0:0:
109,192,428281,128,0,428356:0:0:0:0:
182,192,428431,128,0,429181:0:0:0:0:
109,192,428431,128,0,429181:0:0:0:0:
329,192,428431,128,0,429331:0:0:0:0:
402,192,428431,128,0,429631:0:0:0:0:
475,192,428431,128,0,429631:0:0:0:0:
36,192,428431,128,0,433081:0:0:0:0:
109,192,429331,128,0,430831:0:0:0:0:
182,192,429331,128,0,430231:0:0:0:0:
256,192,429631,128,0,430231:0:0:0:0:
329,192,429631,128,0,430831:0:0:0:0:
475,192,430231,128,0,432031:0:0:0:0:
402,192,430231,128,0,432631:0:0:0:0:
256,192,430831,128,0,432031:0:0:0:0:
182,192,430831,128,0,432631:0:0:0:0:
329,192,432031,128,0,433081:0:0:0:0:
109,192,432031,128,0,433081:0:0:0:0:
256,192,432631,128,0,433081:0:0:0:0:
475,192,432631,128,0,433081:0:0:0:0:
402,192,433081,1,0,0:0:0:0:
182,192,433081,1,0,0:0:0:0:
329,192,433131,1,0,0:0:0:0:
402,192,433181,1,0,0:0:0:0:
36,192,433231,1,0,0:0:0:0:
475,192,433231,1,0,0:0:0:0:
109,192,433231,1,0,0:0:0:0:
182,192,433231,1,0,0:0:0:0:
36,192,433381,1,0,0:0:0:0:
109,192,433381,1,0,0:0:0:0:
256,192,433381,1,0,0:0:0:0:
109,192,433531,1,0,0:0:0:0:
36,192,433531,1,0,0:0:0:0:
329,192,433531,1,0,0:0:0:0:
109,192,433681,1,0,0:0:0:0:
36,192,433681,1,0,0:0:0:0:
402,192,433681,1,0,0:0:0:0:
109,192,433831,1,0,0:0:0:0:
36,192,433831,1,0,0:0:0:0:
475,192,433831,1,0,0:0:0:0:
109,192,433981,1,0,0:0:0:0:
36,192,433981,1,0,0:0:0:0:
402,192,433981,1,0,0:0:0:0:
329,192,434131,1,0,0:0:0:0:
109,192,434131,1,0,0:0:0:0:
36,192,434131,1,0,0:0:0:0:
256,192,434281,1,0,0:0:0:0:
109,192,434281,1,0,0:0:0:0:
36,192,434281,1,0,0:0:0:0:
475,192,434356,1,0,0:0:0:0:
402,192,434356,1,0,0:0:0:0:
329,192,434431,1,0,0:0:0:0:
36,192,434431,1,0,0:0:0:0:
109,192,434431,1,0,0:0:0:0:
182,192,434431,1,0,0:0:0:0:
36,192,434581,1,0,0:0:0:0:
109,192,434581,1,0,0:0:0:0:
256,192,434581,1,0,0:0:0:0:
109,192,434731,1,0,0:0:0:0:
36,192,434731,1,0,0:0:0:0:
329,192,434731,1,0,0:0:0:0:
109,192,434881,1,0,0:0:0:0:
36,192,434881,1,0,0:0:0:0:
402,192,434881,1,0,0:0:0:0:
109,192,435031,1,0,0:0:0:0:
36,192,435031,1,0,0:0:0:0:
475,192,435031,1,0,0:0:0:0:
109,192,435181,1,0,0:0:0:0:
36,192,435181,1,0,0:0:0:0:
402,192,435181,1,0,0:0:0:0:
329,192,435331,1,0,0:0:0:0:
109,192,435331,1,0,0:0:0:0:
36,192,435331,1,0,0:0:0:0:
256,192,435481,1,0,0:0:0:0:
109,192,435481,1,0,0:0:0:0:
36,192,435481,1,0,0:0:0:0:
475,192,435556,1,0,0:0:0:0:
402,192,435556,1,0,0:0:0:0:
329,192,435631,1,0,0:0:0:0:
109,192,435631,1,0,0:0:0:0:
182,192,435631,1,0,0:0:0:0:
36,192,435631,1,0,0:0:0:0:
475,192,435706,1,0,0:0:0:0:
402,192,435706,1,0,0:0:0:0:
256,192,435781,1,0,0:0:0:0:
109,192,435781,1,0,0:0:0:0:
36,192,435781,1,0,0:0:0:0:
402,192,435856,1,0,0:0:0:0:
475,192,435856,1,0,0:0:0:0:
329,192,435931,1,0,0:0:0:0:
36,192,435931,1,0,0:0:0:0:
109,192,435931,1,0,0:0:0:0:
256,192,436006,1,0,0:0:0:0:
182,192,436006,1,0,0:0:0:0:
402,192,436081,1,0,0:0:0:0:
36,192,436081,1,0,0:0:0:0:
109,192,436081,1,0,0:0:0:0:
182,192,436156,1,0,0:0:0:0:
329,192,436156,1,0,0:0:0:0:
475,192,436231,1,0,0:0:0:0:
36,192,436231,1,0,0:0:0:0:
109,192,436231,1,0,0:0:0:0:
182,192,436306,1,0,0:0:0:0:
329,192,436306,1,0,0:0:0:0:
402,192,436381,1,0,0:0:0:0:
36,192,436381,1,0,0:0:0:0:
109,192,436381,1,0,0:0:0:0:
182,192,436456,1,0,0:0:0:0:
256,192,436456,1,0,0:0:0:0:
36,192,436531,1,0,0:0:0:0:
109,192,436531,1,0,0:0:0:0:
329,192,436531,1,0,0:0:0:0:
182,192,436606,1,0,0:0:0:0:
402,192,436606,1,0,0:0:0:0:
36,192,436681,1,0,0:0:0:0:
109,192,436681,1,0,0:0:0:0:
256,192,436681,1,0,0:0:0:0:
402,192,436756,1,0,0:0:0:0:
475,192,436756,1,0,0:0:0:0:
36,192,436831,1,0,0:0:0:0:
329,192,436831,1,0,0:0:0:0:
109,192,436831,1,0,0:0:0:0:
256,192,436881,1,0,0:0:0:0:
182,192,436881,1,0,0:0:0:0:
475,192,436931,1,0,0:0:0:0:
402,192,436931,1,0,0:0:0:0:
109,192,436981,1,0,0:0:0:0:
36,192,436981,1,0,0:0:0:0:
329,192,436981,1,0,0:0:0:0:
475,192,437056,1,0,0:0:0:0:
402,192,437056,1,0,0:0:0:0:
36,192,437131,1,0,0:0:0:0:
109,192,437131,1,0,0:0:0:0:
329,192,437131,1,0,0:0:0:0:
182,192,437181,1,0,0:0:0:0:
256,192,437181,1,0,0:0:0:0:
402,192,437231,1,0,0:0:0:0:
475,192,437231,1,0,0:0:0:0:
109,192,437281,1,0,0:0:0:0:
329,192,437281,1,0,0:0:0:0:
36,192,437281,1,0,0:0:0:0:
475,192,437356,1,0,0:0:0:0:
402,192,437356,1,0,0:0:0:0:
36,192,437431,1,0,0:0:0:0:
329,192,437431,1,0,0:0:0:0:
109,192,437431,1,0,0:0:0:0:
182,192,437481,1,0,0:0:0:0:
256,192,437481,1,0,0:0:0:0:
475,192,437531,1,0,0:0:0:0:
402,192,437531,1,0,0:0:0:0:
329,192,437581,1,0,0:0:0:0:
36,192,437581,1,0,0:0:0:0:
109,192,437581,1,0,0:0:0:0:
402,192,437656,1,0,0:0:0:0:
475,192,437656,1,0,0:0:0:0:
109,192,437731,1,0,0:0:0:0:
36,192,437731,1,0,0:0:0:0:
329,192,437731,1,0,0:0:0:0:
256,192,437781,1,0,0:0:0:0:
182,192,437781,1,0,0:0:0:0:
402,192,437831,1,0,0:0:0:0:
475,192,437831,1,0,0:0:0:0:
329,192,437881,1,0,0:0:0:0:
256,192,437881,1,0,0:0:0:0:
109,192,437931,1,0,0:0:0:0:
36,192,437931,1,0,0:0:0:0:
475,192,437981,1,0,0:0:0:0:
402,192,437981,1,0,0:0:0:0:
256,192,438031,1,0,0:0:0:0:
329,192,438031,1,0,0:0:0:0:
182,192,438031,1,0,0:0:0:0:
109,192,438031,1,0,0:0:0:0:
36,192,438031,1,0,0:0:0:0:
475,192,438181,1,0,0:0:0:0:
329,192,438181,1,0,0:0:0:0:
182,192,438181,1,0,0:0:0:0:
402,192,438181,1,0,0:0:0:0:
329,192,438256,1,0,0:0:0:0:
182,192,438256,1,0,0:0:0:0:
475,192,438256,1,0,0:0:0:0:
402,192,438256,1,0,0:0:0:0:
109,192,438331,1,0,0:0:0:0:
36,192,438331,1,0,0:0:0:0:
402,192,438481,1,0,0:0:0:0:
256,192,438481,1,0,0:0:0:0:
109,192,438481,1,0,0:0:0:0:
329,192,438481,1,0,0:0:0:0:
256,192,438556,1,0,0:0:0:0:
402,192,438556,1,0,0:0:0:0:
109,192,438556,1,0,0:0:0:0:
329,192,438556,1,0,0:0:0:0:
475,192,438631,1,0,0:0:0:0:
329,192,438781,1,0,0:0:0:0:
182,192,438781,1,0,0:0:0:0:
36,192,438781,1,0,0:0:0:0:
256,192,438781,1,0,0:0:0:0:
329,192,438856,1,0,0:0:0:0:
182,192,438856,1,0,0:0:0:0:
36,192,438856,1,0,0:0:0:0:
256,192,438856,1,0,0:0:0:0:
475,192,438931,1,0,0:0:0:0:
402,192,438931,1,0,0:0:0:0:
109,192,439081,1,0,0:0:0:0:
36,192,439081,1,0,0:0:0:0:
256,192,439081,1,0,0:0:0:0:
182,192,439156,1,0,0:0:0:0:
329,192,439156,1,0,0:0:0:0:
475,192,439231,1,0,0:0:0:0:
402,192,439231,1,0,0:0:0:0:
329,192,439306,1,0,0:0:0:0:
182,192,439306,1,0,0:0:0:0:
475,192,439381,1,0,0:0:0:0:
402,192,439381,1,0,0:0:0:0:
256,192,439456,1,0,0:0:0:0:
109,192,439456,1,0,0:0:0:0:
475,192,439531,1,0,0:0:0:0:
402,192,439531,1,0,0:0:0:0:
182,192,439606,1,0,0:0:0:0:
36,192,439606,1,0,0:0:0:0:
475,192,439681,1,0,0:0:0:0:
402,192,439681,1,0,0:0:0:0:
329,192,439756,1,0,0:0:0:0:
182,192,439756,1,0,0:0:0:0:
109,192,439831,1,0,0:0:0:0:
36,192,439831,1,0,0:0:0:0:
402,192,439906,1,0,0:0:0:0:
256,192,439906,1,0,0:0:0:0:
109,192,439981,1,0,0:0:0:0:
36,192,439981,1,0,0:0:0:0:
475,192,440056,1,0,0:0:0:0:
329,192,440056,1,0,0:0:0:0:
109,192,440131,1,0,0:0:0:0:
36,192,440131,1,0,0:0:0:0:
329,192,440206,1,0,0:0:0:0:
182,192,440206,1,0,0:0:0:0:
475,192,440281,1,0,0:0:0:0:
402,192,440281,1,0,0:0:0:0:
256,192,440356,1,0,0:0:0:0:
109,192,440356,1,0,0:0:0:0:
475,192,440431,1,0,0:0:0:0:
402,192,440431,1,0,0:0:0:0:
329,192,440431,1,0,0:0:0:0:
36,192,440431,1,0,0:0:0:0:
182,192,440506,1,0,0:0:0:0:
256,192,440581,1,0,0:0:0:0:
109,192,440581,1,0,0:0:0:0:
329,192,440656,1,0,0:0:0:0:
475,192,440731,1,0,0:0:0:0:
182,192,440731,1,0,0:0:0:0:
36,192,440731,1,0,0:0:0:0:
402,192,440731,128,0,441031:0:0:0:0:
109,192,440881,1,0,0:0:0:0:
182,192,440956,1,0,0:0:0:0:
36,192,441031,1,0,0:0:0:0:
329,192,441031,1,0,0:0:0:0:
256,192,441031,1,0,0:0:0:0:
182,192,441106,1,0,0:0:0:0:
109,192,441106,1,0,0:0:0:0:
402,192,441181,1,0,0:0:0:0:
329,192,441181,1,0,0:0:0:0:
182,192,441256,1,0,0:0:0:0:
109,192,441256,1,0,0:0:0:0:
475,192,441331,1,0,0:0:0:0:
402,192,441331,1,0,0:0:0:0:
182,192,441406,1,0,0:0:0:0:
109,192,441406,1,0,0:0:0:0:
402,192,441481,1,0,0:0:0:0:
329,192,441481,1,0,0:0:0:0:
182,192,441556,1,0,0:0:0:0:
109,192,441556,1,0,0:0:0:0:
329,192,441631,1,0,0:0:0:0:
256,192,441631,1,0,0:0:0:0:
36,192,441631,1,0,0:0:0:0:
109,192,441706,1,0,0:0:0:0:
402,192,441706,1,0,0:0:0:0:
182,192,441781,1,0,0:0:0:0:
329,192,441781,1,0,0:0:0:0:
256,192,441856,1,0,0:0:0:0:
109,192,441856,1,0,0:0:0:0:
475,192,441931,1,0,0:0:0:0:
182,192,441931,1,0,0:0:0:0:
402,192,441931,1,0,0:0:0:0:
329,192,442006,1,0,0:0:0:0:
36,192,442006,1,0,0:0:0:0:
256,192,442081,1,0,0:0:0:0:
109,192,442081,1,0,0:0:0:0:
329,192,442156,1,0,0:0:0:0:
182,192,442156,1,0,0:0:0:0:
402,192,442231,1,0,0:0:0:0:
36,192,442231,1,0,0:0:0:0:
475,192,442231,1,0,0:0:0:0:
109,192,442306,1,0,0:0:0:0:
256,192,442306,1,0,0:0:0:0:
182,192,442381,1,0,0:0:0:0:
329,192,442381,1,0,0:0:0:0:
402,192,442456,1,0,0:0:0:0:
36,192,442456,1,0,0:0:0:0:
109,192,442531,1,0,0:0:0:0:
475,192,442531,1,0,0:0:0:0:
256,192,442531,1,0,0:0:0:0:
402,192,442606,1,0,0:0:0:0:
182,192,442606,1,0,0:0:0:0:
329,192,442681,1,0,0:0:0:0:
109,192,442681,1,0,0:0:0:0:
36,192,442756,1,0,0:0:0:0:
256,192,442756,1,0,0:0:0:0:
402,192,442831,1,0,0:0:0:0:
182,192,442831,1,0,0:0:0:0:
329,192,442831,1,0,0:0:0:0:
109,192,442831,1,0,0:0:0:0:
475,192,442831,128,0,443131:0:0:0:0:
36,192,442981,1,0,0:0:0:0:
256,192,442981,1,0,0:0:0:0:
109,192,443056,1,0,0:0:0:0:
182,192,443131,1,0,0:0:0:0:
329,192,443131,1,0,0:0:0:0:
402,192,443131,1,0,0:0:0:0:
36,192,443206,1,0,0:0:0:0:
256,192,443206,1,0,0:0:0:0:
109,192,443281,1,0,0:0:0:0:
329,192,443281,1,0,0:0:0:0:
182,192,443356,1,0,0:0:0:0:
402,192,443356,1,0,0:0:0:0:
475,192,443431,1,0,0:0:0:0:
329,192,443431,1,0,0:0:0:0:
109,192,443431,1,0,0:0:0:0:
36,192,443431,1,0,0:0:0:0:
256,192,443431,1,0,0:0:0:0:
475,192,443581,1,0,0:0:0:0:
329,192,443581,1,0,0:0:0:0:
182,192,443581,1,0,0:0:0:0:
109,192,443581,1,0,0:0:0:0:
256,192,443581,1,0,0:0:0:0:
402,192,443881,1,0,0:0:0:0:
475,192,443881,1,0,0:0:0:0:
329,192,443881,1,0,0:0:0:0:
256,192,443881,1,0,0:0:0:0:
36,192,443881,128,0,444181:0:0:0:0:
402,192,444181,1,0,0:0:0:0:
256,192,444181,1,0,0:0:0:0:
109,192,444181,1,0,0:0:0:0:
182,192,444256,1,0,0:0:0:0:
475,192,444331,1,0,0:0:0:0:
329,192,444331,1,0,0:0:0:0:
109,192,444331,1,0,0:0:0:0:
36,192,444331,1,0,0:0:0:0:
256,192,444406,1,0,0:0:0:0:
182,192,444481,1,0,0:0:0:0:
36,192,444481,1,0,0:0:0:0:
475,192,444481,1,0,0:0:0:0:
329,192,444556,1,0,0:0:0:0:
256,192,444631,1,0,0:0:0:0:
109,192,444631,1,0,0:0:0:0:
36,192,444631,1,0,0:0:0:0:
402,192,444631,1,0,0:0:0:0:
475,192,444631,1,0,0:0:0:0:
475,192,444781,1,0,0:0:0:0:
402,192,444781,1,0,0:0:0:0:
256,192,444781,1,0,0:0:0:0:
109,192,444781,1,0,0:0:0:0:
182,192,444781,1,0,0:0:0:0:
402,192,445081,1,0,0:0:0:0:
329,192,445081,1,0,0:0:0:0:
256,192,445081,1,0,0:0:0:0:
36,192,445081,1,0,0:0:0:0:
182,192,445081,128,0,445381:0:0:0:0:
475,192,445381,1,0,0:0:0:0:
329,192,445381,1,0,0:0:0:0:
109,192,445381,1,0,0:0:0:0:
329,192,445531,1,0,0:0:0:0:
182,192,445531,1,0,0:0:0:0:
36,192,445531,1,0,0:0:0:0:
329,192,445681,1,0,0:0:0:0:
182,192,445681,1,0,0:0:0:0:
36,192,445681,1,0,0:0:0:0:
475,192,445831,1,0,0:0:0:0:
402,192,445831,1,0,0:0:0:0:
256,192,445831,1,0,0:0:0:0:
36,192,445831,1,0,0:0:0:0:
475,192,445981,1,0,0:0:0:0:
402,192,445981,1,0,0:0:0:0:
256,192,445981,1,0,0:0:0:0:
109,192,445981,1,0,0:0:0:0:
329,192,446131,1,0,0:0:0:0:
182,192,446131,1,0,0:0:0:0:
36,192,446131,1,0,0:0:0:0:
329,192,446281,1,0,0:0:0:0:
182,192,446281,1,0,0:0:0:0:
36,192,446281,1,0,0:0:0:0:
475,192,446431,1,0,0:0:0:0:
402,192,446431,1,0,0:0:0:0:
256,192,446431,1,0,0:0:0:0:
109,192,446431,1,0,0:0:0:0:
182,192,446506,1,0,0:0:0:0:
109,192,446581,1,0,0:0:0:0:
475,192,446581,1,0,0:0:0:0:
402,192,446581,1,0,0:0:0:0:
256,192,446581,1,0,0:0:0:0:
36,192,446656,1,0,0:0:0:0:
109,192,446731,1,0,0:0:0:0:
329,192,446731,1,0,0:0:0:0:
475,192,446731,1,0,0:0:0:0:
402,192,446806,1,0,0:0:0:0:
182,192,446806,1,0,0:0:0:0:
329,192,446881,1,0,0:0:0:0:
36,192,446881,1,0,0:0:0:0:
256,192,446956,1,0,0:0:0:0:
109,192,446956,1,0,0:0:0:0:
475,192,447031,1,0,0:0:0:0:
402,192,447031,1,0,0:0:0:0:
182,192,447031,1,0,0:0:0:0:
36,192,447031,1,0,0:0:0:0:
329,192,447106,1,0,0:0:0:0:
109,192,447106,1,0,0:0:0:0:
256,192,447181,1,0,0:0:0:0:
402,192,447181,1,0,0:0:0:0:
475,192,447256,1,0,0:0:0:0:
182,192,447256,1,0,0:0:0:0:
329,192,447331,1,0,0:0:0:0:
109,192,447331,1,0,0:0:0:0:
36,192,447331,1,0,0:0:0:0:
402,192,447331,1,0,0:0:0:0:
256,192,447406,1,0,0:0:0:0:
182,192,447406,1,0,0:0:0:0:
36,192,447481,1,0,0:0:0:0:
402,192,447481,1,0,0:0:0:0:
109,192,447556,1,0,0:0:0:0:
329,192,447556,1,0,0:0:0:0:
475,192,447631,1,0,0:0:0:0:
182,192,447631,1,0,0:0:0:0:
256,192,447631,1,0,0:0:0:0:
402,192,447631,1,0,0:0:0:0:
36,192,447631,128,0,447931:0:0:0:0:
329,192,447931,1,0,0:0:0:0:
475,192,448006,1,0,0:0:0:0:
256,192,448081,1,0,0:0:0:0:
402,192,448156,1,0,0:0:0:0:
182,192,448231,1,0,0:0:0:0:
329,192,448306,1,0,0:0:0:0:
109,192,448381,1,0,0:0:0:0:
256,192,448456,1,0,0:0:0:0:
36,192,448531,1,0,0:0:0:0:
182,192,448606,1,0,0:0:0:0:
36,192,448681,1,0,0:0:0:0:
109,192,448756,1,0,0:0:0:0:
36,192,448831,1,0,0:0:0:0:
256,192,448981,1,0,0:0:0:0:
182,192,449056,1,0,0:0:0:0:
36,192,449131,128,0,449281:0:0:0:0:
329,192,449281,1,0,0:0:0:0:
256,192,449356,1,0,0:0:0:0:
109,192,449431,128,0,449581:0:0:0:0:
402,192,449581,128,0,449656:0:0:0:0:
182,192,449656,128,0,449731:0:0:0:0:
329,192,449731,128,0,449806:0:0:0:0:
109,192,449806,128,0,449881:0:0:0:0:
256,192,449881,128,0,450031:0:0:0:0:
402,192,450031,1,0,0:0:0:0:
182,192,450031,1,0,0:0:0:0:
109,192,450031,1,0,0:0:0:0:
329,192,450031,1,0,0:0:0:0:
36,192,450181,1,0,0:0:0:0:
36,192,450331,1,0,0:0:0:0:
182,192,450331,1,0,0:0:0:0:
109,192,450481,1,0,0:0:0:0:
182,192,450481,1,0,0:0:0:0:
475,192,450481,1,0,0:0:0:0:
329,192,450481,1,0,0:0:0:0:
36,192,450631,1,0,0:0:0:0:
36,192,450781,1,0,0:0:0:0:
36,192,450931,1,0,0:0:0:0:
182,192,450931,1,0,0:0:0:0:
36,192,451081,1,0,0:0:0:0:
109,192,451231,1,0,0:0:0:0:
182,192,451231,1,0,0:0:0:0:
36,192,451381,1,0,0:0:0:0:
182,192,451531,1,0,0:0:0:0:
36,192,451531,1,0,0:0:0:0:
109,192,451681,1,0,0:0:0:0:
182,192,451681,1,0,0:0:0:0:
36,192,451831,1,0,0:0:0:0:
36,192,451981,1,0,0:0:0:0:
36,192,452131,1,0,0:0:0:0:
182,192,452131,1,0,0:0:0:0:
36,192,452281,1,0,0:0:0:0:
109,192,452431,1,0,0:0:0:0:
182,192,452431,1,0,0:0:0:0:
402,192,452431,1,0,0:0:0:0:
329,192,452431,1,0,0:0:0:0:
36,192,452581,1,0,0:0:0:0:
182,192,452731,1,0,0:0:0:0:
36,192,452731,1,0,0:0:0:0:
109,192,452881,1,0,0:0:0:0:
182,192,452881,1,0,0:0:0:0:
475,192,452881,1,0,0:0:0:0:
402,192,452881,1,0,0:0:0:0:
36,192,453031,1,0,0:0:0:0:
36,192,453181,1,0,0:0:0:0:
182,192,453331,1,0,0:0:0:0:
36,192,453331,1,0,0:0:0:0:
36,192,453481,1,0,0:0:0:0:
109,192,453631,1,0,0:0:0:0:
182,192,453631,1,0,0:0:0:0:
36,192,453781,1,0,0:0:0:0:
182,192,453931,1,0,0:0:0:0:
36,192,453931,1,0,0:0:0:0:
182,192,454081,1,0,0:0:0:0:
109,192,454081,1,0,0:0:0:0:
36,192,454231,1,0,0:0:0:0:
36,192,454381,1,0,0:0:0:0:
36,192,454531,1,0,0:0:0:0:
182,192,454531,1,0,0:0:0:0:
475,192,454531,1,0,0:0:0:0:
402,192,454606,1,0,0:0:0:0:
36,192,454681,1,0,0:0:0:0:
329,192,454681,1,0,0:0:0:0:
475,192,454756,1,0,0:0:0:0:
109,192,454831,1,0,0:0:0:0:
182,192,454831,1,0,0:0:0:0:
402,192,454831,1,0,0:0:0:0:
256,192,454831,1,0,0:0:0:0:
36,192,454981,1,0,0:0:0:0:
36,192,455131,1,0,0:0:0:0:
182,192,455131,1,0,0:0:0:0:
109,192,455281,1,0,0:0:0:0:
182,192,455281,1,0,0:0:0:0:
475,192,455281,1,0,0:0:0:0:
329,192,455281,1,0,0:0:0:0:
36,192,455431,1,0,0:0:0:0:
36,192,455581,1,0,0:0:0:0:
182,192,455731,1,0,0:0:0:0:
36,192,455731,1,0,0:0:0:0:
329,192,455731,1,0,0:0:0:0:
36,192,455881,1,0,0:0:0:0:
475,192,455881,1,0,0:0:0:0:
182,192,456031,1,0,0:0:0:0:
109,192,456031,1,0,0:0:0:0:
475,192,456031,1,0,0:0:0:0:
329,192,456031,1,0,0:0:0:0:
36,192,456181,1,0,0:0:0:0:
182,192,456331,1,0,0:0:0:0:
36,192,456331,1,0,0:0:0:0:
182,192,456481,1,0,0:0:0:0:
109,192,456481,1,0,0:0:0:0:
36,192,456631,1,0,0:0:0:0:
475,192,456631,1,0,0:0:0:0:
402,192,456706,1,0,0:0:0:0:
256,192,456706,1,0,0:0:0:0:
36,192,456781,1,0,0:0:0:0:
182,192,456931,1,0,0:0:0:0:
36,192,456931,1,0,0:0:0:0:
402,192,456931,1,0,0:0:0:0:
329,192,456931,1,0,0:0:0:0:
36,192,457081,1,0,0:0:0:0:
475,192,457081,1,0,0:0:0:0:
329,192,457081,1,0,0:0:0:0:
182,192,457081,1,0,0:0:0:0:
182,192,457231,1,0,0:0:0:0:
109,192,457231,1,0,0:0:0:0:
256,192,457231,1,0,0:0:0:0:
402,192,457231,1,0,0:0:0:0:
475,192,457231,1,0,0:0:0:0:
36,192,457381,1,0,0:0:0:0:
182,192,457531,1,0,0:0:0:0:
36,192,457531,1,0,0:0:0:0:
182,192,457681,1,0,0:0:0:0:
109,192,457681,1,0,0:0:0:0:
475,192,457681,1,0,0:0:0:0:
402,192,457681,1,0,0:0:0:0:
109,192,457831,1,0,0:0:0:0:
36,192,457831,1,0,0:0:0:0:
402,192,457831,1,0,0:0:0:0:
256,192,457831,1,0,0:0:0:0:
329,192,457906,1,0,0:0:0:0:
182,192,457906,1,0,0:0:0:0:
475,192,457981,1,0,0:0:0:0:
402,192,457981,1,0,0:0:0:0:
36,192,457981,1,0,0:0:0:0:
256,192,458131,1,0,0:0:0:0:
109,192,458131,1,0,0:0:0:0:
36,192,458131,1,0,0:0:0:0:
402,192,458281,1,0,0:0:0:0:
475,192,458281,1,0,0:0:0:0:
182,192,458281,1,0,0:0:0:0:
109,192,458281,1,0,0:0:0:0:
256,192,458356,1,0,0:0:0:0:
329,192,458356,1,0,0:0:0:0:
109,192,458431,1,0,0:0:0:0:
36,192,458431,1,0,0:0:0:0:
475,192,458431,1,0,0:0:0:0:
402,192,458506,1,0,0:0:0:0:
256,192,458581,1,0,0:0:0:0:
182,192,458656,1,0,0:0:0:0:
475,192,458731,1,0,0:0:0:0:
402,192,458731,1,0,0:0:0:0:
109,192,458731,1,0,0:0:0:0:
36,192,458731,1,0,0:0:0:0:
329,192,458806,1,0,0:0:0:0:
182,192,458881,1,0,0:0:0:0:
109,192,458956,1,0,0:0:0:0:
475,192,459031,1,0,0:0:0:0:
329,192,459031,1,0,0:0:0:0:
36,192,459031,1,0,0:0:0:0:
402,192,459031,1,0,0:0:0:0:
256,192,459106,1,0,0:0:0:0:
109,192,459181,1,0,0:0:0:0:
36,192,459256,1,0,0:0:0:0:
475,192,459331,1,0,0:0:0:0:
402,192,459331,1,0,0:0:0:0:
256,192,459331,1,0,0:0:0:0:
182,192,459331,1,0,0:0:0:0:
109,192,459406,1,0,0:0:0:0:
329,192,459406,1,0,0:0:0:0:
182,192,459481,1,0,0:0:0:0:
402,192,459481,1,0,0:0:0:0:
256,192,459556,1,0,0:0:0:0:
475,192,459556,1,0,0:0:0:0:
329,192,459631,1,0,0:0:0:0:
109,192,459631,1,0,0:0:0:0:
36,192,459631,1,0,0:0:0:0:
402,192,459631,1,0,0:0:0:0:
182,192,459631,1,0,0:0:0:0:
475,192,459931,1,0,0:0:0:0:
402,192,459931,1,0,0:0:0:0:
329,192,459931,1,0,0:0:0:0:
256,192,459931,1,0,0:0:0:0:
182,192,459931,1,0,0:0:0:0:
329,192,460231,1,0,0:0:0:0:
182,192,460231,1,0,0:0:0:0:
109,192,460231,1,0,0:0:0:0:
36,192,460231,1,0,0:0:0:0:
402,192,460231,1,0,0:0:0:0:
475,192,460531,1,0,0:0:0:0:
402,192,460531,1,0,0:0:0:0:
329,192,460531,1,0,0:0:0:0:
256,192,460531,1,0,0:0:0:0:
182,192,460531,1,0,0:0:0:0:
402,192,460831,1,0,0:0:0:0:
329,192,460831,1,0,0:0:0:0:
182,192,460831,1,0,0:0:0:0:
109,192,460831,1,0,0:0:0:0:
36,192,460831,1,0,0:0:0:0:
402,192,461131,1,0,0:0:0:0:
256,192,461131,1,0,0:0:0:0:
182,192,461131,1,0,0:0:0:0:
329,192,461131,1,0,0:0:0:0:
475,192,461131,1,0,0:0:0:0:
329,192,461281,1,0,0:0:0:0:
402,192,461281,1,0,0:0:0:0:
182,192,461281,1,0,0:0:0:0:
109,192,461281,1,0,0:0:0:0:
256,192,461281,1,0,0:0:0:0:
329,192,461431,1,0,0:0:0:0:
256,192,461431,1,0,0:0:0:0:
36,192,461431,1,0,0:0:0:0:
109,192,461431,1,0,0:0:0:0:
182,192,461431,1,0,0:0:0:0:
402,192,461731,1,0,0:0:0:0:
329,192,461731,1,0,0:0:0:0:
256,192,461731,1,0,0:0:0:0:
109,192,461731,1,0,0:0:0:0:
182,192,461731,1,0,0:0:0:0:
329,192,462031,1,0,0:0:0:0:
109,192,462031,1,0,0:0:0:0:
182,192,462031,1,0,0:0:0:0:
402,192,462031,1,0,0:0:0:0:
36,192,462031,1,0,0:0:0:0:
329,192,462331,1,0,0:0:0:0:
256,192,462331,1,0,0:0:0:0:
182,192,462331,1,0,0:0:0:0:
402,192,462331,1,0,0:0:0:0:
475,192,462331,1,0,0:0:0:0:
256,192,462481,1,0,0:0:0:0:
182,192,462481,1,0,0:0:0:0:
329,192,462481,1,0,0:0:0:0:
109,192,462481,1,0,0:0:0:0:
402,192,462481,1,0,0:0:0:0:
329,192,462631,1,0,0:0:0:0:
36,192,462631,1,0,0:0:0:0:
256,192,462631,1,0,0:0:0:0:
182,192,462631,1,0,0:0:0:0:
109,192,462631,1,0,0:0:0:0:
256,192,462931,1,0,0:0:0:0:
182,192,462931,1,0,0:0:0:0:
36,192,462931,1,0,0:0:0:0:
402,192,462931,1,0,0:0:0:0:
109,192,462931,1,0,0:0:0:0:
329,192,463231,1,0,0:0:0:0:
256,192,463231,1,0,0:0:0:0:
182,192,463231,1,0,0:0:0:0:
109,192,463231,1,0,0:0:0:0:
36,192,463231,1,0,0:0:0:0:
402,192,463531,1,0,0:0:0:0:
329,192,463531,1,0,0:0:0:0:
182,192,463531,1,0,0:0:0:0:
109,192,463531,1,0,0:0:0:0:
36,192,463531,1,0,0:0:0:0:
475,192,463831,1,0,0:0:0:0:
402,192,463831,1,0,0:0:0:0:
256,192,463831,1,0,0:0:0:0:
109,192,463831,1,0,0:0:0:0:
36,192,463831,1,0,0:0:0:0:
475,192,464131,1,0,0:0:0:0:
256,192,464131,1,0,0:0:0:0:
36,192,464131,1,0,0:0:0:0:
402,192,464206,1,0,0:0:0:0:
182,192,464206,1,0,0:0:0:0:
329,192,464281,1,0,0:0:0:0:
109,192,464281,1,0,0:0:0:0:
402,192,464356,1,0,0:0:0:0:
36,192,464356,1,0,0:0:0:0:
475,192,464431,1,0,0:0:0:0:
256,192,464431,1,0,0:0:0:0:
109,192,464431,1,0,0:0:0:0:
329,192,464431,1,0,0:0:0:0:
182,192,464431,1,0,0:0:0:0:
256,192,464731,1,0,0:0:0:0:
402,192,464731,1,0,0:0:0:0:
329,192,464731,1,0,0:0:0:0:
475,192,464731,1,0,0:0:0:0:
182,192,464731,1,0,0:0:0:0:
182,192,465031,1,0,0:0:0:0:
402,192,465031,1,0,0:0:0:0:
36,192,465031,1,0,0:0:0:0:
109,192,465031,1,0,0:0:0:0:
329,192,465031,1,0,0:0:0:0:
475,192,465331,1,0,0:0:0:0:
329,192,465331,1,0,0:0:0:0:
182,192,465331,1,0,0:0:0:0:
402,192,465331,1,0,0:0:0:0:
256,192,465331,1,0,0:0:0:0:
182,192,465631,1,0,0:0:0:0:
36,192,465631,1,0,0:0:0:0:
402,192,465631,1,0,0:0:0:0:
109,192,465631,1,0,0:0:0:0:
329,192,465631,1,0,0:0:0:0:
329,192,465931,1,0,0:0:0:0:
402,192,465931,1,0,0:0:0:0:
182,192,465931,1,0,0:0:0:0:
475,192,465931,1,0,0:0:0:0:
256,192,465931,1,0,0:0:0:0:
109,192,466081,1,0,0:0:0:0:
402,192,466081,1,0,0:0:0:0:
329,192,466081,1,0,0:0:0:0:
182,192,466081,1,0,0:0:0:0:
256,192,466081,1,0,0:0:0:0:
36,192,466231,1,0,0:0:0:0:
109,192,466231,1,0,0:0:0:0:
256,192,466231,1,0,0:0:0:0:
329,192,466231,1,0,0:0:0:0:
182,192,466231,1,0,0:0:0:0:
329,192,466531,1,0,0:0:0:0:
402,192,466531,1,0,0:0:0:0:
256,192,466531,1,0,0:0:0:0:
182,192,466531,1,0,0:0:0:0:
109,192,466531,1,0,0:0:0:0:
109,192,466831,1,0,0:0:0:0:
402,192,466831,1,0,0:0:0:0:
182,192,466831,1,0,0:0:0:0:
329,192,466831,1,0,0:0:0:0:
36,192,466831,1,0,0:0:0:0:
256,192,467131,1,0,0:0:0:0:
402,192,467131,1,0,0:0:0:0:
109,192,467131,1,0,0:0:0:0:
182,192,467131,1,0,0:0:0:0:
329,192,467131,1,0,0:0:0:0:
36,192,467431,1,0,0:0:0:0:
329,192,467431,1,0,0:0:0:0:
402,192,467431,1,0,0:0:0:0:
182,192,467431,1,0,0:0:0:0:
475,192,467431,1,0,0:0:0:0:
402,192,467731,1,0,0:0:0:0:
182,192,467731,1,0,0:0:0:0:
109,192,467731,1,0,0:0:0:0:
36,192,467731,1,0,0:0:0:0:
256,192,467731,128,0,468331:0:0:0:0:
36,192,468331,1,0,0:0:0:0:
182,192,468331,1,0,0:0:0:0:
402,192,468331,1,0,0:0:0:0:
329,192,468331,1,0,0:0:0:0:
109,192,468331,1,0,0:0:0:0:
402,192,468481,1,0,0:0:0:0:
109,192,468481,1,0,0:0:0:0:
475,192,468481,1,0,0:0:0:0:
256,192,468481,1,0,0:0:0:0:
36,192,468481,1,0,0:0:0:0:
36,192,468781,1,0,0:0:0:0:
475,192,468781,1,0,0:0:0:0:
256,192,468781,1,0,0:0:0:0:
109,192,468856,1,0,0:0:0:0:
329,192,468856,1,0,0:0:0:0:
475,192,468931,1,0,0:0:0:0:
402,192,468931,1,0,0:0:0:0:
36,192,468931,1,0,0:0:0:0:
256,192,469006,1,0,0:0:0:0:
109,192,469006,1,0,0:0:0:0:
329,192,469081,1,0,0:0:0:0:
182,192,469081,1,0,0:0:0:0:
36,192,469156,1,0,0:0:0:0:
402,192,469156,1,0,0:0:0:0:
475,192,469231,1,0,0:0:0:0:
109,192,469231,1,0,0:0:0:0:
256,192,469231,1,0,0:0:0:0:
182,192,469231,1,0,0:0:0:0:
475,192,469531,1,0,0:0:0:0:
402,192,469531,1,0,0:0:0:0:
329,192,469531,1,0,0:0:0:0:
256,192,469531,1,0,0:0:0:0:
182,192,469531,1,0,0:0:0:0:
329,192,469831,1,0,0:0:0:0:
182,192,469831,1,0,0:0:0:0:
109,192,469831,1,0,0:0:0:0:
36,192,469831,1,0,0:0:0:0:
402,192,469831,1,0,0:0:0:0:
475,192,470131,1,0,0:0:0:0:
402,192,470131,1,0,0:0:0:0:
329,192,470131,1,0,0:0:0:0:
256,192,470131,1,0,0:0:0:0:
182,192,470131,1,0,0:0:0:0:
402,192,470431,1,0,0:0:0:0:
329,192,470431,1,0,0:0:0:0:
182,192,470431,1,0,0:0:0:0:
109,192,470431,1,0,0:0:0:0:
36,192,470431,1,0,0:0:0:0:
402,192,470731,1,0,0:0:0:0:
256,192,470731,1,0,0:0:0:0:
182,192,470731,1,0,0:0:0:0:
329,192,470731,1,0,0:0:0:0:
475,192,470731,1,0,0:0:0:0:
329,192,470881,1,0,0:0:0:0:
402,192,470881,1,0,0:0:0:0:
182,192,470881,1,0,0:0:0:0:
109,192,470881,1,0,0:0:0:0:
256,192,470881,1,0,0:0:0:0:
329,192,471031,1,0,0:0:0:0:
256,192,471031,1,0,0:0:0:0:
36,192,471031,1,0,0:0:0:0:
109,192,471031,1,0,0:0:0:0:
182,192,471031,1,0,0:0:0:0:
402,192,471331,1,0,0:0:0:0:
329,192,471331,1,0,0:0:0:0:
256,192,471331,1,0,0:0:0:0:
109,192,471331,1,0,0:0:0:0:
182,192,471331,1,0,0:0:0:0:
329,192,471631,1,0,0:0:0:0:
109,192,471631,1,0,0:0:0:0:
182,192,471631,1,0,0:0:0:0:
402,192,471631,1,0,0:0:0:0:
36,192,471631,1,0,0:0:0:0:
329,192,471931,1,0,0:0:0:0:
256,192,471931,1,0,0:0:0:0:
182,192,471931,1,0,0:0:0:0:
402,192,471931,1,0,0:0:0:0:
475,192,471931,1,0,0:0:0:0:
256,192,472081,1,0,0:0:0:0:
182,192,472081,1,0,0:0:0:0:
329,192,472081,1,0,0:0:0:0:
109,192,472081,1,0,0:0:0:0:
402,192,472081,1,0,0:0:0:0:
329,192,472231,1,0,0:0:0:0:
36,192,472231,1,0,0:0:0:0:
256,192,472231,1,0,0:0:0:0:
182,192,472231,1,0,0:0:0:0:
109,192,472231,1,0,0:0:0:0:
256,192,472531,1,0,0:0:0:0:
182,192,472531,1,0,0:0:0:0:
36,192,472531,1,0,0:0:0:0:
402,192,472531,1,0,0:0:0:0:
109,192,472531,1,0,0:0:0:0:
329,192,472831,1,0,0:0:0:0:
256,192,472831,1,0,0:0:0:0:
182,192,472831,1,0,0:0:0:0:
109,192,472831,1,0,0:0:0:0:
36,192,472831,1,0,0:0:0:0:
475,192,473031,1,0,0:0:0:0:
329,192,473031,1,0,0:0:0:0:
256,192,473031,1,0,0:0:0:0:
182,192,473031,1,0,0:0:0:0:
36,192,473031,1,0,0:0:0:0:
402,192,473231,1,0,0:0:0:0:
256,192,473231,1,0,0:0:0:0:
182,192,473231,1,0,0:0:0:0:
109,192,473231,1,0,0:0:0:0:
475,192,473231,1,0,0:0:0:0:
475,192,473431,1,0,0:0:0:0:
402,192,473431,1,0,0:0:0:0:
329,192,473431,1,0,0:0:0:0:
182,192,473431,1,0,0:0:0:0:
109,192,473431,1,0,0:0:0:0:
329,192,473631,1,0,0:0:0:0:
256,192,473631,1,0,0:0:0:0:
36,192,473631,1,0,0:0:0:0:
402,192,473631,1,0,0:0:0:0:
109,192,473631,1,0,0:0:0:0:
475,192,473831,1,0,0:0:0:0:
402,192,473831,1,0,0:0:0:0:
256,192,473831,1,0,0:0:0:0:
182,192,473831,1,0,0:0:0:0:
36,192,473831,1,0,0:0:0:0:
329,192,474031,128,0,474631:0:0:0:0:
256,192,474031,128,0,474631:0:0:0:0:
182,192,474031,128,0,474556:0:0:0:0:
109,192,474031,128,0,474556:0:0:0:0:
36,192,474031,128,0,474556:0:0:0:0:
182,192,474631,1,0,0:0:0:0:
109,192,474631,1,0,0:0:0:0:
36,192,474631,1,0,0:0:0:0:
329,192,474706,1,0,0:0:0:0:
256,192,474706,1,0,0:0:0:0:
475,192,474781,1,0,0:0:0:0:
402,192,474781,1,0,0:0:0:0:
329,192,474931,128,0,475531:0:0:0:0:
256,192,474931,128,0,475531:0:0:0:0:
182,192,474931,128,0,475456:0:0:0:0:
109,192,474931,128,0,475456:0:0:0:0:
36,192,474931,128,0,475456:0:0:0:0:
182,192,475531,1,0,0:0:0:0:
109,192,475531,1,0,0:0:0:0:
36,192,475531,1,0,0:0:0:0:
329,192,475606,1,0,0:0:0:0:
256,192,475606,1,0,0:0:0:0:
402,192,475681,1,0,0:0:0:0:
475,192,475681,1,0,0:0:0:0:
256,192,475756,1,0,0:0:0:0:
182,192,475756,1,0,0:0:0:0:
475,192,475831,1,0,0:0:0:0:
329,192,475831,1,0,0:0:0:0:
402,192,475831,1,0,0:0:0:0:
36,192,475831,1,0,0:0:0:0:
109,192,475831,1,0,0:0:0:0:
402,192,475981,1,0,0:0:0:0:
329,192,475981,1,0,0:0:0:0:
256,192,475981,1,0,0:0:0:0:
182,192,475981,1,0,0:0:0:0:
109,192,475981,1,0,0:0:0:0:
475,192,476131,1,0,0:0:0:0:
402,192,476131,1,0,0:0:0:0:
329,192,476131,1,0,0:0:0:0:
36,192,476131,1,0,0:0:0:0:
182,192,476206,1,0,0:0:0:0:
109,192,476206,1,0,0:0:0:0:
402,192,476281,1,0,0:0:0:0:
329,192,476281,1,0,0:0:0:0:
182,192,476356,1,0,0:0:0:0:
109,192,476356,1,0,0:0:0:0:
475,192,476431,1,0,0:0:0:0:
402,192,476431,1,0,0:0:0:0:
256,192,476431,1,0,0:0:0:0:
36,192,476431,1,0,0:0:0:0:
329,192,476431,1,0,0:0:0:0:
36,192,476581,1,0,0:0:0:0:
109,192,476581,1,0,0:0:0:0:
475,192,476731,1,0,0:0:0:0:
402,192,476731,1,0,0:0:0:0:
329,192,476731,1,0,0:0:0:0:
256,192,476731,1,0,0:0:0:0:
182,192,476731,1,0,0:0:0:0:
475,192,476881,1,0,0:0:0:0:
402,192,476881,1,0,0:0:0:0:
329,192,477031,1,0,0:0:0:0:
182,192,477031,1,0,0:0:0:0:
109,192,477031,1,0,0:0:0:0:
36,192,477031,1,0,0:0:0:0:
256,192,477031,1,0,0:0:0:0:
402,192,477031,1,0,0:0:0:0:
36,192,477181,1,0,0:0:0:0:
109,192,477181,1,0,0:0:0:0:
475,192,477331,1,0,0:0:0:0:
402,192,477331,1,0,0:0:0:0:
329,192,477331,1,0,0:0:0:0:
256,192,477331,1,0,0:0:0:0:
182,192,477331,1,0,0:0:0:0:
475,192,477481,1,0,0:0:0:0:
402,192,477481,1,0,0:0:0:0:
329,192,477556,1,0,0:0:0:0:
256,192,477556,1,0,0:0:0:0:
182,192,477631,1,0,0:0:0:0:
109,192,477631,1,0,0:0:0:0:
36,192,477631,1,0,0:0:0:0:
475,192,477631,1,0,0:0:0:0:
402,192,477631,1,0,0:0:0:0:
329,192,477706,1,0,0:0:0:0:
256,192,477706,1,0,0:0:0:0:
109,192,477781,1,0,0:0:0:0:
36,192,477781,1,0,0:0:0:0:
329,192,477856,1,0,0:0:0:0:
256,192,477856,1,0,0:0:0:0:
182,192,477931,1,0,0:0:0:0:
109,192,477931,1,0,0:0:0:0:
36,192,477931,1,0,0:0:0:0:
475,192,477931,1,0,0:0:0:0:
402,192,477931,1,0,0:0:0:0:
329,192,478006,1,0,0:0:0:0:
256,192,478006,1,0,0:0:0:0:
109,192,478081,1,0,0:0:0:0:
36,192,478081,1,0,0:0:0:0:
329,192,478156,1,0,0:0:0:0:
256,192,478156,1,0,0:0:0:0:
402,192,478231,1,0,0:0:0:0:
475,192,478231,1,0,0:0:0:0:
182,192,478231,1,0,0:0:0:0:
109,192,478231,1,0,0:0:0:0:
36,192,478231,1,0,0:0:0:0:
329,192,478306,1,0,0:0:0:0:
475,192,478381,1,0,0:0:0:0:
402,192,478381,1,0,0:0:0:0:
182,192,478381,1,0,0:0:0:0:
109,192,478381,1,0,0:0:0:0:
36,192,478381,1,0,0:0:0:0:
329,192,478456,1,0,0:0:0:0:
475,192,478531,1,0,0:0:0:0:
402,192,478531,1,0,0:0:0:0:
182,192,478531,1,0,0:0:0:0:
109,192,478531,1,0,0:0:0:0:
36,192,478531,1,0,0:0:0:0:
402,192,478681,1,0,0:0:0:0:
256,192,478681,1,0,0:0:0:0:
109,192,478681,1,0,0:0:0:0:
256,192,478831,1,0,0:0:0:0:
329,192,478831,1,0,0:0:0:0:
109,192,478831,1,0,0:0:0:0:
36,192,478831,1,0,0:0:0:0:
182,192,478831,1,0,0:0:0:0:
402,192,478981,1,0,0:0:0:0:
109,192,478981,1,0,0:0:0:0:
475,192,479131,1,0,0:0:0:0:
402,192,479131,1,0,0:0:0:0:
329,192,479131,1,0,0:0:0:0:
256,192,479131,1,0,0:0:0:0:
182,192,479131,1,0,0:0:0:0:
329,192,479281,1,0,0:0:0:0:
182,192,479281,1,0,0:0:0:0:
329,192,479431,1,0,0:0:0:0:
182,192,479431,1,0,0:0:0:0:
109,192,479431,1,0,0:0:0:0:
36,192,479431,1,0,0:0:0:0:
402,192,479431,1,0,0:0:0:0:
109,192,479581,1,0,0:0:0:0:
402,192,479581,1,0,0:0:0:0:
475,192,479731,1,0,0:0:0:0:
402,192,479731,1,0,0:0:0:0:
329,192,479731,1,0,0:0:0:0:
256,192,479731,1,0,0:0:0:0:
182,192,479731,1,0,0:0:0:0:
329,192,479881,1,0,0:0:0:0:
182,192,479881,1,0,0:0:0:0:
402,192,480031,1,0,0:0:0:0:
329,192,480031,1,0,0:0:0:0:
182,192,480031,1,0,0:0:0:0:
109,192,480031,1,0,0:0:0:0:
36,192,480031,1,0,0:0:0:0:
109,192,480181,1,0,0:0:0:0:
36,192,480181,1,0,0:0:0:0:
402,192,480331,1,0,0:0:0:0:
256,192,480331,1,0,0:0:0:0:
182,192,480331,1,0,0:0:0:0:
329,192,480331,1,0,0:0:0:0:
475,192,480331,1,0,0:0:0:0:
329,192,480481,1,0,0:0:0:0:
402,192,480481,1,0,0:0:0:0:
182,192,480481,1,0,0:0:0:0:
109,192,480481,1,0,0:0:0:0:
256,192,480481,1,0,0:0:0:0:
329,192,480631,1,0,0:0:0:0:
256,192,480631,1,0,0:0:0:0:
36,192,480631,1,0,0:0:0:0:
109,192,480631,1,0,0:0:0:0:
182,192,480631,1,0,0:0:0:0:
475,192,480781,1,0,0:0:0:0:
402,192,480781,1,0,0:0:0:0:
402,192,480931,1,0,0:0:0:0:
329,192,480931,1,0,0:0:0:0:
256,192,480931,1,0,0:0:0:0:
109,192,480931,1,0,0:0:0:0:
182,192,480931,1,0,0:0:0:0:
329,192,481081,1,0,0:0:0:0:
182,192,481081,1,0,0:0:0:0:
329,192,481231,1,0,0:0:0:0:
109,192,481231,1,0,0:0:0:0:
182,192,481231,1,0,0:0:0:0:
402,192,481231,1,0,0:0:0:0:
36,192,481231,1,0,0:0:0:0:
109,192,481381,1,0,0:0:0:0:
36,192,481381,1,0,0:0:0:0:
329,192,481531,1,0,0:0:0:0:
256,192,481531,1,0,0:0:0:0:
182,192,481531,1,0,0:0:0:0:
402,192,481531,1,0,0:0:0:0:
475,192,481531,1,0,0:0:0:0:
256,192,481681,1,0,0:0:0:0:
182,192,481681,1,0,0:0:0:0:
329,192,481681,1,0,0:0:0:0:
109,192,481681,1,0,0:0:0:0:
402,192,481681,1,0,0:0:0:0:
329,192,481831,1,0,0:0:0:0:
36,192,481831,1,0,0:0:0:0:
256,192,481831,1,0,0:0:0:0:
182,192,481831,1,0,0:0:0:0:
109,192,481831,1,0,0:0:0:0:
329,192,481981,1,0,0:0:0:0:
182,192,481981,1,0,0:0:0:0:
256,192,482131,1,0,0:0:0:0:
182,192,482131,1,0,0:0:0:0:
36,192,482131,1,0,0:0:0:0:
402,192,482131,1,0,0:0:0:0:
109,192,482131,1,0,0:0:0:0:
475,192,482281,1,0,0:0:0:0:
329,192,482281,1,0,0:0:0:0:
329,192,482431,1,0,0:0:0:0:
256,192,482431,1,0,0:0:0:0:
182,192,482431,1,0,0:0:0:0:
109,192,482431,1,0,0:0:0:0:
36,192,482431,1,0,0:0:0:0:
402,192,482581,1,0,0:0:0:0:
182,192,482581,1,0,0:0:0:0:
402,192,482731,1,0,0:0:0:0:
329,192,482731,1,0,0:0:0:0:
182,192,482731,1,0,0:0:0:0:
109,192,482731,1,0,0:0:0:0:
36,192,482731,1,0,0:0:0:0:
329,192,482881,1,0,0:0:0:0:
109,192,482881,1,0,0:0:0:0:
475,192,483031,1,0,0:0:0:0:
402,192,483031,1,0,0:0:0:0:
256,192,483031,1,0,0:0:0:0:
109,192,483031,1,0,0:0:0:0:
36,192,483031,1,0,0:0:0:0:
329,192,483181,1,0,0:0:0:0:
182,192,483181,1,0,0:0:0:0:
475,192,483331,1,0,0:0:0:0:
256,192,483331,1,0,0:0:0:0:
36,192,483331,1,0,0:0:0:0:
402,192,483406,1,0,0:0:0:0:
109,192,483406,1,0,0:0:0:0:
329,192,483481,1,0,0:0:0:0:
182,192,483481,1,0,0:0:0:0:
256,192,483556,1,0,0:0:0:0:
36,192,483556,1,0,0:0:0:0:
475,192,483631,1,0,0:0:0:0:
402,192,483631,1,0,0:0:0:0:
329,192,483631,1,0,0:0:0:0:
182,192,483631,1,0,0:0:0:0:
109,192,483631,1,0,0:0:0:0:
329,192,483781,1,0,0:0:0:0:
182,192,483781,1,0,0:0:0:0:
256,192,483931,1,0,0:0:0:0:
402,192,483931,1,0,0:0:0:0:
329,192,483931,1,0,0:0:0:0:
475,192,483931,1,0,0:0:0:0:
182,192,483931,1,0,0:0:0:0:
402,192,484081,1,0,0:0:0:0:
109,192,484081,1,0,0:0:0:0:
182,192,484231,1,0,0:0:0:0:
402,192,484231,1,0,0:0:0:0:
36,192,484231,1,0,0:0:0:0:
109,192,484231,1,0,0:0:0:0:
329,192,484231,1,0,0:0:0:0:
329,192,484381,1,0,0:0:0:0:
182,192,484381,1,0,0:0:0:0:
475,192,484531,1,0,0:0:0:0:
329,192,484531,1,0,0:0:0:0:
182,192,484531,1,0,0:0:0:0:
402,192,484531,1,0,0:0:0:0:
256,192,484531,1,0,0:0:0:0:
402,192,484681,1,0,0:0:0:0:
109,192,484681,1,0,0:0:0:0:
182,192,484831,1,0,0:0:0:0:
36,192,484831,1,0,0:0:0:0:
402,192,484831,1,0,0:0:0:0:
109,192,484831,1,0,0:0:0:0:
329,192,484831,1,0,0:0:0:0:
256,192,484831,1,0,0:0:0:0:
109,192,484981,1,0,0:0:0:0:
36,192,484981,1,0,0:0:0:0:
329,192,485131,1,0,0:0:0:0:
402,192,485131,1,0,0:0:0:0:
182,192,485131,1,0,0:0:0:0:
475,192,485131,1,0,0:0:0:0:
256,192,485131,1,0,0:0:0:0:
109,192,485281,1,0,0:0:0:0:
402,192,485281,1,0,0:0:0:0:
329,192,485281,1,0,0:0:0:0:
182,192,485281,1,0,0:0:0:0:
256,192,485281,1,0,0:0:0:0:
36,192,485431,1,0,0:0:0:0:
109,192,485431,1,0,0:0:0:0:
256,192,485431,1,0,0:0:0:0:
329,192,485431,1,0,0:0:0:0:
182,192,485431,1,0,0:0:0:0:
402,192,485581,1,0,0:0:0:0:
182,192,485581,1,0,0:0:0:0:
329,192,485731,1,0,0:0:0:0:
402,192,485731,1,0,0:0:0:0:
256,192,485731,1,0,0:0:0:0:
182,192,485731,1,0,0:0:0:0:
109,192,485731,1,0,0:0:0:0:
329,192,485881,1,0,0:0:0:0:
109,192,485881,1,0,0:0:0:0:
109,192,486031,1,0,0:0:0:0:
402,192,486031,1,0,0:0:0:0:
182,192,486031,1,0,0:0:0:0:
329,192,486031,1,0,0:0:0:0:
36,192,486031,1,0,0:0:0:0:
256,192,486031,1,0,0:0:0:0:
402,192,486181,1,0,0:0:0:0:
182,192,486181,1,0,0:0:0:0:
256,192,486331,1,0,0:0:0:0:
402,192,486331,1,0,0:0:0:0:
109,192,486331,1,0,0:0:0:0:
182,192,486331,1,0,0:0:0:0:
329,192,486331,1,0,0:0:0:0:
475,192,486481,1,0,0:0:0:0:
36,192,486481,1,0,0:0:0:0:
36,192,486631,1,0,0:0:0:0:
329,192,486631,1,0,0:0:0:0:
402,192,486631,1,0,0:0:0:0:
182,192,486631,1,0,0:0:0:0:
475,192,486631,1,0,0:0:0:0:
109,192,486631,1,0,0:0:0:0:
329,192,486781,1,0,0:0:0:0:
182,192,486781,1,0,0:0:0:0:
402,192,486931,1,0,0:0:0:0:
182,192,486931,1,0,0:0:0:0:
109,192,486931,1,0,0:0:0:0:
36,192,486931,1,0,0:0:0:0:
256,192,486931,128,0,487531:0:0:0:0:
329,192,487081,1,0,0:0:0:0:
182,192,487081,1,0,0:0:0:0:
475,192,487231,1,0,0:0:0:0:
402,192,487231,1,0,0:0:0:0:
109,192,487231,1,0,0:0:0:0:
36,192,487231,1,0,0:0:0:0:
329,192,487381,1,0,0:0:0:0:
182,192,487381,1,0,0:0:0:0:
36,192,487531,1,0,0:0:0:0:
182,192,487531,1,0,0:0:0:0:
402,192,487531,1,0,0:0:0:0:
329,192,487531,1,0,0:0:0:0:
109,192,487531,1,0,0:0:0:0:
402,192,487681,1,0,0:0:0:0:
109,192,487681,1,0,0:0:0:0:
475,192,487681,1,0,0:0:0:0:
256,192,487681,1,0,0:0:0:0:
36,192,487681,1,0,0:0:0:0:
402,192,487831,1,0,0:0:0:0:
329,192,487831,1,0,0:0:0:0:
109,192,487831,1,0,0:0:0:0:
182,192,487831,1,0,0:0:0:0:
36,192,487981,1,0,0:0:0:0:
475,192,487981,1,0,0:0:0:0:
256,192,487981,1,0,0:0:0:0:
109,192,488056,1,0,0:0:0:0:
329,192,488056,1,0,0:0:0:0:
475,192,488131,1,0,0:0:0:0:
402,192,488131,1,0,0:0:0:0:
36,192,488131,1,0,0:0:0:0:
256,192,488206,1,0,0:0:0:0:
109,192,488206,1,0,0:0:0:0:
329,192,488281,1,0,0:0:0:0:
182,192,488281,1,0,0:0:0:0:
36,192,488356,1,0,0:0:0:0:
402,192,488356,1,0,0:0:0:0:
475,192,488431,1,0,0:0:0:0:
109,192,488431,1,0,0:0:0:0:
256,192,488431,1,0,0:0:0:0:
182,192,488431,1,0,0:0:0:0:
329,192,488431,1,0,0:0:0:0:
329,192,488581,1,0,0:0:0:0:
109,192,488581,1,0,0:0:0:0:
475,192,488731,1,0,0:0:0:0:
402,192,488731,1,0,0:0:0:0:
329,192,488731,1,0,0:0:0:0:
256,192,488731,1,0,0:0:0:0:
182,192,488731,1,0,0:0:0:0:
402,192,488881,1,0,0:0:0:0:
182,192,488881,1,0,0:0:0:0:
329,192,489031,1,0,0:0:0:0:
182,192,489031,1,0,0:0:0:0:
109,192,489031,1,0,0:0:0:0:
36,192,489031,1,0,0:0:0:0:
402,192,489031,1,0,0:0:0:0:
329,192,489181,1,0,0:0:0:0:
109,192,489181,1,0,0:0:0:0:
475,192,489331,1,0,0:0:0:0:
402,192,489331,1,0,0:0:0:0:
329,192,489331,1,0,0:0:0:0:
256,192,489331,1,0,0:0:0:0:
182,192,489331,1,0,0:0:0:0:
402,192,489481,1,0,0:0:0:0:
182,192,489481,1,0,0:0:0:0:
402,192,489631,1,0,0:0:0:0:
329,192,489631,1,0,0:0:0:0:
182,192,489631,1,0,0:0:0:0:
109,192,489631,1,0,0:0:0:0:
36,192,489631,1,0,0:0:0:0:
329,192,489781,1,0,0:0:0:0:
109,192,489781,1,0,0:0:0:0:
402,192,489931,1,0,0:0:0:0:
256,192,489931,1,0,0:0:0:0:
182,192,489931,1,0,0:0:0:0:
329,192,489931,1,0,0:0:0:0:
475,192,489931,1,0,0:0:0:0:
329,192,490081,1,0,0:0:0:0:
402,192,490081,1,0,0:0:0:0:
182,192,490081,1,0,0:0:0:0:
109,192,490081,1,0,0:0:0:0:
256,192,490081,1,0,0:0:0:0:
329,192,490231,1,0,0:0:0:0:
256,192,490231,1,0,0:0:0:0:
36,192,490231,1,0,0:0:0:0:
109,192,490231,1,0,0:0:0:0:
182,192,490231,1,0,0:0:0:0:
182,192,490381,1,0,0:0:0:0:
402,192,490381,1,0,0:0:0:0:
402,192,490531,1,0,0:0:0:0:
329,192,490531,1,0,0:0:0:0:
256,192,490531,1,0,0:0:0:0:
109,192,490531,1,0,0:0:0:0:
182,192,490531,1,0,0:0:0:0:
36,192,490681,1,0,0:0:0:0:
329,192,490681,1,0,0:0:0:0:
329,192,490831,1,0,0:0:0:0:
109,192,490831,1,0,0:0:0:0:
182,192,490831,1,0,0:0:0:0:
402,192,490831,1,0,0:0:0:0:
36,192,490831,1,0,0:0:0:0:
402,192,490981,1,0,0:0:0:0:
109,192,490981,1,0,0:0:0:0:
329,192,491131,1,0,0:0:0:0:
256,192,491131,1,0,0:0:0:0:
182,192,491131,1,0,0:0:0:0:
402,192,491131,1,0,0:0:0:0:
475,192,491131,1,0,0:0:0:0:
256,192,491281,1,0,0:0:0:0:
182,192,491281,1,0,0:0:0:0:
329,192,491281,1,0,0:0:0:0:
109,192,491281,1,0,0:0:0:0:
402,192,491281,1,0,0:0:0:0:
329,192,491431,1,0,0:0:0:0:
36,192,491431,1,0,0:0:0:0:
256,192,491431,1,0,0:0:0:0:
182,192,491431,1,0,0:0:0:0:
109,192,491431,1,0,0:0:0:0:
182,192,491581,1,0,0:0:0:0:
402,192,491581,1,0,0:0:0:0:
256,192,491731,1,0,0:0:0:0:
182,192,491731,1,0,0:0:0:0:
36,192,491731,1,0,0:0:0:0:
402,192,491731,1,0,0:0:0:0:
109,192,491731,1,0,0:0:0:0:
329,192,491881,1,0,0:0:0:0:
36,192,491881,1,0,0:0:0:0:
475,192,491956,1,0,0:0:0:0:
402,192,491956,1,0,0:0:0:0:
329,192,492031,1,0,0:0:0:0:
256,192,492031,1,0,0:0:0:0:
182,192,492031,1,0,0:0:0:0:
109,192,492031,1,0,0:0:0:0:
36,192,492031,1,0,0:0:0:0:
475,192,492231,1,0,0:0:0:0:
329,192,492231,1,0,0:0:0:0:
256,192,492231,1,0,0:0:0:0:
182,192,492231,1,0,0:0:0:0:
36,192,492231,1,0,0:0:0:0:
402,192,492431,1,0,0:0:0:0:
256,192,492431,1,0,0:0:0:0:
182,192,492431,1,0,0:0:0:0:
109,192,492431,1,0,0:0:0:0:
475,192,492431,1,0,0:0:0:0:
475,192,492631,1,0,0:0:0:0:
402,192,492631,1,0,0:0:0:0:
329,192,492631,1,0,0:0:0:0:
182,192,492631,1,0,0:0:0:0:
109,192,492631,1,0,0:0:0:0:
329,192,492831,1,0,0:0:0:0:
256,192,492831,1,0,0:0:0:0:
36,192,492831,1,0,0:0:0:0:
402,192,492831,1,0,0:0:0:0:
109,192,492831,1,0,0:0:0:0:
475,192,493031,1,0,0:0:0:0:
402,192,493031,1,0,0:0:0:0:
256,192,493031,1,0,0:0:0:0:
182,192,493031,1,0,0:0:0:0:
36,192,493031,1,0,0:0:0:0:
329,192,493231,128,0,493756:0:0:0:0:
256,192,493231,128,0,493831:0:0:0:0:
182,192,493231,128,0,493831:0:0:0:0:
109,192,493231,128,0,493906:0:0:0:0:
36,192,493231,128,0,493906:0:0:0:0:
475,192,493831,1,0,0:0:0:0:
402,192,493831,1,0,0:0:0:0:
329,192,493831,1,0,0:0:0:0:
256,192,493906,1,0,0:0:0:0:
182,192,493906,1,0,0:0:0:0:
109,192,493981,1,0,0:0:0:0:
36,192,493981,1,0,0:0:0:0:
329,192,494131,128,0,494656:0:0:0:0:
256,192,494131,128,0,494731:0:0:0:0:
182,192,494131,128,0,494731:0:0:0:0:
109,192,494131,128,0,494806:0:0:0:0:
36,192,494131,128,0,494806:0:0:0:0:
402,192,494731,1,0,0:0:0:0:
329,192,494731,1,0,0:0:0:0:
475,192,494731,1,0,0:0:0:0:
256,192,494806,1,0,0:0:0:0:
182,192,494806,1,0,0:0:0:0:
36,192,494881,1,0,0:0:0:0:
109,192,494881,1,0,0:0:0:0:
329,192,494956,1,0,0:0:0:0:
256,192,494956,1,0,0:0:0:0:
475,192,495031,1,0,0:0:0:0:
402,192,495031,1,0,0:0:0:0:
182,192,495031,1,0,0:0:0:0:
109,192,495031,1,0,0:0:0:0:
36,192,495031,1,0,0:0:0:0:
402,192,495181,1,0,0:0:0:0:
329,192,495181,1,0,0:0:0:0:
182,192,495181,1,0,0:0:0:0:
109,192,495181,1,0,0:0:0:0:
36,192,495181,1,0,0:0:0:0:
109,192,495331,1,0,0:0:0:0:
36,192,495331,1,0,0:0:0:0:
256,192,495331,1,0,0:0:0:0:
182,192,495406,1,0,0:0:0:0:
329,192,495406,1,0,0:0:0:0:
109,192,495481,1,0,0:0:0:0:
36,192,495481,1,0,0:0:0:0:
402,192,495556,1,0,0:0:0:0:
475,192,495556,1,0,0:0:0:0:
182,192,495631,1,0,0:0:0:0:
109,192,495631,1,0,0:0:0:0:
329,192,495631,1,0,0:0:0:0:
256,192,495631,1,0,0:0:0:0:
36,192,495631,1,0,0:0:0:0:
109,192,495781,1,0,0:0:0:0:
36,192,495781,1,0,0:0:0:0:
475,192,495931,1,0,0:0:0:0:
402,192,495931,1,0,0:0:0:0:
256,192,495931,1,0,0:0:0:0:
182,192,495931,1,0,0:0:0:0:
329,192,495931,1,0,0:0:0:0:
475,192,496081,1,0,0:0:0:0:
402,192,496081,1,0,0:0:0:0:
329,192,496231,1,0,0:0:0:0:
256,192,496231,1,0,0:0:0:0:
109,192,496231,1,0,0:0:0:0:
36,192,496231,1,0,0:0:0:0:
182,192,496231,1,0,0:0:0:0:
402,192,496231,1,0,0:0:0:0:
36,192,496381,1,0,0:0:0:0:
109,192,496381,1,0,0:0:0:0:
475,192,496531,1,0,0:0:0:0:
329,192,496531,1,0,0:0:0:0:
256,192,496531,1,0,0:0:0:0:
182,192,496531,1,0,0:0:0:0:
402,192,496531,1,0,0:0:0:0:
475,192,496681,1,0,0:0:0:0:
402,192,496681,1,0,0:0:0:0:
329,192,496756,1,0,0:0:0:0:
256,192,496756,1,0,0:0:0:0:
182,192,496831,1,0,0:0:0:0:
109,192,496831,1,0,0:0:0:0:
36,192,496831,1,0,0:0:0:0:
475,192,496831,1,0,0:0:0:0:
402,192,496831,1,0,0:0:0:0:
329,192,496906,1,0,0:0:0:0:
256,192,496906,1,0,0:0:0:0:
109,192,496981,1,0,0:0:0:0:
402,192,496981,1,0,0:0:0:0:
256,192,497056,1,0,0:0:0:0:
182,192,497056,1,0,0:0:0:0:
475,192,497131,1,0,0:0:0:0:
402,192,497131,1,0,0:0:0:0:
329,192,497131,1,0,0:0:0:0:
109,192,497131,1,0,0:0:0:0:
36,192,497131,1,0,0:0:0:0:
256,192,497206,1,0,0:0:0:0:
182,192,497206,1,0,0:0:0:0:
109,192,497281,1,0,0:0:0:0:
402,192,497281,1,0,0:0:0:0:
329,192,497356,1,0,0:0:0:0:
256,192,497356,1,0,0:0:0:0:
475,192,497431,1,0,0:0:0:0:
402,192,497431,1,0,0:0:0:0:
182,192,497431,1,0,0:0:0:0:
109,192,497431,1,0,0:0:0:0:
36,192,497431,1,0,0:0:0:0:
329,192,497506,1,0,0:0:0:0:
256,192,497506,1,0,0:0:0:0:
182,192,497581,1,0,0:0:0:0:
109,192,497581,1,0,0:0:0:0:
36,192,497581,1,0,0:0:0:0:
475,192,497581,1,0,0:0:0:0:
402,192,497581,1,0,0:0:0:0:
329,192,497656,1,0,0:0:0:0:
256,192,497656,1,0,0:0:0:0:
182,192,497731,1,0,0:0:0:0:
109,192,497731,1,0,0:0:0:0:
36,192,497731,1,0,0:0:0:0:
475,192,497731,1,0,0:0:0:0:
402,192,497731,1,0,0:0:0:0:
329,192,497881,1,0,0:0:0:0:
256,192,497881,1,0,0:0:0:0:
182,192,497881,1,0,0:0:0:0:
109,192,497881,1,0,0:0:0:0:
402,192,497881,1,0,0:0:0:0:
475,192,498031,1,0,0:0:0:0:
36,192,498031,1,0,0:0:0:0:
109,192,498181,1,0,0:0:0:0:
182,192,498331,1,0,0:0:0:0:
256,192,498481,1,0,0:0:0:0:
329,192,498631,1,0,0:0:0:0:
256,192,498781,1,0,0:0:0:0:
182,192,498931,1,0,0:0:0:0:
36,192,499081,1,0,0:0:0:0:
36,192,499381,1,0,0:0:0:0:
109,192,499531,1,0,0:0:0:0:
256,192,499681,1,0,0:0:0:0:
402,192,499831,1,0,0:0:0:0:
329,192,499981,1,0,0:0:0:0:
182,192,500131,1,0,0:0:0:0:
36,192,500281,1,0,0:0:0:0:
36,192,500581,1,0,0:0:0:0:
109,192,500731,1,0,0:0:0:0:
256,192,500881,1,0,0:0:0:0:
475,192,501031,1,0,0:0:0:0:
402,192,501181,1,0,0:0:0:0:
329,192,501331,1,0,0:0:0:0:
36,192,501481,1,0,0:0:0:0:
36,192,501781,1,0,0:0:0:0:
256,192,501931,1,0,0:0:0:0:
402,192,502081,1,0,0:0:0:0:
475,192,502231,1,0,0:0:0:0:
329,192,502231,1,0,0:0:0:0:
402,192,502381,1,0,0:0:0:0:
329,192,502531,1,0,0:0:0:0:
182,192,502681,1,0,0:0:0:0:
36,192,502831,1,0,0:0:0:0:
109,192,502981,1,0,0:0:0:0:
256,192,503131,1,0,0:0:0:0:
329,192,503281,1,0,0:0:0:0:
182,192,503431,1,0,0:0:0:0:
402,192,503431,1,0,0:0:0:0:
329,192,503581,1,0,0:0:0:0:
182,192,503731,1,0,0:0:0:0:
109,192,503881,1,0,0:0:0:0:
36,192,504031,1,0,0:0:0:0:
182,192,504181,1,0,0:0:0:0:
256,192,504331,1,0,0:0:0:0:
329,192,504481,1,0,0:0:0:0:
402,192,504631,1,0,0:0:0:0:
256,192,504781,1,0,0:0:0:0:
182,192,504931,1,0,0:0:0:0:
109,192,505081,1,0,0:0:0:0:
36,192,505231,1,0,0:0:0:0:
109,192,505381,1,0,0:0:0:0:
182,192,505531,1,0,0:0:0:0:
329,192,505681,1,0,0:0:0:0:
475,192,505831,1,0,0:0:0:0:
256,192,505831,1,0,0:0:0:0:
402,192,505981,1,0,0:0:0:0:
329,192,506131,1,0,0:0:0:0:
182,192,506281,1,0,0:0:0:0:
36,192,506431,1,0,0:0:0:0:
109,192,506581,1,0,0:0:0:0:
182,192,506731,1,0,0:0:0:0:
256,192,506881,1,0,0:0:0:0:
402,192,507031,1,0,0:0:0:0:
109,192,507031,1,0,0:0:0:0:
329,192,507181,1,0,0:0:0:0:
182,192,507331,1,0,0:0:0:0:
402,192,507406,1,0,0:0:0:0:
109,192,507481,1,0,0:0:0:0:
256,192,507481,1,0,0:0:0:0:
329,192,507556,1,0,0:0:0:0:
36,192,507631,1,0,0:0:0:0:
475,192,507631,1,0,0:0:0:0:
402,192,507631,1,0,0:0:0:0:
182,192,507631,1,0,0:0:0:0:
109,192,507781,1,0,0:0:0:0:
256,192,507931,1,0,0:0:0:0:
329,192,508081,1,0,0:0:0:0:
475,192,508231,1,0,0:0:0:0:
182,192,508231,1,0,0:0:0:0:
402,192,508381,1,0,0:0:0:0:
256,192,508531,1,0,0:0:0:0:
182,192,508681,1,0,0:0:0:0:
36,192,508831,1,0,0:0:0:0:
109,192,508981,1,0,0:0:0:0:
256,192,509131,1,0,0:0:0:0:
402,192,509281,1,0,0:0:0:0:
475,192,509431,1,0,0:0:0:0:
402,192,509581,1,0,0:0:0:0:
182,192,509731,1,0,0:0:0:0:
109,192,509881,1,0,0:0:0:0:
36,192,510031,1,0,0:0:0:0:
329,192,510031,1,0,0:0:0:0:
475,192,510068,1,0,0:0:0:0:
109,192,510181,1,0,0:0:0:0:
256,192,510331,1,0,0:0:0:0:
402,192,510481,1,0,0:0:0:0:
475,192,510631,1,0,0:0:0:0:
329,192,510631,1,0,0:0:0:0:
402,192,510781,1,0,0:0:0:0:
256,192,510931,1,0,0:0:0:0:
182,192,511081,1,0,0:0:0:0:
36,192,511231,1,0,0:0:0:0:
109,192,511381,1,0,0:0:0:0:
256,192,511531,1,0,0:0:0:0:
329,192,511681,1,0,0:0:0:0:
475,192,511831,1,0,0:0:0:0:
182,192,511831,1,0,0:0:0:0:
402,192,511981,1,0,0:0:0:0:
256,192,512131,1,0,0:0:0:0:
109,192,512281,1,0,0:0:0:0:
36,192,512431,1,0,0:0:0:0:
329,192,512431,1,0,0:0:0:0:
475,192,512468,1,0,0:0:0:0:
182,192,512581,1,0,0:0:0:0:
256,192,512731,1,0,0:0:0:0:
402,192,512881,1,0,0:0:0:0:
475,192,513031,1,0,0:0:0:0:
182,192,513031,1,0,0:0:0:0:
329,192,513181,1,0,0:0:0:0:
256,192,513331,1,0,0:0:0:0:
109,192,513481,1,0,0:0:0:0:
36,192,513631,1,0,0:0:0:0:
182,192,513781,1,0,0:0:0:0:
256,192,513931,1,0,0:0:0:0:
402,192,514081,1,0,0:0:0:0:
475,192,514231,1,0,0:0:0:0:
109,192,514231,1,0,0:0:0:0:
329,192,514381,1,0,0:0:0:0:
256,192,514531,1,0,0:0:0:0:
182,192,514681,1,0,0:0:0:0:
36,192,514831,1,0,0:0:0:0:
402,192,514831,1,0,0:0:0:0:
475,192,514868,1,0,0:0:0:0:
109,192,514981,1,0,0:0:0:0:
256,192,515131,1,0,0:0:0:0:
329,192,515281,1,0,0:0:0:0:
475,192,515431,1,0,0:0:0:0:
109,192,515431,1,0,0:0:0:0:
402,192,515581,1,0,0:0:0:0:
256,192,515731,1,0,0:0:0:0:
182,192,515881,1,0,0:0:0:0:
475,192,516031,1,0,0:0:0:0:
402,192,516181,1,0,0:0:0:0:
329,192,516331,1,0,0:0:0:0:
256,192,516481,1,0,0:0:0:0:
256,192,516631,1,0,0:0:0:0:
182,192,516781,1,0,0:0:0:0:
109,192,516931,1,0,0:0:0:0:
36,192,517081,1,0,0:0:0:0:
475,192,517231,128,0,522031:0:0:0:0:
402,192,517231,128,0,522031:0:0:0:0:
109,192,517231,128,0,522031:0:0:0:0:
182,192,517231,128,0,522031:0:0:0:0:
329,192,517231,128,0,522031:0:0:0:0:
256,192,517231,128,0,522031:0:0:0:0:
36,192,524431,1,0,0:0:0:0:
109,192,525183,1,0,0:0:0:0:
182,192,525630,1,0,0:0:0:0:
256,192,526155,1,0,0:0:0:0:
109,192,526820,1,0,0:0:0:0:
329,192,526820,1,0,0:0:0:0:
402,192,527489,1,0,0:0:0:0:
329,192,527935,1,0,0:0:0:0:
402,192,528393,1,0,0:0:0:0:
329,192,528766,1,0,0:0:0:0:
256,192,529140,1,0,0:0:0:0:
182,192,529297,1,0,0:0:0:0:
109,192,529471,1,0,0:0:0:0:
329,192,529752,1,0,0:0:0:0:
402,192,530133,1,0,0:0:0:0:
256,192,530476,1,0,0:0:0:0:
182,192,530625,1,0,0:0:0:0:
109,192,530838,1,0,0:0:0:0:
182,192,531226,1,0,0:0:0:0:
36,192,531649,1,0,0:0:0:0:
109,192,532124,1,0,0:0:0:0:
182,192,532603,1,0,0:0:0:0:
329,192,533236,1,0,0:0:0:0:
109,192,534229,1,0,0:0:0:0:
36,192,534229,1,0,0:0:0:0:
475,192,534229,1,0,0:0:0:0:
182,192,534292,1,0,0:0:0:0:
256,192,534355,1,0,0:0:0:0:
329,192,534419,1,0,0:0:0:0:
402,192,534838,1,0,0:0:0:0:
329,192,535234,1,0,0:0:0:0:
402,192,535569,1,0,0:0:0:0:
329,192,535920,1,0,0:0:0:0:
256,192,536255,1,0,0:0:0:0:
182,192,536405,1,0,0:0:0:0:
109,192,536604,1,0,0:0:0:0:
329,192,536928,1,0,0:0:0:0:
402,192,537317,1,0,0:0:0:0:
475,192,537695,1,0,0:0:0:0:
475,192,538194,128,0,538259:0:0:0:0:
182,192,538739,128,0,539611:0:0:0:0:
329,192,539611,1,0,0:0:0:0:
256,192,539907,1,0,0:0:0:0:
109,192,540900,1,0,0:0:0:0:
475,192,541541,1,0,0:0:0:0:
256,192,541541,1,0,0:0:0:0:
36,192,541541,1,0,0:0:0:0:
329,192,541596,1,0,0:0:0:0:
109,192,541596,1,0,0:0:0:0:
402,192,542072,1,0,0:0:0:0:
329,192,542442,1,0,0:0:0:0:
402,192,542816,1,0,0:0:0:0:
329,192,543151,1,0,0:0:0:0:
256,192,543503,1,0,0:0:0:0:
182,192,543690,1,0,0:0:0:0:
109,192,543942,1,0,0:0:0:0:
329,192,544315,1,0,0:0:0:0:
402,192,544708,1,0,0:0:0:0:
256,192,545176,1,0,0:0:0:0:
182,192,545406,1,0,0:0:0:0:
109,192,545632,1,0,0:0:0:0:
36,192,546023,1,0,0:0:0:0:
36,192,546378,1,0,0:0:0:0:
109,192,546632,1,0,0:0:0:0:
329,192,546953,1,0,0:0:0:0:
256,192,547267,1,0,0:0:0:0:
109,192,547609,1,0,0:0:0:0:
329,192,547988,1,0,0:0:0:0:
182,192,548578,128,0,549196:0:0:0:0:
36,192,548578,128,0,549196:0:0:0:0:
36,192,549403,128,0,550187:0:0:0:0:
256,192,549403,128,0,550187:0:0:0:0:
36,192,550448,128,0,551410:0:0:0:0:
182,192,550449,128,0,551410:0:0:0:0:
329,192,550449,128,0,551410:0:0:0:0:
329,192,551731,1,0,0:0:0:0:
182,192,551731,1,0,0:0:0:0:
36,192,551731,128,0,555630:0:0:0:0:
475,192,551731,128,0,555630:0:0:0:0:
329,192,553179,1,0,0:0:0:0:
182,192,553692,1,0,0:0:0:0:
256,192,554206,1,0,0:0:0:0:
329,192,554808,1,0,0:0:0:0:
329,192,555583,1,0,0:0:0:0:
182,192,555583,1,0,0:0:0:0:
402,192,555630,1,0,0:0:0:0:
109,192,555630,1,0,0:0:0:0:
256,192,564029,132,0,564216:0:0:0:0:
475,192,564216,1,0,0:0:0:0:
402,192,564279,1,0,0:0:0:0:
182,192,564329,1,0,0:0:0:0:
329,192,564379,1,0,0:0:0:0:
109,192,564429,1,0,0:0:0:0:
182,192,564479,1,0,0:0:0:0:
256,192,564516,1,0,0:0:0:0:
475,192,564554,1,0,0:0:0:0:
36,192,564554,1,0,0:0:0:0:
402,192,564591,1,0,0:0:0:0:
329,192,564629,1,0,0:0:0:0:
256,192,564666,1,0,0:0:0:0:
475,192,564704,1,0,0:0:0:0:
402,192,564741,1,0,0:0:0:0:
329,192,564779,1,0,0:0:0:0:
182,192,564816,1,0,0:0:0:0:
109,192,564854,1,0,0:0:0:0:
256,192,564891,1,0,0:0:0:0:
329,192,564929,1,0,0:0:0:0:
402,192,564966,1,0,0:0:0:0:
182,192,565004,1,0,0:0:0:0:
109,192,565041,1,0,0:0:0:0:
36,192,565079,1,0,0:0:0:0:
256,192,565116,1,0,0:0:0:0:
329,192,565154,1,0,0:0:0:0:
402,192,565191,1,0,0:0:0:0:
109,192,565229,1,0,0:0:0:0:
182,192,565229,1,0,0:0:0:0:
36,192,565229,1,0,0:0:0:0:
475,192,565229,1,0,0:0:0:0:
36,192,565529,1,0,0:0:0:0:
475,192,565529,1,0,0:0:0:0:
329,192,565829,1,0,0:0:0:0:
182,192,565829,1,0,0:0:0:0:
36,192,566129,1,0,0:0:0:0:
475,192,566129,1,0,0:0:0:0:
329,192,566429,1,0,0:0:0:0:
182,192,566429,1,0,0:0:0:0:
402,192,566729,1,0,0:0:0:0:
109,192,566729,1,0,0:0:0:0:
329,192,566879,1,0,0:0:0:0:
182,192,566879,1,0,0:0:0:0:
256,192,567029,1,0,0:0:0:0:
329,192,567329,1,0,0:0:0:0:
182,192,567329,1,0,0:0:0:0:
475,192,567629,1,0,0:0:0:0:
36,192,567629,1,0,0:0:0:0:
402,192,567929,1,0,0:0:0:0:
109,192,567929,1,0,0:0:0:0:
329,192,568079,1,0,0:0:0:0:
182,192,568079,1,0,0:0:0:0:
256,192,568229,1,0,0:0:0:0:
256,192,568529,1,0,0:0:0:0:
182,192,568829,1,0,0:0:0:0:
329,192,568829,1,0,0:0:0:0:
256,192,569129,1,0,0:0:0:0:
402,192,569429,1,0,0:0:0:0:
109,192,569429,1,0,0:0:0:0:
182,192,569729,1,0,0:0:0:0:
329,192,569729,1,0,0:0:0:0:
109,192,569804,1,0,0:0:0:0:
402,192,569804,1,0,0:0:0:0:
182,192,569879,1,0,0:0:0:0:
329,192,569879,1,0,0:0:0:0:
109,192,569954,1,0,0:0:0:0:
402,192,569954,1,0,0:0:0:0:
36,192,570029,1,0,0:0:0:0:
475,192,570029,1,0,0:0:0:0:
256,192,570029,1,0,0:0:0:0:
256,192,570179,1,0,0:0:0:0:
256,192,570329,1,0,0:0:0:0:
402,192,570329,1,0,0:0:0:0:
109,192,570329,1,0,0:0:0:0:
256,192,570479,1,0,0:0:0:0:
256,192,570629,1,0,0:0:0:0:
36,192,570629,1,0,0:0:0:0:
475,192,570629,1,0,0:0:0:0:
256,192,570779,1,0,0:0:0:0:
402,192,570929,1,0,0:0:0:0:
109,192,570929,1,0,0:0:0:0:
256,192,570929,1,0,0:0:0:0:
182,192,571004,1,0,0:0:0:0:
329,192,571004,1,0,0:0:0:0:
256,192,571079,1,0,0:0:0:0:
329,192,571154,1,0,0:0:0:0:
182,192,571154,1,0,0:0:0:0:
36,192,571229,1,0,0:0:0:0:
475,192,571229,1,0,0:0:0:0:
109,192,571229,1,0,0:0:0:0:
402,192,571229,1,0,0:0:0:0:
182,192,571304,1,0,0:0:0:0:
329,192,571304,1,0,0:0:0:0:
256,192,571379,1,0,0:0:0:0:
109,192,571454,1,0,0:0:0:0:
402,192,571454,1,0,0:0:0:0:
182,192,571529,1,0,0:0:0:0:
329,192,571529,1,0,0:0:0:0:
256,192,571529,1,0,0:0:0:0:
36,192,571604,1,0,0:0:0:0:
475,192,571604,1,0,0:0:0:0:
109,192,571679,1,0,0:0:0:0:
402,192,571679,1,0,0:0:0:0:
329,192,571679,1,0,0:0:0:0:
182,192,571679,1,0,0:0:0:0:
36,192,571754,1,0,0:0:0:0:
475,192,571754,1,0,0:0:0:0:
329,192,571829,1,0,0:0:0:0:
256,192,571829,1,0,0:0:0:0:
182,192,571829,1,0,0:0:0:0:
109,192,571904,1,0,0:0:0:0:
402,192,571904,1,0,0:0:0:0:
36,192,571979,1,0,0:0:0:0:
475,192,571979,1,0,0:0:0:0:
402,192,572054,1,0,0:0:0:0:
109,192,572054,1,0,0:0:0:0:
182,192,572129,1,0,0:0:0:0:
329,192,572129,1,0,0:0:0:0:
256,192,572129,1,0,0:0:0:0:
36,192,572204,1,0,0:0:0:0:
475,192,572204,1,0,0:0:0:0:
109,192,572279,1,0,0:0:0:0:
402,192,572279,1,0,0:0:0:0:
182,192,572354,1,0,0:0:0:0:
329,192,572354,1,0,0:0:0:0:
475,192,572429,1,0,0:0:0:0:
256,192,572429,1,0,0:0:0:0:
36,192,572429,1,0,0:0:0:0:
402,192,572729,1,0,0:0:0:0:
256,192,572729,1,0,0:0:0:0:
109,192,572729,1,0,0:0:0:0:
329,192,573029,1,0,0:0:0:0:
256,192,573029,1,0,0:0:0:0:
182,192,573029,1,0,0:0:0:0:
256,192,573329,128,0,573629:0:0:0:0:
109,192,573329,1,0,0:0:0:0:
402,192,573329,1,0,0:0:0:0:
475,192,573629,1,0,0:0:0:0:
329,192,573629,1,0,0:0:0:0:
182,192,573629,1,0,0:0:0:0:
36,192,573629,1,0,0:0:0:0:
329,192,573779,1,0,0:0:0:0:
256,192,573779,1,0,0:0:0:0:
182,192,573779,1,0,0:0:0:0:
475,192,573929,1,0,0:0:0:0:
402,192,573929,1,0,0:0:0:0:
109,192,573929,1,0,0:0:0:0:
36,192,573929,1,0,0:0:0:0:
329,192,574079,1,0,0:0:0:0:
256,192,574079,1,0,0:0:0:0:
182,192,574079,1,0,0:0:0:0:
475,192,574229,1,0,0:0:0:0:
256,192,574229,1,0,0:0:0:0:
36,192,574229,1,0,0:0:0:0:
109,192,574379,1,0,0:0:0:0:
329,192,574379,1,0,0:0:0:0:
182,192,574454,1,0,0:0:0:0:
402,192,574454,1,0,0:0:0:0:
109,192,574529,1,0,0:0:0:0:
36,192,574529,1,0,0:0:0:0:
256,192,574529,1,0,0:0:0:0:
475,192,574529,1,0,0:0:0:0:
182,192,574604,1,0,0:0:0:0:
329,192,574604,1,0,0:0:0:0:
109,192,574679,1,0,0:0:0:0:
36,192,574679,1,0,0:0:0:0:
402,192,574679,1,0,0:0:0:0:
475,192,574679,1,0,0:0:0:0:
182,192,574754,1,0,0:0:0:0:
256,192,574754,1,0,0:0:0:0:
109,192,574829,1,0,0:0:0:0:
36,192,574829,1,0,0:0:0:0:
329,192,574829,1,0,0:0:0:0:
402,192,574829,1,0,0:0:0:0:
475,192,574829,1,0,0:0:0:0:
475,192,575129,1,0,0:0:0:0:
402,192,575129,1,0,0:0:0:0:
329,192,575129,1,0,0:0:0:0:
256,192,575129,1,0,0:0:0:0:
182,192,575129,1,0,0:0:0:0:
109,192,575129,1,0,0:0:0:0:
402,192,575429,1,0,0:0:0:0:
329,192,575429,1,0,0:0:0:0:
256,192,575429,1,0,0:0:0:0:
182,192,575429,1,0,0:0:0:0:
109,192,575429,1,0,0:0:0:0:
36,192,575429,1,0,0:0:0:0:
475,192,575729,1,0,0:0:0:0:
402,192,575729,1,0,0:0:0:0:
256,192,575729,1,0,0:0:0:0:
182,192,575729,1,0,0:0:0:0:
329,192,575729,1,0,0:0:0:0:
109,192,575729,1,0,0:0:0:0:
402,192,576029,1,0,0:0:0:0:
329,192,576029,1,0,0:0:0:0:
256,192,576029,1,0,0:0:0:0:
182,192,576029,1,0,0:0:0:0:
109,192,576029,1,0,0:0:0:0:
36,192,576029,1,0,0:0:0:0:
475,192,576329,1,0,0:0:0:0:
402,192,576329,1,0,0:0:0:0:
182,192,576329,1,0,0:0:0:0:
109,192,576329,1,0,0:0:0:0:
36,192,576329,1,0,0:0:0:0:
256,192,576329,1,0,0:0:0:0:
475,192,576479,1,0,0:0:0:0:
329,192,576479,1,0,0:0:0:0:
402,192,576479,1,0,0:0:0:0:
182,192,576479,1,0,0:0:0:0:
36,192,576479,1,0,0:0:0:0:
109,192,576479,1,0,0:0:0:0:
475,192,576629,1,0,0:0:0:0:
402,192,576629,1,0,0:0:0:0:
329,192,576629,1,0,0:0:0:0:
256,192,576629,1,0,0:0:0:0:
109,192,576629,1,0,0:0:0:0:
36,192,576629,1,0,0:0:0:0:
402,192,576929,1,0,0:0:0:0:
329,192,576929,1,0,0:0:0:0:
256,192,576929,1,0,0:0:0:0:
182,192,576929,1,0,0:0:0:0:
109,192,576929,1,0,0:0:0:0:
36,192,576929,1,0,0:0:0:0:
402,192,577229,1,0,0:0:0:0:
329,192,577229,1,0,0:0:0:0:
182,192,577229,1,0,0:0:0:0:
109,192,577229,1,0,0:0:0:0:
475,192,577229,1,0,0:0:0:0:
256,192,577229,1,0,0:0:0:0:
475,192,577529,1,0,0:0:0:0:
402,192,577529,1,0,0:0:0:0:
182,192,577529,1,0,0:0:0:0:
109,192,577529,1,0,0:0:0:0:
36,192,577529,1,0,0:0:0:0:
329,192,577529,1,0,0:0:0:0:
256,192,577679,1,0,0:0:0:0:
329,192,577679,1,0,0:0:0:0:
402,192,577679,1,0,0:0:0:0:
475,192,577679,1,0,0:0:0:0:
109,192,577679,1,0,0:0:0:0:
36,192,577679,1,0,0:0:0:0:
475,192,577829,1,0,0:0:0:0:
402,192,577829,1,0,0:0:0:0:
329,192,577829,1,0,0:0:0:0:
256,192,577829,1,0,0:0:0:0:
182,192,577829,1,0,0:0:0:0:
36,192,577829,1,0,0:0:0:0:
402,192,578129,1,0,0:0:0:0:
329,192,578129,1,0,0:0:0:0:
256,192,578129,1,0,0:0:0:0:
182,192,578129,1,0,0:0:0:0:
36,192,578129,1,0,0:0:0:0:
109,192,578129,1,0,0:0:0:0:
36,192,578429,1,0,0:0:0:0:
109,192,578429,1,0,0:0:0:0:
256,192,578429,1,0,0:0:0:0:
329,192,578429,1,0,0:0:0:0:
402,192,578429,1,0,0:0:0:0:
475,192,578429,1,0,0:0:0:0:
475,192,578629,1,0,0:0:0:0:
256,192,578629,1,0,0:0:0:0:
109,192,578629,1,0,0:0:0:0:
36,192,578629,1,0,0:0:0:0:
182,192,578629,1,0,0:0:0:0:
402,192,578629,1,0,0:0:0:0:
475,192,578829,1,0,0:0:0:0:
329,192,578829,1,0,0:0:0:0:
256,192,578829,1,0,0:0:0:0:
182,192,578829,1,0,0:0:0:0:
109,192,578829,1,0,0:0:0:0:
36,192,578829,1,0,0:0:0:0:
475,192,579029,1,0,0:0:0:0:
402,192,579029,1,0,0:0:0:0:
329,192,579029,1,0,0:0:0:0:
182,192,579029,1,0,0:0:0:0:
109,192,579029,1,0,0:0:0:0:
36,192,579029,1,0,0:0:0:0:
475,192,579229,1,0,0:0:0:0:
256,192,579229,1,0,0:0:0:0:
109,192,579229,1,0,0:0:0:0:
182,192,579229,1,0,0:0:0:0:
402,192,579229,1,0,0:0:0:0:
36,192,579229,1,0,0:0:0:0:
402,192,579429,1,0,0:0:0:0:
329,192,579429,1,0,0:0:0:0:
256,192,579429,1,0,0:0:0:0:
182,192,579429,1,0,0:0:0:0:
36,192,579429,1,0,0:0:0:0:
475,192,579429,1,0,0:0:0:0:
182,192,579629,128,0,580154:0:0:0:0:
329,192,579629,128,0,580154:0:0:0:0:
109,192,579629,128,0,580229:0:0:0:0:
475,192,579629,128,0,580229:0:0:0:0:
402,192,579629,128,0,580229:0:0:0:0:
36,192,579629,128,0,580229:0:0:0:0:
329,192,580229,1,0,0:0:0:0:
182,192,580229,1,0,0:0:0:0:
256,192,580229,1,0,0:0:0:0:
109,192,580304,1,0,0:0:0:0:
402,192,580304,1,0,0:0:0:0:
36,192,580379,1,0,0:0:0:0:
475,192,580379,1,0,0:0:0:0:
475,192,580529,128,0,581129:0:0:0:0:
36,192,580529,128,0,581129:0:0:0:0:
109,192,580529,128,0,581129:0:0:0:0:
329,192,580529,128,0,581054:0:0:0:0:
182,192,580529,128,0,581054:0:0:0:0:
402,192,580529,128,0,581129:0:0:0:0:
329,192,581129,1,0,0:0:0:0:
256,192,581129,1,0,0:0:0:0:
182,192,581129,1,0,0:0:0:0:
109,192,581204,1,0,0:0:0:0:
402,192,581204,1,0,0:0:0:0:
36,192,581279,1,0,0:0:0:0:
475,192,581279,1,0,0:0:0:0:
329,192,581354,1,0,0:0:0:0:
182,192,581354,1,0,0:0:0:0:
402,192,581429,1,0,0:0:0:0:
475,192,581429,1,0,0:0:0:0:
256,192,581429,1,0,0:0:0:0:
109,192,581429,1,0,0:0:0:0:
36,192,581429,1,0,0:0:0:0:
402,192,581579,1,0,0:0:0:0:
329,192,581579,1,0,0:0:0:0:
256,192,581579,1,0,0:0:0:0:
182,192,581579,1,0,0:0:0:0:
109,192,581579,1,0,0:0:0:0:
36,192,581729,1,0,0:0:0:0:
109,192,581729,1,0,0:0:0:0:
475,192,581729,1,0,0:0:0:0:
402,192,581729,1,0,0:0:0:0:
329,192,581804,1,0,0:0:0:0:
182,192,581804,1,0,0:0:0:0:
475,192,581879,1,0,0:0:0:0:
402,192,581879,1,0,0:0:0:0:
109,192,581879,1,0,0:0:0:0:
36,192,581879,1,0,0:0:0:0:
329,192,581954,1,0,0:0:0:0:
182,192,581954,1,0,0:0:0:0:
256,192,582029,1,0,0:0:0:0:
475,192,582029,1,0,0:0:0:0:
402,192,582029,1,0,0:0:0:0:
109,192,582029,1,0,0:0:0:0:
36,192,582029,1,0,0:0:0:0:
329,192,582179,1,0,0:0:0:0:
182,192,582179,1,0,0:0:0:0:
402,192,582329,1,0,0:0:0:0:
329,192,582329,1,0,0:0:0:0:
182,192,582329,1,0,0:0:0:0:
109,192,582329,1,0,0:0:0:0:
475,192,582329,1,0,0:0:0:0:
36,192,582329,1,0,0:0:0:0:
475,192,582479,1,0,0:0:0:0:
36,192,582479,1,0,0:0:0:0:
402,192,582629,1,0,0:0:0:0:
329,192,582629,1,0,0:0:0:0:
256,192,582629,1,0,0:0:0:0:
182,192,582629,1,0,0:0:0:0:
109,192,582629,1,0,0:0:0:0:
329,192,582779,1,0,0:0:0:0:
182,192,582779,1,0,0:0:0:0:
402,192,582929,1,0,0:0:0:0:
329,192,582929,1,0,0:0:0:0:
475,192,582929,1,0,0:0:0:0:
182,192,582929,1,0,0:0:0:0:
109,192,582929,1,0,0:0:0:0:
36,192,582929,1,0,0:0:0:0:
109,192,583079,1,0,0:0:0:0:
36,192,583079,1,0,0:0:0:0:
475,192,583079,1,0,0:0:0:0:
402,192,583079,1,0,0:0:0:0:
182,192,583154,1,0,0:0:0:0:
329,192,583154,1,0,0:0:0:0:
109,192,583229,1,0,0:0:0:0:
36,192,583229,1,0,0:0:0:0:
475,192,583229,1,0,0:0:0:0:
402,192,583229,1,0,0:0:0:0:
256,192,583229,1,0,0:0:0:0:
182,192,583304,1,0,0:0:0:0:
402,192,583379,1,0,0:0:0:0:
475,192,583379,1,0,0:0:0:0:
329,192,583379,1,0,0:0:0:0:
256,192,583379,1,0,0:0:0:0:
182,192,583454,1,0,0:0:0:0:
109,192,583529,1,0,0:0:0:0:
36,192,583529,1,0,0:0:0:0:
329,192,583529,1,0,0:0:0:0:
402,192,583529,1,0,0:0:0:0:
475,192,583529,1,0,0:0:0:0:
256,192,583604,1,0,0:0:0:0:
182,192,583679,1,0,0:0:0:0:
109,192,583679,1,0,0:0:0:0:
36,192,583679,1,0,0:0:0:0:
475,192,583679,1,0,0:0:0:0:
256,192,583754,1,0,0:0:0:0:
329,192,583829,1,0,0:0:0:0:
109,192,583829,1,0,0:0:0:0:
36,192,583829,1,0,0:0:0:0:
475,192,583829,1,0,0:0:0:0:
402,192,583829,1,0,0:0:0:0:
182,192,583904,1,0,0:0:0:0:
475,192,583979,1,0,0:0:0:0:
329,192,583979,1,0,0:0:0:0:
109,192,583979,1,0,0:0:0:0:
36,192,583979,1,0,0:0:0:0:
402,192,583979,1,0,0:0:0:0:
182,192,584054,1,0,0:0:0:0:
475,192,584129,1,0,0:0:0:0:
109,192,584129,1,0,0:0:0:0:
36,192,584129,1,0,0:0:0:0:
329,192,584129,1,0,0:0:0:0:
402,192,584129,1,0,0:0:0:0:
402,192,584279,1,0,0:0:0:0:
329,192,584279,1,0,0:0:0:0:
182,192,584279,1,0,0:0:0:0:
256,192,584279,1,0,0:0:0:0:
109,192,584279,1,0,0:0:0:0:
36,192,584429,1,0,0:0:0:0:
109,192,584429,1,0,0:0:0:0:
402,192,584429,1,0,0:0:0:0:
329,192,584429,1,0,0:0:0:0:
256,192,584429,1,0,0:0:0:0:
475,192,584429,1,0,0:0:0:0:
329,192,584579,1,0,0:0:0:0:
182,192,584579,1,0,0:0:0:0:
36,192,584579,1,0,0:0:0:0:
109,192,584729,1,0,0:0:0:0:
182,192,584729,1,0,0:0:0:0:
256,192,584729,1,0,0:0:0:0:
329,192,584729,1,0,0:0:0:0:
475,192,584729,1,0,0:0:0:0:
402,192,584729,1,0,0:0:0:0:
475,192,584879,1,0,0:0:0:0:
402,192,584879,1,0,0:0:0:0:
109,192,584879,1,0,0:0:0:0:
402,192,585029,1,0,0:0:0:0:
182,192,585029,1,0,0:0:0:0:
329,192,585029,1,0,0:0:0:0:
109,192,585029,1,0,0:0:0:0:
256,192,585029,1,0,0:0:0:0:
36,192,585029,1,0,0:0:0:0:
329,192,585179,1,0,0:0:0:0:
182,192,585179,1,0,0:0:0:0:
36,192,585179,1,0,0:0:0:0:
182,192,585329,1,0,0:0:0:0:
109,192,585329,1,0,0:0:0:0:
475,192,585329,1,0,0:0:0:0:
329,192,585329,1,0,0:0:0:0:
256,192,585329,1,0,0:0:0:0:
402,192,585329,1,0,0:0:0:0:
475,192,585479,1,0,0:0:0:0:
402,192,585479,1,0,0:0:0:0:
109,192,585479,1,0,0:0:0:0:
36,192,585629,1,0,0:0:0:0:
329,192,585629,1,0,0:0:0:0:
182,192,585629,1,0,0:0:0:0:
402,192,585629,1,0,0:0:0:0:
256,192,585629,1,0,0:0:0:0:
109,192,585629,1,0,0:0:0:0:
329,192,585779,1,0,0:0:0:0:
256,192,585779,1,0,0:0:0:0:
182,192,585779,1,0,0:0:0:0:
36,192,585929,1,0,0:0:0:0:
182,192,585929,1,0,0:0:0:0:
475,192,585929,1,0,0:0:0:0:
109,192,585929,1,0,0:0:0:0:
256,192,585929,1,0,0:0:0:0:
402,192,585929,1,0,0:0:0:0:
402,192,586079,1,0,0:0:0:0:
475,192,586079,1,0,0:0:0:0:
36,192,586079,1,0,0:0:0:0:
109,192,586079,1,0,0:0:0:0:
329,192,586079,1,0,0:0:0:0:
182,192,586079,1,0,0:0:0:0:
329,192,586229,1,0,0:0:0:0:
475,192,586229,1,0,0:0:0:0:
109,192,586229,1,0,0:0:0:0:
256,192,586229,1,0,0:0:0:0:
402,192,586229,1,0,0:0:0:0:
36,192,586229,1,0,0:0:0:0:
402,192,586379,1,0,0:0:0:0:
182,192,586379,1,0,0:0:0:0:
36,192,586379,1,0,0:0:0:0:
329,192,586529,1,0,0:0:0:0:
402,192,586529,1,0,0:0:0:0:
109,192,586529,1,0,0:0:0:0:
36,192,586529,1,0,0:0:0:0:
182,192,586529,1,0,0:0:0:0:
256,192,586529,1,0,0:0:0:0:
475,192,586679,1,0,0:0:0:0:
329,192,586679,1,0,0:0:0:0:
109,192,586679,1,0,0:0:0:0:
182,192,586829,1,0,0:0:0:0:
402,192,586829,1,0,0:0:0:0:
475,192,586829,1,0,0:0:0:0:
329,192,586829,1,0,0:0:0:0:
109,192,586829,1,0,0:0:0:0:
256,192,586829,1,0,0:0:0:0:
402,192,586979,1,0,0:0:0:0:
256,192,586979,1,0,0:0:0:0:
36,192,586979,1,0,0:0:0:0:
329,192,587129,1,0,0:0:0:0:
475,192,587129,1,0,0:0:0:0:
36,192,587129,1,0,0:0:0:0:
256,192,587129,1,0,0:0:0:0:
109,192,587129,1,0,0:0:0:0:
182,192,587129,1,0,0:0:0:0:
109,192,587279,1,0,0:0:0:0:
475,192,587279,1,0,0:0:0:0:
256,192,587279,1,0,0:0:0:0:
36,192,587279,1,0,0:0:0:0:
402,192,587279,1,0,0:0:0:0:
182,192,587279,1,0,0:0:0:0:
182,192,587429,1,0,0:0:0:0:
109,192,587429,1,0,0:0:0:0:
402,192,587429,1,0,0:0:0:0:
329,192,587429,1,0,0:0:0:0:
36,192,587429,1,0,0:0:0:0:
475,192,587429,1,0,0:0:0:0:
402,192,587579,1,0,0:0:0:0:
256,192,587579,1,0,0:0:0:0:
109,192,587579,1,0,0:0:0:0:
109,192,587729,1,0,0:0:0:0:
256,192,587729,1,0,0:0:0:0:
329,192,587729,1,0,0:0:0:0:
402,192,587729,1,0,0:0:0:0:
36,192,587729,1,0,0:0:0:0:
182,192,587729,1,0,0:0:0:0:
329,192,587879,1,0,0:0:0:0:
182,192,587879,1,0,0:0:0:0:
475,192,587879,1,0,0:0:0:0:
475,192,588029,1,0,0:0:0:0:
402,192,588029,1,0,0:0:0:0:
256,192,588029,1,0,0:0:0:0:
182,192,588029,1,0,0:0:0:0:
36,192,588029,1,0,0:0:0:0:
109,192,588029,1,0,0:0:0:0:
402,192,588179,1,0,0:0:0:0:
329,192,588179,1,0,0:0:0:0:
256,192,588179,1,0,0:0:0:0:
109,192,588329,1,0,0:0:0:0:
36,192,588329,1,0,0:0:0:0:
182,192,588329,1,0,0:0:0:0:
329,192,588329,1,0,0:0:0:0:
402,192,588329,1,0,0:0:0:0:
475,192,588329,1,0,0:0:0:0:
329,192,588479,1,0,0:0:0:0:
256,192,588479,1,0,0:0:0:0:
182,192,588479,1,0,0:0:0:0:
109,192,588629,1,0,0:0:0:0:
36,192,588629,1,0,0:0:0:0:
329,192,588629,1,0,0:0:0:0:
475,192,588629,1,0,0:0:0:0:
256,192,588629,1,0,0:0:0:0:
402,192,588629,1,0,0:0:0:0:
256,192,588779,1,0,0:0:0:0:
182,192,588779,1,0,0:0:0:0:
109,192,588779,1,0,0:0:0:0:
36,192,588929,1,0,0:0:0:0:
109,192,588929,1,0,0:0:0:0:
329,192,588929,1,0,0:0:0:0:
402,192,588929,1,0,0:0:0:0:
475,192,588929,1,0,0:0:0:0:
182,192,589004,1,0,0:0:0:0:
256,192,589079,1,0,0:0:0:0:
109,192,589079,1,0,0:0:0:0:
36,192,589079,1,0,0:0:0:0:
329,192,589154,1,0,0:0:0:0:
109,192,589229,1,0,0:0:0:0:
182,192,589229,1,0,0:0:0:0:
475,192,589229,1,0,0:0:0:0:
256,192,589229,1,0,0:0:0:0:
402,192,589229,1,0,0:0:0:0:
36,192,589229,1,0,0:0:0:0:
329,192,589379,1,0,0:0:0:0:
182,192,589379,1,0,0:0:0:0:
36,192,589379,1,0,0:0:0:0:
475,192,589529,1,0,0:0:0:0:
256,192,589529,1,0,0:0:0:0:
182,192,589529,1,0,0:0:0:0:
109,192,589529,1,0,0:0:0:0:
402,192,589529,1,0,0:0:0:0:
329,192,589529,1,0,0:0:0:0:
475,192,589679,1,0,0:0:0:0:
402,192,589679,1,0,0:0:0:0:
256,192,589679,1,0,0:0:0:0:
402,192,589829,1,0,0:0:0:0:
329,192,589829,1,0,0:0:0:0:
256,192,589829,1,0,0:0:0:0:
182,192,589829,1,0,0:0:0:0:
109,192,589829,1,0,0:0:0:0:
36,192,589829,1,0,0:0:0:0:
329,192,589979,1,0,0:0:0:0:
182,192,589979,1,0,0:0:0:0:
36,192,589979,1,0,0:0:0:0:
475,192,590129,1,0,0:0:0:0:
402,192,590129,1,0,0:0:0:0:
329,192,590129,1,0,0:0:0:0:
256,192,590129,1,0,0:0:0:0:
182,192,590129,1,0,0:0:0:0:
109,192,590129,1,0,0:0:0:0:
475,192,590279,1,0,0:0:0:0:
402,192,590279,1,0,0:0:0:0:
256,192,590279,1,0,0:0:0:0:
402,192,590429,1,0,0:0:0:0:
329,192,590429,1,0,0:0:0:0:
256,192,590429,1,0,0:0:0:0:
182,192,590429,1,0,0:0:0:0:
109,192,590429,1,0,0:0:0:0:
36,192,590429,1,0,0:0:0:0:
329,192,590579,1,0,0:0:0:0:
182,192,590579,1,0,0:0:0:0:
109,192,590579,1,0,0:0:0:0:
475,192,590729,1,0,0:0:0:0:
256,192,590729,1,0,0:0:0:0:
329,192,590729,1,0,0:0:0:0:
182,192,590729,1,0,0:0:0:0:
109,192,590729,1,0,0:0:0:0:
36,192,590729,1,0,0:0:0:0:
36,192,590879,1,0,0:0:0:0:
109,192,590879,1,0,0:0:0:0:
182,192,590879,1,0,0:0:0:0:
329,192,590879,1,0,0:0:0:0:
402,192,590879,1,0,0:0:0:0:
475,192,590879,1,0,0:0:0:0:
475,192,591029,1,0,0:0:0:0:
402,192,591029,1,0,0:0:0:0:
329,192,591029,1,0,0:0:0:0:
256,192,591029,1,0,0:0:0:0:
182,192,591029,1,0,0:0:0:0:
36,192,591029,1,0,0:0:0:0:
256,192,591179,1,0,0:0:0:0:
182,192,591179,1,0,0:0:0:0:
109,192,591179,1,0,0:0:0:0:
109,192,591329,1,0,0:0:0:0:
36,192,591329,1,0,0:0:0:0:
182,192,591329,1,0,0:0:0:0:
256,192,591329,1,0,0:0:0:0:
329,192,591329,1,0,0:0:0:0:
402,192,591329,1,0,0:0:0:0:
402,192,591479,1,0,0:0:0:0:
329,192,591479,1,0,0:0:0:0:
36,192,591479,1,0,0:0:0:0:
475,192,591629,1,0,0:0:0:0:
402,192,591629,1,0,0:0:0:0:
329,192,591629,1,0,0:0:0:0:
109,192,591629,1,0,0:0:0:0:
36,192,591629,1,0,0:0:0:0:
256,192,591629,1,0,0:0:0:0:
475,192,591779,1,0,0:0:0:0:
256,192,591779,1,0,0:0:0:0:
109,192,591779,1,0,0:0:0:0:
402,192,591929,1,0,0:0:0:0:
475,192,591929,1,0,0:0:0:0:
182,192,591929,1,0,0:0:0:0:
109,192,591929,1,0,0:0:0:0:
36,192,591929,1,0,0:0:0:0:
256,192,591929,1,0,0:0:0:0:
402,192,592079,1,0,0:0:0:0:
329,192,592079,1,0,0:0:0:0:
182,192,592079,1,0,0:0:0:0:
402,192,592229,1,0,0:0:0:0:
329,192,592229,1,0,0:0:0:0:
256,192,592229,1,0,0:0:0:0:
182,192,592229,1,0,0:0:0:0:
109,192,592229,1,0,0:0:0:0:
36,192,592229,1,0,0:0:0:0:
475,192,592379,1,0,0:0:0:0:
256,192,592379,1,0,0:0:0:0:
36,192,592379,1,0,0:0:0:0:
329,192,592529,1,0,0:0:0:0:
402,192,592529,1,0,0:0:0:0:
109,192,592529,1,0,0:0:0:0:
182,192,592529,1,0,0:0:0:0:
36,192,592529,128,0,592979:0:0:0:0:
475,192,592529,128,0,592979:0:0:0:0:
256,192,592679,1,0,0:0:0:0:
109,192,592679,1,0,0:0:0:0:
402,192,592679,1,0,0:0:0:0:
109,192,592829,1,0,0:0:0:0:
402,192,592829,1,0,0:0:0:0:
182,192,592829,1,0,0:0:0:0:
329,192,592829,1,0,0:0:0:0:
329,192,592979,1,0,0:0:0:0:
182,192,592979,1,0,0:0:0:0:
256,192,592979,1,0,0:0:0:0:
402,192,593129,1,0,0:0:0:0:
329,192,593129,1,0,0:0:0:0:
256,192,593129,1,0,0:0:0:0:
182,192,593129,1,0,0:0:0:0:
109,192,593129,1,0,0:0:0:0:
36,192,593129,1,0,0:0:0:0:
475,192,593279,1,0,0:0:0:0:
402,192,593279,1,0,0:0:0:0:
329,192,593279,1,0,0:0:0:0:
182,192,593279,1,0,0:0:0:0:
109,192,593279,1,0,0:0:0:0:
36,192,593279,1,0,0:0:0:0:
109,192,593429,1,0,0:0:0:0:
329,192,593429,1,0,0:0:0:0:
256,192,593429,1,0,0:0:0:0:
182,192,593429,1,0,0:0:0:0:
402,192,593429,1,0,0:0:0:0:
109,192,593579,1,0,0:0:0:0:
36,192,593579,1,0,0:0:0:0:
329,192,593579,1,0,0:0:0:0:
182,192,593654,1,0,0:0:0:0:
402,192,593654,1,0,0:0:0:0:
256,192,593729,1,0,0:0:0:0:
475,192,593729,1,0,0:0:0:0:
329,192,593804,1,0,0:0:0:0:
109,192,593804,1,0,0:0:0:0:
402,192,593879,1,0,0:0:0:0:
182,192,593879,1,0,0:0:0:0:
256,192,593954,1,0,0:0:0:0:
36,192,593954,1,0,0:0:0:0:
329,192,594029,1,0,0:0:0:0:
475,192,594029,1,0,0:0:0:0:
109,192,594029,1,0,0:0:0:0:
402,192,594029,1,0,0:0:0:0:
182,192,594029,1,0,0:0:0:0:
329,192,594179,1,0,0:0:0:0:
256,192,594179,1,0,0:0:0:0:
36,192,594179,1,0,0:0:0:0:
109,192,594329,1,0,0:0:0:0:
182,192,594329,1,0,0:0:0:0:
256,192,594329,1,0,0:0:0:0:
329,192,594329,1,0,0:0:0:0:
475,192,594329,1,0,0:0:0:0:
402,192,594329,1,0,0:0:0:0:
475,192,594479,1,0,0:0:0:0:
402,192,594479,1,0,0:0:0:0:
182,192,594479,1,0,0:0:0:0:
402,192,594629,1,0,0:0:0:0:
182,192,594629,1,0,0:0:0:0:
329,192,594629,1,0,0:0:0:0:
109,192,594629,1,0,0:0:0:0:
256,192,594629,1,0,0:0:0:0:
36,192,594629,1,0,0:0:0:0:
329,192,594779,1,0,0:0:0:0:
256,192,594779,1,0,0:0:0:0:
36,192,594779,1,0,0:0:0:0:
182,192,594929,1,0,0:0:0:0:
109,192,594929,1,0,0:0:0:0:
475,192,594929,1,0,0:0:0:0:
329,192,594929,1,0,0:0:0:0:
256,192,594929,1,0,0:0:0:0:
402,192,594929,1,0,0:0:0:0:
475,192,595079,1,0,0:0:0:0:
402,192,595079,1,0,0:0:0:0:
182,192,595079,1,0,0:0:0:0:
36,192,595229,1,0,0:0:0:0:
329,192,595229,1,0,0:0:0:0:
182,192,595229,1,0,0:0:0:0:
402,192,595229,1,0,0:0:0:0:
256,192,595229,1,0,0:0:0:0:
109,192,595229,1,0,0:0:0:0:
329,192,595379,1,0,0:0:0:0:
256,192,595379,1,0,0:0:0:0:
109,192,595379,1,0,0:0:0:0:
36,192,595529,1,0,0:0:0:0:
182,192,595529,1,0,0:0:0:0:
475,192,595529,1,0,0:0:0:0:
109,192,595529,1,0,0:0:0:0:
256,192,595529,1,0,0:0:0:0:
402,192,595529,1,0,0:0:0:0:
402,192,595679,1,0,0:0:0:0:
475,192,595679,1,0,0:0:0:0:
36,192,595679,1,0,0:0:0:0:
109,192,595679,1,0,0:0:0:0:
329,192,595679,1,0,0:0:0:0:
182,192,595679,1,0,0:0:0:0:
329,192,595829,1,0,0:0:0:0:
475,192,595829,1,0,0:0:0:0:
109,192,595829,1,0,0:0:0:0:
256,192,595829,1,0,0:0:0:0:
402,192,595829,1,0,0:0:0:0:
36,192,595829,1,0,0:0:0:0:
475,192,595979,1,0,0:0:0:0:
402,192,595979,1,0,0:0:0:0:
182,192,595979,1,0,0:0:0:0:
329,192,596129,1,0,0:0:0:0:
402,192,596129,1,0,0:0:0:0:
109,192,596129,1,0,0:0:0:0:
36,192,596129,1,0,0:0:0:0:
182,192,596129,1,0,0:0:0:0:
256,192,596129,1,0,0:0:0:0:
329,192,596279,1,0,0:0:0:0:
256,192,596279,1,0,0:0:0:0:
36,192,596279,1,0,0:0:0:0:
182,192,596429,1,0,0:0:0:0:
402,192,596429,1,0,0:0:0:0:
475,192,596429,1,0,0:0:0:0:
329,192,596429,1,0,0:0:0:0:
109,192,596429,1,0,0:0:0:0:
256,192,596429,1,0,0:0:0:0:
475,192,596579,1,0,0:0:0:0:
182,192,596579,1,0,0:0:0:0:
402,192,596579,1,0,0:0:0:0:
329,192,596729,1,0,0:0:0:0:
402,192,596729,1,0,0:0:0:0:
109,192,596729,1,0,0:0:0:0:
182,192,596729,1,0,0:0:0:0:
475,192,596729,1,0,0:0:0:0:
36,192,596729,1,0,0:0:0:0:
402,192,596879,1,0,0:0:0:0:
36,192,596879,1,0,0:0:0:0:
256,192,596879,1,0,0:0:0:0:
475,192,596879,1,0,0:0:0:0:
109,192,596879,1,0,0:0:0:0:
329,192,596879,1,0,0:0:0:0:
182,192,597029,1,0,0:0:0:0:
36,192,597029,1,0,0:0:0:0:
475,192,597029,1,0,0:0:0:0:
256,192,597029,1,0,0:0:0:0:
402,192,597029,1,0,0:0:0:0:
329,192,597029,1,0,0:0:0:0:
402,192,597179,1,0,0:0:0:0:
256,192,597179,1,0,0:0:0:0:
109,192,597179,1,0,0:0:0:0:
109,192,597329,1,0,0:0:0:0:
256,192,597329,1,0,0:0:0:0:
329,192,597329,1,0,0:0:0:0:
402,192,597329,1,0,0:0:0:0:
36,192,597329,1,0,0:0:0:0:
182,192,597329,1,0,0:0:0:0:
329,192,597479,1,0,0:0:0:0:
182,192,597479,1,0,0:0:0:0:
36,192,597479,1,0,0:0:0:0:
329,192,597629,1,0,0:0:0:0:
402,192,597629,1,0,0:0:0:0:
256,192,597629,1,0,0:0:0:0:
36,192,597629,1,0,0:0:0:0:
109,192,597629,1,0,0:0:0:0:
475,192,597629,1,0,0:0:0:0:
109,192,597829,1,0,0:0:0:0:
475,192,597829,1,0,0:0:0:0:
402,192,597829,1,0,0:0:0:0:
182,192,597829,1,0,0:0:0:0:
36,192,597829,1,0,0:0:0:0:
256,192,597829,1,0,0:0:0:0:
109,192,598029,1,0,0:0:0:0:
475,192,598029,1,0,0:0:0:0:
256,192,598029,1,0,0:0:0:0:
182,192,598029,1,0,0:0:0:0:
329,192,598029,1,0,0:0:0:0:
36,192,598029,1,0,0:0:0:0:
402,192,598229,1,0,0:0:0:0:
475,192,598229,1,0,0:0:0:0:
109,192,598229,1,0,0:0:0:0:
329,192,598229,1,0,0:0:0:0:
36,192,598229,1,0,0:0:0:0:
182,192,598229,1,0,0:0:0:0:
182,192,598429,1,0,0:0:0:0:
402,192,598429,1,0,0:0:0:0:
475,192,598429,1,0,0:0:0:0:
109,192,598429,1,0,0:0:0:0:
36,192,598429,1,0,0:0:0:0:
256,192,598429,1,0,0:0:0:0:
182,192,598629,1,0,0:0:0:0:
475,192,598629,1,0,0:0:0:0:
329,192,598629,1,0,0:0:0:0:
36,192,598629,1,0,0:0:0:0:
256,192,598629,1,0,0:0:0:0:
402,192,598629,1,0,0:0:0:0:
36,192,598829,128,0,599429:0:0:0:0:
329,192,598829,128,0,599354:0:0:0:0:
182,192,598829,128,0,599354:0:0:0:0:
475,192,598829,128,0,599429:0:0:0:0:
109,192,598829,128,0,599429:0:0:0:0:
402,192,598829,128,0,599429:0:0:0:0:
182,192,599429,1,0,0:0:0:0:
329,192,599429,1,0,0:0:0:0:
256,192,599429,1,0,0:0:0:0:
109,192,599504,1,0,0:0:0:0:
402,192,599504,1,0,0:0:0:0:
36,192,599579,1,0,0:0:0:0:
475,192,599579,1,0,0:0:0:0:
36,192,599729,128,0,600329:0:0:0:0:
109,192,599729,128,0,600329:0:0:0:0:
182,192,599729,128,0,600254:0:0:0:0:
402,192,599729,128,0,600329:0:0:0:0:
475,192,599729,128,0,600329:0:0:0:0:
329,192,599729,128,0,600254:0:0:0:0:
329,192,600329,1,0,0:0:0:0:
182,192,600329,1,0,0:0:0:0:
256,192,600329,1,0,0:0:0:0:
109,192,600404,1,0,0:0:0:0:
402,192,600404,1,0,0:0:0:0:
475,192,600479,1,0,0:0:0:0:
36,192,600479,1,0,0:0:0:0:
182,192,600554,1,0,0:0:0:0:
329,192,600554,1,0,0:0:0:0:
402,192,600629,1,0,0:0:0:0:
475,192,600629,1,0,0:0:0:0:
256,192,600629,1,0,0:0:0:0:
109,192,600629,1,0,0:0:0:0:
36,192,600629,1,0,0:0:0:0:
402,192,600779,1,0,0:0:0:0:
329,192,600779,1,0,0:0:0:0:
256,192,600779,1,0,0:0:0:0:
182,192,600779,1,0,0:0:0:0:
109,192,600779,1,0,0:0:0:0:
36,192,600929,1,0,0:0:0:0:
256,192,600929,1,0,0:0:0:0:
109,192,601004,1,0,0:0:0:0:
329,192,601004,1,0,0:0:0:0:
36,192,601079,1,0,0:0:0:0:
256,192,601079,1,0,0:0:0:0:
109,192,601154,1,0,0:0:0:0:
329,192,601154,1,0,0:0:0:0:
182,192,601229,1,0,0:0:0:0:
402,192,601229,1,0,0:0:0:0:
475,192,601229,1,0,0:0:0:0:
36,192,601229,1,0,0:0:0:0:
329,192,601379,1,0,0:0:0:0:
109,192,601379,1,0,0:0:0:0:
256,192,601379,1,0,0:0:0:0:
402,192,601529,1,0,0:0:0:0:
475,192,601529,1,0,0:0:0:0:
182,192,601529,1,0,0:0:0:0:
36,192,601529,1,0,0:0:0:0:
256,192,601529,1,0,0:0:0:0:
329,192,601529,1,0,0:0:0:0:
402,192,601679,1,0,0:0:0:0:
182,192,601679,1,0,0:0:0:0:
256,192,601679,1,0,0:0:0:0:
182,192,601829,1,0,0:0:0:0:
109,192,601829,1,0,0:0:0:0:
36,192,601829,1,0,0:0:0:0:
256,192,601829,1,0,0:0:0:0:
329,192,601829,1,0,0:0:0:0:
475,192,601829,1,0,0:0:0:0:
329,192,601979,1,0,0:0:0:0:
256,192,601979,1,0,0:0:0:0:
109,192,601979,1,0,0:0:0:0:
329,192,602129,1,0,0:0:0:0:
475,192,602129,1,0,0:0:0:0:
36,192,602129,1,0,0:0:0:0:
402,192,602129,1,0,0:0:0:0:
256,192,602129,1,0,0:0:0:0:
182,192,602129,1,0,0:0:0:0:
109,192,602279,1,0,0:0:0:0:
402,192,602279,1,0,0:0:0:0:
475,192,602279,1,0,0:0:0:0:
329,192,602354,1,0,0:0:0:0:
475,192,602429,1,0,0:0:0:0:
109,192,602429,1,0,0:0:0:0:
256,192,602429,1,0,0:0:0:0:
36,192,602429,1,0,0:0:0:0:
402,192,602429,1,0,0:0:0:0:
182,192,602504,1,0,0:0:0:0:
109,192,602579,1,0,0:0:0:0:
36,192,602579,1,0,0:0:0:0:
475,192,602579,1,0,0:0:0:0:
402,192,602579,1,0,0:0:0:0:
329,192,602579,1,0,0:0:0:0:
256,192,602654,1,0,0:0:0:0:
182,192,602729,1,0,0:0:0:0:
109,192,602729,1,0,0:0:0:0:
36,192,602729,1,0,0:0:0:0:
475,192,602729,1,0,0:0:0:0:
402,192,602729,1,0,0:0:0:0:
329,192,602804,1,0,0:0:0:0:
475,192,602879,1,0,0:0:0:0:
402,192,602879,1,0,0:0:0:0:
182,192,602879,1,0,0:0:0:0:
109,192,602879,1,0,0:0:0:0:
36,192,602879,1,0,0:0:0:0:
256,192,602954,1,0,0:0:0:0:
329,192,603029,1,0,0:0:0:0:
402,192,603029,1,0,0:0:0:0:
475,192,603029,1,0,0:0:0:0:
109,192,603029,1,0,0:0:0:0:
36,192,603029,1,0,0:0:0:0:
182,192,603029,1,0,0:0:0:0:
475,192,603179,1,0,0:0:0:0:
402,192,603179,1,0,0:0:0:0:
329,192,603179,1,0,0:0:0:0:
182,192,603179,1,0,0:0:0:0:
109,192,603179,1,0,0:0:0:0:
36,192,603179,1,0,0:0:0:0:
402,192,603329,1,0,0:0:0:0:
475,192,603329,1,0,0:0:0:0:
329,192,603329,1,0,0:0:0:0:
182,192,603329,1,0,0:0:0:0:
109,192,603329,1,0,0:0:0:0:
36,192,603329,1,0,0:0:0:0:
402,192,603479,1,0,0:0:0:0:
329,192,603479,1,0,0:0:0:0:
256,192,603479,1,0,0:0:0:0:
182,192,603479,1,0,0:0:0:0:
109,192,603479,1,0,0:0:0:0:
36,192,603629,1,0,0:0:0:0:
475,192,603629,1,0,0:0:0:0:
329,192,603629,1,0,0:0:0:0:
256,192,603629,1,0,0:0:0:0:
182,192,603629,1,0,0:0:0:0:
402,192,603629,1,0,0:0:0:0:
329,192,603779,1,0,0:0:0:0:
475,192,603779,1,0,0:0:0:0:
182,192,603779,1,0,0:0:0:0:
402,192,603779,1,0,0:0:0:0:
475,192,603929,1,0,0:0:0:0:
329,192,603929,1,0,0:0:0:0:
182,192,603929,1,0,0:0:0:0:
402,192,603929,1,0,0:0:0:0:
402,192,604079,1,0,0:0:0:0:
256,192,604079,1,0,0:0:0:0:
109,192,604079,1,0,0:0:0:0:
329,192,604079,1,0,0:0:0:0:
402,192,604229,1,0,0:0:0:0:
256,192,604229,1,0,0:0:0:0:
109,192,604229,1,0,0:0:0:0:
329,192,604229,1,0,0:0:0:0:
402,192,604379,1,0,0:0:0:0:
256,192,604379,1,0,0:0:0:0:
109,192,604379,1,0,0:0:0:0:
329,192,604379,1,0,0:0:0:0:
475,192,604679,1,0,0:0:0:0:
402,192,604679,1,0,0:0:0:0:
329,192,604679,1,0,0:0:0:0:
182,192,604679,1,0,0:0:0:0:
36,192,604679,1,0,0:0:0:0:
475,192,604979,1,0,0:0:0:0:
402,192,604979,1,0,0:0:0:0:
329,192,604979,1,0,0:0:0:0:
182,192,604979,1,0,0:0:0:0:
475,192,605129,1,0,0:0:0:0:
402,192,605129,1,0,0:0:0:0:
329,192,605129,1,0,0:0:0:0:
182,192,605129,1,0,0:0:0:0:
36,192,605129,1,0,0:0:0:0:
475,192,605279,1,0,0:0:0:0:
402,192,605279,1,0,0:0:0:0:
329,192,605279,1,0,0:0:0:0:
182,192,605279,1,0,0:0:0:0:
402,192,605429,1,0,0:0:0:0:
329,192,605429,1,0,0:0:0:0:
256,192,605429,1,0,0:0:0:0:
109,192,605429,1,0,0:0:0:0:
402,192,605579,1,0,0:0:0:0:
329,192,605579,1,0,0:0:0:0:
256,192,605579,1,0,0:0:0:0:
109,192,605579,1,0,0:0:0:0:
182,192,605729,1,0,0:0:0:0:
329,192,605729,1,0,0:0:0:0:
256,192,605729,1,0,0:0:0:0:
36,192,605729,1,0,0:0:0:0:
329,192,605879,1,0,0:0:0:0:
256,192,605879,1,0,0:0:0:0:
182,192,605879,1,0,0:0:0:0:
36,192,605879,1,0,0:0:0:0:
475,192,606029,1,0,0:0:0:0:
402,192,606029,1,0,0:0:0:0:
256,192,606029,1,0,0:0:0:0:
109,192,606029,1,0,0:0:0:0:
475,192,606179,1,0,0:0:0:0:
402,192,606179,1,0,0:0:0:0:
109,192,606179,1,0,0:0:0:0:
256,192,606179,1,0,0:0:0:0:
402,192,606329,1,0,0:0:0:0:
475,192,606329,1,0,0:0:0:0:
256,192,606329,1,0,0:0:0:0:
109,192,606329,1,0,0:0:0:0:
402,192,606479,1,0,0:0:0:0:
329,192,606479,1,0,0:0:0:0:
182,192,606479,1,0,0:0:0:0:
36,192,606479,1,0,0:0:0:0:
402,192,606629,1,0,0:0:0:0:
329,192,606629,1,0,0:0:0:0:
182,192,606629,1,0,0:0:0:0:
36,192,606629,1,0,0:0:0:0:
402,192,606779,1,0,0:0:0:0:
329,192,606779,1,0,0:0:0:0:
182,192,606779,1,0,0:0:0:0:
36,192,606779,1,0,0:0:0:0:
475,192,607079,1,0,0:0:0:0:
402,192,607079,1,0,0:0:0:0:
329,192,607079,1,0,0:0:0:0:
182,192,607079,1,0,0:0:0:0:
36,192,607079,1,0,0:0:0:0:
475,192,607379,1,0,0:0:0:0:
402,192,607379,1,0,0:0:0:0:
329,192,607379,1,0,0:0:0:0:
182,192,607379,1,0,0:0:0:0:
475,192,607529,1,0,0:0:0:0:
402,192,607529,1,0,0:0:0:0:
329,192,607529,1,0,0:0:0:0:
182,192,607529,1,0,0:0:0:0:
36,192,607529,1,0,0:0:0:0:
475,192,607679,1,0,0:0:0:0:
402,192,607679,1,0,0:0:0:0:
329,192,607679,1,0,0:0:0:0:
182,192,607679,1,0,0:0:0:0:
475,192,607829,1,0,0:0:0:0:
402,192,607829,1,0,0:0:0:0:
36,192,607829,1,0,0:0:0:0:
256,192,607829,1,0,0:0:0:0:
182,192,607979,1,0,0:0:0:0:
402,192,607979,1,0,0:0:0:0:
109,192,607979,1,0,0:0:0:0:
475,192,607979,1,0,0:0:0:0:
256,192,608054,1,0,0:0:0:0:
329,192,608129,1,0,0:0:0:0:
109,192,608129,1,0,0:0:0:0:
36,192,608129,1,0,0:0:0:0:
402,192,608129,1,0,0:0:0:0:
475,192,608279,1,0,0:0:0:0:
256,192,608279,1,0,0:0:0:0:
182,192,608279,1,0,0:0:0:0:
36,192,608279,1,0,0:0:0:0:
475,192,608429,1,0,0:0:0:0:
329,192,608429,1,0,0:0:0:0:
182,192,608429,1,0,0:0:0:0:
109,192,608429,1,0,0:0:0:0:
402,192,608429,1,0,0:0:0:0:
256,192,608429,1,0,0:0:0:0:
475,192,608579,1,0,0:0:0:0:
402,192,608579,1,0,0:0:0:0:
329,192,608579,1,0,0:0:0:0:
182,192,608579,1,0,0:0:0:0:
475,192,608729,1,0,0:0:0:0:
402,192,608729,1,0,0:0:0:0:
329,192,608729,1,0,0:0:0:0:
182,192,608729,1,0,0:0:0:0:
402,192,608879,1,0,0:0:0:0:
329,192,608879,1,0,0:0:0:0:
256,192,608879,1,0,0:0:0:0:
109,192,608879,1,0,0:0:0:0:
402,192,609029,1,0,0:0:0:0:
329,192,609029,1,0,0:0:0:0:
256,192,609029,1,0,0:0:0:0:
109,192,609029,1,0,0:0:0:0:
402,192,609179,1,0,0:0:0:0:
329,192,609179,1,0,0:0:0:0:
256,192,609179,1,0,0:0:0:0:
109,192,609179,1,0,0:0:0:0:
475,192,609479,1,0,0:0:0:0:
402,192,609479,1,0,0:0:0:0:
329,192,609479,1,0,0:0:0:0:
182,192,609479,1,0,0:0:0:0:
36,192,609479,1,0,0:0:0:0:
475,192,609779,1,0,0:0:0:0:
402,192,609779,1,0,0:0:0:0:
329,192,609779,1,0,0:0:0:0:
182,192,609779,1,0,0:0:0:0:
182,192,609929,1,0,0:0:0:0:
36,192,609929,1,0,0:0:0:0:
402,192,609929,1,0,0:0:0:0:
329,192,609929,1,0,0:0:0:0:
475,192,609929,1,0,0:0:0:0:
402,192,610079,1,0,0:0:0:0:
329,192,610079,1,0,0:0:0:0:
256,192,610079,1,0,0:0:0:0:
109,192,610079,1,0,0:0:0:0:
36,192,610229,1,0,0:0:0:0:
475,192,610229,1,0,0:0:0:0:
256,192,610229,1,0,0:0:0:0:
402,192,610304,1,0,0:0:0:0:
182,192,610304,1,0,0:0:0:0:
329,192,610379,1,0,0:0:0:0:
109,192,610379,1,0,0:0:0:0:
256,192,610454,1,0,0:0:0:0:
475,192,610454,1,0,0:0:0:0:
402,192,610529,1,0,0:0:0:0:
182,192,610529,1,0,0:0:0:0:
329,192,610604,1,0,0:0:0:0:
36,192,610604,1,0,0:0:0:0:
256,192,610679,1,0,0:0:0:0:
475,192,610679,1,0,0:0:0:0:
109,192,610679,1,0,0:0:0:0:
402,192,610754,1,0,0:0:0:0:
182,192,610754,1,0,0:0:0:0:
329,192,610829,1,0,0:0:0:0:
36,192,610829,1,0,0:0:0:0:
109,192,610829,1,0,0:0:0:0:
256,192,610829,1,0,0:0:0:0:
475,192,610829,1,0,0:0:0:0:
109,192,610979,1,0,0:0:0:0:
256,192,610979,1,0,0:0:0:0:
329,192,610979,1,0,0:0:0:0:
475,192,610979,1,0,0:0:0:0:
475,192,611129,1,0,0:0:0:0:
329,192,611129,1,0,0:0:0:0:
256,192,611129,1,0,0:0:0:0:
109,192,611129,1,0,0:0:0:0:
182,192,611279,1,0,0:0:0:0:
36,192,611279,1,0,0:0:0:0:
256,192,611279,1,0,0:0:0:0:
402,192,611279,1,0,0:0:0:0:
182,192,611429,1,0,0:0:0:0:
36,192,611429,1,0,0:0:0:0:
256,192,611429,1,0,0:0:0:0:
402,192,611429,1,0,0:0:0:0:
36,192,611579,1,0,0:0:0:0:
182,192,611579,1,0,0:0:0:0:
256,192,611579,1,0,0:0:0:0:
402,192,611579,1,0,0:0:0:0:
475,192,611879,1,0,0:0:0:0:
402,192,611879,1,0,0:0:0:0:
329,192,611879,1,0,0:0:0:0:
256,192,611879,1,0,0:0:0:0:
109,192,611879,1,0,0:0:0:0:
402,192,612179,1,0,0:0:0:0:
329,192,612179,1,0,0:0:0:0:
182,192,612179,1,0,0:0:0:0:
36,192,612179,1,0,0:0:0:0:
475,192,612179,1,0,0:0:0:0:
256,192,612179,128,0,613079:0:0:0:0:
182,192,612329,1,0,0:0:0:0:
109,192,612329,1,0,0:0:0:0:
36,192,612479,1,0,0:0:0:0:
329,192,612479,1,0,0:0:0:0:
475,192,612554,1,0,0:0:0:0:
109,192,612554,1,0,0:0:0:0:
402,192,612554,1,0,0:0:0:0:
182,192,612629,1,0,0:0:0:0:
329,192,612629,1,0,0:0:0:0:
36,192,612704,1,0,0:0:0:0:
402,192,612704,1,0,0:0:0:0:
109,192,612779,1,0,0:0:0:0:
475,192,612779,1,0,0:0:0:0:
182,192,612779,1,0,0:0:0:0:
329,192,612854,1,0,0:0:0:0:
402,192,612929,1,0,0:0:0:0:
475,192,612929,1,0,0:0:0:0:
109,192,612929,1,0,0:0:0:0:
182,192,613004,1,0,0:0:0:0:
329,192,613004,1,0,0:0:0:0:
36,192,613079,1,0,0:0:0:0:
475,192,613079,1,0,0:0:0:0:
109,192,613079,1,0,0:0:0:0:
402,192,613079,1,0,0:0:0:0:
329,192,613229,1,0,0:0:0:0:
475,192,613229,1,0,0:0:0:0:
36,192,613229,1,0,0:0:0:0:
256,192,613229,1,0,0:0:0:0:
109,192,613304,1,0,0:0:0:0:
182,192,613379,1,0,0:0:0:0:
36,192,613454,1,0,0:0:0:0:
109,192,613529,1,0,0:0:0:0:
475,192,613529,1,0,0:0:0:0:
402,192,613529,1,0,0:0:0:0:
329,192,613529,1,0,0:0:0:0:
182,192,613604,1,0,0:0:0:0:
36,192,613679,1,0,0:0:0:0:
109,192,613754,1,0,0:0:0:0:
475,192,613754,1,0,0:0:0:0:
402,192,613754,1,0,0:0:0:0:
329,192,613829,1,0,0:0:0:0:
256,192,613829,1,0,0:0:0:0:
182,192,613829,1,0,0:0:0:0:
475,192,613904,1,0,0:0:0:0:
402,192,613904,1,0,0:0:0:0:
36,192,613904,1,0,0:0:0:0:
329,192,613979,1,0,0:0:0:0:
109,192,613979,1,0,0:0:0:0:
256,192,614054,1,0,0:0:0:0:
182,192,614054,1,0,0:0:0:0:
402,192,614129,1,0,0:0:0:0:
109,192,614129,1,0,0:0:0:0:
329,192,614204,1,0,0:0:0:0:
36,192,614204,1,0,0:0:0:0:
182,192,614279,1,0,0:0:0:0:
402,192,614279,1,0,0:0:0:0:
475,192,614279,1,0,0:0:0:0:
256,192,614279,1,0,0:0:0:0:
329,192,614429,1,0,0:0:0:0:
182,192,614579,1,0,0:0:0:0:
402,192,614579,1,0,0:0:0:0:
329,192,614579,1,0,0:0:0:0:
109,192,614654,1,0,0:0:0:0:
36,192,614729,1,0,0:0:0:0:
475,192,614729,1,0,0:0:0:0:
256,192,614729,1,0,0:0:0:0:
109,192,614804,1,0,0:0:0:0:
182,192,614879,1,0,0:0:0:0:
109,192,614954,1,0,0:0:0:0:
402,192,614954,1,0,0:0:0:0:
475,192,614954,1,0,0:0:0:0:
36,192,615029,1,0,0:0:0:0:
329,192,615029,1,0,0:0:0:0:
256,192,615029,1,0,0:0:0:0:
109,192,615104,1,0,0:0:0:0:
475,192,615104,1,0,0:0:0:0:
402,192,615104,1,0,0:0:0:0:
182,192,615179,1,0,0:0:0:0:
329,192,615179,1,0,0:0:0:0:
36,192,615254,1,0,0:0:0:0:
256,192,615254,1,0,0:0:0:0:
109,192,615329,1,0,0:0:0:0:
329,192,615329,1,0,0:0:0:0:
182,192,615404,1,0,0:0:0:0:
402,192,615404,1,0,0:0:0:0:
475,192,615479,1,0,0:0:0:0:
256,192,615479,1,0,0:0:0:0:
109,192,615479,1,0,0:0:0:0:
36,192,615479,1,0,0:0:0:0:
329,192,615554,1,0,0:0:0:0:
402,192,615779,1,0,0:0:0:0:
329,192,615779,1,0,0:0:0:0:
256,192,615779,1,0,0:0:0:0:
109,192,615779,1,0,0:0:0:0:
36,192,615779,1,0,0:0:0:0:
475,192,615779,1,0,0:0:0:0:
109,192,615929,1,0,0:0:0:0:
36,192,615929,1,0,0:0:0:0:
475,192,615929,1,0,0:0:0:0:
402,192,615929,1,0,0:0:0:0:
182,192,616004,1,0,0:0:0:0:
256,192,616004,1,0,0:0:0:0:
402,192,616079,1,0,0:0:0:0:
329,192,616079,1,0,0:0:0:0:
182,192,616154,1,0,0:0:0:0:
109,192,616154,1,0,0:0:0:0:
475,192,616229,1,0,0:0:0:0:
402,192,616229,1,0,0:0:0:0:
256,192,616229,1,0,0:0:0:0:
329,192,616229,1,0,0:0:0:0:
475,192,616379,1,0,0:0:0:0:
402,192,616379,1,0,0:0:0:0:
109,192,616379,1,0,0:0:0:0:
36,192,616379,1,0,0:0:0:0:
256,192,616454,1,0,0:0:0:0:
182,192,616454,1,0,0:0:0:0:
402,192,616529,1,0,0:0:0:0:
329,192,616529,1,0,0:0:0:0:
182,192,616604,1,0,0:0:0:0:
109,192,616604,1,0,0:0:0:0:
475,192,616679,1,0,0:0:0:0:
402,192,616679,1,0,0:0:0:0:
256,192,616679,1,0,0:0:0:0:
109,192,616754,1,0,0:0:0:0:
36,192,616754,1,0,0:0:0:0:
329,192,616829,1,0,0:0:0:0:
182,192,616829,1,0,0:0:0:0:
402,192,616829,1,0,0:0:0:0:
256,192,616829,1,0,0:0:0:0:
475,192,616904,1,0,0:0:0:0:
329,192,616979,1,0,0:0:0:0:
256,192,616979,1,0,0:0:0:0:
182,192,616979,1,0,0:0:0:0:
109,192,616979,1,0,0:0:0:0:
402,192,617054,1,0,0:0:0:0:
256,192,617129,1,0,0:0:0:0:
182,192,617129,1,0,0:0:0:0:
109,192,617129,1,0,0:0:0:0:
36,192,617129,1,0,0:0:0:0:
329,192,617204,1,0,0:0:0:0:
182,192,617279,1,0,0:0:0:0:
109,192,617279,1,0,0:0:0:0:
36,192,617279,1,0,0:0:0:0:
475,192,617279,1,0,0:0:0:0:
256,192,617354,1,0,0:0:0:0:
109,192,617429,1,0,0:0:0:0:
36,192,617429,1,0,0:0:0:0:
475,192,617429,1,0,0:0:0:0:
402,192,617429,1,0,0:0:0:0:
182,192,617504,1,0,0:0:0:0:
36,192,617579,1,0,0:0:0:0:
402,192,617579,1,0,0:0:0:0:
329,192,617579,1,0,0:0:0:0:
475,192,617579,1,0,0:0:0:0:
109,192,617654,1,0,0:0:0:0:
475,192,617729,1,0,0:0:0:0:
329,192,617729,1,0,0:0:0:0:
256,192,617729,1,0,0:0:0:0:
402,192,617729,1,0,0:0:0:0:
36,192,617804,1,0,0:0:0:0:
182,192,617804,1,0,0:0:0:0:
402,192,617879,1,0,0:0:0:0:
475,192,617879,1,0,0:0:0:0:
109,192,617954,1,0,0:0:0:0:
36,192,617954,1,0,0:0:0:0:
475,192,618029,1,0,0:0:0:0:
402,192,618029,1,0,0:0:0:0:
329,192,618029,1,0,0:0:0:0:
256,192,618029,1,0,0:0:0:0:
182,192,618129,1,0,0:0:0:0:
182,192,618229,1,0,0:0:0:0:
475,192,618329,1,0,0:0:0:0:
402,192,618329,1,0,0:0:0:0:
109,192,618329,1,0,0:0:0:0:
36,192,618329,1,0,0:0:0:0:
256,192,618429,1,0,0:0:0:0:
256,192,618529,1,0,0:0:0:0:
109,192,618629,1,0,0:0:0:0:
36,192,618629,1,0,0:0:0:0:
182,192,618629,1,0,0:0:0:0:
475,192,618629,1,0,0:0:0:0:
402,192,618629,1,0,0:0:0:0:
329,192,618729,1,0,0:0:0:0:
329,192,618829,1,0,0:0:0:0:
256,192,618929,1,0,0:0:0:0:
109,192,618929,1,0,0:0:0:0:
182,192,618929,1,0,0:0:0:0:
36,192,618929,1,0,0:0:0:0:
475,192,618929,1,0,0:0:0:0:
402,192,619029,1,0,0:0:0:0:
402,192,619129,1,0,0:0:0:0:
475,192,619229,1,0,0:0:0:0:
329,192,619229,1,0,0:0:0:0:
256,192,619229,1,0,0:0:0:0:
36,192,619229,1,0,0:0:0:0:
182,192,619329,1,0,0:0:0:0:
109,192,619329,1,0,0:0:0:0:
182,192,619429,1,0,0:0:0:0:
109,192,619429,1,0,0:0:0:0:
475,192,619529,1,0,0:0:0:0:
329,192,619529,1,0,0:0:0:0:
36,192,619529,1,0,0:0:0:0:
402,192,619529,1,0,0:0:0:0:
256,192,619629,1,0,0:0:0:0:
182,192,619629,1,0,0:0:0:0:
256,192,619729,1,0,0:0:0:0:
182,192,619729,1,0,0:0:0:0:
109,192,619829,1,0,0:0:0:0:
36,192,619829,1,0,0:0:0:0:
475,192,619829,1,0,0:0:0:0:
402,192,619829,1,0,0:0:0:0:
329,192,619929,1,0,0:0:0:0:
256,192,619929,1,0,0:0:0:0:
329,192,620029,1,0,0:0:0:0:
256,192,620029,1,0,0:0:0:0:
475,192,620129,1,0,0:0:0:0:
182,192,620129,1,0,0:0:0:0:
36,192,620129,1,0,0:0:0:0:
109,192,620129,1,0,0:0:0:0:
402,192,620229,1,0,0:0:0:0:
329,192,620229,1,0,0:0:0:0:
402,192,620329,1,0,0:0:0:0:
329,192,620329,1,0,0:0:0:0:
475,192,620429,1,0,0:0:0:0:
256,192,620429,1,0,0:0:0:0:
182,192,620529,1,0,0:0:0:0:
109,192,620529,1,0,0:0:0:0:
36,192,620529,1,0,0:0:0:0:
182,192,620629,1,0,0:0:0:0:
109,192,620629,1,0,0:0:0:0:
36,192,620629,1,0,0:0:0:0:
475,192,620729,1,0,0:0:0:0:
402,192,620729,1,0,0:0:0:0:
329,192,620729,1,0,0:0:0:0:
256,192,620829,1,0,0:0:0:0:
182,192,620829,1,0,0:0:0:0:
109,192,620829,1,0,0:0:0:0:
256,192,620929,1,0,0:0:0:0:
182,192,620929,1,0,0:0:0:0:
109,192,620929,1,0,0:0:0:0:
475,192,621029,1,0,0:0:0:0:
36,192,621029,1,0,0:0:0:0:
402,192,621029,1,0,0:0:0:0:
329,192,621129,1,0,0:0:0:0:
256,192,621129,1,0,0:0:0:0:
182,192,621129,1,0,0:0:0:0:
329,192,621229,1,0,0:0:0:0:
256,192,621229,1,0,0:0:0:0:
182,192,621229,1,0,0:0:0:0:
475,192,621329,1,0,0:0:0:0:
36,192,621329,1,0,0:0:0:0:
109,192,621329,1,0,0:0:0:0:
402,192,621429,1,0,0:0:0:0:
329,192,621429,1,0,0:0:0:0:
256,192,621429,1,0,0:0:0:0:
402,192,621529,1,0,0:0:0:0:
329,192,621529,1,0,0:0:0:0:
256,192,621529,1,0,0:0:0:0:
182,192,621629,1,0,0:0:0:0:
109,192,621629,1,0,0:0:0:0:
36,192,621629,1,0,0:0:0:0:
475,192,621629,1,0,0:0:0:0:
402,192,621629,1,0,0:0:0:0:
329,192,621629,1,0,0:0:0:0:
182,192,621729,1,0,0:0:0:0:
109,192,621729,1,0,0:0:0:0:
36,192,621729,1,0,0:0:0:0:
475,192,621829,1,0,0:0:0:0:
402,192,621829,1,0,0:0:0:0:
329,192,621829,1,0,0:0:0:0:
182,192,621929,1,0,0:0:0:0:
109,192,621929,1,0,0:0:0:0:
36,192,621929,1,0,0:0:0:0:
475,192,621929,1,0,0:0:0:0:
402,192,621929,1,0,0:0:0:0:
329,192,621929,1,0,0:0:0:0:
182,192,622029,1,0,0:0:0:0:
109,192,622029,1,0,0:0:0:0:
36,192,622029,1,0,0:0:0:0:
475,192,622129,1,0,0:0:0:0:
402,192,622129,1,0,0:0:0:0:
329,192,622129,1,0,0:0:0:0:
475,192,622229,1,0,0:0:0:0:
256,192,622229,1,0,0:0:0:0:
109,192,622229,1,0,0:0:0:0:
36,192,622229,1,0,0:0:0:0:
182,192,622304,1,0,0:0:0:0:
402,192,622304,1,0,0:0:0:0:
109,192,622379,1,0,0:0:0:0:
329,192,622379,1,0,0:0:0:0:
36,192,622454,1,0,0:0:0:0:
256,192,622454,1,0,0:0:0:0:
475,192,622529,1,0,0:0:0:0:
182,192,622529,1,0,0:0:0:0:
402,192,622579,1,0,0:0:0:0:
109,192,622579,1,0,0:0:0:0:
329,192,622629,1,0,0:0:0:0:
36,192,622629,1,0,0:0:0:0:
256,192,622679,1,0,0:0:0:0:
475,192,622679,1,0,0:0:0:0:
182,192,622729,1,0,0:0:0:0:
402,192,622729,1,0,0:0:0:0:
109,192,622779,1,0,0:0:0:0:
329,192,622779,1,0,0:0:0:0:
36,192,622829,1,0,0:0:0:0:
475,192,622829,1,0,0:0:0:0:
402,192,623129,128,0,627029:0:0:0:0:
256,192,623129,128,0,627029:0:0:0:0:
109,192,623129,128,0,627029:0:0:0:0:
475,192,623429,1,0,0:0:0:0:
182,192,623729,1,0,0:0:0:0:
475,192,623879,1,0,0:0:0:0:
329,192,624029,1,0,0:0:0:0:
182,192,624179,1,0,0:0:0:0:
475,192,624329,1,0,0:0:0:0:
329,192,624479,1,0,0:0:0:0:
182,192,624629,1,0,0:0:0:0:
475,192,624779,1,0,0:0:0:0:
329,192,624929,1,0,0:0:0:0:
182,192,625079,1,0,0:0:0:0:
36,192,625229,1,0,0:0:0:0:
182,192,625529,1,0,0:0:0:0:
475,192,625679,1,0,0:0:0:0:
329,192,625979,1,0,0:0:0:0:
475,192,626279,1,0,0:0:0:0:
329,192,627029,1,0,0:0:0:0:
475,192,627066,1,0,0:0:0:0:
256,192,627329,1,0,0:0:0:0:
402,192,627366,1,0,0:0:0:0:
109,192,627629,1,0,0:0:0:0:
182,192,627629,128,0,628829:0:0:0:0:
36,192,628079,128,0,628829:0:0:0:0:
256,192,628529,1,0,0:0:0:0:
329,192,628679,1,0,0:0:0:0:
402,192,628829,1,0,0:0:0:0:
256,192,628829,1,0,0:0:0:0:
475,192,628866,1,0,0:0:0:0:
329,192,629429,1,0,0:0:0:0:
182,192,629429,1,0,0:0:0:0:
402,192,629466,1,0,0:0:0:0:
256,192,630029,1,0,0:0:0:0:
475,192,630029,1,0,0:0:0:0:
109,192,630029,1,0,0:0:0:0:
36,192,630029,1,0,0:0:0:0:
402,192,630329,1,0,0:0:0:0:
329,192,630329,1,0,0:0:0:0:
475,192,630479,1,0,0:0:0:0:
402,192,630479,1,0,0:0:0:0:
256,192,630479,1,0,0:0:0:0:
36,192,630479,1,0,0:0:0:0:
109,192,630779,1,0,0:0:0:0:
182,192,630854,1,0,0:0:0:0:
256,192,630929,1,0,0:0:0:0:
402,192,630929,1,0,0:0:0:0:
36,192,630929,1,0,0:0:0:0:
475,192,630929,1,0,0:0:0:0:
182,192,631004,1,0,0:0:0:0:
329,192,631079,1,0,0:0:0:0:
475,192,631154,1,0,0:0:0:0:
402,192,631229,1,0,0:0:0:0:
256,192,631229,1,0,0:0:0:0:
109,192,631229,1,0,0:0:0:0:
36,192,631229,1,0,0:0:0:0:
182,192,631229,1,0,0:0:0:0:
36,192,631529,1,0,0:0:0:0:
475,192,631529,1,0,0:0:0:0:
329,192,631529,1,0,0:0:0:0:
182,192,631604,1,0,0:0:0:0:
256,192,631679,1,0,0:0:0:0:
329,192,631754,1,0,0:0:0:0:
475,192,631829,1,0,0:0:0:0:
182,192,631829,1,0,0:0:0:0:
36,192,631829,1,0,0:0:0:0:
109,192,631829,1,0,0:0:0:0:
402,192,631829,1,0,0:0:0:0:
475,192,631979,1,0,0:0:0:0:
402,192,631979,1,0,0:0:0:0:
109,192,631979,1,0,0:0:0:0:
36,192,631979,1,0,0:0:0:0:
182,192,632054,1,0,0:0:0:0:
329,192,632054,1,0,0:0:0:0:
109,192,632129,1,0,0:0:0:0:
36,192,632129,1,0,0:0:0:0:
256,192,632129,1,0,0:0:0:0:
182,192,632204,1,0,0:0:0:0:
475,192,632204,1,0,0:0:0:0:
402,192,632204,1,0,0:0:0:0:
109,192,632279,1,0,0:0:0:0:
36,192,632279,1,0,0:0:0:0:
329,192,632279,1,0,0:0:0:0:
182,192,632354,1,0,0:0:0:0:
256,192,632354,1,0,0:0:0:0:
109,192,632429,1,0,0:0:0:0:
36,192,632429,1,0,0:0:0:0:
475,192,632429,1,0,0:0:0:0:
402,192,632429,1,0,0:0:0:0:
329,192,632429,1,0,0:0:0:0:
182,192,632579,1,0,0:0:0:0:
475,192,632729,1,0,0:0:0:0:
402,192,632729,1,0,0:0:0:0:
256,192,632729,1,0,0:0:0:0:
36,192,632729,1,0,0:0:0:0:
182,192,632879,1,0,0:0:0:0:
109,192,632879,1,0,0:0:0:0:
402,192,632879,1,0,0:0:0:0:
36,192,633029,1,0,0:0:0:0:
256,192,633029,1,0,0:0:0:0:
329,192,633029,1,0,0:0:0:0:
109,192,633104,1,0,0:0:0:0:
402,192,633104,1,0,0:0:0:0:
182,192,633179,1,0,0:0:0:0:
475,192,633179,1,0,0:0:0:0:
36,192,633254,1,0,0:0:0:0:
329,192,633254,1,0,0:0:0:0:
109,192,633329,1,0,0:0:0:0:
182,192,633329,1,0,0:0:0:0:
402,192,633329,1,0,0:0:0:0:
475,192,633329,1,0,0:0:0:0:
402,192,633479,1,0,0:0:0:0:
256,192,633479,1,0,0:0:0:0:
36,192,633479,1,0,0:0:0:0:
475,192,633479,128,0,633779:0:0:0:0:
182,192,633629,1,0,0:0:0:0:
402,192,633779,1,0,0:0:0:0:
256,192,633779,1,0,0:0:0:0:
109,192,633779,1,0,0:0:0:0:
475,192,633929,1,0,0:0:0:0:
329,192,633929,1,0,0:0:0:0:
182,192,633929,1,0,0:0:0:0:
109,192,633929,1,0,0:0:0:0:
329,192,634079,1,0,0:0:0:0:
475,192,634229,1,0,0:0:0:0:
402,192,634229,1,0,0:0:0:0:
256,192,634229,1,0,0:0:0:0:
36,192,634229,1,0,0:0:0:0:
36,192,634379,1,0,0:0:0:0:
402,192,634529,1,0,0:0:0:0:
329,192,634529,1,0,0:0:0:0:
109,192,634529,1,0,0:0:0:0:
475,192,634679,1,0,0:0:0:0:
402,192,634679,1,0,0:0:0:0:
329,192,634754,1,0,0:0:0:0:
256,192,634754,1,0,0:0:0:0:
182,192,634829,1,0,0:0:0:0:
109,192,634829,1,0,0:0:0:0:
36,192,634829,1,0,0:0:0:0:
475,192,634829,1,0,0:0:0:0:
402,192,634829,1,0,0:0:0:0:
182,192,634979,1,0,0:0:0:0:
402,192,635129,1,0,0:0:0:0:
256,192,635129,1,0,0:0:0:0:
109,192,635129,1,0,0:0:0:0:
475,192,635129,1,0,0:0:0:0:
329,192,635279,1,0,0:0:0:0:
182,192,635354,1,0,0:0:0:0:
36,192,635429,1,0,0:0:0:0:
329,192,635429,1,0,0:0:0:0:
109,192,635504,1,0,0:0:0:0:
402,192,635504,1,0,0:0:0:0:
182,192,635579,1,0,0:0:0:0:
475,192,635579,1,0,0:0:0:0:
36,192,635654,1,0,0:0:0:0:
329,192,635654,1,0,0:0:0:0:
109,192,635729,1,0,0:0:0:0:
402,192,635729,1,0,0:0:0:0:
256,192,635729,1,0,0:0:0:0:
475,192,635729,1,0,0:0:0:0:
329,192,635879,1,0,0:0:0:0:
182,192,635879,1,0,0:0:0:0:
256,192,636029,1,0,0:0:0:0:
36,192,636029,1,0,0:0:0:0:
402,192,636029,1,0,0:0:0:0:
329,192,636029,1,0,0:0:0:0:
182,192,636179,1,0,0:0:0:0:
475,192,636329,1,0,0:0:0:0:
256,192,636329,1,0,0:0:0:0:
109,192,636329,1,0,0:0:0:0:
36,192,636329,1,0,0:0:0:0:
329,192,636479,1,0,0:0:0:0:
109,192,636629,1,0,0:0:0:0:
402,192,636629,1,0,0:0:0:0:
256,192,636629,1,0,0:0:0:0:
36,192,636629,1,0,0:0:0:0:
182,192,636666,1,0,0:0:0:0:
475,192,636666,1,0,0:0:0:0:
329,192,636779,1,0,0:0:0:0:
402,192,636929,1,0,0:0:0:0:
329,192,636929,1,0,0:0:0:0:
256,192,636929,1,0,0:0:0:0:
109,192,636929,1,0,0:0:0:0:
182,192,637079,1,0,0:0:0:0:
475,192,637229,1,0,0:0:0:0:
402,192,637229,1,0,0:0:0:0:
256,192,637229,1,0,0:0:0:0:
109,192,637229,1,0,0:0:0:0:
36,192,637229,1,0,0:0:0:0:
109,192,637379,1,0,0:0:0:0:
36,192,637379,1,0,0:0:0:0:
329,192,637379,1,0,0:0:0:0:
109,192,637529,1,0,0:0:0:0:
36,192,637529,1,0,0:0:0:0:
402,192,637529,1,0,0:0:0:0:
109,192,637679,1,0,0:0:0:0:
36,192,637679,1,0,0:0:0:0:
475,192,637679,1,0,0:0:0:0:
109,192,637829,1,0,0:0:0:0:
36,192,637829,1,0,0:0:0:0:
256,192,637829,1,0,0:0:0:0:
329,192,637829,1,0,0:0:0:0:
402,192,637866,1,0,0:0:0:0:
475,192,637866,1,0,0:0:0:0:
329,192,637979,1,0,0:0:0:0:
256,192,637979,1,0,0:0:0:0:
182,192,637979,1,0,0:0:0:0:
109,192,638129,1,0,0:0:0:0:
402,192,638129,1,0,0:0:0:0:
329,192,638129,1,0,0:0:0:0:
36,192,638279,1,0,0:0:0:0:
402,192,638279,1,0,0:0:0:0:
329,192,638279,1,0,0:0:0:0:
109,192,638429,1,0,0:0:0:0:
475,192,638429,1,0,0:0:0:0:
182,192,638429,1,0,0:0:0:0:
182,192,638579,1,0,0:0:0:0:
109,192,638579,1,0,0:0:0:0:
402,192,638579,1,0,0:0:0:0:
182,192,638729,1,0,0:0:0:0:
109,192,638729,1,0,0:0:0:0:
329,192,638729,1,0,0:0:0:0:
182,192,638879,1,0,0:0:0:0:
109,192,638879,1,0,0:0:0:0:
402,192,638879,1,0,0:0:0:0:
329,192,639029,1,0,0:0:0:0:
256,192,639029,1,0,0:0:0:0:
182,192,639029,1,0,0:0:0:0:
475,192,639066,1,0,0:0:0:0:
402,192,639066,1,0,0:0:0:0:
329,192,639179,1,0,0:0:0:0:
256,192,639179,1,0,0:0:0:0:
109,192,639179,1,0,0:0:0:0:
329,192,639329,1,0,0:0:0:0:
256,192,639329,1,0,0:0:0:0:
36,192,639329,1,0,0:0:0:0:
109,192,639479,1,0,0:0:0:0:
329,192,639479,1,0,0:0:0:0:
256,192,639479,1,0,0:0:0:0:
475,192,639629,1,0,0:0:0:0:
402,192,639629,1,0,0:0:0:0:
329,192,639629,1,0,0:0:0:0:
182,192,639629,1,0,0:0:0:0:
109,192,639629,1,0,0:0:0:0:
36,192,639629,1,0,0:0:0:0:
475,192,639779,1,0,0:0:0:0:
329,192,639779,1,0,0:0:0:0:
109,192,639779,1,0,0:0:0:0:
36,192,639779,1,0,0:0:0:0:
182,192,639779,1,0,0:0:0:0:
402,192,639779,1,0,0:0:0:0:
36,192,639929,1,0,0:0:0:0:
182,192,639929,1,0,0:0:0:0:
402,192,639929,1,0,0:0:0:0:
475,192,639929,1,0,0:0:0:0:
329,192,639929,1,0,0:0:0:0:
109,192,639929,1,0,0:0:0:0:
475,192,640079,1,0,0:0:0:0:
329,192,640079,1,0,0:0:0:0:
109,192,640079,1,0,0:0:0:0:
36,192,640079,1,0,0:0:0:0:
182,192,640079,1,0,0:0:0:0:
402,192,640079,1,0,0:0:0:0:
36,192,640229,1,0,0:0:0:0:
182,192,640229,1,0,0:0:0:0:
402,192,640229,1,0,0:0:0:0:
475,192,640229,1,0,0:0:0:0:
329,192,640229,1,0,0:0:0:0:
109,192,640229,1,0,0:0:0:0:
475,192,640379,1,0,0:0:0:0:
329,192,640379,1,0,0:0:0:0:
109,192,640379,1,0,0:0:0:0:
36,192,640379,1,0,0:0:0:0:
182,192,640379,1,0,0:0:0:0:
402,192,640379,1,0,0:0:0:0:
36,192,640529,1,0,0:0:0:0:
182,192,640529,1,0,0:0:0:0:
402,192,640529,1,0,0:0:0:0:
475,192,640529,1,0,0:0:0:0:
329,192,640529,1,0,0:0:0:0:
109,192,640529,1,0,0:0:0:0:
475,192,640679,1,0,0:0:0:0:
329,192,640679,1,0,0:0:0:0:
109,192,640679,1,0,0:0:0:0:
36,192,640679,1,0,0:0:0:0:
182,192,640679,1,0,0:0:0:0:
402,192,640679,1,0,0:0:0:0:
36,192,640829,1,0,0:0:0:0:
182,192,640829,1,0,0:0:0:0:
402,192,640829,1,0,0:0:0:0:
475,192,640829,1,0,0:0:0:0:
329,192,640829,1,0,0:0:0:0:
109,192,640829,1,0,0:0:0:0:
256,192,641129,1,0,0:0:0:0:
475,192,641166,1,0,0:0:0:0:
182,192,641429,1,0,0:0:0:0:
402,192,641466,1,0,0:0:0:0:
475,192,641654,1,0,0:0:0:0:
402,192,641691,1,0,0:0:0:0:
329,192,641729,1,0,0:0:0:0:
256,192,641766,1,0,0:0:0:0:
182,192,641804,1,0,0:0:0:0:
475,192,641804,1,0,0:0:0:0:
109,192,641841,1,0,0:0:0:0:
402,192,641841,1,0,0:0:0:0:
36,192,641879,1,0,0:0:0:0:
329,192,641879,1,0,0:0:0:0:
256,192,641916,1,0,0:0:0:0:
182,192,641954,1,0,0:0:0:0:
475,192,641954,1,0,0:0:0:0:
109,192,641991,1,0,0:0:0:0:
402,192,641991,1,0,0:0:0:0:
36,192,642029,1,0,0:0:0:0:
329,192,642029,1,0,0:0:0:0:
475,192,642329,1,0,0:0:0:0:
402,192,642329,1,0,0:0:0:0:
256,192,642329,1,0,0:0:0:0:
109,192,642329,1,0,0:0:0:0:
36,192,642329,1,0,0:0:0:0:
109,192,643194,1,0,0:0:0:0:
256,192,643235,1,0,0:0:0:0:
182,192,644314,1,0,0:0:0:0:
329,192,644363,1,0,0:0:0:0:
256,192,645852,1,0,0:0:0:0:
402,192,645907,1,0,0:0:0:0:
329,192,647551,1,0,0:0:0:0:
475,192,647579,128,0,647667:0:0:0:0:
