osu file format v14

[General]
AudioFilename: [SDVX II ] Wish upon Twin Stars [NOFX].mp3
AudioLeadIn: 0
PreviewTime: 62726
Countdown: 0
SampleSet: Soft
StackLeniency: 0.7
Mode: 3
LetterboxInBreaks: 0
SpecialStyle: 0
WidescreenStoryboard: 0

[Editor]
DistanceSpacing: 0.5
BeatDivisor: 4
GridSize: 32
TimelineZoom: 1.4

[Metadata]
Title:Wish upon Twin Stars
TitleUnicode:Wish upon Twin Stars
Artist:xi
ArtistUnicode:xi
Creator:sherrysina
Version:EXHAUST
Source:SOUND VOLTEX II -infinite infection-
Tags:SDVX 2 VOLTEX Character Theme First Contest Pizza -[Hotaru]-
BeatmapID:916814
BeatmapSetID:424393

[Difficulty]
HPDrainRate:7.7
CircleSize:4
OverallDifficulty:7.7
ApproachRate:5
SliderMultiplier:1.4
SliderTickRate:1

[Events]
//Background and Video events
0,0,"25711165_p0.jpg",0,0
//Break Periods
//Storyboard Layer 0 (Background)
//Storyboard Layer 1 (Fail)
//Storyboard Layer 2 (Pass)
//Storyboard Layer 3 (Foreground)
//Storyboard Sound Samples

[TimingPoints]
1151,300,4,2,0,40,1,0
53876,-100,4,2,0,40,0,1
63401,-100,4,2,0,40,0,0
63476,-100,4,2,0,40,0,1
73076,-100,4,2,0,40,0,0
101876,-100,4,2,0,40,0,1
113876,-100,4,2,0,40,0,0

[HitObjects]
64,192,701,5,0,0:0:0:0:
320,192,851,1,0,0:0:0:0:
448,192,1001,1,0,0:0:0:0:
64,192,1113,1,0,0:0:0:0:
320,192,1151,1,0,0:0:0:0:
192,192,1151,1,0,0:0:0:0:
320,192,1301,1,0,0:0:0:0:
448,192,1301,1,0,0:0:0:0:
192,192,1451,1,0,0:0:0:0:
64,192,1451,1,0,0:0:0:0:
448,192,1601,1,0,0:0:0:0:
64,192,1601,1,0,0:0:0:0:
320,192,1901,1,0,0:0:0:0:
64,192,2126,1,0,0:0:0:0:
192,192,2163,1,0,0:0:0:0:
448,192,2201,1,0,0:0:0:0:
320,192,2201,1,0,0:0:0:0:
64,192,2501,1,0,0:0:0:0:
448,192,2651,1,0,0:0:0:0:
64,192,2951,1,0,0:0:0:0:
320,192,2951,1,0,0:0:0:0:
192,192,3251,1,0,0:0:0:0:
448,192,3476,1,0,0:0:0:0:
320,192,3513,1,0,0:0:0:0:
64,192,3551,1,0,0:0:0:0:
192,192,3551,1,0,0:0:0:0:
448,192,3851,1,0,0:0:0:0:
64,192,3963,1,0,0:0:0:0:
320,192,4001,1,0,0:0:0:0:
192,192,4001,1,0,0:0:0:0:
448,192,4301,1,0,0:0:0:0:
192,192,4451,1,0,0:0:0:0:
64,192,4451,128,0,5051:0:0:0:0:
320,192,5051,128,0,5951:0:0:0:0:
448,192,5351,1,0,0:0:0:0:
64,192,5576,1,0,0:0:0:0:
192,192,5801,1,0,0:0:0:0:
64,192,5951,128,0,6251:0:0:0:0:
448,192,5951,1,0,0:0:0:0:
320,192,6251,1,0,0:0:0:0:
192,192,6251,1,0,0:0:0:0:
448,192,6401,1,0,0:0:0:0:
64,192,6551,1,0,0:0:0:0:
192,192,6551,1,0,0:0:0:0:
320,192,6701,1,0,0:0:0:0:
192,192,6776,1,0,0:0:0:0:
448,192,6851,1,0,0:0:0:0:
64,192,6851,1,0,0:0:0:0:
320,192,7001,1,0,0:0:0:0:
448,192,7151,128,0,7451:0:0:0:0:
64,192,7151,1,0,0:0:0:0:
192,192,7151,1,0,0:0:0:0:
192,192,7451,1,0,0:0:0:0:
320,192,7451,1,0,0:0:0:0:
64,192,7601,1,0,0:0:0:0:
448,192,7751,1,0,0:0:0:0:
320,192,7751,1,0,0:0:0:0:
192,192,7751,1,0,0:0:0:0:
64,192,7901,1,0,0:0:0:0:
192,192,7976,1,0,0:0:0:0:
320,192,8051,1,0,0:0:0:0:
448,192,8201,1,0,0:0:0:0:
320,192,8351,1,0,0:0:0:0:
192,192,8351,1,0,0:0:0:0:
64,192,8351,1,0,0:0:0:0:
448,192,8501,1,0,0:0:0:0:
64,192,8651,1,0,0:0:0:0:
192,192,8651,1,0,0:0:0:0:
320,192,8726,1,0,0:0:0:0:
192,192,8801,1,0,0:0:0:0:
64,192,8876,1,0,0:0:0:0:
448,192,8951,1,0,0:0:0:0:
320,192,9026,1,0,0:0:0:0:
192,192,9101,1,0,0:0:0:0:
64,192,9176,1,0,0:0:0:0:
192,192,9251,1,0,0:0:0:0:
320,192,9326,1,0,0:0:0:0:
448,192,9401,1,0,0:0:0:0:
64,192,9476,1,0,0:0:0:0:
320,192,9701,1,0,0:0:0:0:
64,192,9701,1,0,0:0:0:0:
320,192,9851,1,0,0:0:0:0:
64,192,9851,1,0,0:0:0:0:
320,192,10001,1,0,0:0:0:0:
64,192,10001,1,0,0:0:0:0:
448,192,10151,1,0,0:0:0:0:
192,192,10151,1,0,0:0:0:0:
64,192,10451,1,0,0:0:0:0:
320,192,10451,1,0,0:0:0:0:
448,192,10751,128,0,11951:0:0:0:0:
320,192,11951,128,0,13151:0:0:0:0:
64,192,13151,1,0,0:0:0:0:
448,192,13451,1,0,0:0:0:0:
320,192,13526,1,0,0:0:0:0:
192,192,13601,1,0,0:0:0:0:
64,192,13676,1,0,0:0:0:0:
448,192,13751,1,0,0:0:0:0:
320,192,13751,1,0,0:0:0:0:
192,192,14201,1,0,0:0:0:0:
64,192,14201,1,0,0:0:0:0:
448,192,14651,1,0,0:0:0:0:
320,192,14801,1,0,0:0:0:0:
192,192,14951,1,0,0:0:0:0:
64,192,14951,1,0,0:0:0:0:
448,192,15101,1,0,0:0:0:0:
320,192,15101,1,0,0:0:0:0:
64,192,15401,1,0,0:0:0:0:
320,192,15401,1,0,0:0:0:0:
448,192,15551,1,0,0:0:0:0:
192,192,15551,1,0,0:0:0:0:
64,192,15851,1,0,0:0:0:0:
192,192,15926,1,0,0:0:0:0:
320,192,16001,1,0,0:0:0:0:
448,192,16076,1,0,0:0:0:0:
64,192,16151,1,0,0:0:0:0:
192,192,16151,1,0,0:0:0:0:
320,192,16301,1,0,0:0:0:0:
64,192,16601,1,0,0:0:0:0:
448,192,16601,1,0,0:0:0:0:
320,192,17051,1,0,0:0:0:0:
64,192,17051,1,0,0:0:0:0:
448,192,17351,1,0,0:0:0:0:
192,192,17351,1,0,0:0:0:0:
448,192,17651,1,0,0:0:0:0:
64,192,17651,1,0,0:0:0:0:
192,192,17951,1,0,0:0:0:0:
320,192,18101,1,0,0:0:0:0:
64,192,18251,1,0,0:0:0:0:
448,192,18401,1,0,0:0:0:0:
64,192,18551,1,0,0:0:0:0:
192,192,18551,1,0,0:0:0:0:
320,192,18701,1,0,0:0:0:0:
64,192,18851,1,0,0:0:0:0:
192,192,18851,1,0,0:0:0:0:
320,192,19001,1,0,0:0:0:0:
448,192,19001,1,0,0:0:0:0:
320,192,19151,1,0,0:0:0:0:
64,192,19151,1,0,0:0:0:0:
64,192,19451,1,0,0:0:0:0:
448,192,19451,1,0,0:0:0:0:
320,192,19751,1,0,0:0:0:0:
192,192,19751,1,0,0:0:0:0:
64,192,19901,1,0,0:0:0:0:
192,192,19976,1,0,0:0:0:0:
448,192,20051,1,0,0:0:0:0:
320,192,20126,1,0,0:0:0:0:
192,192,20201,1,0,0:0:0:0:
64,192,20276,1,0,0:0:0:0:
448,192,20351,1,0,0:0:0:0:
320,192,20351,1,0,0:0:0:0:
64,192,20576,1,0,0:0:0:0:
192,192,20651,1,0,0:0:0:0:
448,192,20801,1,0,0:0:0:0:
320,192,20801,1,0,0:0:0:0:
192,192,21101,1,0,0:0:0:0:
64,192,21251,1,0,0:0:0:0:
192,192,21326,1,0,0:0:0:0:
320,192,21401,1,0,0:0:0:0:
448,192,21476,1,0,0:0:0:0:
64,192,21551,1,0,0:0:0:0:
192,192,21551,1,0,0:0:0:0:
320,192,21701,1,0,0:0:0:0:
64,192,21851,1,0,0:0:0:0:
448,192,21851,1,0,0:0:0:0:
192,192,22001,1,0,0:0:0:0:
448,192,22151,1,0,0:0:0:0:
320,192,22151,128,0,22751:0:0:0:0:
64,192,22376,1,0,0:0:0:0:
448,192,22526,1,0,0:0:0:0:
192,192,22601,1,0,0:0:0:0:
64,192,22676,1,0,0:0:0:0:
448,192,22751,1,0,0:0:0:0:
192,192,22901,1,0,0:0:0:0:
64,192,23051,1,0,0:0:0:0:
192,192,23126,1,0,0:0:0:0:
320,192,23201,1,0,0:0:0:0:
448,192,23276,1,0,0:0:0:0:
64,192,23351,1,0,0:0:0:0:
192,192,23351,1,0,0:0:0:0:
320,192,23501,1,0,0:0:0:0:
192,192,23576,1,0,0:0:0:0:
64,192,23651,1,0,0:0:0:0:
448,192,23801,1,0,0:0:0:0:
320,192,23801,1,0,0:0:0:0:
64,192,24101,1,0,0:0:0:0:
192,192,24176,1,0,0:0:0:0:
320,192,24251,1,0,0:0:0:0:
448,192,24326,1,0,0:0:0:0:
320,192,24401,1,0,0:0:0:0:
192,192,24476,1,0,0:0:0:0:
448,192,24551,1,0,0:0:0:0:
64,192,24551,1,0,0:0:0:0:
320,192,24701,1,0,0:0:0:0:
192,192,24776,1,0,0:0:0:0:
448,192,24851,1,0,0:0:0:0:
64,192,24851,1,0,0:0:0:0:
320,192,25001,1,0,0:0:0:0:
64,192,25151,1,0,0:0:0:0:
192,192,25151,1,0,0:0:0:0:
448,192,25451,1,0,0:0:0:0:
192,192,25601,1,0,0:0:0:0:
320,192,25601,1,0,0:0:0:0:
64,192,25901,1,0,0:0:0:0:
448,192,26051,1,0,0:0:0:0:
320,192,26051,1,0,0:0:0:0:
64,192,26501,1,0,0:0:0:0:
320,192,26651,1,0,0:0:0:0:
192,192,26651,1,0,0:0:0:0:
448,192,26801,1,0,0:0:0:0:
64,192,26951,1,0,0:0:0:0:
192,192,26951,1,0,0:0:0:0:
320,192,27101,1,0,0:0:0:0:
64,192,27251,1,0,0:0:0:0:
192,192,27326,1,0,0:0:0:0:
320,192,27401,1,0,0:0:0:0:
448,192,27476,1,0,0:0:0:0:
192,192,27551,1,0,0:0:0:0:
64,192,27551,1,0,0:0:0:0:
320,192,27701,1,0,0:0:0:0:
64,192,27851,1,0,0:0:0:0:
448,192,27851,1,0,0:0:0:0:
192,192,28001,1,0,0:0:0:0:
64,192,28151,1,0,0:0:0:0:
320,192,28151,1,0,0:0:0:0:
192,192,28301,1,0,0:0:0:0:
320,192,28451,1,0,0:0:0:0:
448,192,28451,1,0,0:0:0:0:
64,192,28601,1,0,0:0:0:0:
448,192,28751,1,0,0:0:0:0:
320,192,28751,1,0,0:0:0:0:
192,192,28751,1,0,0:0:0:0:
64,192,28901,1,0,0:0:0:0:
448,192,29051,1,0,0:0:0:0:
320,192,29051,1,0,0:0:0:0:
192,192,29201,1,0,0:0:0:0:
64,192,29351,1,0,0:0:0:0:
448,192,29351,1,0,0:0:0:0:
320,192,29501,1,0,0:0:0:0:
192,192,29576,1,0,0:0:0:0:
64,192,29651,1,0,0:0:0:0:
448,192,29726,1,0,0:0:0:0:
320,192,29801,1,0,0:0:0:0:
192,192,29876,1,0,0:0:0:0:
448,192,29951,1,0,0:0:0:0:
64,192,29951,1,0,0:0:0:0:
448,192,30251,1,0,0:0:0:0:
320,192,30251,1,0,0:0:0:0:
64,192,30551,1,0,0:0:0:0:
192,192,30551,1,0,0:0:0:0:
448,192,30851,1,0,0:0:0:0:
320,192,30926,1,0,0:0:0:0:
64,192,31001,1,0,0:0:0:0:
192,192,31001,1,0,0:0:0:0:
448,192,31376,1,0,0:0:0:0:
320,192,31551,1,0,0:0:0:0:
192,192,31751,1,0,0:0:0:0:
64,192,31951,1,0,0:0:0:0:
320,192,32151,1,0,0:0:0:0:
64,192,32351,1,0,0:0:0:0:
448,192,32351,1,0,0:0:0:0:
192,192,32501,1,0,0:0:0:0:
448,192,32651,1,0,0:0:0:0:
320,192,32651,1,0,0:0:0:0:
64,192,32801,1,0,0:0:0:0:
192,192,33101,1,0,0:0:0:0:
320,192,33251,1,0,0:0:0:0:
448,192,33251,1,0,0:0:0:0:
192,192,33851,1,0,0:0:0:0:
64,192,33851,128,0,34151:0:0:0:0:
448,192,34151,1,0,0:0:0:0:
320,192,34226,1,0,0:0:0:0:
192,192,34301,1,0,0:0:0:0:
64,192,34451,1,0,0:0:0:0:
448,192,34751,1,0,0:0:0:0:
320,192,34751,1,0,0:0:0:0:
64,192,35051,1,0,0:0:0:0:
320,192,35201,1,0,0:0:0:0:
192,192,35201,1,0,0:0:0:0:
448,192,35501,1,0,0:0:0:0:
64,192,35651,1,0,0:0:0:0:
192,192,35651,1,0,0:0:0:0:
320,192,36101,1,0,0:0:0:0:
192,192,36176,1,0,0:0:0:0:
64,192,36251,1,0,0:0:0:0:
448,192,36326,1,0,0:0:0:0:
320,192,36401,1,0,0:0:0:0:
192,192,36476,1,0,0:0:0:0:
448,192,36551,1,0,0:0:0:0:
64,192,36551,1,0,0:0:0:0:
192,192,36701,1,0,0:0:0:0:
320,192,36776,1,0,0:0:0:0:
448,192,36851,1,0,0:0:0:0:
192,192,37001,1,0,0:0:0:0:
64,192,37001,1,0,0:0:0:0:
448,192,37151,1,0,0:0:0:0:
320,192,37151,1,0,0:0:0:0:
64,192,37451,1,0,0:0:0:0:
320,192,37601,1,0,0:0:0:0:
192,192,37601,1,0,0:0:0:0:
448,192,37901,1,0,0:0:0:0:
64,192,38051,1,0,0:0:0:0:
192,192,38051,1,0,0:0:0:0:
448,192,38651,128,0,38951:0:0:0:0:
64,192,38951,1,0,0:0:0:0:
192,192,39026,1,0,0:0:0:0:
320,192,39101,1,0,0:0:0:0:
448,192,39251,1,0,0:0:0:0:
64,192,39401,1,0,0:0:0:0:
320,192,39551,1,0,0:0:0:0:
192,192,39551,1,0,0:0:0:0:
448,192,39851,1,0,0:0:0:0:
64,192,40001,1,0,0:0:0:0:
192,192,40001,1,0,0:0:0:0:
320,192,40301,1,0,0:0:0:0:
64,192,40451,1,0,0:0:0:0:
448,192,40451,1,0,0:0:0:0:
320,192,40901,1,0,0:0:0:0:
192,192,40901,1,0,0:0:0:0:
320,192,41051,1,0,0:0:0:0:
192,192,41051,1,0,0:0:0:0:
320,192,41201,1,0,0:0:0:0:
192,192,41201,1,0,0:0:0:0:
448,192,41276,1,0,0:0:0:0:
192,192,41351,1,0,0:0:0:0:
64,192,41351,1,0,0:0:0:0:
448,192,41426,1,0,0:0:0:0:
320,192,41426,1,0,0:0:0:0:
192,192,41801,1,0,0:0:0:0:
64,192,41801,128,0,42251:0:0:0:0:
320,192,42101,1,0,0:0:0:0:
192,192,42251,1,0,0:0:0:0:
448,192,42401,1,0,0:0:0:0:
320,192,42476,1,0,0:0:0:0:
192,192,42551,1,0,0:0:0:0:
64,192,42626,1,0,0:0:0:0:
192,192,42701,1,0,0:0:0:0:
320,192,42776,1,0,0:0:0:0:
448,192,42851,1,0,0:0:0:0:
64,192,42926,1,0,0:0:0:0:
192,192,43001,1,0,0:0:0:0:
320,192,43076,1,0,0:0:0:0:
448,192,43151,1,0,0:0:0:0:
192,192,43301,1,0,0:0:0:0:
64,192,43301,1,0,0:0:0:0:
448,192,43451,1,0,0:0:0:0:
320,192,43451,1,0,0:0:0:0:
64,192,43601,1,0,0:0:0:0:
192,192,43601,1,0,0:0:0:0:
320,192,43751,1,0,0:0:0:0:
448,192,43751,1,0,0:0:0:0:
64,192,43901,1,0,0:0:0:0:
192,192,43901,1,0,0:0:0:0:
192,192,44201,1,0,0:0:0:0:
320,192,44201,128,0,44651:0:0:0:0:
64,192,44501,1,0,0:0:0:0:
192,192,44576,1,0,0:0:0:0:
448,192,44651,1,0,0:0:0:0:
64,192,44726,1,0,0:0:0:0:
192,192,44801,1,0,0:0:0:0:
320,192,44876,1,0,0:0:0:0:
448,192,44951,1,0,0:0:0:0:
64,192,45026,1,0,0:0:0:0:
192,192,45101,1,0,0:0:0:0:
320,192,45176,1,0,0:0:0:0:
448,192,45251,1,0,0:0:0:0:
320,192,45326,1,0,0:0:0:0:
192,192,45401,1,0,0:0:0:0:
64,192,45476,1,0,0:0:0:0:
448,192,45551,1,0,0:0:0:0:
320,192,45701,1,0,0:0:0:0:
192,192,45776,1,0,0:0:0:0:
64,192,45851,1,0,0:0:0:0:
320,192,46001,1,0,0:0:0:0:
448,192,46001,1,0,0:0:0:0:
192,192,46151,1,0,0:0:0:0:
320,192,46151,1,0,0:0:0:0:
448,192,46301,1,0,0:0:0:0:
64,192,46301,1,0,0:0:0:0:
192,192,46601,1,0,0:0:0:0:
320,192,46601,128,0,47951:0:0:0:0:
64,192,47351,1,0,0:0:0:0:
448,192,47951,1,0,0:0:0:0:
192,192,47951,128,0,49151:0:0:0:0:
64,192,48551,1,0,0:0:0:0:
448,192,48701,1,0,0:0:0:0:
320,192,48776,1,0,0:0:0:0:
64,192,48851,1,0,0:0:0:0:
448,192,49001,1,0,0:0:0:0:
64,192,49151,1,0,0:0:0:0:
320,192,49151,1,0,0:0:0:0:
448,192,49301,1,0,0:0:0:0:
320,192,49376,1,0,0:0:0:0:
192,192,49451,1,0,0:0:0:0:
320,192,49601,1,0,0:0:0:0:
64,192,49601,1,0,0:0:0:0:
192,192,49676,1,0,0:0:0:0:
448,192,49751,1,0,0:0:0:0:
320,192,49826,1,0,0:0:0:0:
64,192,49901,1,0,0:0:0:0:
192,192,49976,1,0,0:0:0:0:
448,192,50051,1,0,0:0:0:0:
320,192,50051,1,0,0:0:0:0:
64,192,50126,1,0,0:0:0:0:
192,192,50201,1,0,0:0:0:0:
320,192,50276,1,0,0:0:0:0:
64,192,50501,1,0,0:0:0:0:
448,192,50501,1,0,0:0:0:0:
448,192,50651,1,0,0:0:0:0:
64,192,50651,1,0,0:0:0:0:
64,192,50801,1,0,0:0:0:0:
448,192,50801,1,0,0:0:0:0:
192,192,50951,1,0,0:0:0:0:
320,192,50951,1,0,0:0:0:0:
320,192,51251,1,0,0:0:0:0:
64,192,51251,1,0,0:0:0:0:
448,192,51251,1,0,0:0:0:0:
192,192,51326,1,0,0:0:0:0:
320,192,51401,1,0,0:0:0:0:
448,192,51476,1,0,0:0:0:0:
320,192,51551,1,0,0:0:0:0:
192,192,51626,1,0,0:0:0:0:
64,192,51701,1,0,0:0:0:0:
448,192,51776,1,0,0:0:0:0:
320,192,51851,1,0,0:0:0:0:
192,192,51926,1,0,0:0:0:0:
64,192,52001,1,0,0:0:0:0:
448,192,52076,1,0,0:0:0:0:
320,192,52151,1,0,0:0:0:0:
192,192,52226,1,0,0:0:0:0:
64,192,52301,1,0,0:0:0:0:
192,192,52376,1,0,0:0:0:0:
320,192,52451,1,0,0:0:0:0:
448,192,52526,1,0,0:0:0:0:
64,192,52601,1,0,0:0:0:0:
192,192,52676,1,0,0:0:0:0:
448,192,52751,1,0,0:0:0:0:
320,192,52826,1,0,0:0:0:0:
192,192,52901,1,0,0:0:0:0:
64,192,52976,1,0,0:0:0:0:
192,192,53051,1,0,0:0:0:0:
320,192,53126,1,0,0:0:0:0:
448,192,53201,1,0,0:0:0:0:
64,192,53276,1,0,0:0:0:0:
192,192,53351,1,0,0:0:0:0:
320,192,53426,1,0,0:0:0:0:
64,192,53501,1,0,0:0:0:0:
448,192,53501,1,0,0:0:0:0:
320,192,53651,1,0,0:0:0:0:
192,192,53651,1,0,0:0:0:0:
64,192,53801,1,0,0:0:0:0:
448,192,53801,1,0,0:0:0:0:
320,192,53951,1,0,0:0:0:0:
192,192,53951,1,0,0:0:0:0:
64,192,53951,1,0,0:0:0:0:
448,192,54101,1,0,0:0:0:0:
192,192,54251,1,0,0:0:0:0:
320,192,54401,1,0,0:0:0:0:
64,192,54401,128,0,54701:0:0:0:0:
448,192,54701,1,0,0:0:0:0:
320,192,54851,1,0,0:0:0:0:
64,192,55001,1,0,0:0:0:0:
192,192,55001,128,0,55301:0:0:0:0:
448,192,55301,1,0,0:0:0:0:
64,192,55451,1,0,0:0:0:0:
320,192,55601,1,0,0:0:0:0:
192,192,55676,1,0,0:0:0:0:
64,192,55751,1,0,0:0:0:0:
448,192,55901,1,0,0:0:0:0:
320,192,55976,1,0,0:0:0:0:
192,192,56051,1,0,0:0:0:0:
64,192,56201,1,0,0:0:0:0:
192,192,56351,1,0,0:0:0:0:
448,192,56351,1,0,0:0:0:0:
320,192,56351,1,0,0:0:0:0:
64,192,56651,1,0,0:0:0:0:
192,192,56726,1,0,0:0:0:0:
64,192,56801,1,0,0:0:0:0:
448,192,56801,1,0,0:0:0:0:
320,192,56801,1,0,0:0:0:0:
192,192,57101,1,0,0:0:0:0:
448,192,57251,1,0,0:0:0:0:
64,192,57401,128,0,57851:0:0:0:0:
192,192,57401,1,0,0:0:0:0:
320,192,57401,1,0,0:0:0:0:
448,192,57701,1,0,0:0:0:0:
320,192,57776,1,0,0:0:0:0:
448,192,57851,1,0,0:0:0:0:
192,192,57851,128,0,58151:0:0:0:0:
320,192,58151,1,0,0:0:0:0:
448,192,58151,1,0,0:0:0:0:
64,192,58301,1,0,0:0:0:0:
448,192,58451,1,0,0:0:0:0:
320,192,58526,1,0,0:0:0:0:
192,192,58601,1,0,0:0:0:0:
64,192,58676,1,0,0:0:0:0:
448,192,58751,1,0,0:0:0:0:
192,192,58751,1,0,0:0:0:0:
320,192,58751,1,0,0:0:0:0:
64,192,59051,1,0,0:0:0:0:
448,192,59051,1,0,0:0:0:0:
320,192,59201,1,0,0:0:0:0:
192,192,59201,1,0,0:0:0:0:
448,192,59351,1,0,0:0:0:0:
192,192,59501,128,0,59951:0:0:0:0:
64,192,59501,1,0,0:0:0:0:
448,192,59651,1,0,0:0:0:0:
320,192,59726,1,0,0:0:0:0:
64,192,59801,1,0,0:0:0:0:
448,192,59876,1,0,0:0:0:0:
64,192,59951,128,0,60251:0:0:0:0:
320,192,59951,1,0,0:0:0:0:
448,192,60251,1,0,0:0:0:0:
192,192,60401,1,0,0:0:0:0:
320,192,60401,1,0,0:0:0:0:
192,192,60701,1,0,0:0:0:0:
448,192,60701,128,0,61151:0:0:0:0:
320,192,61151,1,0,0:0:0:0:
64,192,61151,1,0,0:0:0:0:
320,192,61301,1,0,0:0:0:0:
64,192,61301,1,0,0:0:0:0:
320,192,61451,1,0,0:0:0:0:
64,192,61451,1,0,0:0:0:0:
320,192,61601,1,0,0:0:0:0:
64,192,61601,1,0,0:0:0:0:
448,192,61751,1,0,0:0:0:0:
192,192,61751,1,0,0:0:0:0:
448,192,61901,1,0,0:0:0:0:
192,192,61901,1,0,0:0:0:0:
448,192,62051,1,0,0:0:0:0:
192,192,62051,1,0,0:0:0:0:
192,192,62201,1,0,0:0:0:0:
448,192,62201,128,0,62876:0:0:0:0:
64,192,62501,1,0,0:0:0:0:
320,192,62651,1,0,0:0:0:0:
64,192,62876,1,0,0:0:0:0:
192,192,62951,1,0,0:0:0:0:
320,192,63026,1,0,0:0:0:0:
448,192,63101,1,0,0:0:0:0:
320,192,63176,1,0,0:0:0:0:
64,192,63251,1,0,0:0:0:0:
192,192,63251,1,0,0:0:0:0:
448,192,63326,1,0,0:0:0:0:
320,192,63401,1,0,0:0:0:0:
192,192,63476,1,0,0:0:0:0:
320,192,63551,1,0,0:0:0:0:
448,192,63551,1,0,0:0:0:0:
64,192,63551,1,0,0:0:0:0:
192,192,63701,1,0,0:0:0:0:
448,192,63851,1,0,0:0:0:0:
320,192,64001,128,0,64301:0:0:0:0:
64,192,64001,1,0,0:0:0:0:
192,192,64301,1,0,0:0:0:0:
448,192,64451,1,0,0:0:0:0:
64,192,64601,128,0,64901:0:0:0:0:
192,192,64601,1,0,0:0:0:0:
320,192,64901,1,0,0:0:0:0:
192,192,65051,1,0,0:0:0:0:
448,192,65201,1,0,0:0:0:0:
320,192,65276,1,0,0:0:0:0:
64,192,65351,1,0,0:0:0:0:
192,192,65501,1,0,0:0:0:0:
320,192,65576,1,0,0:0:0:0:
448,192,65651,1,0,0:0:0:0:
64,192,65801,1,0,0:0:0:0:
448,192,65951,1,0,0:0:0:0:
320,192,65951,1,0,0:0:0:0:
192,192,65951,1,0,0:0:0:0:
64,192,66251,1,0,0:0:0:0:
192,192,66326,1,0,0:0:0:0:
64,192,66401,1,0,0:0:0:0:
448,192,66401,1,0,0:0:0:0:
320,192,66401,1,0,0:0:0:0:
192,192,66701,1,0,0:0:0:0:
320,192,66851,1,0,0:0:0:0:
448,192,67001,128,0,67301:0:0:0:0:
64,192,67001,1,0,0:0:0:0:
192,192,67001,1,0,0:0:0:0:
64,192,67301,1,0,0:0:0:0:
192,192,67376,1,0,0:0:0:0:
320,192,67451,128,0,67751:0:0:0:0:
448,192,67451,1,0,0:0:0:0:
192,192,67751,1,0,0:0:0:0:
64,192,67751,1,0,0:0:0:0:
448,192,67901,1,0,0:0:0:0:
320,192,67901,1,0,0:0:0:0:
192,192,68201,1,0,0:0:0:0:
64,192,68201,128,0,68501:0:0:0:0:
448,192,68351,1,0,0:0:0:0:
320,192,68426,1,0,0:0:0:0:
192,192,68501,1,0,0:0:0:0:
448,192,68576,1,0,0:0:0:0:
320,192,68651,128,0,68801:0:0:0:0:
192,192,68801,128,0,68951:0:0:0:0:
64,192,68951,1,0,0:0:0:0:
448,192,69101,128,0,69251:0:0:0:0:
64,192,69251,1,0,0:0:0:0:
192,192,69326,1,0,0:0:0:0:
320,192,69401,1,0,0:0:0:0:
448,192,69476,1,0,0:0:0:0:
64,192,69551,1,0,0:0:0:0:
192,192,69551,1,0,0:0:0:0:
320,192,69551,1,0,0:0:0:0:
192,192,69701,1,0,0:0:0:0:
448,192,69701,1,0,0:0:0:0:
64,192,69851,1,0,0:0:0:0:
320,192,69851,1,0,0:0:0:0:
64,192,70001,1,0,0:0:0:0:
192,192,70001,1,0,0:0:0:0:
448,192,70301,128,0,70751:0:0:0:0:
320,192,70301,1,0,0:0:0:0:
64,192,70601,1,0,0:0:0:0:
192,192,70751,128,0,71351:0:0:0:0:
320,192,70751,1,0,0:0:0:0:
448,192,71351,1,0,0:0:0:0:
320,192,71351,128,0,71801:0:0:0:0:
192,192,71801,1,0,0:0:0:0:
64,192,71801,128,0,72101:0:0:0:0:
192,192,72101,1,0,0:0:0:0:
448,192,72101,1,0,0:0:0:0:
192,192,72251,1,0,0:0:0:0:
448,192,72251,1,0,0:0:0:0:
192,192,72401,1,0,0:0:0:0:
448,192,72401,1,0,0:0:0:0:
192,192,72551,1,0,0:0:0:0:
448,192,72551,1,0,0:0:0:0:
320,192,72776,1,0,0:0:0:0:
192,192,72776,1,0,0:0:0:0:
64,192,73001,1,0,0:0:0:0:
320,192,73001,1,0,0:0:0:0:
448,192,73151,128,0,75551:0:0:0:0:
192,192,73151,1,0,0:0:0:0:
320,192,73751,1,0,0:0:0:0:
64,192,73751,1,0,0:0:0:0:
192,192,74051,1,0,0:0:0:0:
320,192,74351,1,0,0:0:0:0:
64,192,74651,1,0,0:0:0:0:
192,192,74951,1,0,0:0:0:0:
320,192,75251,1,0,0:0:0:0:
64,192,75551,128,0,77351:0:0:0:0:
192,192,75551,1,0,0:0:0:0:
320,192,75851,1,0,0:0:0:0:
448,192,76151,1,0,0:0:0:0:
192,192,76151,1,0,0:0:0:0:
320,192,76451,1,0,0:0:0:0:
448,192,76751,1,0,0:0:0:0:
192,192,77051,1,0,0:0:0:0:
320,192,77351,1,0,0:0:0:0:
448,192,77651,1,0,0:0:0:0:
192,192,77801,1,0,0:0:0:0:
64,192,77801,1,0,0:0:0:0:
320,192,77951,128,0,79751:0:0:0:0:
448,192,77951,1,0,0:0:0:0:
64,192,78251,1,0,0:0:0:0:
192,192,78401,1,0,0:0:0:0:
64,192,78551,1,0,0:0:0:0:
448,192,78551,1,0,0:0:0:0:
192,192,78851,1,0,0:0:0:0:
448,192,79151,1,0,0:0:0:0:
64,192,79451,1,0,0:0:0:0:
448,192,79751,1,0,0:0:0:0:
192,192,80051,1,0,0:0:0:0:
448,192,80351,128,0,81551:0:0:0:0:
64,192,80351,1,0,0:0:0:0:
320,192,80651,1,0,0:0:0:0:
192,192,80951,1,0,0:0:0:0:
64,192,80951,1,0,0:0:0:0:
320,192,81251,1,0,0:0:0:0:
192,192,81551,128,0,82751:0:0:0:0:
64,192,81851,1,0,0:0:0:0:
448,192,82001,1,0,0:0:0:0:
64,192,82151,1,0,0:0:0:0:
448,192,82301,1,0,0:0:0:0:
320,192,82376,1,0,0:0:0:0:
64,192,82451,1,0,0:0:0:0:
448,192,82526,1,0,0:0:0:0:
320,192,82601,1,0,0:0:0:0:
64,192,82676,1,0,0:0:0:0:
448,192,82751,1,0,0:0:0:0:
320,192,82751,1,0,0:0:0:0:
64,192,82901,1,0,0:0:0:0:
192,192,82976,1,0,0:0:0:0:
320,192,83051,1,0,0:0:0:0:
64,192,83201,1,0,0:0:0:0:
192,192,83201,1,0,0:0:0:0:
448,192,83276,1,0,0:0:0:0:
320,192,83351,1,0,0:0:0:0:
192,192,83426,1,0,0:0:0:0:
64,192,83501,1,0,0:0:0:0:
192,192,83576,1,0,0:0:0:0:
320,192,83651,1,0,0:0:0:0:
448,192,83651,1,0,0:0:0:0:
64,192,83726,1,0,0:0:0:0:
192,192,83801,1,0,0:0:0:0:
320,192,83876,1,0,0:0:0:0:
448,192,83951,1,0,0:0:0:0:
64,192,84026,1,0,0:0:0:0:
320,192,84101,1,0,0:0:0:0:
192,192,84101,1,0,0:0:0:0:
448,192,84176,1,0,0:0:0:0:
320,192,84251,1,0,0:0:0:0:
192,192,84326,1,0,0:0:0:0:
64,192,84401,1,0,0:0:0:0:
192,192,84476,1,0,0:0:0:0:
448,192,84551,1,0,0:0:0:0:
320,192,84551,1,0,0:0:0:0:
64,192,84626,1,0,0:0:0:0:
192,192,84701,1,0,0:0:0:0:
320,192,84776,1,0,0:0:0:0:
448,192,84851,1,0,0:0:0:0:
64,192,84926,1,0,0:0:0:0:
320,192,85001,1,0,0:0:0:0:
192,192,85001,1,0,0:0:0:0:
448,192,85076,1,0,0:0:0:0:
320,192,85151,1,0,0:0:0:0:
192,192,85226,1,0,0:0:0:0:
64,192,85301,1,0,0:0:0:0:
320,192,85376,1,0,0:0:0:0:
64,192,85451,1,0,0:0:0:0:
192,192,85451,1,0,0:0:0:0:
448,192,85526,1,0,0:0:0:0:
320,192,85601,1,0,0:0:0:0:
192,192,85676,1,0,0:0:0:0:
64,192,85751,1,0,0:0:0:0:
192,192,85826,1,0,0:0:0:0:
320,192,85901,1,0,0:0:0:0:
448,192,85901,1,0,0:0:0:0:
64,192,85976,1,0,0:0:0:0:
192,192,86051,1,0,0:0:0:0:
320,192,86126,1,0,0:0:0:0:
448,192,86201,1,0,0:0:0:0:
320,192,86276,1,0,0:0:0:0:
64,192,86351,128,0,86651:0:0:0:0:
192,192,86351,1,0,0:0:0:0:
320,192,86651,128,0,86951:0:0:0:0:
448,192,86651,1,0,0:0:0:0:
192,192,86801,1,0,0:0:0:0:
64,192,86951,1,0,0:0:0:0:
448,192,87101,1,0,0:0:0:0:
320,192,87176,1,0,0:0:0:0:
192,192,87251,1,0,0:0:0:0:
64,192,87326,1,0,0:0:0:0:
448,192,87401,1,0,0:0:0:0:
320,192,87476,1,0,0:0:0:0:
64,192,87551,1,0,0:0:0:0:
192,192,87551,1,0,0:0:0:0:
448,192,87851,1,0,0:0:0:0:
320,192,88151,1,0,0:0:0:0:
64,192,88151,1,0,0:0:0:0:
320,192,88376,1,0,0:0:0:0:
192,192,88376,1,0,0:0:0:0:
192,192,88601,1,0,0:0:0:0:
448,192,88601,1,0,0:0:0:0:
448,192,88751,1,0,0:0:0:0:
64,192,88751,1,0,0:0:0:0:
320,192,88976,1,0,0:0:0:0:
192,192,89051,1,0,0:0:0:0:
64,192,89126,1,0,0:0:0:0:
448,192,89201,1,0,0:0:0:0:
192,192,89351,1,0,0:0:0:0:
320,192,89351,1,0,0:0:0:0:
64,192,89501,1,0,0:0:0:0:
320,192,89576,1,0,0:0:0:0:
448,192,89651,1,0,0:0:0:0:
192,192,89801,1,0,0:0:0:0:
320,192,89951,1,0,0:0:0:0:
64,192,89951,1,0,0:0:0:0:
448,192,90101,1,0,0:0:0:0:
320,192,90176,1,0,0:0:0:0:
64,192,90251,1,0,0:0:0:0:
192,192,90326,1,0,0:0:0:0:
448,192,90401,1,0,0:0:0:0:
320,192,90401,1,0,0:0:0:0:
64,192,90476,1,0,0:0:0:0:
192,192,90551,1,0,0:0:0:0:
320,192,90626,1,0,0:0:0:0:
448,192,90701,1,0,0:0:0:0:
320,192,90776,1,0,0:0:0:0:
64,192,90851,1,0,0:0:0:0:
192,192,90851,1,0,0:0:0:0:
448,192,90926,1,0,0:0:0:0:
320,192,91001,1,0,0:0:0:0:
192,192,91076,1,0,0:0:0:0:
64,192,91151,1,0,0:0:0:0:
320,192,91301,1,0,0:0:0:0:
448,192,91301,1,0,0:0:0:0:
320,192,91451,1,0,0:0:0:0:
448,192,91451,1,0,0:0:0:0:
320,192,91601,1,0,0:0:0:0:
448,192,91601,1,0,0:0:0:0:
64,192,91751,1,0,0:0:0:0:
192,192,91751,1,0,0:0:0:0:
448,192,92051,1,0,0:0:0:0:
320,192,92351,1,0,0:0:0:0:
64,192,92351,1,0,0:0:0:0:
192,192,92501,1,0,0:0:0:0:
448,192,92651,1,0,0:0:0:0:
192,192,92801,1,0,0:0:0:0:
320,192,92801,1,0,0:0:0:0:
64,192,93101,1,0,0:0:0:0:
192,192,93363,1,0,0:0:0:0:
448,192,93401,1,0,0:0:0:0:
320,192,93401,1,0,0:0:0:0:
64,192,93701,1,0,0:0:0:0:
448,192,93851,1,0,0:0:0:0:
64,192,94151,1,0,0:0:0:0:
320,192,94151,1,0,0:0:0:0:
192,192,94451,1,0,0:0:0:0:
448,192,94713,1,0,0:0:0:0:
192,192,94751,1,0,0:0:0:0:
320,192,94751,1,0,0:0:0:0:
64,192,95051,1,0,0:0:0:0:
192,192,95163,1,0,0:0:0:0:
448,192,95201,1,0,0:0:0:0:
320,192,95201,1,0,0:0:0:0:
64,192,95501,1,0,0:0:0:0:
192,192,95576,1,0,0:0:0:0:
448,192,95651,1,0,0:0:0:0:
320,192,95726,1,0,0:0:0:0:
64,192,95801,128,0,96251:0:0:0:0:
192,192,95801,1,0,0:0:0:0:
448,192,96101,1,0,0:0:0:0:
320,192,96176,1,0,0:0:0:0:
448,192,96251,128,0,96551:0:0:0:0:
192,192,96251,1,0,0:0:0:0:
192,192,96551,1,0,0:0:0:0:
320,192,96551,1,0,0:0:0:0:
64,192,96701,1,0,0:0:0:0:
448,192,96851,1,0,0:0:0:0:
320,192,96926,1,0,0:0:0:0:
192,192,97001,1,0,0:0:0:0:
64,192,97076,1,0,0:0:0:0:
448,192,97151,128,0,97451:0:0:0:0:
320,192,97151,1,0,0:0:0:0:
192,192,97451,1,0,0:0:0:0:
64,192,97451,1,0,0:0:0:0:
448,192,97601,1,0,0:0:0:0:
320,192,97601,1,0,0:0:0:0:
192,192,97751,1,0,0:0:0:0:
448,192,97901,1,0,0:0:0:0:
64,192,97901,128,0,98201:0:0:0:0:
192,192,98051,1,0,0:0:0:0:
320,192,98126,1,0,0:0:0:0:
448,192,98201,128,0,98651:0:0:0:0:
192,192,98201,1,0,0:0:0:0:
64,192,98651,1,0,0:0:0:0:
320,192,98651,1,0,0:0:0:0:
448,192,98801,1,0,0:0:0:0:
192,192,98801,1,0,0:0:0:0:
64,192,99101,128,0,99551:0:0:0:0:
320,192,99101,1,0,0:0:0:0:
192,192,99401,1,0,0:0:0:0:
320,192,99476,1,0,0:0:0:0:
192,192,99551,1,0,0:0:0:0:
448,192,99551,1,0,0:0:0:0:
192,192,99701,1,0,0:0:0:0:
448,192,99701,1,0,0:0:0:0:
192,192,99851,1,0,0:0:0:0:
448,192,99851,1,0,0:0:0:0:
192,192,100001,1,0,0:0:0:0:
448,192,100001,1,0,0:0:0:0:
64,192,100151,1,0,0:0:0:0:
320,192,100151,1,0,0:0:0:0:
64,192,100301,1,0,0:0:0:0:
320,192,100301,1,0,0:0:0:0:
64,192,100451,1,0,0:0:0:0:
320,192,100451,1,0,0:0:0:0:
320,192,100601,1,0,0:0:0:0:
64,192,100601,128,0,101276:0:0:0:0:
448,192,100901,1,0,0:0:0:0:
192,192,101051,1,0,0:0:0:0:
448,192,101276,1,0,0:0:0:0:
320,192,101351,1,0,0:0:0:0:
192,192,101426,1,0,0:0:0:0:
64,192,101501,1,0,0:0:0:0:
192,192,101576,1,0,0:0:0:0:
448,192,101651,1,0,0:0:0:0:
320,192,101651,1,0,0:0:0:0:
64,192,101726,1,0,0:0:0:0:
192,192,101801,1,0,0:0:0:0:
320,192,101876,1,0,0:0:0:0:
192,192,101951,1,0,0:0:0:0:
448,192,101951,1,0,0:0:0:0:
64,192,101951,1,0,0:0:0:0:
320,192,102101,1,0,0:0:0:0:
448,192,102101,1,0,0:0:0:0:
192,192,102251,1,0,0:0:0:0:
64,192,102251,1,0,0:0:0:0:
64,192,102401,128,0,102701:0:0:0:0:
320,192,102401,1,0,0:0:0:0:
192,192,102701,1,0,0:0:0:0:
448,192,102701,128,0,103001:0:0:0:0:
64,192,103001,1,0,0:0:0:0:
320,192,103001,128,0,103301:0:0:0:0:
192,192,103301,1,0,0:0:0:0:
448,192,103451,128,0,103751:0:0:0:0:
64,192,103451,1,0,0:0:0:0:
320,192,103601,1,0,0:0:0:0:
192,192,103676,1,0,0:0:0:0:
64,192,103751,1,0,0:0:0:0:
320,192,103751,128,0,104051:0:0:0:0:
64,192,103901,1,0,0:0:0:0:
192,192,103976,1,0,0:0:0:0:
448,192,104051,1,0,0:0:0:0:
64,192,104051,128,0,104351:0:0:0:0:
320,192,104351,1,0,0:0:0:0:
192,192,104351,128,0,104651:0:0:0:0:
64,192,104651,1,0,0:0:0:0:
448,192,104651,1,0,0:0:0:0:
192,192,104801,1,0,0:0:0:0:
320,192,104801,1,0,0:0:0:0:
64,192,105101,1,0,0:0:0:0:
192,192,105401,1,0,0:0:0:0:
448,192,105401,128,0,105701:0:0:0:0:
64,192,105701,1,0,0:0:0:0:
192,192,105776,1,0,0:0:0:0:
448,192,105851,1,0,0:0:0:0:
320,192,105851,128,0,106151:0:0:0:0:
448,192,106151,1,0,0:0:0:0:
64,192,106151,1,0,0:0:0:0:
192,192,106301,1,0,0:0:0:0:
64,192,106301,1,0,0:0:0:0:
448,192,106601,1,0,0:0:0:0:
320,192,106601,128,0,106901:0:0:0:0:
64,192,106751,1,0,0:0:0:0:
192,192,106826,1,0,0:0:0:0:
448,192,106901,1,0,0:0:0:0:
64,192,106976,1,0,0:0:0:0:
192,192,107051,128,0,107201:0:0:0:0:
320,192,107201,128,0,107351:0:0:0:0:
448,192,107351,1,0,0:0:0:0:
64,192,107501,128,0,107651:0:0:0:0:
448,192,107651,1,0,0:0:0:0:
320,192,107726,1,0,0:0:0:0:
192,192,107801,1,0,0:0:0:0:
64,192,107876,1,0,0:0:0:0:
192,192,107951,1,0,0:0:0:0:
320,192,107951,1,0,0:0:0:0:
448,192,107951,1,0,0:0:0:0:
448,192,108101,1,0,0:0:0:0:
64,192,108101,1,0,0:0:0:0:
64,192,108251,1,0,0:0:0:0:
320,192,108251,1,0,0:0:0:0:
448,192,108401,1,0,0:0:0:0:
320,192,108401,1,0,0:0:0:0:
448,192,108701,128,0,109151:0:0:0:0:
320,192,108701,1,0,0:0:0:0:
64,192,109001,1,0,0:0:0:0:
320,192,109151,1,0,0:0:0:0:
192,192,109151,128,0,109751:0:0:0:0:
448,192,109751,1,0,0:0:0:0:
64,192,109751,128,0,110201:0:0:0:0:
192,192,110201,1,0,0:0:0:0:
320,192,110201,128,0,110501:0:0:0:0:
448,192,110501,1,0,0:0:0:0:
64,192,110501,1,0,0:0:0:0:
64,192,110651,1,0,0:0:0:0:
448,192,110651,1,0,0:0:0:0:
64,192,110801,1,0,0:0:0:0:
448,192,110801,1,0,0:0:0:0:
64,192,110951,1,0,0:0:0:0:
448,192,110951,1,0,0:0:0:0:
192,192,111176,1,0,0:0:0:0:
64,192,111176,1,0,0:0:0:0:
192,192,111401,1,0,0:0:0:0:
320,192,111401,1,0,0:0:0:0:
448,192,111551,128,0,113951:0:0:0:0:
320,192,111551,1,0,0:0:0:0:
320,192,112151,1,0,0:0:0:0:
64,192,112151,1,0,0:0:0:0:
192,192,112751,1,0,0:0:0:0:
64,192,113501,1,0,0:0:0:0:
192,192,113576,1,0,0:0:0:0:
320,192,113651,1,0,0:0:0:0:
64,192,113726,1,0,0:0:0:0:
192,192,113801,1,0,0:0:0:0:
320,192,113876,1,0,0:0:0:0:
192,192,113951,1,0,0:0:0:0:
64,192,113951,1,0,0:0:0:0:
448,192,114101,1,0,0:0:0:0:
320,192,114101,1,0,0:0:0:0:
64,192,114251,1,0,0:0:0:0:
192,192,114251,1,0,0:0:0:0:
448,192,114401,1,0,0:0:0:0:
320,192,114401,1,0,0:0:0:0:
320,192,114551,1,0,0:0:0:0:
64,192,114551,1,0,0:0:0:0:
448,192,114701,1,0,0:0:0:0:
192,192,114701,1,0,0:0:0:0:
64,192,114851,1,0,0:0:0:0:
320,192,114851,1,0,0:0:0:0:
448,192,115001,1,0,0:0:0:0:
192,192,115001,1,0,0:0:0:0:
320,192,115076,1,0,0:0:0:0:
64,192,115151,1,0,0:0:0:0:
192,192,115226,1,0,0:0:0:0:
320,192,115301,1,0,0:0:0:0:
448,192,115376,1,0,0:0:0:0:
64,192,115451,1,0,0:0:0:0:
192,192,115526,1,0,0:0:0:0:
320,192,115601,1,0,0:0:0:0:
448,192,115676,1,0,0:0:0:0:
320,192,115751,1,0,0:0:0:0:
192,192,115826,1,0,0:0:0:0:
64,192,115901,1,0,0:0:0:0:
448,192,115976,1,0,0:0:0:0:
320,192,116051,1,0,0:0:0:0:
192,192,116126,1,0,0:0:0:0:
64,192,116201,1,0,0:0:0:0:
448,192,116276,1,0,0:0:0:0:
192,192,116351,1,0,0:0:0:0:
320,192,116351,1,0,0:0:0:0:
192,192,116501,1,0,0:0:0:0:
320,192,116501,1,0,0:0:0:0:
