osu file format v14

[General]
AudioFilename: [SDVX II ] Wish upon Twin Stars [NOFX].mp3
AudioLeadIn: 0
PreviewTime: 62726
Countdown: 0
SampleSet: Soft
StackLeniency: 0.7
Mode: 3
LetterboxInBreaks: 0
SpecialStyle: 0
WidescreenStoryboard: 0

[Editor]
DistanceSpacing: 0.5
BeatDivisor: 4
GridSize: 32
TimelineZoom: 1.5

[Metadata]
Title:Wish upon Twin Stars
TitleUnicode:Wish upon Twin Stars
Artist:xi
ArtistUnicode:xi
Creator:sherrysina
Version:BASIC
Source:SOUND VOLTEX II -infinite infection-
Tags:SDVX 2 VOLTEX Character Theme First Contest Pizza -[Hotaru]-
BeatmapID:916813
BeatmapSetID:424393

[Difficulty]
HPDrainRate:6.5
CircleSize:4
OverallDifficulty:6.5
ApproachRate:5
SliderMultiplier:1.4
SliderTickRate:1

[Events]
//Background and Video events
0,0,"37434328_p0.jpg",0,0
//Break Periods
//Storyboard Layer 0 (Background)
//Storyboard Layer 1 (Fail)
//Storyboard Layer 2 (Pass)
//Storyboard Layer 3 (Foreground)
//Storyboard Sound Samples

[TimingPoints]
1151,300,4,2,0,40,1,0
53876,-100,4,2,0,40,0,1
63401,-100,4,2,0,40,0,0
63476,-100,4,2,0,40,0,1
73076,-100,4,2,0,40,0,0
101876,-100,4,2,0,40,0,1
113876,-100,4,2,0,40,0,0

[HitObjects]
64,192,701,128,0,1151:0:0:0:0:
448,192,1151,1,0,0:0:0:0:
320,192,1601,1,0,0:0:0:0:
64,192,1901,1,0,0:0:0:0:
448,192,2201,1,0,0:0:0:0:
320,192,2651,1,0,0:0:0:0:
64,192,2951,1,0,0:0:0:0:
448,192,3551,1,0,0:0:0:0:
192,192,4001,1,0,0:0:0:0:
64,192,4451,128,0,5051:0:0:0:0:
320,192,5051,128,0,5351:0:0:0:0:
448,192,5351,1,0,0:0:0:0:
192,192,5576,1,0,0:0:0:0:
320,192,5801,1,0,0:0:0:0:
64,192,5951,1,0,0:0:0:0:
448,192,6551,1,0,0:0:0:0:
320,192,6776,1,0,0:0:0:0:
192,192,7001,1,0,0:0:0:0:
64,192,7151,1,0,0:0:0:0:
448,192,7751,1,0,0:0:0:0:
64,192,7976,1,0,0:0:0:0:
192,192,8201,1,0,0:0:0:0:
320,192,8351,1,0,0:0:0:0:
448,192,8801,1,0,0:0:0:0:
64,192,9251,1,0,0:0:0:0:
320,192,9701,128,0,10751:0:0:0:0:
192,192,10751,128,0,11951:0:0:0:0:
448,192,11951,128,0,13151:0:0:0:0:
64,192,13451,1,0,0:0:0:0:
320,192,13751,1,0,0:0:0:0:
192,192,14201,1,0,0:0:0:0:
448,192,14651,1,0,0:0:0:0:
320,192,14951,1,0,0:0:0:0:
64,192,15551,1,0,0:0:0:0:
192,192,15851,128,0,16601:0:0:0:0:
448,192,16601,1,0,0:0:0:0:
64,192,17051,1,0,0:0:0:0:
320,192,17351,1,0,0:0:0:0:
448,192,17651,1,0,0:0:0:0:
192,192,17951,1,0,0:0:0:0:
64,192,18401,1,0,0:0:0:0:
448,192,18851,1,0,0:0:0:0:
192,192,19151,1,0,0:0:0:0:
320,192,19451,1,0,0:0:0:0:
64,192,19751,1,0,0:0:0:0:
448,192,20051,1,0,0:0:0:0:
320,192,20351,1,0,0:0:0:0:
64,192,20801,1,0,0:0:0:0:
448,192,21551,1,0,0:0:0:0:
192,192,21851,1,0,0:0:0:0:
320,192,22151,128,0,22751:0:0:0:0:
64,192,22751,128,0,23351:0:0:0:0:
448,192,23351,1,0,0:0:0:0:
192,192,23801,1,0,0:0:0:0:
448,192,24551,1,0,0:0:0:0:
320,192,24851,1,0,0:0:0:0:
192,192,25151,1,0,0:0:0:0:
64,192,25601,1,0,0:0:0:0:
448,192,26051,1,0,0:0:0:0:
192,192,26651,1,0,0:0:0:0:
320,192,26951,1,0,0:0:0:0:
448,192,27176,1,0,0:0:0:0:
64,192,27401,1,0,0:0:0:0:
320,192,27551,128,0,28001:0:0:0:0:
192,192,28001,1,0,0:0:0:0:
64,192,28751,128,0,29201:0:0:0:0:
448,192,29201,128,0,29501:0:0:0:0:
192,192,29501,128,0,29951:0:0:0:0:
320,192,29951,1,0,0:0:0:0:
448,192,30251,1,0,0:0:0:0:
64,192,30551,1,0,0:0:0:0:
192,192,31001,1,0,0:0:0:0:
448,192,31376,128,0,32351:0:0:0:0:
64,192,32351,1,0,0:0:0:0:
192,192,32801,1,0,0:0:0:0:
320,192,33251,1,0,0:0:0:0:
64,192,33851,128,0,34451:0:0:0:0:
320,192,34451,128,0,34751:0:0:0:0:
192,192,34751,1,0,0:0:0:0:
448,192,35201,1,0,0:0:0:0:
64,192,35651,1,0,0:0:0:0:
320,192,36101,128,0,36551:0:0:0:0:
192,192,36551,128,0,37151:0:0:0:0:
448,192,37151,1,0,0:0:0:0:
320,192,37601,1,0,0:0:0:0:
64,192,38051,1,0,0:0:0:0:
192,192,38651,128,0,39251:0:0:0:0:
448,192,39251,128,0,39551:0:0:0:0:
64,192,39551,1,0,0:0:0:0:
320,192,40001,1,0,0:0:0:0:
192,192,40451,1,0,0:0:0:0:
448,192,40901,128,0,41351:0:0:0:0:
64,192,41351,1,0,0:0:0:0:
320,192,41501,1,0,0:0:0:0:
192,192,41801,128,0,43301:0:0:0:0:
448,192,43301,128,0,43751:0:0:0:0:
320,192,43751,1,0,0:0:0:0:
192,192,43901,1,0,0:0:0:0:
64,192,44201,128,0,45551:0:0:0:0:
320,192,45551,128,0,46151:0:0:0:0:
448,192,46151,1,0,0:0:0:0:
64,192,46301,1,0,0:0:0:0:
192,192,46601,128,0,47951:0:0:0:0:
320,192,47951,128,0,49151:0:0:0:0:
64,192,49151,1,0,0:0:0:0:
448,192,49601,1,0,0:0:0:0:
192,192,50051,1,0,0:0:0:0:
320,192,50501,128,0,50951:0:0:0:0:
64,192,50951,1,0,0:0:0:0:
448,192,51251,1,0,0:0:0:0:
192,192,51551,128,0,52751:0:0:0:0:
64,192,52751,128,0,53351:0:0:0:0:
448,192,53351,128,0,53951:0:0:0:0:
64,192,53951,1,0,0:0:0:0:
320,192,53951,1,0,0:0:0:0:
192,192,54401,1,0,0:0:0:0:
448,192,54701,1,0,0:0:0:0:
64,192,55001,1,0,0:0:0:0:
320,192,55451,1,0,0:0:0:0:
192,192,55751,1,0,0:0:0:0:
64,192,56051,1,0,0:0:0:0:
448,192,56351,1,0,0:0:0:0:
192,192,56801,1,0,0:0:0:0:
320,192,57401,1,0,0:0:0:0:
64,192,57851,1,0,0:0:0:0:
192,192,58151,1,0,0:0:0:0:
448,192,58451,128,0,58751:0:0:0:0:
320,192,58751,1,0,0:0:0:0:
64,192,59051,1,0,0:0:0:0:
192,192,59201,1,0,0:0:0:0:
448,192,59501,1,0,0:0:0:0:
320,192,59951,128,0,60401:0:0:0:0:
64,192,60251,1,0,0:0:0:0:
192,192,60401,1,0,0:0:0:0:
448,192,60701,1,0,0:0:0:0:
64,192,61151,128,0,61751:0:0:0:0:
192,192,61751,128,0,62201:0:0:0:0:
448,192,62201,128,0,62876:0:0:0:0:
320,192,62876,128,0,63551:0:0:0:0:
448,192,63551,1,0,0:0:0:0:
64,192,63551,1,0,0:0:0:0:
192,192,64001,1,0,0:0:0:0:
448,192,64301,1,0,0:0:0:0:
64,192,64601,1,0,0:0:0:0:
320,192,65051,1,0,0:0:0:0:
192,192,65351,1,0,0:0:0:0:
64,192,65651,1,0,0:0:0:0:
448,192,65951,1,0,0:0:0:0:
192,192,66401,1,0,0:0:0:0:
64,192,67001,1,0,0:0:0:0:
448,192,67451,1,0,0:0:0:0:
320,192,67751,1,0,0:0:0:0:
192,192,67901,1,0,0:0:0:0:
64,192,68201,128,0,68801:0:0:0:0:
448,192,68801,1,0,0:0:0:0:
320,192,69101,1,0,0:0:0:0:
192,192,69401,128,0,70001:0:0:0:0:
448,192,70001,1,0,0:0:0:0:
64,192,70301,1,0,0:0:0:0:
320,192,70751,1,0,0:0:0:0:
448,192,71351,1,0,0:0:0:0:
192,192,71801,1,0,0:0:0:0:
320,192,72101,1,0,0:0:0:0:
64,192,72551,1,0,0:0:0:0:
448,192,72776,1,0,0:0:0:0:
192,192,73001,1,0,0:0:0:0:
320,192,73151,128,0,75551:0:0:0:0:
64,192,75551,1,0,0:0:0:0:
192,192,75851,1,0,0:0:0:0:
448,192,76151,1,0,0:0:0:0:
320,192,76451,1,0,0:0:0:0:
64,192,76751,1,0,0:0:0:0:
448,192,77051,1,0,0:0:0:0:
192,192,77351,1,0,0:0:0:0:
320,192,77651,1,0,0:0:0:0:
448,192,78251,1,0,0:0:0:0:
64,192,78551,1,0,0:0:0:0:
192,192,78851,1,0,0:0:0:0:
320,192,79151,1,0,0:0:0:0:
448,192,79451,1,0,0:0:0:0:
192,192,79751,1,0,0:0:0:0:
64,192,80051,1,0,0:0:0:0:
320,192,80651,1,0,0:0:0:0:
192,192,80951,1,0,0:0:0:0:
320,192,81251,1,0,0:0:0:0:
448,192,81551,1,0,0:0:0:0:
64,192,81851,1,0,0:0:0:0:
192,192,82151,1,0,0:0:0:0:
320,192,82451,1,0,0:0:0:0:
64,192,82751,1,0,0:0:0:0:
448,192,83201,1,0,0:0:0:0:
192,192,83651,1,0,0:0:0:0:
320,192,84101,1,0,0:0:0:0:
64,192,84551,1,0,0:0:0:0:
448,192,85001,1,0,0:0:0:0:
320,192,85451,1,0,0:0:0:0:
192,192,85901,1,0,0:0:0:0:
64,192,86351,1,0,0:0:0:0:
448,192,86801,1,0,0:0:0:0:
192,192,87251,1,0,0:0:0:0:
320,192,87551,1,0,0:0:0:0:
64,192,88151,1,0,0:0:0:0:
320,192,88376,1,0,0:0:0:0:
448,192,88601,1,0,0:0:0:0:
192,192,88751,1,0,0:0:0:0:
64,192,89351,1,0,0:0:0:0:
448,192,89576,1,0,0:0:0:0:
192,192,89801,1,0,0:0:0:0:
320,192,89951,1,0,0:0:0:0:
64,192,90401,1,0,0:0:0:0:
448,192,90851,1,0,0:0:0:0:
192,192,91301,128,0,91751:0:0:0:0:
320,192,91751,1,0,0:0:0:0:
64,192,92351,1,0,0:0:0:0:
448,192,92801,1,0,0:0:0:0:
320,192,93101,1,0,0:0:0:0:
192,192,93401,1,0,0:0:0:0:
64,192,93851,1,0,0:0:0:0:
448,192,94151,1,0,0:0:0:0:
192,192,94451,1,0,0:0:0:0:
320,192,94751,1,0,0:0:0:0:
64,192,95201,1,0,0:0:0:0:
448,192,95651,1,0,0:0:0:0:
192,192,95801,1,0,0:0:0:0:
320,192,96251,1,0,0:0:0:0:
64,192,96551,1,0,0:0:0:0:
448,192,96851,128,0,97151:0:0:0:0:
192,192,97151,1,0,0:0:0:0:
320,192,97601,1,0,0:0:0:0:
64,192,97901,128,0,98351:0:0:0:0:
448,192,98351,1,0,0:0:0:0:
192,192,98801,1,0,0:0:0:0:
320,192,99101,128,0,99551:0:0:0:0:
64,192,99551,1,0,0:0:0:0:
192,192,100151,1,0,0:0:0:0:
448,192,100601,1,0,0:0:0:0:
320,192,100901,1,0,0:0:0:0:
64,192,101051,1,0,0:0:0:0:
192,192,101201,128,0,101951:0:0:0:0:
448,192,101951,1,0,0:0:0:0:
320,192,102401,1,0,0:0:0:0:
64,192,102701,1,0,0:0:0:0:
192,192,103001,1,0,0:0:0:0:
448,192,103451,1,0,0:0:0:0:
320,192,103751,1,0,0:0:0:0:
64,192,104051,1,0,0:0:0:0:
192,192,104351,1,0,0:0:0:0:
448,192,104651,1,0,0:0:0:0:
64,192,104801,1,0,0:0:0:0:
320,192,105101,1,0,0:0:0:0:
192,192,105401,128,0,105851:0:0:0:0:
448,192,105851,1,0,0:0:0:0:
320,192,106151,1,0,0:0:0:0:
64,192,106301,1,0,0:0:0:0:
192,192,106601,1,0,0:0:0:0:
448,192,107201,1,0,0:0:0:0:
192,192,107501,1,0,0:0:0:0:
64,192,107951,1,0,0:0:0:0:
320,192,108401,1,0,0:0:0:0:
448,192,108701,128,0,109151:0:0:0:0:
192,192,109151,128,0,109751:0:0:0:0:
320,192,109751,128,0,110201:0:0:0:0:
64,192,110201,128,0,110501:0:0:0:0:
192,192,110501,128,0,110951:0:0:0:0:
448,192,110951,1,0,0:0:0:0:
64,192,111176,1,0,0:0:0:0:
320,192,111401,1,0,0:0:0:0:
192,192,111551,128,0,113951:0:0:0:0:
64,192,113951,128,0,114551:0:0:0:0:
448,192,114551,128,0,115151:0:0:0:0:
320,192,115151,128,0,115751:0:0:0:0:
192,192,115751,128,0,116351:0:0:0:0:
64,192,116351,1,0,0:0:0:0:
448,192,116501,1,0,0:0:0:0:
