osu file format v14

[General]
AudioFilename: Wish upon Twin Stars.mp3
AudioLeadIn: 0
PreviewTime: 53852
Countdown: 0
SampleSet: Normal
StackLeniency: 0.7
Mode: 1
LetterboxInBreaks: 0
WidescreenStoryboard: 0

[Editor]
DistanceSpacing: 2
BeatDivisor: 4
GridSize: 32
TimelineZoom: 2.799999

[Metadata]
Title:Wish upon Twin Stars
TitleUnicode:Wish upon Twin Stars
Artist:xi
ArtistUnicode:xi
Creator:kei821
Version:Inner Oni
Source:SOUND VOLTEX III GRAVITY WARS
Tags:
BeatmapID:1460462
BeatmapSetID:690013

[Difficulty]
HPDrainRate:5
CircleSize:5
OverallDifficulty:5
ApproachRate:5
SliderMultiplier:1.4
SliderTickRate:1

[Events]
//Background and Video events
0,0,"61735700_p0_waifu2x_art_noise3_scale_tta_1.png",0,60
//Break Periods
//Storyboard Layer 0 (Background)
//Storyboard Layer 1 (Fail)
//Storyboard Layer 2 (Pass)
//Storyboard Layer 3 (Foreground)
//Storyboard Sound Samples

[TimingPoints]
696,300,4,1,0,50,1,8
696,-133.333333333333,4,1,0,50,0,0
1146,300,4,1,0,50,1,0
1146,-133.333333333333,4,1,0,50,0,0
4746,300,4,1,0,90,1,8
4746,-100,4,1,0,90,0,0
10896,-100,4,1,0,85,0,0
11346,-100,4,1,0,80,0,0
11946,-100,4,1,0,75,0,0
12546,-100,4,1,0,70,0,0
20346,-100,4,1,0,90,0,0
33546,-100,4,1,0,70,0,0
34746,-100,4,1,0,90,0,0
35946,-100,4,1,0,70,0,0
37146,-100,4,1,0,90,0,0
38346,-100,4,1,0,70,0,0
39546,-100,4,1,0,90,0,0
53946,-100,4,1,0,90,0,1
62346,-100,4,1,0,90,0,0
63546,-100,4,1,0,90,0,1
70746,-100,4,1,0,90,0,0
73221,-100,4,1,0,75,0,0
81546,-100,4,1,0,90,0,0
82746,-100,4,1,0,90,0,1
91896,-114.285714285714,4,1,0,50,0,0
92346,-133.333333333333,4,1,0,50,0,0
95646,-100,4,1,0,100,0,0
101946,-100,4,1,0,100,0,1
111546,-100,4,1,0,80,0,0
113946,-100,4,1,0,100,0,1
116346,-100,4,1,0,100,0,0

[HitObjects]
256,192,696,5,0,0:0:0:0:
256,192,846,1,0,0:0:0:0:
256,192,996,1,8,0:0:0:0:
256,192,1146,1,8,0:0:0:0:
256,192,1296,1,0,0:0:0:0:
256,192,1446,1,0,0:0:0:0:
256,192,1596,1,0,0:0:0:0:
256,192,1896,1,0,0:0:0:0:
256,192,2146,1,0,0:0:0:0:
256,192,2196,1,0,0:0:0:0:
256,192,2246,1,8,0:0:0:0:
256,192,2496,1,0,0:0:0:0:
256,192,2646,1,8,0:0:0:0:
256,192,2946,1,8,0:0:0:0:
256,192,3246,1,0,0:0:0:0:
256,192,3546,1,8,0:0:0:0:
256,192,3846,1,0,0:0:0:0:
256,192,3996,1,0,0:0:0:0:
256,192,4296,1,0,0:0:0:0:
256,192,4446,1,0,0:0:0:0:
256,192,5046,1,4,0:0:0:0:
256,192,5346,1,8,0:0:0:0:
256,192,5571,1,8,0:0:0:0:
256,192,5796,1,8,0:0:0:0:
256,192,5946,1,4,0:0:0:0:
256,192,6171,1,8,0:0:0:0:
256,192,6246,1,0,0:0:0:0:
256,192,6321,1,8,0:0:0:0:
256,192,6396,1,8,0:0:0:0:
256,192,6471,1,8,0:0:0:0:
256,192,6546,1,0,0:0:0:0:
256,192,6771,1,8,0:0:0:0:
256,192,6846,1,0,0:0:0:0:
256,192,6996,1,8,0:0:0:0:
256,192,7146,1,4,0:0:0:0:
256,192,7371,1,8,0:0:0:0:
256,192,7446,1,0,0:0:0:0:
256,192,7521,1,0,0:0:0:0:
256,192,7596,1,0,0:0:0:0:
256,192,7671,1,8,0:0:0:0:
256,192,7746,1,0,0:0:0:0:
256,192,7896,1,8,0:0:0:0:
256,192,7946,1,8,0:0:0:0:
256,192,7996,1,8,0:0:0:0:
256,192,8046,1,0,0:0:0:0:
256,192,8196,1,0,0:0:0:0:
256,192,8346,1,8,0:0:0:0:
256,192,8496,1,0,0:0:0:0:
256,192,8571,1,8,0:0:0:0:
256,192,8646,1,0,0:0:0:0:
256,192,8721,1,8,0:0:0:0:
256,192,8796,1,8,0:0:0:0:
256,192,8946,1,0,0:0:0:0:
256,192,9021,1,0,0:0:0:0:
256,192,9096,1,0,0:0:0:0:
256,192,9171,1,0,0:0:0:0:
256,192,9246,1,8,0:0:0:0:
256,192,9321,1,8,0:0:0:0:
256,192,9396,1,0,0:0:0:0:
256,192,9471,1,0,0:0:0:0:
256,192,9696,1,12,0:0:0:0:
256,192,9846,1,12,0:0:0:0:
256,192,9996,1,12,0:0:0:0:
256,192,10146,1,4,0:0:0:0:
256,192,10446,1,12,0:0:0:0:
256,192,10746,1,4,0:0:0:0:
256,192,10896,12,0,13146,0:0:0:0:
256,192,13446,5,0,0:0:0:0:
256,192,13521,1,0,0:0:0:0:
256,192,13596,1,0,0:0:0:0:
256,192,13671,1,8,0:0:0:0:
256,192,13746,1,0,0:0:0:0:
256,192,14196,1,0,0:0:0:0:
256,192,14646,1,0,0:0:0:0:
256,192,14946,1,8,0:0:0:0:
256,192,15096,1,0,0:0:0:0:
256,192,15396,1,0,0:0:0:0:
256,192,15546,1,8,0:0:0:0:
256,192,15846,1,0,0:0:0:0:
256,192,15921,1,0,0:0:0:0:
256,192,15996,1,0,0:0:0:0:
256,192,16071,1,8,0:0:0:0:
256,192,16146,1,8,0:0:0:0:
256,192,16296,1,8,0:0:0:0:
256,192,16596,1,0,0:0:0:0:
256,192,16896,1,0,0:0:0:0:
256,192,17046,1,8,0:0:0:0:
256,192,17196,1,0,0:0:0:0:
256,192,17346,1,8,0:0:0:0:
256,192,17496,1,0,0:0:0:0:
256,192,17646,1,8,0:0:0:0:
256,192,17946,1,0,0:0:0:0:
256,192,18096,1,8,0:0:0:0:
256,192,18171,1,0,0:0:0:0:
256,192,18246,1,0,0:0:0:0:
256,192,18396,1,8,0:0:0:0:
256,192,18546,1,0,0:0:0:0:
256,192,18621,1,0,0:0:0:0:
256,192,18696,1,0,0:0:0:0:
256,192,18846,1,8,0:0:0:0:
256,192,19046,1,0,0:0:0:0:
256,192,19096,1,0,0:0:0:0:
256,192,19146,1,8,0:0:0:0:
256,192,19446,1,8,0:0:0:0:
256,192,19746,1,0,0:0:0:0:
256,192,19896,1,8,0:0:0:0:
256,192,19971,1,8,0:0:0:0:
256,192,20046,1,0,0:0:0:0:
256,192,20121,1,8,0:0:0:0:
256,192,20196,1,8,0:0:0:0:
256,192,20271,1,8,0:0:0:0:
256,192,20346,1,0,0:0:0:0:
256,192,20571,1,8,0:0:0:0:
256,192,20646,1,0,0:0:0:0:
256,192,20796,1,0,0:0:0:0:
256,192,20946,1,8,0:0:0:0:
256,192,21021,1,8,0:0:0:0:
256,192,21096,1,0,0:0:0:0:
256,192,21246,1,0,0:0:0:0:
256,192,21321,1,0,0:0:0:0:
256,192,21396,1,0,0:0:0:0:
256,192,21471,1,8,0:0:0:0:
256,192,21546,1,0,0:0:0:0:
256,192,21696,1,0,0:0:0:0:
256,192,21771,1,0,0:0:0:0:
256,192,21846,1,8,0:0:0:0:
256,192,21996,1,8,0:0:0:0:
256,192,22071,1,8,0:0:0:0:
256,192,22146,1,0,0:0:0:0:
256,192,22296,1,8,0:0:0:0:
256,192,22371,1,0,0:0:0:0:
256,192,22521,1,8,0:0:0:0:
256,192,22596,1,0,0:0:0:0:
256,192,22671,1,0,0:0:0:0:
256,192,22746,1,0,0:0:0:0:
256,192,22896,1,8,0:0:0:0:
256,192,23046,1,0,0:0:0:0:
256,192,23121,1,0,0:0:0:0:
256,192,23196,1,0,0:0:0:0:
256,192,23271,1,8,0:0:0:0:
256,192,23346,1,8,0:0:0:0:
256,192,23496,1,0,0:0:0:0:
256,192,23571,1,0,0:0:0:0:
256,192,23646,1,0,0:0:0:0:
256,192,23796,1,0,0:0:0:0:
256,192,24096,1,0,0:0:0:0:
256,192,24171,1,0,0:0:0:0:
256,192,24246,1,8,0:0:0:0:
256,192,24321,1,8,0:0:0:0:
256,192,24396,1,0,0:0:0:0:
256,192,24471,1,8,0:0:0:0:
256,192,24546,1,8,0:0:0:0:
256,192,24696,1,0,0:0:0:0:
256,192,24746,1,0,0:0:0:0:
256,192,24796,1,0,0:0:0:0:
256,192,24846,1,8,0:0:0:0:
256,192,24996,1,0,0:0:0:0:
256,192,25146,1,4,0:0:0:0:
256,192,25446,1,8,0:0:0:0:
256,192,25596,1,4,0:0:0:0:
256,192,25896,1,0,0:0:0:0:
256,192,26046,1,4,0:0:0:0:
256,192,26496,1,0,0:0:0:0:
256,192,26646,1,8,0:0:0:0:
256,192,26796,1,0,0:0:0:0:
256,192,26871,1,8,0:0:0:0:
256,192,26946,1,0,0:0:0:0:
256,192,27096,1,0,0:0:0:0:
256,192,27171,1,8,0:0:0:0:
256,192,27321,1,8,0:0:0:0:
256,192,27396,1,0,0:0:0:0:
256,192,27471,1,0,0:0:0:0:
256,192,27546,1,0,0:0:0:0:
256,192,27771,1,0,0:0:0:0:
256,192,27846,1,8,0:0:0:0:
256,192,27996,1,8,0:0:0:0:
256,192,28071,1,8,0:0:0:0:
256,192,28146,1,0,0:0:0:0:
256,192,28296,1,0,0:0:0:0:
256,192,28371,1,0,0:0:0:0:
256,192,28446,1,8,0:0:0:0:
256,192,28596,1,0,0:0:0:0:
256,192,28746,1,0,0:0:0:0:
256,192,28896,1,8,0:0:0:0:
256,192,28971,1,8,0:0:0:0:
256,192,29046,1,0,0:0:0:0:
256,192,29121,1,0,0:0:0:0:
256,192,29196,1,8,0:0:0:0:
256,192,29346,1,0,0:0:0:0:
256,192,29496,1,8,0:0:0:0:
256,192,29546,1,8,0:0:0:0:
256,192,29596,1,8,0:0:0:0:
256,192,29646,1,0,0:0:0:0:
256,192,29721,1,0,0:0:0:0:
256,192,29796,1,0,0:0:0:0:
256,192,29946,1,12,0:0:0:0:
256,192,30096,1,0,0:0:0:0:
256,192,30171,1,0,0:0:0:0:
256,192,30246,1,8,0:0:0:0:
256,192,30471,1,8,0:0:0:0:
256,192,30546,1,0,0:0:0:0:
256,192,30771,1,0,0:0:0:0:
256,192,30846,1,8,0:0:0:0:
256,192,30896,1,0,0:0:0:0:
256,192,30946,1,0,0:0:0:0:
256,192,30996,1,8,0:0:0:0:
256,192,31346,1,12,0:0:0:0:
256,192,31546,1,4,0:0:0:0:
256,192,31746,1,4,0:0:0:0:
256,192,31946,1,4,0:0:0:0:
256,192,32146,1,12,0:0:0:0:
256,192,32346,1,4,0:0:0:0:
256,192,32496,1,0,0:0:0:0:
256,192,32571,1,0,0:0:0:0:
256,192,32646,1,8,0:0:0:0:
256,192,32721,1,0,0:0:0:0:
256,192,32796,1,8,0:0:0:0:
256,192,33021,1,8,0:0:0:0:
256,192,33096,1,0,0:0:0:0:
256,192,33171,1,0,0:0:0:0:
256,192,33246,1,8,0:0:0:0:
256,192,33846,1,8,0:0:0:0:
256,192,34146,1,0,0:0:0:0:
256,192,34246,1,8,0:0:0:0:
256,192,34346,1,8,0:0:0:0:
256,192,34446,1,0,0:0:0:0:
256,192,34746,1,12,0:0:0:0:
256,192,34896,1,0,0:0:0:0:
256,192,34971,1,8,0:0:0:0:
256,192,35046,1,0,0:0:0:0:
256,192,35121,1,0,0:0:0:0:
256,192,35196,1,8,0:0:0:0:
256,192,35421,1,0,0:0:0:0:
256,192,35496,1,8,0:0:0:0:
256,192,35571,1,8,0:0:0:0:
256,192,35646,1,0,0:0:0:0:
256,192,36096,1,0,0:0:0:0:
256,192,36246,1,8,0:0:0:0:
256,192,36321,1,0,0:0:0:0:
256,192,36396,1,0,0:0:0:0:
256,192,36471,1,0,0:0:0:0:
256,192,36546,1,8,0:0:0:0:
256,192,36696,1,0,0:0:0:0:
256,192,36746,1,8,0:0:0:0:
256,192,36796,1,8,0:0:0:0:
256,192,36846,1,8,0:0:0:0:
256,192,36996,1,0,0:0:0:0:
256,192,37146,1,4,0:0:0:0:
256,192,37296,1,0,0:0:0:0:
256,192,37371,1,0,0:0:0:0:
256,192,37446,1,8,0:0:0:0:
256,192,37521,1,0,0:0:0:0:
256,192,37596,1,8,0:0:0:0:
256,192,37821,1,8,0:0:0:0:
256,192,37896,1,0,0:0:0:0:
256,192,37971,1,0,0:0:0:0:
256,192,38046,1,8,0:0:0:0:
256,192,38646,1,8,0:0:0:0:
256,192,38946,1,8,0:0:0:0:
256,192,39021,1,0,0:0:0:0:
256,192,39096,1,8,0:0:0:0:
256,192,39171,1,8,0:0:0:0:
256,192,39246,1,0,0:0:0:0:
256,192,39321,1,0,0:0:0:0:
256,192,39396,1,8,0:0:0:0:
256,192,39546,1,12,0:0:0:0:
256,192,39696,1,0,0:0:0:0:
256,192,39771,1,8,0:0:0:0:
256,192,39846,1,0,0:0:0:0:
256,192,39921,1,0,0:0:0:0:
256,192,39996,1,8,0:0:0:0:
256,192,40221,1,0,0:0:0:0:
256,192,40296,1,8,0:0:0:0:
256,192,40371,1,8,0:0:0:0:
256,192,40446,1,0,0:0:0:0:
256,192,40896,1,8,0:0:0:0:
256,192,41046,1,8,0:0:0:0:
256,192,41196,1,8,0:0:0:0:
256,192,41271,1,8,0:0:0:0:
256,192,41346,1,8,0:0:0:0:
256,192,41496,1,0,0:0:0:0:
256,192,41796,1,4,0:0:0:0:
256,192,42096,1,0,0:0:0:0:
256,192,42246,1,0,0:0:0:0:
256,192,42321,1,8,0:0:0:0:
256,192,42396,1,8,0:0:0:0:
256,192,42471,1,8,0:0:0:0:
256,192,42546,1,0,0:0:0:0:
256,192,42696,1,0,0:0:0:0:
256,192,42771,1,8,0:0:0:0:
256,192,42846,1,0,0:0:0:0:
256,192,42996,1,8,0:0:0:0:
256,192,43071,1,8,0:0:0:0:
256,192,43146,1,0,0:0:0:0:
256,192,43296,1,8,0:0:0:0:
256,192,43446,1,8,0:0:0:0:
256,192,43596,1,8,0:0:0:0:
256,192,43671,1,8,0:0:0:0:
256,192,43746,1,8,0:0:0:0:
256,192,43896,1,0,0:0:0:0:
256,192,44196,1,4,0:0:0:0:
256,192,44496,1,0,0:0:0:0:
256,192,44646,1,0,0:0:0:0:
256,192,44721,1,0,0:0:0:0:
256,192,44796,1,8,0:0:0:0:
256,192,44871,1,8,0:0:0:0:
256,192,44946,1,0,0:0:0:0:
256,192,45096,1,0,0:0:0:0:
256,192,45171,1,8,0:0:0:0:
256,192,45246,1,0,0:0:0:0:
256,192,45396,1,8,0:0:0:0:
256,192,45471,1,8,0:0:0:0:
256,192,45546,1,0,0:0:0:0:
256,192,45696,1,8,0:0:0:0:
256,192,45846,1,8,0:0:0:0:
256,192,45996,1,8,0:0:0:0:
256,192,46071,1,8,0:0:0:0:
256,192,46146,1,8,0:0:0:0:
256,192,46296,1,0,0:0:0:0:
256,192,46596,1,4,0:0:0:0:
256,192,47346,1,0,0:0:0:0:
256,192,47646,1,8,0:0:0:0:
256,192,47946,1,0,0:0:0:0:
256,192,48396,1,8,0:0:0:0:
256,192,48546,1,0,0:0:0:0:
256,192,48696,1,8,0:0:0:0:
256,192,48746,1,8,0:0:0:0:
256,192,48796,1,8,0:0:0:0:
256,192,48846,1,0,0:0:0:0:
256,192,48996,1,0,0:0:0:0:
256,192,49146,1,12,0:0:0:0:
256,192,49296,1,0,0:0:0:0:
256,192,49371,1,0,0:0:0:0:
256,192,49446,1,0,0:0:0:0:
256,192,49596,1,12,0:0:0:0:
256,192,49746,1,0,0:0:0:0:
256,192,49821,1,0,0:0:0:0:
256,192,49896,1,0,0:0:0:0:
256,192,50046,1,12,0:0:0:0:
256,192,50496,1,12,0:0:0:0:
256,192,50646,1,12,0:0:0:0:
256,192,50796,1,12,0:0:0:0:
256,192,50946,1,4,0:0:0:0:
256,192,51096,1,0,0:0:0:0:
256,192,51171,1,0,0:0:0:0:
256,192,51246,1,8,0:0:0:0:
256,192,51396,1,8,0:0:0:0:
256,192,51471,1,8,0:0:0:0:
256,192,51546,1,0,0:0:0:0:
256,192,51621,1,8,0:0:0:0:
256,192,51696,1,8,0:0:0:0:
256,192,51771,1,8,0:0:0:0:
256,192,51846,1,0,0:0:0:0:
256,192,51921,1,0,0:0:0:0:
256,192,51996,1,0,0:0:0:0:
256,192,52071,1,0,0:0:0:0:
256,192,52146,1,8,0:0:0:0:
256,192,52221,1,8,0:0:0:0:
256,192,52296,1,0,0:0:0:0:
256,192,52371,1,0,0:0:0:0:
256,192,52446,1,8,0:0:0:0:
256,192,52521,1,0,0:0:0:0:
256,192,52596,1,0,0:0:0:0:
256,192,52671,1,0,0:0:0:0:
256,192,52746,1,8,0:0:0:0:
256,192,52821,1,8,0:0:0:0:
256,192,52896,1,8,0:0:0:0:
256,192,52971,1,8,0:0:0:0:
256,192,53046,1,8,0:0:0:0:
256,192,53121,1,0,0:0:0:0:
256,192,53196,1,0,0:0:0:0:
256,192,53271,1,0,0:0:0:0:
256,192,53346,1,0,0:0:0:0:
256,192,53496,1,8,0:0:0:0:
256,192,53646,1,8,0:0:0:0:
256,192,53796,1,8,0:0:0:0:
256,192,53946,1,4,0:0:0:0:
256,192,54096,1,8,0:0:0:0:
256,192,54171,1,8,0:0:0:0:
256,192,54246,1,0,0:0:0:0:
256,192,54396,1,0,0:0:0:0:
256,192,54546,1,8,0:0:0:0:
256,192,54696,1,0,0:0:0:0:
256,192,54996,1,8,0:0:0:0:
256,192,55296,1,0,0:0:0:0:
256,192,55446,1,8,0:0:0:0:
256,192,55521,1,0,0:0:0:0:
256,192,55596,1,0,0:0:0:0:
256,192,55671,1,0,0:0:0:0:
256,192,55746,1,0,0:0:0:0:
256,192,55896,1,8,0:0:0:0:
256,192,55946,1,8,0:0:0:0:
256,192,55996,1,8,0:0:0:0:
256,192,56046,1,0,0:0:0:0:
256,192,56196,1,0,0:0:0:0:
256,192,56346,1,0,0:0:0:0:
256,192,56496,1,8,0:0:0:0:
256,192,56571,1,8,0:0:0:0:
256,192,56646,1,0,0:0:0:0:
256,192,56721,1,0,0:0:0:0:
256,192,56796,1,0,0:0:0:0:
256,192,56946,1,8,0:0:0:0:
256,192,57096,1,0,0:0:0:0:
256,192,57246,1,0,0:0:0:0:
256,192,57321,1,0,0:0:0:0:
256,192,57396,1,8,0:0:0:0:
256,192,57621,1,0,0:0:0:0:
256,192,57696,1,8,0:0:0:0:
256,192,57746,1,0,0:0:0:0:
256,192,57796,1,0,0:0:0:0:
256,192,57846,1,8,0:0:0:0:
256,192,58146,1,12,0:0:0:0:
256,192,58296,1,4,0:0:0:0:
256,192,58521,1,0,0:0:0:0:
256,192,58596,1,0,0:0:0:0:
256,192,58671,1,8,0:0:0:0:
256,192,58746,1,0,0:0:0:0:
256,192,58971,1,8,0:0:0:0:
256,192,59046,1,0,0:0:0:0:
256,192,59196,1,8,0:0:0:0:
256,192,59271,1,8,0:0:0:0:
256,192,59346,1,0,0:0:0:0:
256,192,59496,1,8,0:0:0:0:
256,192,59571,1,0,0:0:0:0:
256,192,59646,1,0,0:0:0:0:
256,192,59721,1,0,0:0:0:0:
256,192,59796,1,8,0:0:0:0:
256,192,59871,1,8,0:0:0:0:
256,192,59946,1,0,0:0:0:0:
256,192,60171,1,8,0:0:0:0:
256,192,60246,1,0,0:0:0:0:
256,192,60396,1,0,0:0:0:0:
256,192,60546,1,8,0:0:0:0:
256,192,60621,1,8,0:0:0:0:
256,192,60696,1,0,0:0:0:0:
256,192,60846,1,0,0:0:0:0:
256,192,60921,1,0,0:0:0:0:
256,192,60996,1,0,0:0:0:0:
256,192,61071,1,8,0:0:0:0:
256,192,61146,1,8,0:0:0:0:
256,192,61296,1,8,0:0:0:0:
256,192,61446,1,8,0:0:0:0:
256,192,61596,1,0,0:0:0:0:
256,192,61671,1,0,0:0:0:0:
256,192,61746,1,8,0:0:0:0:
256,192,61896,1,0,0:0:0:0:
256,192,61946,1,0,0:0:0:0:
256,192,61996,1,0,0:0:0:0:
256,192,62046,1,8,0:0:0:0:
256,192,62196,1,8,0:0:0:0:
256,192,62496,1,0,0:0:0:0:
256,192,62646,1,0,0:0:0:0:
256,192,62796,1,0,0:0:0:0:
256,192,62871,1,8,0:0:0:0:
256,192,62946,1,8,0:0:0:0:
256,192,63021,1,8,0:0:0:0:
256,192,63096,1,0,0:0:0:0:
256,192,63171,1,0,0:0:0:0:
256,192,63246,1,8,0:0:0:0:
256,192,63321,1,8,0:0:0:0:
256,192,63396,1,0,0:0:0:0:
256,192,63471,1,0,0:0:0:0:
256,192,63546,1,8,0:0:0:0:
256,192,63696,1,8,0:0:0:0:
256,192,63771,1,8,0:0:0:0:
256,192,63846,1,0,0:0:0:0:
256,192,63996,1,0,0:0:0:0:
256,192,64146,1,8,0:0:0:0:
256,192,64296,1,0,0:0:0:0:
256,192,64446,1,8,0:0:0:0:
256,192,64521,1,8,0:0:0:0:
256,192,64596,1,0,0:0:0:0:
256,192,64896,1,0,0:0:0:0:
256,192,65046,1,8,0:0:0:0:
256,192,65121,1,0,0:0:0:0:
256,192,65196,1,0,0:0:0:0:
256,192,65271,1,0,0:0:0:0:
256,192,65346,1,8,0:0:0:0:
256,192,65496,1,8,0:0:0:0:
256,192,65546,1,8,0:0:0:0:
256,192,65596,1,8,0:0:0:0:
256,192,65646,1,0,0:0:0:0:
256,192,65796,1,0,0:0:0:0:
256,192,65946,1,0,0:0:0:0:
256,192,66096,1,8,0:0:0:0:
256,192,66171,1,8,0:0:0:0:
256,192,66246,1,0,0:0:0:0:
256,192,66321,1,0,0:0:0:0:
256,192,66396,1,0,0:0:0:0:
256,192,66546,1,8,0:0:0:0:
256,192,66696,1,0,0:0:0:0:
256,192,66846,1,0,0:0:0:0:
256,192,66921,1,0,0:0:0:0:
256,192,66996,1,8,0:0:0:0:
256,192,67221,1,0,0:0:0:0:
256,192,67296,1,8,0:0:0:0:
256,192,67346,1,0,0:0:0:0:
256,192,67396,1,0,0:0:0:0:
256,192,67446,1,8,0:0:0:0:
256,192,67746,1,12,0:0:0:0:
256,192,67896,1,4,0:0:0:0:
256,192,68196,1,12,0:0:0:0:
256,192,68346,1,0,0:0:0:0:
256,192,68421,1,8,0:0:0:0:
256,192,68496,1,0,0:0:0:0:
256,192,68571,1,0,0:0:0:0:
256,192,68646,1,0,0:0:0:0:
256,192,68796,1,8,0:0:0:0:
256,192,68946,1,0,0:0:0:0:
256,192,69096,1,8,0:0:0:0:
256,192,69171,1,8,0:0:0:0:
256,192,69246,1,0,0:0:0:0:
256,192,69321,1,0,0:0:0:0:
256,192,69396,1,0,0:0:0:0:
256,192,69471,1,8,0:0:0:0:
256,192,69546,1,0,0:0:0:0:
256,192,69696,1,8,0:0:0:0:
256,192,69746,1,8,0:0:0:0:
256,192,69796,1,8,0:0:0:0:
256,192,69846,1,0,0:0:0:0:
256,192,69996,1,0,0:0:0:0:
256,192,70296,1,4,0:0:0:0:
256,192,70596,1,0,0:0:0:0:
256,192,70746,1,0,0:0:0:0:
256,192,71196,1,0,0:0:0:0:
256,192,71246,1,0,0:0:0:0:
256,192,71296,1,0,0:0:0:0:
256,192,71346,1,8,0:0:0:0:
256,192,71796,1,0,0:0:0:0:
256,192,72096,1,12,0:0:0:0:
256,192,72246,1,12,0:0:0:0:
256,192,72396,1,12,0:0:0:0:
256,192,72546,1,4,0:0:0:0:
256,192,72771,1,8,0:0:0:0:
256,192,72996,1,8,0:0:0:0:
256,192,73146,1,4,0:0:0:0:
256,192,75846,1,8,0:0:0:0:
256,192,76146,1,0,0:0:0:0:
256,192,76446,1,8,0:0:0:0:
256,192,76746,1,8,0:0:0:0:
256,192,77046,1,0,0:0:0:0:
256,192,77346,1,8,0:0:0:0:
256,192,77646,1,8,0:0:0:0:
256,192,78246,1,8,0:0:0:0:
256,192,78546,1,0,0:0:0:0:
256,192,78846,1,8,0:0:0:0:
256,192,79146,1,8,0:0:0:0:
256,192,79446,1,0,0:0:0:0:
256,192,79746,1,0,0:0:0:0:
256,192,80046,1,0,0:0:0:0:
256,192,80646,1,0,0:0:0:0:
256,192,80796,1,0,0:0:0:0:
256,192,80946,1,8,0:0:0:0:
256,192,81246,1,0,0:0:0:0:
256,192,81396,1,0,0:0:0:0:
256,192,81546,1,8,0:0:0:0:
256,192,81621,1,8,0:0:0:0:
256,192,81696,1,0,0:0:0:0:
256,192,81846,1,0,0:0:0:0:
256,192,81996,1,8,0:0:0:0:
256,192,82071,1,8,0:0:0:0:
256,192,82146,1,0,0:0:0:0:
256,192,82221,1,0,0:0:0:0:
256,192,82296,1,8,0:0:0:0:
256,192,82371,1,8,0:0:0:0:
256,192,82446,1,0,0:0:0:0:
256,192,82521,1,0,0:0:0:0:
256,192,82596,1,8,0:0:0:0:
256,192,82646,1,8,0:0:0:0:
256,192,82696,1,8,0:0:0:0:
256,192,82746,5,0,0:0:0:0:
256,192,82896,1,8,0:0:0:0:
256,192,82946,1,0,0:0:0:0:
256,192,82996,1,0,0:0:0:0:
256,192,83046,1,8,0:0:0:0:
256,192,83196,1,0,0:0:0:0:
256,192,83271,1,8,0:0:0:0:
256,192,83346,1,0,0:0:0:0:
256,192,83421,1,0,0:0:0:0:
256,192,83496,1,8,0:0:0:0:
256,192,83646,1,0,0:0:0:0:
256,192,83721,1,8,0:0:0:0:
256,192,83796,1,8,0:0:0:0:
256,192,83871,1,8,0:0:0:0:
256,192,83946,1,0,0:0:0:0:
256,192,84096,1,0,0:0:0:0:
256,192,84171,1,8,0:0:0:0:
256,192,84246,1,8,0:0:0:0:
256,192,84321,1,8,0:0:0:0:
256,192,84396,1,0,0:0:0:0:
256,192,84471,1,8,0:0:0:0:
256,192,84546,1,0,0:0:0:0:
256,192,84696,1,8,0:0:0:0:
256,192,84771,1,8,0:0:0:0:
256,192,84921,1,8,0:0:0:0:
256,192,84996,1,0,0:0:0:0:
256,192,85146,1,8,0:0:0:0:
256,192,85296,1,0,0:0:0:0:
256,192,85346,1,0,0:0:0:0:
256,192,85396,1,8,0:0:0:0:
256,192,85446,1,0,0:0:0:0:
256,192,85596,1,0,0:0:0:0:
256,192,85671,1,8,0:0:0:0:
256,192,85746,1,8,0:0:0:0:
256,192,85821,1,0,0:0:0:0:
256,192,85896,1,0,0:0:0:0:
256,192,86046,1,0,0:0:0:0:
256,192,86096,1,0,0:0:0:0:
256,192,86146,1,0,0:0:0:0:
256,192,86196,1,8,0:0:0:0:
256,192,86271,1,8,0:0:0:0:
256,192,86346,1,0,0:0:0:0:
256,192,86421,1,8,0:0:0:0:
256,192,86571,1,8,0:0:0:0:
256,192,86646,1,0,0:0:0:0:
256,192,86721,1,0,0:0:0:0:
256,192,86871,1,8,0:0:0:0:
256,192,86946,1,8,0:0:0:0:
256,192,87021,1,0,0:0:0:0:
256,192,87096,1,8,0:0:0:0:
256,192,87171,1,8,0:0:0:0:
256,192,87321,1,8,0:0:0:0:
256,192,87396,1,0,0:0:0:0:
256,192,87471,1,8,0:0:0:0:
256,192,87546,1,0,0:0:0:0:
256,192,87696,1,0,0:0:0:0:
256,192,87771,1,8,0:0:0:0:
256,192,87846,1,0,0:0:0:0:
256,192,87921,1,0,0:0:0:0:
256,192,87996,1,8,0:0:0:0:
256,192,88146,1,0,0:0:0:0:
256,192,88371,1,8,0:0:0:0:
256,192,88446,1,0,0:0:0:0:
256,192,88596,1,8,0:0:0:0:
256,192,88746,1,0,0:0:0:0:
256,192,88896,1,8,0:0:0:0:
256,192,88971,1,8,0:0:0:0:
256,192,89046,1,0,0:0:0:0:
256,192,89121,1,8,0:0:0:0:
256,192,89196,1,8,0:0:0:0:
256,192,89346,1,0,0:0:0:0:
256,192,89496,1,8,0:0:0:0:
256,192,89546,1,8,0:0:0:0:
256,192,89596,1,8,0:0:0:0:
256,192,89646,1,0,0:0:0:0:
256,192,89796,1,8,0:0:0:0:
256,192,89946,1,8,0:0:0:0:
256,192,90096,1,0,0:0:0:0:
256,192,90171,1,8,0:0:0:0:
256,192,90246,1,0,0:0:0:0:
256,192,90396,1,8,0:0:0:0:
256,192,90471,1,0,0:0:0:0:
256,192,90546,1,0,0:0:0:0:
256,192,90621,1,8,0:0:0:0:
256,192,90696,1,0,0:0:0:0:
256,192,90771,1,0,0:0:0:0:
256,192,90846,1,8,0:0:0:0:
256,192,90921,1,8,0:0:0:0:
256,192,90996,1,8,0:0:0:0:
256,192,91071,1,8,0:0:0:0:
256,192,91296,1,12,0:0:0:0:
256,192,91446,1,12,0:0:0:0:
256,192,91596,1,12,0:0:0:0:
256,192,91746,1,4,0:0:0:0:
256,192,91896,1,0,0:0:0:0:
256,192,91971,1,0,0:0:0:0:
256,192,92046,1,8,0:0:0:0:
256,192,92196,1,0,0:0:0:0:
256,192,92346,1,8,0:0:0:0:
256,192,92496,1,8,0:0:0:0:
256,192,92646,1,0,0:0:0:0:
256,192,92796,1,0,0:0:0:0:
256,192,93096,1,0,0:0:0:0:
256,192,93346,1,0,0:0:0:0:
256,192,93396,1,0,0:0:0:0:
256,192,93446,1,8,0:0:0:0:
256,192,93696,1,0,0:0:0:0:
256,192,93846,1,8,0:0:0:0:
256,192,94146,1,8,0:0:0:0:
256,192,94446,1,0,0:0:0:0:
256,192,94746,1,8,0:0:0:0:
256,192,95046,1,0,0:0:0:0:
256,192,95196,1,0,0:0:0:0:
256,192,95496,1,0,0:0:0:0:
256,192,95646,1,0,0:0:0:0:
256,192,95696,1,0,0:0:0:0:
256,192,95746,1,0,0:0:0:0:
256,192,95796,1,8,0:0:0:0:
256,192,96096,1,0,0:0:0:0:
256,192,96171,1,0,0:0:0:0:
256,192,96246,1,8,0:0:0:0:
256,192,96546,1,12,0:0:0:0:
256,192,96696,1,12,0:0:0:0:
256,192,97146,1,4,0:0:0:0:
256,192,97446,1,8,0:0:0:0:
256,192,97596,1,0,0:0:0:0:
256,192,97746,1,0,0:0:0:0:
256,192,98046,1,0,0:0:0:0:
256,192,98121,1,0,0:0:0:0:
256,192,98196,1,8,0:0:0:0:
256,192,98271,1,0,0:0:0:0:
256,192,98346,1,0,0:0:0:0:
256,192,98646,1,8,0:0:0:0:
256,192,98796,1,0,0:0:0:0:
256,192,98946,1,8,0:0:0:0:
256,192,99021,1,8,0:0:0:0:
256,192,99096,1,0,0:0:0:0:
256,192,99396,1,0,0:0:0:0:
256,192,99471,1,0,0:0:0:0:
256,192,99546,1,8,0:0:0:0:
256,192,99696,1,8,0:0:0:0:
256,192,99771,1,0,0:0:0:0:
256,192,99846,1,8,0:0:0:0:
256,192,99996,1,0,0:0:0:0:
256,192,100071,1,8,0:0:0:0:
256,192,100146,1,8,0:0:0:0:
256,192,100296,1,8,0:0:0:0:
256,192,100346,1,8,0:0:0:0:
256,192,100396,1,8,0:0:0:0:
256,192,100446,1,0,0:0:0:0:
256,192,100596,1,8,0:0:0:0:
256,192,100896,1,0,0:0:0:0:
256,192,101046,1,0,0:0:0:0:
256,192,101196,1,0,0:0:0:0:
256,192,101271,1,8,0:0:0:0:
256,192,101346,1,8,0:0:0:0:
256,192,101421,1,8,0:0:0:0:
256,192,101496,1,0,0:0:0:0:
256,192,101571,1,0,0:0:0:0:
256,192,101646,1,8,0:0:0:0:
256,192,101721,1,0,0:0:0:0:
256,192,101796,1,0,0:0:0:0:
256,192,101946,1,4,0:0:0:0:
256,192,102096,1,8,0:0:0:0:
256,192,102171,1,8,0:0:0:0:
256,192,102246,1,0,0:0:0:0:
256,192,102396,1,0,0:0:0:0:
256,192,102546,1,8,0:0:0:0:
256,192,102696,1,0,0:0:0:0:
256,192,102846,1,0,0:0:0:0:
256,192,102921,1,0,0:0:0:0:
256,192,102996,1,8,0:0:0:0:
256,192,103296,1,0,0:0:0:0:
256,192,103446,1,8,0:0:0:0:
256,192,103521,1,0,0:0:0:0:
256,192,103596,1,0,0:0:0:0:
256,192,103671,1,0,0:0:0:0:
256,192,103746,1,8,0:0:0:0:
256,192,103821,1,0,0:0:0:0:
256,192,103896,1,8,0:0:0:0:
256,192,103946,1,8,0:0:0:0:
256,192,103996,1,8,0:0:0:0:
256,192,104046,1,0,0:0:0:0:
256,192,104196,1,0,0:0:0:0:
256,192,104346,1,4,0:0:0:0:
256,192,104496,1,8,0:0:0:0:
256,192,104571,1,8,0:0:0:0:
256,192,104646,1,0,0:0:0:0:
256,192,104796,1,4,0:0:0:0:
256,192,104946,1,8,0:0:0:0:
256,192,105096,1,0,0:0:0:0:
256,192,105246,1,0,0:0:0:0:
256,192,105321,1,0,0:0:0:0:
256,192,105396,1,8,0:0:0:0:
256,192,105621,1,0,0:0:0:0:
256,192,105696,1,8,0:0:0:0:
256,192,105746,1,0,0:0:0:0:
256,192,105796,1,0,0:0:0:0:
256,192,105846,1,8,0:0:0:0:
256,192,106146,1,12,0:0:0:0:
256,192,106296,1,4,0:0:0:0:
256,192,106596,1,12,0:0:0:0:
256,192,106746,1,0,0:0:0:0:
256,192,106821,1,8,0:0:0:0:
256,192,106896,1,8,0:0:0:0:
256,192,106971,1,0,0:0:0:0:
256,192,107046,1,0,0:0:0:0:
256,192,107196,1,8,0:0:0:0:
256,192,107346,1,0,0:0:0:0:
256,192,107496,1,8,0:0:0:0:
256,192,107571,1,8,0:0:0:0:
256,192,107646,1,0,0:0:0:0:
256,192,107721,1,8,0:0:0:0:
256,192,107796,1,8,0:0:0:0:
256,192,107871,1,8,0:0:0:0:
256,192,107946,1,0,0:0:0:0:
256,192,108096,1,0,0:0:0:0:
256,192,108146,1,8,0:0:0:0:
256,192,108196,1,8,0:0:0:0:
256,192,108246,1,0,0:0:0:0:
256,192,108396,1,12,0:0:0:0:
256,192,108696,1,4,0:0:0:0:
256,192,109146,1,4,0:0:0:0:
256,192,109746,1,8,0:0:0:0:
256,192,110196,1,0,0:0:0:0:
256,192,110496,1,12,0:0:0:0:
256,192,110646,1,12,0:0:0:0:
256,192,110796,1,12,0:0:0:0:
256,192,110946,1,4,0:0:0:0:
256,192,111171,1,8,0:0:0:0:
256,192,111396,1,8,0:0:0:0:
256,192,111546,1,4,0:0:0:0:
256,192,111696,12,0,113646,0:0:0:0:
256,192,113946,5,12,0:0:0:0:
256,192,114096,1,0,0:0:0:0:
256,192,114171,1,8,0:0:0:0:
256,192,114246,1,0,0:0:0:0:
256,192,114321,1,0,0:0:0:0:
256,192,114396,1,0,0:0:0:0:
256,192,114471,1,8,0:0:0:0:
256,192,114546,1,0,0:0:0:0:
256,192,114621,1,8,0:0:0:0:
256,192,114696,1,0,0:0:0:0:
256,192,114771,1,8,0:0:0:0:
256,192,114846,1,0,0:0:0:0:
256,192,114896,1,0,0:0:0:0:
256,192,114946,1,0,0:0:0:0:
256,192,114996,1,8,0:0:0:0:
256,192,115071,1,8,0:0:0:0:
256,192,115146,1,0,0:0:0:0:
256,192,115221,1,8,0:0:0:0:
256,192,115296,1,0,0:0:0:0:
256,192,115371,1,8,0:0:0:0:
256,192,115446,1,0,0:0:0:0:
256,192,115521,1,8,0:0:0:0:
256,192,115596,1,0,0:0:0:0:
256,192,115671,1,8,0:0:0:0:
256,192,115746,1,0,0:0:0:0:
256,192,115796,1,8,0:0:0:0:
256,192,115846,1,8,0:0:0:0:
256,192,115896,1,0,0:0:0:0:
256,192,115971,1,0,0:0:0:0:
256,192,116046,1,0,0:0:0:0:
256,192,116196,1,0,0:0:0:0:
256,192,116346,1,4,0:0:0:0:
256,192,116496,1,4,0:0:0:0:
