osu file format v14

[General]
AudioFilename: Wish upon Twin Stars.mp3
AudioLeadIn: 0
PreviewTime: 53277
Countdown: 0
SampleSet: Normal
StackLeniency: 0.7
Mode: 1
LetterboxInBreaks: 0
WidescreenStoryboard: 1

[Editor]
DistanceSpacing: 1.5
BeatDivisor: 4
GridSize: 32
TimelineZoom: 1.699999

[Metadata]
Title:Wish upon Twin Stars
TitleUnicode:Wish upon Twin Stars
Artist:xi
ArtistUnicode:xi
Creator:Ascendance
Version:Futsuu
Source:SOUND VOLTEX II -infinite infection-
Tags:sdvx character theme JUDYDANNY Nardoxyribonucleic Labyr -Anhedonia- kazukisinx
BeatmapID:805886
BeatmapSetID:353259

[Difficulty]
HPDrainRate:7
CircleSize:2
OverallDifficulty:4
ApproachRate:6
SliderMultiplier:1.19999997138977
SliderTickRate:1

[Events]
//Background and Video events
0,0,"LNIDCmg.jpg",0,-60
//Break Periods
//Storyboard Layer 0 (Background)
//Storyboard Layer 1 (Fail)
//Storyboard Layer 2 (Pass)
//Storyboard Layer 3 (Foreground)
//Storyboard Sound Samples

[TimingPoints]
-123,300,4,1,0,50,1,0
4827,-100,4,1,0,100,0,0
5877,-100,4,1,0,100,0,1
13077,-100,4,1,0,70,0,0
53877,-100,4,1,0,100,0,1
73077,-100,4,1,0,80,0,0
73377,-133.333333333333,4,1,0,70,0,0
75177,-133.333333333333,4,1,0,40,0,0
81477,-111.111111111111,4,1,0,80,0,0
82677,-100,4,1,0,90,0,1
92277,-100,4,1,0,50,0,0
94677,-100,4,1,0,50,0,0
101877,-100,4,1,0,100,0,1
116877,-100,4,1,0,100,0,0

[Colours]
Combo1 : 255,0,0
Combo2 : 0,0,255
Combo3 : 255,255,0

[HitObjects]
320,128,1077,5,8,0:0:0:0:
192,192,1527,1,8,0:0:0:0:
320,192,2127,1,0,0:0:0:0:
224,128,2877,1,8,0:0:0:0:
96,192,3177,1,0,0:0:0:0:
288,160,3477,1,8,0:0:0:0:
128,96,3927,1,8,0:0:0:0:
224,128,4377,1,0,0:0:0:0:
288,160,4977,1,0,0:0:0:0:
288,160,5277,1,8,0:0:0:0:
192,96,5877,1,0,0:0:0:0:
288,96,6477,1,0,0:0:0:0:
224,192,6777,1,8,0:0:0:0:
224,160,7077,1,0,0:0:0:0:
224,160,7677,1,0,0:0:0:0:
288,32,7977,1,0,0:0:0:0:
320,128,8277,1,12,0:0:0:0:
224,160,8727,1,12,0:0:0:0:
128,128,9177,1,4,0:0:0:0:
256,192,9627,1,8,0:0:0:0:
256,192,9777,1,8,0:0:0:0:
256,160,10077,1,0,0:0:0:0:
256,192,10677,12,0,12777,0:0:0:0:
256,192,13377,5,0,0:0:0:0:
256,192,13677,5,8,0:0:0:0:
256,192,14127,1,0,0:0:0:0:
256,192,14577,1,0,0:0:0:0:
256,192,14877,1,8,0:0:0:0:
256,192,15477,1,0,0:0:0:0:
224,192,15777,1,0,0:0:0:0:
256,192,16077,1,8,0:0:0:0:
256,192,16527,1,0,0:0:0:0:
256,192,16977,1,0,0:0:0:0:
256,192,17277,1,0,0:0:0:0:
256,192,17877,1,8,0:0:0:0:
256,192,18327,1,8,0:0:0:0:
256,192,19077,1,0,0:0:0:0:
256,192,19377,1,0,0:0:0:0:
256,192,19677,1,8,0:0:0:0:
256,192,20277,1,4,0:0:0:0:
256,192,20727,1,4,0:0:0:0:
160,192,21177,1,0,0:0:0:0:
256,192,21477,1,8,0:0:0:0:
384,192,22077,1,8,0:0:0:0:
320,192,22302,1,8,0:0:0:0:
320,192,22527,1,8,0:0:0:0:
448,256,22677,1,4,0:0:0:0:
256,256,23277,1,0,0:0:0:0:
192,256,23727,1,0,0:0:0:0:
256,192,24477,1,0,0:0:0:0:
256,192,24777,1,0,0:0:0:0:
320,192,25077,1,8,0:0:0:0:
384,192,25527,1,8,0:0:0:0:
448,192,25977,1,0,0:0:0:0:
320,288,26577,2,0,L|64:288,1,239.999994277954
160,192,27477,1,0,0:0:0:0:
352,192,27777,1,8,0:0:0:0:
256,192,27927,1,0,0:0:0:0:
256,192,28377,1,8,0:0:0:0:
256,192,28677,1,0,0:0:0:0:
256,192,28977,1,8,0:0:0:0:
416,192,29127,1,8,0:0:0:0:
480,192,29577,1,8,0:0:0:0:
320,160,29877,1,4,0:0:0:0:
256,160,30177,1,4,0:0:0:0:
320,160,30477,1,4,0:0:0:0:
384,160,30927,1,4,0:0:0:0:
256,192,31677,1,0,0:0:0:0:
256,192,31977,1,8,0:0:0:0:
256,192,32277,1,4,0:0:0:0:
352,192,32727,1,12,0:0:0:0:
448,192,33177,1,12,0:0:0:0:
256,128,34077,1,0,0:0:0:0:
192,192,34377,1,8,0:0:0:0:
96,192,34677,1,4,0:0:0:0:
192,192,35127,1,12,0:0:0:0:
288,192,35577,1,4,0:0:0:0:
448,192,36477,1,8,0:0:0:0:
320,128,36702,1,8,0:0:0:0:
320,128,36927,1,8,0:0:0:0:
192,128,37077,1,4,0:0:0:0:
320,128,37527,1,12,0:0:0:0:
448,128,37977,1,12,0:0:0:0:
256,192,38877,1,0,0:0:0:0:
320,192,39177,1,8,0:0:0:0:
128,96,39477,1,4,0:0:0:0:
256,96,39927,1,4,0:0:0:0:
384,96,40377,1,12,0:0:0:0:
256,192,41277,1,8,0:0:0:0:
256,192,41427,1,8,0:0:0:0:
256,192,41727,1,4,0:0:0:0:
352,192,42477,1,0,0:0:0:0:
448,192,43077,1,0,0:0:0:0:
160,128,43677,1,8,0:0:0:0:
224,128,43827,1,8,0:0:0:0:
320,128,44127,1,4,0:0:0:0:
256,192,44877,1,0,0:0:0:0:
320,320,45477,1,0,0:0:0:0:
384,320,45777,1,0,0:0:0:0:
256,320,46077,1,8,0:0:0:0:
192,320,46227,1,8,0:0:0:0:
128,320,46527,1,4,0:0:0:0:
64,256,47277,1,0,0:0:0:0:
128,192,47877,1,12,0:0:0:0:
192,256,48477,1,0,0:0:0:0:
256,128,49077,1,4,0:0:0:0:
320,128,49527,1,4,0:0:0:0:
384,128,49977,1,12,0:0:0:0:
288,192,50427,1,8,0:0:0:0:
288,192,50577,1,8,0:0:0:0:
352,192,50877,1,0,0:0:0:0:
256,192,51477,12,0,53277,0:0:0:0:
224,128,53877,5,12,0:0:0:0:
320,128,54327,1,0,0:0:0:0:
224,128,54627,1,0,0:0:0:0:
224,128,54927,1,8,0:0:0:0:
224,128,55377,1,8,0:0:0:0:
224,128,55677,1,0,0:0:0:0:
224,128,55977,1,8,0:0:0:0:
224,128,56277,1,12,0:0:0:0:
224,128,56727,1,0,0:0:0:0:
224,128,57027,1,0,0:0:0:0:
224,128,57327,1,12,0:0:0:0:
224,128,57777,1,8,0:0:0:0:
224,128,58077,1,0,0:0:0:0:
224,128,58227,1,0,0:0:0:0:
224,128,58677,1,12,0:0:0:0:
224,128,59127,1,0,0:0:0:0:
224,128,59427,1,0,0:0:0:0:
256,128,59877,1,12,0:0:0:0:
224,128,60327,1,0,0:0:0:0:
224,224,60627,1,0,0:0:0:0:
224,224,61077,1,0,0:0:0:0:
320,224,61227,1,0,0:0:0:0:
320,224,61377,1,0,0:0:0:0:
320,128,61677,1,8,0:0:0:0:
224,64,61977,1,8,0:0:0:0:
320,64,62127,1,8,0:0:0:0:
224,64,62877,2,0,L|224:192,1,119.999997138977
224,256,63477,1,12,0:0:0:0:
384,160,63927,1,0,0:0:0:0:
256,160,64227,1,0,0:0:0:0:
256,160,64527,1,8,0:0:0:0:
256,160,64977,1,8,0:0:0:0:
128,160,65277,1,0,0:0:0:0:
256,160,65427,1,0,0:0:0:0:
256,160,65577,1,8,0:0:0:0:
352,128,65877,1,12,0:0:0:0:
224,128,66327,1,0,0:0:0:0:
224,128,66627,1,0,0:0:0:0:
352,128,66927,1,12,0:0:0:0:
128,192,67377,1,0,0:0:0:0:
256,192,67677,1,8,0:0:0:0:
256,192,67827,1,8,0:0:0:0:
384,192,68127,1,12,0:0:0:0:
256,192,68727,1,0,0:0:0:0:
256,96,69027,1,0,0:0:0:0:
256,96,69477,1,4,0:0:0:0:
384,96,69927,1,8,0:0:0:0:
224,192,70227,1,8,0:0:0:0:
224,192,70677,1,4,0:0:0:0:
320,192,71277,1,12,0:0:0:0:
416,192,71727,1,4,0:0:0:0:
256,96,72027,1,0,0:0:0:0:
256,96,72177,1,0,0:0:0:0:
256,96,72477,1,8,0:0:0:0:
448,96,72777,1,0,0:0:0:0:
256,192,73077,12,0,74877,0:0:0:0:
128,192,75477,5,0,0:0:0:0:
256,192,76077,1,8,0:0:0:0:
256,192,76677,1,0,0:0:0:0:
384,192,76977,1,0,0:0:0:0:
480,192,77277,1,8,0:0:0:0:
96,192,77877,1,0,0:0:0:0:
192,192,78477,1,8,0:0:0:0:
288,192,79077,1,0,0:0:0:0:
288,192,79377,1,0,0:0:0:0:
384,192,79677,1,8,0:0:0:0:
192,192,80277,1,4,0:0:0:0:
256,128,80877,1,8,0:0:0:0:
256,192,81477,12,8,82377,0:0:0:0:
256,192,82677,5,0,0:0:0:0:
448,160,82977,1,8,0:0:0:0:
352,192,83127,1,0,0:0:0:0:
256,96,83727,1,0,0:0:0:0:
256,96,83877,1,8,0:0:0:0:
160,96,84177,1,0,0:0:0:0:
256,192,84477,1,8,0:0:0:0:
256,192,84927,1,8,0:0:0:0:
160,192,85077,1,0,0:0:0:0:
256,192,85377,1,0,0:0:0:0:
352,192,85677,1,8,0:0:0:0:
352,96,86127,1,0,0:0:0:0:
448,192,86277,1,8,0:0:0:0:
352,96,86577,1,8,0:0:0:0:
256,96,86877,1,0,0:0:0:0:
160,96,87477,1,12,0:0:0:0:
128,224,88077,1,0,0:0:0:0:
224,224,88527,1,0,0:0:0:0:
224,224,88677,1,8,0:0:0:0:
320,224,89277,1,0,0:0:0:0:
320,224,89727,1,0,0:0:0:0:
96,96,89877,1,12,0:0:0:0:
192,96,90327,1,12,0:0:0:0:
288,96,90777,1,12,0:0:0:0:
320,192,91227,1,8,0:0:0:0:
320,192,91377,1,8,0:0:0:0:
416,192,91677,1,8,0:0:0:0:
96,160,92277,1,0,0:0:0:0:
352,160,92727,1,0,0:0:0:0:
352,160,93327,1,8,0:0:0:0:
224,160,94077,1,8,0:0:0:0:
352,64,94377,1,0,0:0:0:0:
352,64,94677,1,8,0:0:0:0:
256,64,95127,1,0,0:0:0:0:
448,64,95727,1,12,0:0:0:0:
352,160,96177,1,12,0:0:0:0:
256,160,96477,1,4,0:0:0:0:
64,288,97077,1,12,0:0:0:0:
192,320,97527,1,0,0:0:0:0:
256,224,97827,1,0,0:0:0:0:
352,320,98277,1,12,0:0:0:0:
256,224,98727,1,0,0:0:0:0:
256,128,99027,1,0,0:0:0:0:
96,192,99477,1,0,0:0:0:0:
224,192,99777,1,0,0:0:0:0:
224,192,100077,1,8,0:0:0:0:
352,192,100527,1,12,0:0:0:0:
192,96,100977,1,0,0:0:0:0:
288,96,101277,2,0,B|384:64|384:64|416:32,1,119.999997138977
160,256,101877,1,12,0:0:0:0:
256,256,102327,1,0,0:0:0:0:
352,256,102627,1,0,0:0:0:0:
352,256,102927,1,8,0:0:0:0:
416,160,103377,1,8,0:0:0:0:
288,96,103677,1,0,0:0:0:0:
288,96,103977,1,8,0:0:0:0:
288,96,104277,1,12,0:0:0:0:
160,160,104727,1,0,0:0:0:0:
288,224,105027,1,0,0:0:0:0:
288,224,105327,1,12,0:0:0:0:
384,160,106077,1,8,0:0:0:0:
384,160,106227,1,8,0:0:0:0:
256,64,106527,1,12,0:0:0:0:
160,64,107127,1,0,0:0:0:0:
288,128,107427,1,0,0:0:0:0:
288,128,107877,1,12,0:0:0:0:
384,128,108327,1,8,0:0:0:0:
384,128,108627,1,0,0:0:0:0:
128,224,109077,1,4,0:0:0:0:
224,224,109677,1,12,0:0:0:0:
320,224,110127,1,4,0:0:0:0:
160,128,110427,1,0,0:0:0:0:
160,128,110577,1,0,0:0:0:0:
160,128,110877,1,8,0:0:0:0:
256,128,111102,1,0,0:0:0:0:
352,128,111327,1,8,0:0:0:0:
256,192,111477,12,0,113277,0:0:0:0:
96,160,113877,5,0,0:0:0:0:
288,160,114177,1,8,0:0:0:0:
192,160,114477,1,0,0:0:0:0:
288,160,114777,1,8,0:0:0:0:
288,160,115077,1,8,0:0:0:0:
288,160,115227,1,8,0:0:0:0:
288,160,115377,1,8,0:0:0:0:
384,160,115677,1,8,0:0:0:0:
256,192,115977,1,0,0:0:0:0:
160,64,116277,1,4,0:0:0:0:
256,64,116427,1,4,0:0:0:0:
