osu file format v14

[General]
AudioFilename: audio.mp3
AudioLeadIn: 0
PreviewTime: -1
Countdown: 0
SampleSet: None
StackLeniency: 0.7
Mode: 0
LetterboxInBreaks: 0
WidescreenStoryboard: 0

[Editor]
DistanceSpacing: 1.5
BeatDivisor: 4
GridSize: 4
TimelineZoom: 2.899999

[Metadata]
Title:White Peak
TitleUnicode:White Peak
Artist:xi
ArtistUnicode:xi
Creator:Constelletion
Version:Ice QueeN
Source:
Tags:xi
BeatmapID:1574986
BeatmapSetID:747437

[Difficulty]
HPDrainRate:5
CircleSize:4
OverallDifficulty:6
ApproachRate:10
SliderMultiplier:1.9
SliderTickRate:1

[Events]
//Background and Video events
0,0,"oopgg.jpg",0,0
//Break Periods
2,27313,31689
//Storyboard Layer 0 (Background)
//Storyboard Layer 1 (Fail)
//Storyboard Layer 2 (Pass)
//Storyboard Layer 3 (Foreground)
//Storyboard Sound Samples

[TimingPoints]
1354,314.13612565445,4,1,0,40,1,0
1982,-100,4,1,0,70,0,0
35908,-76.9230769230769,4,1,0,70,0,0
47217,-133.333333333333,4,1,0,65,0,0
47532,-153.846153846153,4,1,0,60,0,0
47846,-181.818181818181,4,1,0,55,0,0
48160,-200,4,1,0,50,0,0
48474,-200,4,1,0,45,0,0

[Colours]
Combo1 : 255,0,255
Combo2 : 0,255,255
Combo3 : 253,255,255
Combo4 : 0,128,255

[HitObjects]
68,92,1982,5,0,0:0:0:0:
164,264,2217,1,0,0:0:0:0:
68,92,2453,2,0,P|112:64|160:64,1,95
280,128,2767,5,0,0:0:0:0:
424,128,2924,1,0,0:0:0:0:
352,4,3081,1,0,0:0:0:0:
356,212,3238,5,0,0:0:0:0:
228,72,3395,1,0,0:0:0:0:
172,72,3474,1,0,0:0:0:0:
116,72,3552,2,0,L|20:72,1,95
148,212,3867,5,0,0:0:0:0:
276,72,4024,1,0,0:0:0:0:
332,72,4102,1,0,0:0:0:0:
388,72,4181,2,0,L|484:72,1,95
440,208,4495,5,0,0:0:0:0:
232,256,4730,1,0,0:0:0:0:
332,72,4966,1,0,0:0:0:0:
332,296,5123,5,0,0:0:0:0:
292,340,5202,1,0,0:0:0:0:
236,356,5280,1,0,0:0:0:0:
180,344,5359,1,0,0:0:0:0:
136,308,5437,1,0,0:0:0:0:
120,252,5516,1,0,0:0:0:0:
124,196,5594,2,0,P|124:96|48:68,1,190
0,120,5987,1,0,0:0:0:0:
51,67,6066,2,0,P|96:48|156:44,1,95
448,184,6380,5,0,0:0:0:0:
320,224,6537,1,0,0:0:0:0:
480,284,6694,1,0,0:0:0:0:
284,352,6851,1,0,0:0:0:0:
356,104,7008,5,0,0:0:0:0:
416,384,7244,1,0,0:0:0:0:
140,312,7479,1,0,0:0:0:0:
116,288,7558,1,0,0:0:0:0:
104,256,7636,1,0,0:0:0:0:
100,224,7715,1,0,0:0:0:0:
104,192,7793,1,0,0:0:0:0:
204,32,7950,5,0,0:0:0:0:
140,312,8186,1,0,0:0:0:0:
412,228,8422,1,0,0:0:0:0:
428,200,8500,1,0,0:0:0:0:
436,168,8579,1,0,0:0:0:0:
436,136,8657,1,0,0:0:0:0:
424,104,8736,1,0,0:0:0:0:
236,216,8893,6,0,P|224:276|260:348,1,142.5
368,364,9207,2,0,L|268:352,1,95
56,324,9521,1,0,0:0:0:0:
256,64,9757,1,0,0:0:0:0:
380,368,9992,1,0,0:0:0:0:
332,336,10071,1,0,0:0:0:0:
284,304,10149,1,0,0:0:0:0:
240,268,10228,1,0,0:0:0:0:
192,236,10306,1,0,0:0:0:0:
16,104,10463,5,0,0:0:0:0:
340,44,10699,1,0,0:0:0:0:
232,348,10935,1,0,0:0:0:0:
212,292,11013,1,0,0:0:0:0:
192,236,11092,1,0,0:0:0:0:
172,180,11170,1,0,0:0:0:0:
156,128,11249,1,0,0:0:0:0:
312,240,11406,5,0,0:0:0:0:
448,108,11563,1,0,0:0:0:0:
380,324,11720,1,0,0:0:0:0:
364,68,11877,1,0,0:0:0:0:
212,292,12034,6,0,P|160:280|120:240,1,95
20,64,12348,1,0,0:0:0:0:
20,64,12427,1,0,0:0:0:0:
20,64,12505,2,0,L|72:80,1,47.5
200,108,12662,1,0,0:0:0:0:
200,108,12741,1,0,0:0:0:0:
200,108,12819,2,0,L|140:92,1,47.5
288,48,12977,1,0,0:0:0:0:
288,48,13055,1,0,0:0:0:0:
288,48,13134,2,0,L|344:68,1,47.5
404,184,13291,5,0,0:0:0:0:
376,220,13369,1,0,0:0:0:0:
364,264,13448,1,0,0:0:0:0:
368,312,13526,1,0,0:0:0:0:
396,352,13605,1,0,0:0:0:0:
352,340,13683,1,0,0:0:0:0:
304,332,13762,1,0,0:0:0:0:
256,340,13840,1,0,0:0:0:0:
212,352,13919,6,0,P|164:340|116:344,1,95
56,132,14233,2,0,P|40:184|52:228,1,95
208,72,14547,5,0,0:0:0:0:
208,72,14626,1,0,0:0:0:0:
208,72,14704,2,0,L|208:16,1,47.5
288,152,14861,1,0,0:0:0:0:
288,152,14940,1,0,0:0:0:0:
288,152,15018,2,0,L|288:200,1,47.5
364,72,15175,1,0,0:0:0:0:
364,72,15254,1,0,0:0:0:0:
364,72,15333,2,0,L|364:20,1,47.5
440,152,15490,1,0,0:0:0:0:
440,152,15568,1,0,0:0:0:0:
440,152,15647,2,0,L|440:208,1,47.5
360,316,15804,5,0,0:0:0:0:
320,292,15882,1,0,0:0:0:0:
272,280,15961,1,0,0:0:0:0:
224,280,16039,1,0,0:0:0:0:
176,292,16118,1,0,0:0:0:0:
188,248,16196,1,0,0:0:0:0:
184,200,16275,1,0,0:0:0:0:
168,156,16353,1,0,0:0:0:0:
140,116,16432,6,0,P|100:80|44:60,1,95
62,320,16746,2,0,P|105:300|140:268,1,95
252,80,17060,1,0,0:0:0:0:
356,272,17217,1,0,0:0:0:0:
448,68,17374,1,0,0:0:0:0:
356,272,17532,1,0,0:0:0:0:
140,228,17689,6,0,P|124:284|140:328,1,95
356,272,18003,1,0,0:0:0:0:
356,272,18081,1,0,0:0:0:0:
356,272,18160,1,0,0:0:0:0:
140,228,18317,5,0,0:0:0:0:
276,56,18474,1,0,0:0:0:0:
140,228,18631,1,0,0:0:0:0:
88,16,18788,1,0,0:0:0:0:
140,228,18945,6,0,P|144:288|124:332,1,95
32,124,19259,1,0,0:0:0:0:
32,124,19338,1,0,0:0:0:0:
32,124,19416,1,0,0:0:0:0:
248,140,19573,5,0,0:0:0:0:
131,319,19730,1,0,0:0:0:0:
140,100,19888,1,0,0:0:0:0:
320,220,20045,1,0,0:0:0:0:
100,212,20202,1,0,0:0:0:0:
360,220,20359,1,0,0:0:0:0:
56,212,20516,1,0,0:0:0:0:
56,212,20594,1,0,0:0:0:0:
56,212,20673,1,0,0:0:0:0:
240,64,20830,5,0,0:0:0:0:
236,300,20987,1,0,0:0:0:0:
448,192,21144,1,0,0:0:0:0:
212,192,21301,1,0,0:0:0:0:
408,60,21458,1,0,0:0:0:0:
376,296,21615,1,0,0:0:0:0:
412,16,21772,1,0,0:0:0:0:
412,16,21851,1,0,0:0:0:0:
412,16,21929,1,0,0:0:0:0:
252,320,22086,5,0,0:0:0:0:
252,320,22165,1,0,0:0:0:0:
252,320,22244,1,0,0:0:0:0:
252,320,22322,1,0,0:0:0:0:
252,320,22401,2,0,L|228:328,7,23.75
192,256,22715,6,0,L|160:268,14,23.75
136,192,23343,1,0,0:0:0:0:
136,192,23657,5,0,0:0:0:0:
232,88,23814,1,0,0:0:0:0:
68,260,24128,1,0,0:0:0:0:
288,20,24443,2,0,B|332:128|256:204|256:204|336:288|336:288|424:268|396:184|320:204|212:368,1,617.5
80,288,25699,5,0,0:0:0:0:
80,288,25778,1,0,0:0:0:0:
80,288,25856,2,0,L|80:92,1,190
432,96,26484,2,0,L|432:292,1,190
256,192,27113,1,0,0:0:0:0:
92,116,32139,6,0,L|92:64,15,47.5
256,196,33395,2,0,L|256:260,15,47.5
420,116,34652,1,0,0:0:0:0:
420,148,34730,1,0,0:0:0:0:
420,180,34809,1,0,0:0:0:0:
416,212,34888,1,0,0:0:0:0:
404,244,34966,1,0,0:0:0:0:
388,272,35045,1,0,0:0:0:0:
360,292,35123,1,0,0:0:0:0:
328,304,35202,1,0,0:0:0:0:
280,308,35280,5,0,0:0:0:0:
236,288,35359,1,0,0:0:0:0:
212,248,35437,1,0,0:0:0:0:
212,200,35516,1,0,0:0:0:0:
232,156,35594,1,0,0:0:0:0:
240,108,35673,1,0,0:0:0:0:
232,60,35751,1,0,0:0:0:0:
208,20,35830,1,0,0:0:0:0:
164,0,35908,6,0,P|116:48|116:104,1,123.499994346619
212,200,36144,2,0,P|194:134|145:106,1,123.499994346619
24,180,36458,2,0,L|28:248,1,61.7499971733095
128,340,36615,1,0,0:0:0:0:
124,296,36694,1,0,0:0:0:0:
120,252,36772,2,0,L|120:224,8,20.5833323911032
268,92,37165,5,0,0:0:0:0:
272,112,37244,1,0,0:0:0:0:
276,132,37322,1,0,0:0:0:0:
280,152,37401,1,0,0:0:0:0:
284,172,37479,1,0,0:0:0:0:
288,192,37558,1,0,0:0:0:0:
292,212,37636,1,0,0:0:0:0:
296,232,37715,1,0,0:0:0:0:
300,248,37793,2,0,L|312:312,1,61.7499971733095
392,320,37950,2,0,L|380:260,1,61.7499971733095
224,280,38107,2,0,L|237:345,1,61.7499971733095
196,56,38422,5,0,0:0:0:0:
200,88,38500,1,0,0:0:0:0:
204,120,38579,1,0,0:0:0:0:
208,152,38657,1,0,0:0:0:0:
212,184,38736,1,0,0:0:0:0:
216,216,38814,1,0,0:0:0:0:
220,248,38893,1,0,0:0:0:0:
224,280,38971,1,0,0:0:0:0:
228,312,39050,2,0,P|236:352|252:376,1,61.7499971733095
324,252,39207,2,0,P|316:212|300:188,1,61.7499971733095
108,240,39364,2,0,P|116:280|132:304,1,61.7499971733095
96,112,39678,6,0,L|32:112,7,61.7499971733095
260,196,40306,2,0,L|344:196,7,61.7499971733095
96,276,40935,1,0,0:0:0:0:
420,276,41092,1,0,0:0:0:0:
260,360,41249,1,0,0:0:0:0:
260,196,41406,2,0,L|260:160,15,20.5833323911032
264,124,41877,6,0,P|344:80|420:128,1,185.249991519928
440,164,42191,1,0,0:0:0:0:
448,208,42270,1,0,0:0:0:0:
440,252,42348,1,0,0:0:0:0:
420,292,42427,1,0,0:0:0:0:
388,320,42505,1,0,0:0:0:0:
348,332,42584,1,0,0:0:0:0:
304,332,42662,1,0,0:0:0:0:
264,316,42741,1,0,0:0:0:0:
236,284,42819,6,0,P|216:256|216:228,1,61.7499971733095
280,156,42977,2,0,P|296:184|300:212,1,61.7499971733095
160,316,43134,2,0,P|144:288|140:260,1,61.7499971733095
195,172,43291,2,0,P|211:200|215:228,1,61.7499971733095
124,112,43448,5,0,0:0:0:0:
168,92,43526,1,0,0:0:0:0:
216,92,43605,1,0,0:0:0:0:
256,116,43683,1,0,0:0:0:0:
280,156,43762,1,0,0:0:0:0:
288,196,43840,1,0,0:0:0:0:
280,240,43919,1,0,0:0:0:0:
280,284,43997,1,0,0:0:0:0:
296,324,44076,1,0,0:0:0:0:
332,348,44155,6,0,P|360:368|400:372,1,61.7499971733095
452,320,44312,2,0,P|424:300|384:296,1,61.7499971733095
280,240,44469,2,0,P|308:260|348:264,1,61.7499971733095
424,220,44626,2,0,P|396:200|356:196,1,61.7499971733095
192,140,44940,5,0,0:0:0:0:
192,352,45175,1,0,0:0:0:0:
192,352,45411,5,0,0:0:0:0:
192,248,45607,1,0,0:0:0:0:
192,140,45804,1,0,0:0:0:0:
60,244,45961,5,0,0:0:0:0:
308,244,46196,1,0,0:0:0:0:
192,56,46432,1,0,0:0:0:0:
192,336,46707,5,0,0:0:0:0:
296,56,46864,1,0,0:0:0:0:
408,336,47021,1,0,0:0:0:0:
156,144,47217,6,0,L|116:104,3,35.625001358986
124,212,47532,6,0,L|68:208,3,30.8749985866547
148,272,47846,6,0,L|112:288,3,26.1250007972718
192,292,48160,6,0,L|192:324,3,23.75
224,276,48474,5,0,0:0:0:0:
