osu file format v14

[General]
AudioFilename: White Peak.mp3
AudioLeadIn: 0
PreviewTime: 163914
Countdown: 0
SampleSet: Soft
StackLeniency: 0.4
Mode: 3
LetterboxInBreaks: 0
SpecialStyle: 0
WidescreenStoryboard: 0

[Editor]
DistanceSpacing: 1
BeatDivisor: 8
GridSize: 8
TimelineZoom: 3.899998

[Metadata]
Title:White Peak
TitleUnicode:White Peak
Artist:xi
ArtistUnicode:xi
Creator:AWMRone
Version:Rainsquall // Hardisk vs. AWMRone
Source:
Tags:artcore evolved chronicles DVSP-0169 diverse system 15th anniversary radial radial.period.04 week 32/53 doujin c91 553343477 Hardisk electronic instrumental fa featured artist
BeatmapID:3596762
BeatmapSetID:1745201

[Difficulty]
HPDrainRate:8.2
CircleSize:6
OverallDifficulty:8.2
ApproachRate:7
SliderMultiplier:0.4
SliderTickRate:1

[Events]
//Background and Video events
0,0,"BG.jpg",0,0
//Break Periods
//Storyboard Layer 0 (Background)
//Storyboard Layer 1 (Fail)
//Storyboard Layer 2 (Pass)
//Storyboard Layer 3 (Foreground)
//Storyboard Layer 4 (Overlay)
//Storyboard Sound Samples

[TimingPoints]
564,314.13612565445,4,2,1,30,1,0
93548,-100,4,2,1,30,0,1
113653,-100,4,2,1,30,0,0
155118,-100,4,2,1,30,0,1
176480,-100,4,2,1,30,0,0
201611,-100,4,2,1,30,0,1
241820,-100,4,2,1,30,0,0

[HitObjects]
469,320,1139,5,0,0:0:0:0:
384,320,1166,1,0,0:0:0:0:
298,320,1192,1,0,0:0:0:0:
213,320,1218,1,0,0:0:0:0:
128,320,1244,1,0,0:0:0:0:
42,320,1270,1,0,0:0:0:0:
469,320,1296,1,0,0:0:0:0:
384,320,1323,1,0,0:0:0:0:
298,320,1349,1,0,0:0:0:0:
213,320,1375,1,0,0:0:0:0:
128,320,1401,1,0,0:0:0:0:
42,320,1427,1,0,0:0:0:0:
469,320,1454,1,0,0:0:0:0:
384,320,1480,1,0,0:0:0:0:
298,320,1506,1,0,0:0:0:0:
213,320,1532,1,0,0:0:0:0:
128,320,1558,1,0,0:0:0:0:
42,320,1584,1,0,0:0:0:0:
469,320,1611,1,0,0:0:0:0:
384,320,1637,1,0,0:0:0:0:
298,320,1663,1,0,0:0:0:0:
213,192,1689,1,0,0:0:0:0:
128,192,1715,1,0,0:0:0:0:
42,192,1742,1,0,0:0:0:0:
213,320,1820,1,0,0:0:0:0:
298,320,1820,1,0,0:0:0:0:
384,320,1820,1,0,0:0:0:0:
469,320,1820,1,0,0:0:0:0:
213,320,2056,1,0,0:0:0:0:
384,320,2056,1,0,0:0:0:0:
298,320,2056,1,0,0:0:0:0:
469,320,2056,1,0,0:0:0:0:
384,320,2291,1,0,0:0:0:0:
213,320,2291,1,0,0:0:0:0:
298,320,2291,1,0,0:0:0:0:
469,320,2291,1,0,0:0:0:0:
213,320,2605,1,0,0:0:0:0:
298,320,2684,1,0,0:0:0:0:
384,320,2762,1,0,0:0:0:0:
128,320,2841,1,0,0:0:0:0:
469,320,2920,1,0,0:0:0:0:
213,320,2998,1,0,0:0:0:0:
384,320,3077,128,0,3234:0:0:0:0:
298,192,3077,1,0,0:0:0:0:
42,320,3155,1,0,0:0:0:0:
128,320,3234,1,0,0:0:0:0:
469,320,3312,1,0,0:0:0:0:
384,192,3312,128,0,3391:0:0:0:0:
213,320,3391,1,0,0:0:0:0:
298,320,3391,128,0,3548:0:0:0:0:
42,320,3469,1,0,0:0:0:0:
128,320,3548,1,0,0:0:0:0:
469,320,3626,1,0,0:0:0:0:
298,192,3626,128,0,3705:0:0:0:0:
213,320,3705,128,0,3862:0:0:0:0:
384,192,3705,1,0,0:0:0:0:
42,192,3783,1,0,0:0:0:0:
469,192,3862,1,0,0:0:0:0:
128,192,3940,1,0,0:0:0:0:
213,192,3940,128,0,4019:0:0:0:0:
42,320,4019,1,0,0:0:0:0:
469,320,4019,1,0,0:0:0:0:
298,192,4019,128,0,4176:0:0:0:0:
384,192,4019,128,0,4176:0:0:0:0:
213,320,4098,1,0,0:0:0:0:
128,320,4176,1,0,0:0:0:0:
469,192,4255,1,0,0:0:0:0:
384,192,4255,128,0,4333:0:0:0:0:
42,320,4333,1,0,0:0:0:0:
128,320,4333,1,0,0:0:0:0:
213,320,4333,1,0,0:0:0:0:
298,192,4333,1,0,0:0:0:0:
42,320,4569,1,0,0:0:0:0:
128,320,4569,1,0,0:0:0:0:
213,320,4569,1,0,0:0:0:0:
298,192,4569,1,0,0:0:0:0:
42,320,4804,1,0,0:0:0:0:
128,320,4804,1,0,0:0:0:0:
469,320,4804,1,0,0:0:0:0:
384,192,4804,1,0,0:0:0:0:
298,320,4883,1,0,0:0:0:0:
128,192,4961,1,0,0:0:0:0:
213,320,5040,1,0,0:0:0:0:
298,192,5118,1,0,0:0:0:0:
213,320,5197,1,0,0:0:0:0:
384,320,5276,1,0,0:0:0:0:
213,320,5354,1,0,0:0:0:0:
42,320,5433,128,0,5904:0:0:0:0:
128,320,5433,128,0,6218:0:0:0:0:
298,320,5433,1,0,0:0:0:0:
469,320,5433,1,0,0:0:0:0:
384,320,5511,1,0,0:0:0:0:
213,320,5590,1,0,0:0:0:0:
298,320,5668,1,0,0:0:0:0:
384,320,5747,1,0,0:0:0:0:
469,192,5825,128,0,6061:0:0:0:0:
384,192,5904,128,0,6061:0:0:0:0:
213,320,5982,1,0,0:0:0:0:
298,192,6061,1,0,0:0:0:0:
384,320,6139,1,0,0:0:0:0:
42,320,6218,1,0,0:0:0:0:
469,320,6218,1,0,0:0:0:0:
298,320,6218,1,0,0:0:0:0:
213,192,6218,1,0,0:0:0:0:
384,192,6296,1,0,0:0:0:0:
128,192,6375,1,0,0:0:0:0:
298,192,6454,1,0,0:0:0:0:
42,320,6532,1,0,0:0:0:0:
213,192,6532,1,0,0:0:0:0:
384,320,6611,1,0,0:0:0:0:
469,192,6611,1,0,0:0:0:0:
42,320,6689,1,0,0:0:0:0:
128,320,6689,1,0,0:0:0:0:
213,320,6728,1,0,0:0:0:0:
298,320,6768,1,0,0:0:0:0:
384,320,6807,1,0,0:0:0:0:
469,320,6846,1,0,0:0:0:0:
213,320,6846,1,0,0:0:0:0:
128,320,6846,128,0,6925:0:0:0:0:
42,320,6846,128,0,6925:0:0:0:0:
42,320,7082,1,0,0:0:0:0:
128,320,7082,1,0,0:0:0:0:
384,320,7082,128,0,7160:0:0:0:0:
469,320,7082,128,0,7160:0:0:0:0:
42,320,7317,1,0,0:0:0:0:
128,320,7317,1,0,0:0:0:0:
298,320,7317,128,0,7553:0:0:0:0:
384,320,7317,128,0,7474:0:0:0:0:
469,320,7474,128,0,7632:0:0:0:0:
384,320,7553,128,0,7710:0:0:0:0:
298,320,7632,128,0,7789:0:0:0:0:
213,320,7710,128,0,7789:0:0:0:0:
469,320,7789,1,0,0:0:0:0:
384,320,7789,1,0,0:0:0:0:
128,320,7789,128,0,7867:0:0:0:0:
42,320,7789,128,0,7867:0:0:0:0:
469,320,8024,1,0,0:0:0:0:
384,320,8024,1,0,0:0:0:0:
128,320,8024,128,0,8103:0:0:0:0:
42,320,8024,128,0,8103:0:0:0:0:
42,320,8260,1,0,0:0:0:0:
128,320,8260,1,0,0:0:0:0:
298,320,8260,128,0,8495:0:0:0:0:
384,320,8260,128,0,8417:0:0:0:0:
469,320,8417,128,0,8574:0:0:0:0:
384,320,8495,128,0,8653:0:0:0:0:
298,320,8574,128,0,8731:0:0:0:0:
213,320,8653,128,0,8731:0:0:0:0:
42,320,8731,128,0,8967:0:0:0:0:
469,320,8731,1,0,0:0:0:0:
384,320,8810,1,0,0:0:0:0:
213,320,8888,1,0,0:0:0:0:
128,320,8967,128,0,9202:0:0:0:0:
298,320,8967,1,0,0:0:0:0:
469,320,9045,1,0,0:0:0:0:
213,320,9124,1,0,0:0:0:0:
42,320,9202,128,0,9988:0:0:0:0:
384,320,9202,1,0,0:0:0:0:
298,320,9281,1,0,0:0:0:0:
128,320,9359,1,0,0:0:0:0:
213,320,9359,1,0,0:0:0:0:
384,320,9359,128,0,9438:0:0:0:0:
469,320,9359,128,0,9438:0:0:0:0:
128,320,9595,1,0,0:0:0:0:
213,320,9595,1,0,0:0:0:0:
384,320,9595,128,0,9673:0:0:0:0:
469,320,9595,128,0,9673:0:0:0:0:
128,320,9831,1,0,0:0:0:0:
213,320,9831,1,0,0:0:0:0:
298,320,9831,128,0,10066:0:0:0:0:
384,320,9831,128,0,9988:0:0:0:0:
469,320,9988,128,0,10145:0:0:0:0:
384,320,10066,128,0,10223:0:0:0:0:
298,320,10145,128,0,10302:0:0:0:0:
213,192,10223,128,0,10302:0:0:0:0:
469,320,10302,1,0,0:0:0:0:
384,320,10302,1,0,0:0:0:0:
128,320,10302,128,0,10380:0:0:0:0:
42,320,10302,128,0,10380:0:0:0:0:
469,320,10537,1,0,0:0:0:0:
384,320,10537,1,0,0:0:0:0:
128,320,10537,128,0,10616:0:0:0:0:
42,320,10537,128,0,10616:0:0:0:0:
42,320,10773,1,0,0:0:0:0:
213,320,10773,1,0,0:0:0:0:
298,320,10773,128,0,11009:0:0:0:0:
384,320,10773,128,0,10930:0:0:0:0:
469,320,10930,128,0,11087:0:0:0:0:
384,320,11009,128,0,11166:0:0:0:0:
298,320,11087,128,0,11244:0:0:0:0:
213,320,11166,128,0,11244:0:0:0:0:
128,320,11244,1,0,0:0:0:0:
384,320,11244,1,0,0:0:0:0:
42,320,11244,1,0,0:0:0:0:
42,320,11401,1,0,0:0:0:0:
384,320,11401,1,0,0:0:0:0:
469,320,11401,1,0,0:0:0:0:
128,320,11440,1,0,0:0:0:0:
213,320,11480,1,0,0:0:0:0:
298,320,11519,1,0,0:0:0:0:
42,320,11558,1,0,0:0:0:0:
384,320,11558,1,0,0:0:0:0:
469,320,11558,1,0,0:0:0:0:
128,320,11637,1,0,0:0:0:0:
213,320,11637,1,0,0:0:0:0:
384,320,11715,1,0,0:0:0:0:
469,320,11715,1,0,0:0:0:0:
213,320,11794,1,0,0:0:0:0:
298,320,11794,1,0,0:0:0:0:
42,320,11872,128,0,12815:0:0:0:0:
128,320,11872,1,0,0:0:0:0:
384,320,11872,1,0,0:0:0:0:
469,320,11872,1,0,0:0:0:0:
213,320,11951,1,0,0:0:0:0:
298,320,12029,1,0,0:0:0:0:
213,320,12108,1,0,0:0:0:0:
128,320,12187,1,0,0:0:0:0:
384,320,12187,1,0,0:0:0:0:
469,320,12187,1,0,0:0:0:0:
298,320,12265,1,0,0:0:0:0:
213,320,12344,1,0,0:0:0:0:
384,320,12422,1,0,0:0:0:0:
128,320,12501,1,0,0:0:0:0:
298,320,12501,1,0,0:0:0:0:
469,320,12501,1,0,0:0:0:0:
213,320,12579,1,0,0:0:0:0:
298,320,12658,1,0,0:0:0:0:
384,320,12736,1,0,0:0:0:0:
128,320,12815,128,0,13129:0:0:0:0:
213,320,12815,1,0,0:0:0:0:
298,320,12815,1,0,0:0:0:0:
469,320,12815,1,0,0:0:0:0:
384,320,12893,1,0,0:0:0:0:
42,320,12972,1,0,0:0:0:0:
298,320,13050,1,0,0:0:0:0:
42,320,13129,1,0,0:0:0:0:
213,320,13129,128,0,13757:0:0:0:0:
384,320,13129,1,0,0:0:0:0:
469,320,13129,1,0,0:0:0:0:
128,320,13207,1,0,0:0:0:0:
298,320,13286,1,0,0:0:0:0:
384,320,13365,1,0,0:0:0:0:
42,320,13443,1,0,0:0:0:0:
128,320,13443,1,0,0:0:0:0:
469,320,13443,1,0,0:0:0:0:
298,320,13522,1,0,0:0:0:0:
384,320,13600,1,0,0:0:0:0:
298,320,13679,1,0,0:0:0:0:
42,320,13757,1,0,0:0:0:0:
128,320,13757,128,0,14385:0:0:0:0:
384,320,13757,1,0,0:0:0:0:
469,320,13757,1,0,0:0:0:0:
213,320,13836,1,0,0:0:0:0:
298,320,13914,1,0,0:0:0:0:
469,320,13993,1,0,0:0:0:0:
42,320,14071,1,0,0:0:0:0:
213,320,14071,1,0,0:0:0:0:
384,320,14071,1,0,0:0:0:0:
298,320,14150,1,0,0:0:0:0:
469,320,14228,1,0,0:0:0:0:
384,320,14307,1,0,0:0:0:0:
42,320,14385,1,0,0:0:0:0:
213,320,14385,128,0,15328:0:0:0:0:
298,320,14385,1,0,0:0:0:0:
469,320,14385,1,0,0:0:0:0:
128,320,14464,1,0,0:0:0:0:
298,320,14543,1,0,0:0:0:0:
384,320,14621,1,0,0:0:0:0:
42,320,14700,1,0,0:0:0:0:
128,320,14700,1,0,0:0:0:0:
469,320,14700,1,0,0:0:0:0:
298,320,14778,1,0,0:0:0:0:
384,320,14857,1,0,0:0:0:0:
128,320,14935,1,0,0:0:0:0:
42,320,15014,1,0,0:0:0:0:
384,320,15014,1,0,0:0:0:0:
469,320,15014,1,0,0:0:0:0:
298,320,15092,1,0,0:0:0:0:
128,320,15171,1,0,0:0:0:0:
42,320,15249,1,0,0:0:0:0:
128,320,15328,1,0,0:0:0:0:
298,320,15328,128,0,15642:0:0:0:0:
384,320,15328,1,0,0:0:0:0:
469,320,15328,1,0,0:0:0:0:
213,320,15406,1,0,0:0:0:0:
42,320,15485,1,0,0:0:0:0:
128,320,15563,1,0,0:0:0:0:
42,320,15642,1,0,0:0:0:0:
213,320,15642,1,0,0:0:0:0:
384,320,15642,1,0,0:0:0:0:
469,320,15642,128,0,16899:0:0:0:0:
298,320,15721,1,0,0:0:0:0:
128,320,15799,1,0,0:0:0:0:
213,320,15878,1,0,0:0:0:0:
42,320,15956,1,0,0:0:0:0:
298,320,15956,1,0,0:0:0:0:
384,320,15956,1,0,0:0:0:0:
128,320,16035,1,0,0:0:0:0:
213,320,16113,1,0,0:0:0:0:
298,320,16192,1,0,0:0:0:0:
42,320,16270,128,0,16820:0:0:0:0:
128,320,16270,1,0,0:0:0:0:
213,320,16270,1,0,0:0:0:0:
384,320,16270,1,0,0:0:0:0:
298,320,16349,1,0,0:0:0:0:
213,320,16427,1,0,0:0:0:0:
298,320,16506,1,0,0:0:0:0:
384,320,16506,1,0,0:0:0:0:
128,320,16584,1,0,0:0:0:0:
213,320,16584,1,0,0:0:0:0:
384,320,16663,1,0,0:0:0:0:
213,320,16742,1,0,0:0:0:0:
298,320,16742,1,0,0:0:0:0:
128,320,16820,1,0,0:0:0:0:
42,320,16899,1,0,0:0:0:0:
213,320,16899,1,0,0:0:0:0:
298,320,16899,1,0,0:0:0:0:
384,320,16899,128,0,17841:0:0:0:0:
128,320,16977,1,0,0:0:0:0:
213,320,17056,1,0,0:0:0:0:
298,320,17134,1,0,0:0:0:0:
42,320,17213,1,0,0:0:0:0:
128,320,17213,1,0,0:0:0:0:
469,320,17213,1,0,0:0:0:0:
213,320,17291,1,0,0:0:0:0:
298,320,17370,1,0,0:0:0:0:
128,320,17448,1,0,0:0:0:0:
42,320,17527,1,0,0:0:0:0:
213,320,17527,1,0,0:0:0:0:
469,320,17527,1,0,0:0:0:0:
298,320,17605,1,0,0:0:0:0:
128,320,17684,1,0,0:0:0:0:
42,320,17762,1,0,0:0:0:0:
128,320,17841,1,0,0:0:0:0:
213,320,17841,1,0,0:0:0:0:
298,320,17841,128,0,18155:0:0:0:0:
469,320,17841,1,0,0:0:0:0:
42,320,17920,1,0,0:0:0:0:
128,320,17998,1,0,0:0:0:0:
384,320,17998,1,0,0:0:0:0:
213,320,18077,1,0,0:0:0:0:
42,320,18155,128,0,19098:0:0:0:0:
128,320,18155,1,0,0:0:0:0:
384,320,18155,1,0,0:0:0:0:
469,320,18155,1,0,0:0:0:0:
213,320,18234,1,0,0:0:0:0:
298,320,18312,1,0,0:0:0:0:
384,320,18391,1,0,0:0:0:0:
128,320,18469,1,0,0:0:0:0:
213,320,18469,1,0,0:0:0:0:
469,320,18469,1,0,0:0:0:0:
384,320,18548,1,0,0:0:0:0:
128,320,18626,1,0,0:0:0:0:
298,320,18626,1,0,0:0:0:0:
213,320,18705,1,0,0:0:0:0:
128,320,18783,1,0,0:0:0:0:
298,320,18783,1,0,0:0:0:0:
384,320,18783,1,0,0:0:0:0:
469,320,18783,128,0,19412:0:0:0:0:
213,320,18862,1,0,0:0:0:0:
298,320,18940,1,0,0:0:0:0:
384,320,19019,1,0,0:0:0:0:
128,320,19098,1,0,0:0:0:0:
213,320,19098,1,0,0:0:0:0:
298,320,19098,1,0,0:0:0:0:
384,320,19176,1,0,0:0:0:0:
42,320,19255,1,0,0:0:0:0:
128,320,19255,1,0,0:0:0:0:
298,320,19333,1,0,0:0:0:0:
213,192,19333,1,0,0:0:0:0:
128,320,19412,1,0,0:0:0:0:
42,320,19412,1,0,0:0:0:0:
384,320,19412,1,0,0:0:0:0:
213,320,19464,1,0,0:0:0:0:
469,192,19516,1,0,0:0:0:0:
128,320,19569,1,0,0:0:0:0:
298,192,19569,1,0,0:0:0:0:
384,192,19621,1,0,0:0:0:0:
213,320,19673,1,0,0:0:0:0:
42,320,19726,1,0,0:0:0:0:
469,320,19726,1,0,0:0:0:0:
384,320,19778,1,0,0:0:0:0:
128,320,19831,1,0,0:0:0:0:
42,320,19883,1,0,0:0:0:0:
298,320,19883,1,0,0:0:0:0:
213,320,19935,1,0,0:0:0:0:
384,320,19988,1,0,0:0:0:0:
128,320,20040,1,0,0:0:0:0:
469,320,20040,1,0,0:0:0:0:
213,320,20118,1,0,0:0:0:0:
42,320,20197,1,0,0:0:0:0:
384,320,20197,1,0,0:0:0:0:
298,320,20276,1,0,0:0:0:0:
128,320,20354,1,0,0:0:0:0:
213,320,20354,1,0,0:0:0:0:
469,320,20354,1,0,0:0:0:0:
42,320,20433,1,0,0:0:0:0:
384,192,20511,1,0,0:0:0:0:
128,192,20511,1,0,0:0:0:0:
469,192,20511,1,0,0:0:0:0:
298,192,20590,1,0,0:0:0:0:
213,192,20590,1,0,0:0:0:0:
42,320,20668,1,0,0:0:0:0:
128,320,20668,1,0,0:0:0:0:
384,320,20668,1,0,0:0:0:0:
469,320,20668,1,0,0:0:0:0:
298,320,20721,1,0,0:0:0:0:
213,320,20773,1,0,0:0:0:0:
128,320,20825,1,0,0:0:0:0:
384,320,20825,1,0,0:0:0:0:
469,320,20878,1,0,0:0:0:0:
298,320,20930,1,0,0:0:0:0:
42,320,20982,1,0,0:0:0:0:
213,320,20982,1,0,0:0:0:0:
384,320,21035,1,0,0:0:0:0:
128,320,21087,1,0,0:0:0:0:
298,320,21139,1,0,0:0:0:0:
469,320,21139,1,0,0:0:0:0:
384,320,21218,1,0,0:0:0:0:
213,192,21218,1,0,0:0:0:0:
128,320,21296,1,0,0:0:0:0:
298,320,21296,1,0,0:0:0:0:
213,320,21375,1,0,0:0:0:0:
42,320,21454,1,0,0:0:0:0:
384,320,21454,1,0,0:0:0:0:
213,320,21532,1,0,0:0:0:0:
128,320,21611,1,0,0:0:0:0:
298,320,21611,1,0,0:0:0:0:
469,320,21611,1,0,0:0:0:0:
384,192,21689,1,0,0:0:0:0:
213,192,21689,1,0,0:0:0:0:
469,192,21768,1,0,0:0:0:0:
298,192,21768,1,0,0:0:0:0:
42,192,21846,1,0,0:0:0:0:
128,192,21846,1,0,0:0:0:0:
213,320,21925,1,0,0:0:0:0:
298,320,21925,1,0,0:0:0:0:
384,320,21925,1,0,0:0:0:0:
469,320,21925,1,0,0:0:0:0:
42,320,22003,1,0,0:0:0:0:
128,320,22003,1,0,0:0:0:0:
384,320,22082,1,0,0:0:0:0:
469,192,22082,1,0,0:0:0:0:
298,192,22082,1,0,0:0:0:0:
128,192,22160,1,0,0:0:0:0:
213,192,22160,1,0,0:0:0:0:
42,192,22239,1,0,0:0:0:0:
384,192,22239,1,0,0:0:0:0:
469,192,22239,1,0,0:0:0:0:
213,192,22317,1,0,0:0:0:0:
298,192,22317,1,0,0:0:0:0:
469,192,22396,1,0,0:0:0:0:
128,192,22396,1,0,0:0:0:0:
42,192,22396,1,0,0:0:0:0:
298,320,22474,1,0,0:0:0:0:
384,320,22474,1,0,0:0:0:0:
469,320,22553,1,0,0:0:0:0:
213,320,22553,1,0,0:0:0:0:
128,320,22553,1,0,0:0:0:0:
42,192,22553,1,0,0:0:0:0:
298,320,22632,1,0,0:0:0:0:
384,320,22632,1,0,0:0:0:0:
128,320,22710,1,0,0:0:0:0:
42,320,22710,1,0,0:0:0:0:
298,320,22749,1,0,0:0:0:0:
213,320,22749,1,0,0:0:0:0:
469,320,22789,1,0,0:0:0:0:
384,320,22789,1,0,0:0:0:0:
128,320,22828,1,0,0:0:0:0:
42,320,22828,1,0,0:0:0:0:
298,320,22867,1,0,0:0:0:0:
213,320,22867,1,0,0:0:0:0:
469,320,22946,1,0,0:0:0:0:
384,320,22946,1,0,0:0:0:0:
128,320,23024,1,0,0:0:0:0:
42,320,23024,1,0,0:0:0:0:
384,320,23103,1,0,0:0:0:0:
213,320,23103,1,0,0:0:0:0:
42,320,23181,128,0,23495:0:0:0:0:
298,320,23181,128,0,23495:0:0:0:0:
128,320,23181,1,0,0:0:0:0:
469,320,23181,1,0,0:0:0:0:
128,320,23495,128,0,23653:0:0:0:0:
384,320,23495,128,0,23653:0:0:0:0:
213,320,23653,128,0,23810:0:0:0:0:
469,320,23653,128,0,23810:0:0:0:0:
298,320,23967,128,0,24124:0:0:0:0:
469,320,23967,128,0,24124:0:0:0:0:
213,320,24281,128,0,25380:0:0:0:0:
384,320,24281,128,0,25380:0:0:0:0:
128,320,25537,128,0,25616:0:0:0:0:
298,320,25537,128,0,25616:0:0:0:0:
213,320,25616,128,0,25694:0:0:0:0:
384,320,25616,128,0,25694:0:0:0:0:
298,320,25694,128,0,26323:0:0:0:0:
469,320,25694,128,0,26323:0:0:0:0:
42,320,26323,128,0,26951:0:0:0:0:
213,320,26323,128,0,26951:0:0:0:0:
469,192,26427,1,0,0:0:0:0:
384,192,26480,1,0,0:0:0:0:
298,192,26532,1,0,0:0:0:0:
128,192,26584,1,0,0:0:0:0:
469,192,26637,1,0,0:0:0:0:
384,192,26689,1,0,0:0:0:0:
298,192,26742,1,0,0:0:0:0:
128,192,26794,1,0,0:0:0:0:
469,192,26846,1,0,0:0:0:0:
384,192,26899,1,0,0:0:0:0:
128,320,26951,128,0,28207:0:0:0:0:
298,320,26951,1,0,0:0:0:0:
469,320,27029,1,0,0:0:0:0:
213,320,27108,1,0,0:0:0:0:
384,320,27187,1,0,0:0:0:0:
298,320,27265,1,0,0:0:0:0:
213,320,27344,1,0,0:0:0:0:
42,320,27422,128,0,28207:0:0:0:0:
469,192,27422,1,0,0:0:0:0:
298,320,27501,1,0,0:0:0:0:
384,320,27579,1,0,0:0:0:0:
469,320,27658,1,0,0:0:0:0:
213,320,27736,1,0,0:0:0:0:
384,320,27815,1,0,0:0:0:0:
213,320,27893,1,0,0:0:0:0:
469,192,27972,1,0,0:0:0:0:
298,320,28050,1,0,0:0:0:0:
384,192,28129,1,0,0:0:0:0:
213,320,28207,128,0,28836:0:0:0:0:
469,320,28207,1,0,0:0:0:0:
298,192,28286,1,0,0:0:0:0:
128,192,28365,1,0,0:0:0:0:
469,192,28443,1,0,0:0:0:0:
384,320,28522,1,0,0:0:0:0:
128,192,28600,1,0,0:0:0:0:
384,192,28679,1,0,0:0:0:0:
298,192,28757,1,0,0:0:0:0:
469,320,28836,128,0,29071:0:0:0:0:
42,192,28836,1,0,0:0:0:0:
298,192,28914,1,0,0:0:0:0:
128,192,28993,1,0,0:0:0:0:
384,320,29071,128,0,29307:0:0:0:0:
42,192,29071,1,0,0:0:0:0:
213,192,29150,1,0,0:0:0:0:
128,192,29228,1,0,0:0:0:0:
298,320,29307,128,0,29464:0:0:0:0:
469,192,29307,1,0,0:0:0:0:
42,192,29385,1,0,0:0:0:0:
213,320,29464,128,0,30721:0:0:0:0:
384,192,29464,1,0,0:0:0:0:
128,320,29543,1,0,0:0:0:0:
42,192,29621,1,0,0:0:0:0:
384,192,29700,1,0,0:0:0:0:
298,192,29778,1,0,0:0:0:0:
128,192,29857,1,0,0:0:0:0:
384,192,29935,1,0,0:0:0:0:
298,192,30014,1,0,0:0:0:0:
42,192,30092,128,0,30721:0:0:0:0:
128,192,30092,1,0,0:0:0:0:
469,192,30171,1,0,0:0:0:0:
298,192,30249,1,0,0:0:0:0:
128,192,30328,1,0,0:0:0:0:
469,192,30406,1,0,0:0:0:0:
384,192,30485,1,0,0:0:0:0:
298,192,30563,1,0,0:0:0:0:
469,192,30642,1,0,0:0:0:0:
384,192,30721,1,0,0:0:0:0:
128,192,30721,128,0,31349:0:0:0:0:
298,192,30799,1,0,0:0:0:0:
42,192,30878,1,0,0:0:0:0:
213,320,30956,1,0,0:0:0:0:
298,320,31035,1,0,0:0:0:0:
384,320,31139,1,0,0:0:0:0:
298,320,31244,1,0,0:0:0:0:
213,192,31349,1,0,0:0:0:0:
469,192,31349,128,0,31977:0:0:0:0:
298,192,31427,1,0,0:0:0:0:
42,192,31506,1,0,0:0:0:0:
384,192,31584,1,0,0:0:0:0:
298,192,31663,1,0,0:0:0:0:
128,192,31742,1,0,0:0:0:0:
42,192,31820,1,0,0:0:0:0:
298,192,31899,1,0,0:0:0:0:
128,320,31977,1,0,0:0:0:0:
42,192,31977,1,0,0:0:0:0:
213,192,31977,1,0,0:0:0:0:
384,192,32056,1,0,0:0:0:0:
298,192,32134,1,0,0:0:0:0:
469,192,32213,1,0,0:0:0:0:
213,192,32291,1,0,0:0:0:0:
42,192,32291,1,0,0:0:0:0:
384,192,32370,1,0,0:0:0:0:
469,320,32448,1,0,0:0:0:0:
298,320,32527,1,0,0:0:0:0:
213,320,32605,1,0,0:0:0:0:
42,192,32605,1,0,0:0:0:0:
128,192,32684,1,0,0:0:0:0:
298,192,32762,1,0,0:0:0:0:
128,192,32841,1,0,0:0:0:0:
469,192,32920,1,0,0:0:0:0:
384,192,32920,1,0,0:0:0:0:
213,192,32998,1,0,0:0:0:0:
469,192,33077,1,0,0:0:0:0:
128,192,33155,1,0,0:0:0:0:
384,192,33234,1,0,0:0:0:0:
42,192,33234,1,0,0:0:0:0:
213,320,33312,1,0,0:0:0:0:
128,192,33391,1,0,0:0:0:0:
384,192,33469,1,0,0:0:0:0:
298,192,33548,1,0,0:0:0:0:
42,192,33548,1,0,0:0:0:0:
128,192,33626,1,0,0:0:0:0:
469,192,33705,1,0,0:0:0:0:
384,192,33783,1,0,0:0:0:0:
42,320,33862,1,0,0:0:0:0:
213,192,33862,1,0,0:0:0:0:
469,192,33940,1,0,0:0:0:0:
384,192,34019,1,0,0:0:0:0:
213,320,34098,1,0,0:0:0:0:
469,192,34176,1,0,0:0:0:0:
298,192,34176,1,0,0:0:0:0:
128,192,34255,1,0,0:0:0:0:
384,192,34333,1,0,0:0:0:0:
128,320,34412,1,0,0:0:0:0:
42,320,34490,1,0,0:0:0:0:
469,320,34490,1,0,0:0:0:0:
298,192,34569,1,0,0:0:0:0:
128,320,34647,1,0,0:0:0:0:
469,192,34726,1,0,0:0:0:0:
384,192,34804,1,0,0:0:0:0:
213,192,34804,1,0,0:0:0:0:
128,192,34883,1,0,0:0:0:0:
469,192,34961,1,0,0:0:0:0:
213,192,35040,1,0,0:0:0:0:
128,192,35118,1,0,0:0:0:0:
42,192,35118,1,0,0:0:0:0:
384,192,35197,1,0,0:0:0:0:
213,192,35276,1,0,0:0:0:0:
42,192,35354,1,0,0:0:0:0:
469,192,35433,1,0,0:0:0:0:
298,192,35433,1,0,0:0:0:0:
128,192,35511,1,0,0:0:0:0:
469,192,35590,1,0,0:0:0:0:
213,192,35668,1,0,0:0:0:0:
128,320,35747,1,0,0:0:0:0:
42,320,35747,1,0,0:0:0:0:
298,192,35747,1,0,0:0:0:0:
384,192,35825,1,0,0:0:0:0:
128,192,35904,1,0,0:0:0:0:
469,192,35982,1,0,0:0:0:0:
384,192,35982,1,0,0:0:0:0:
213,192,35982,1,0,0:0:0:0:
42,192,36061,1,0,0:0:0:0:
469,192,36139,1,0,0:0:0:0:
128,320,36218,1,0,0:0:0:0:
42,192,36218,1,0,0:0:0:0:
298,192,36218,1,0,0:0:0:0:
384,192,36296,1,0,0:0:0:0:
213,320,36375,1,0,0:0:0:0:
128,320,36375,1,0,0:0:0:0:
42,192,36375,128,0,36689:0:0:0:0:
298,320,36454,1,0,0:0:0:0:
469,192,36454,1,0,0:0:0:0:
384,192,36532,1,0,0:0:0:0:
128,192,36571,1,0,0:0:0:0:
213,192,36611,1,0,0:0:0:0:
298,192,36650,1,0,0:0:0:0:
384,192,36689,128,0,37003:0:0:0:0:
469,192,36689,1,0,0:0:0:0:
128,192,36689,1,0,0:0:0:0:
213,320,37003,128,0,37160:0:0:0:0:
298,320,37003,128,0,37317:0:0:0:0:
469,320,37003,128,0,37946:0:0:0:0:
384,320,37082,128,0,37553:0:0:0:0:
128,320,37160,128,0,37396:0:0:0:0:
213,320,37239,128,0,37474:0:0:0:0:
42,320,37317,128,0,37553:0:0:0:0:
298,320,37396,128,0,37553:0:0:0:0:
128,320,37474,128,0,37632:0:0:0:0:
213,320,37553,128,0,37710:0:0:0:0:
42,320,37632,1,0,0:0:0:0:
298,320,37632,128,0,37789:0:0:0:0:
384,320,37632,1,0,0:0:0:0:
128,320,37710,128,0,37867:0:0:0:0:
213,320,37789,128,0,37946:0:0:0:0:
298,320,37867,128,0,38024:0:0:0:0:
128,320,37946,128,0,38103:0:0:0:0:
384,320,38024,128,0,38103:0:0:0:0:
213,320,38103,128,0,38260:0:0:0:0:
298,320,38181,128,0,38260:0:0:0:0:
42,320,38260,128,0,39202:0:0:0:0:
128,320,38260,128,0,38495:0:0:0:0:
469,320,38260,128,0,38653:0:0:0:0:
298,320,38338,128,0,38574:0:0:0:0:
384,320,38417,128,0,38731:0:0:0:0:
213,320,38495,128,0,38810:0:0:0:0:
128,320,38574,128,0,38810:0:0:0:0:
298,320,38653,128,0,38810:0:0:0:0:
469,320,38731,128,0,38888:0:0:0:0:
384,320,38810,128,0,38967:0:0:0:0:
128,320,38888,1,0,0:0:0:0:
213,320,38888,1,0,0:0:0:0:
298,320,38888,128,0,39045:0:0:0:0:
469,320,38967,128,0,39124:0:0:0:0:
384,320,39045,128,0,39202:0:0:0:0:
298,320,39124,128,0,39281:0:0:0:0:
128,320,39202,128,0,39359:0:0:0:0:
213,320,39281,128,0,39359:0:0:0:0:
384,320,39359,128,0,39516:0:0:0:0:
298,320,39438,128,0,39516:0:0:0:0:
42,320,39516,128,0,40380:0:0:0:0:
128,320,39516,128,0,39988:0:0:0:0:
469,320,39516,128,0,40066:0:0:0:0:
213,320,39595,128,0,39752:0:0:0:0:
384,320,39673,128,0,39831:0:0:0:0:
298,320,39752,128,0,39909:0:0:0:0:
213,320,39831,128,0,40066:0:0:0:0:
384,320,39909,128,0,40066:0:0:0:0:
298,320,39988,128,0,40145:0:0:0:0:
128,320,40066,128,0,40223:0:0:0:0:
213,320,40145,128,0,40302:0:0:0:0:
384,320,40145,128,0,40694:0:0:0:0:
469,320,40145,128,0,40459:0:0:0:0:
298,320,40223,128,0,40616:0:0:0:0:
128,320,40302,128,0,40459:0:0:0:0:
213,320,40380,128,0,40537:0:0:0:0:
42,320,40459,128,0,40694:0:0:0:0:
128,320,40537,128,0,40694:0:0:0:0:
213,320,40616,128,0,40694:0:0:0:0:
298,320,40694,128,0,40773:0:0:0:0:
42,320,40773,128,0,40851:0:0:0:0:
213,320,40773,1,0,0:0:0:0:
384,320,40773,128,0,41244:0:0:0:0:
469,320,40773,1,0,0:0:0:0:
128,320,40851,128,0,40930:0:0:0:0:
213,320,40930,128,0,41009:0:0:0:0:
42,320,41009,128,0,41087:0:0:0:0:
298,320,41009,1,0,0:0:0:0:
469,320,41009,1,0,0:0:0:0:
128,320,41087,128,0,41166:0:0:0:0:
213,320,41166,128,0,41244:0:0:0:0:
42,320,41244,1,0,0:0:0:0:
128,320,41244,128,0,41715:0:0:0:0:
298,320,41244,128,0,41794:0:0:0:0:
469,320,41244,128,0,41558:0:0:0:0:
384,192,41558,128,0,41715:0:0:0:0:
213,192,41637,128,0,41872:0:0:0:0:
42,320,41715,128,0,42029:0:0:0:0:
469,192,41715,128,0,41951:0:0:0:0:
384,192,41794,128,0,41951:0:0:0:0:
298,192,41872,128,0,42029:0:0:0:0:
213,192,41951,128,0,42029:0:0:0:0:
128,320,42029,1,0,0:0:0:0:
469,320,42029,1,0,0:0:0:0:
384,320,42029,1,0,0:0:0:0:
213,320,42108,1,0,0:0:0:0:
42,320,42187,1,0,0:0:0:0:
384,320,42187,1,0,0:0:0:0:
128,320,42265,1,0,0:0:0:0:
213,320,42344,1,0,0:0:0:0:
298,320,42344,1,0,0:0:0:0:
469,320,42344,1,0,0:0:0:0:
42,320,42422,1,0,0:0:0:0:
128,320,42501,1,0,0:0:0:0:
384,320,42501,1,0,0:0:0:0:
298,320,42579,1,0,0:0:0:0:
42,320,42658,1,0,0:0:0:0:
384,320,42658,1,0,0:0:0:0:
469,320,42658,1,0,0:0:0:0:
128,320,42736,1,0,0:0:0:0:
213,320,42815,1,0,0:0:0:0:
298,320,42815,1,0,0:0:0:0:
384,320,42893,1,0,0:0:0:0:
42,320,42972,1,0,0:0:0:0:
128,320,42972,1,0,0:0:0:0:
469,320,42972,1,0,0:0:0:0:
298,320,43050,1,0,0:0:0:0:
213,320,43129,1,0,0:0:0:0:
384,320,43129,1,0,0:0:0:0:
128,320,43207,1,0,0:0:0:0:
42,320,43286,1,0,0:0:0:0:
298,320,43286,1,0,0:0:0:0:
469,320,43286,1,0,0:0:0:0:
213,320,43365,1,0,0:0:0:0:
128,320,43443,1,0,0:0:0:0:
384,320,43443,1,0,0:0:0:0:
298,320,43522,1,0,0:0:0:0:
42,320,43600,1,0,0:0:0:0:
213,320,43600,1,0,0:0:0:0:
469,320,43600,1,0,0:0:0:0:
128,320,43679,1,0,0:0:0:0:
213,320,43757,1,0,0:0:0:0:
384,320,43757,1,0,0:0:0:0:
298,320,43836,1,0,0:0:0:0:
42,320,43914,1,0,0:0:0:0:
128,320,43914,1,0,0:0:0:0:
469,320,43914,1,0,0:0:0:0:
298,320,43993,1,0,0:0:0:0:
42,320,44071,1,0,0:0:0:0:
469,320,44071,1,0,0:0:0:0:
128,320,44111,1,0,0:0:0:0:
213,320,44150,1,0,0:0:0:0:
384,320,44150,1,0,0:0:0:0:
298,320,44189,1,0,0:0:0:0:
42,320,44228,1,0,0:0:0:0:
128,320,44228,1,0,0:0:0:0:
469,320,44228,1,0,0:0:0:0:
213,320,44307,1,0,0:0:0:0:
128,320,44385,1,0,0:0:0:0:
298,320,44385,1,0,0:0:0:0:
384,320,44385,1,0,0:0:0:0:
469,320,44464,1,0,0:0:0:0:
42,320,44543,1,0,0:0:0:0:
128,320,44543,1,0,0:0:0:0:
213,320,44543,1,0,0:0:0:0:
298,320,44543,1,0,0:0:0:0:
384,320,44621,1,0,0:0:0:0:
469,320,44621,1,0,0:0:0:0:
42,320,44700,1,0,0:0:0:0:
128,320,44700,1,0,0:0:0:0:
213,320,44778,1,0,0:0:0:0:
298,320,44778,1,0,0:0:0:0:
384,320,44778,1,0,0:0:0:0:
469,320,44778,1,0,0:0:0:0:
42,320,44857,1,0,0:0:0:0:
128,320,44857,1,0,0:0:0:0:
384,320,44935,1,0,0:0:0:0:
469,320,44935,1,0,0:0:0:0:
42,320,45014,1,0,0:0:0:0:
128,320,45014,1,0,0:0:0:0:
213,320,45014,1,0,0:0:0:0:
298,320,45014,1,0,0:0:0:0:
384,320,45092,1,0,0:0:0:0:
469,320,45092,1,0,0:0:0:0:
42,320,45171,1,0,0:0:0:0:
128,320,45171,1,0,0:0:0:0:
213,320,45249,1,0,0:0:0:0:
298,320,45249,1,0,0:0:0:0:
384,320,45249,1,0,0:0:0:0:
469,320,45249,1,0,0:0:0:0:
42,320,45328,1,0,0:0:0:0:
128,320,45328,1,0,0:0:0:0:
384,320,45406,1,0,0:0:0:0:
469,320,45406,1,0,0:0:0:0:
42,320,45485,1,0,0:0:0:0:
128,320,45485,1,0,0:0:0:0:
213,320,45485,1,0,0:0:0:0:
298,320,45485,1,0,0:0:0:0:
384,320,45563,1,0,0:0:0:0:
469,320,45563,1,0,0:0:0:0:
42,320,45642,1,0,0:0:0:0:
128,320,45642,1,0,0:0:0:0:
213,320,45642,1,0,0:0:0:0:
298,320,45642,1,0,0:0:0:0:
384,320,45721,1,0,0:0:0:0:
469,320,45721,1,0,0:0:0:0:
42,320,45799,1,0,0:0:0:0:
128,320,45799,1,0,0:0:0:0:
213,320,45799,1,0,0:0:0:0:
298,320,45799,1,0,0:0:0:0:
384,320,45878,1,0,0:0:0:0:
469,320,45878,1,0,0:0:0:0:
213,320,45956,1,0,0:0:0:0:
298,320,45956,1,0,0:0:0:0:
42,320,46035,1,0,0:0:0:0:
128,320,46035,1,0,0:0:0:0:
384,320,46035,1,0,0:0:0:0:
469,320,46035,1,0,0:0:0:0:
213,320,46113,1,0,0:0:0:0:
298,320,46113,1,0,0:0:0:0:
42,320,46192,1,0,0:0:0:0:
128,320,46192,1,0,0:0:0:0:
213,320,46270,1,0,0:0:0:0:
298,320,46270,1,0,0:0:0:0:
384,320,46270,1,0,0:0:0:0:
469,320,46270,1,0,0:0:0:0:
42,320,46349,1,0,0:0:0:0:
128,320,46349,1,0,0:0:0:0:
384,320,46427,1,0,0:0:0:0:
469,320,46427,1,0,0:0:0:0:
42,320,46506,1,0,0:0:0:0:
128,320,46506,1,0,0:0:0:0:
213,320,46506,1,0,0:0:0:0:
298,320,46506,1,0,0:0:0:0:
384,320,46584,1,0,0:0:0:0:
469,320,46584,1,0,0:0:0:0:
213,320,46663,1,0,0:0:0:0:
298,320,46663,1,0,0:0:0:0:
42,320,46742,1,0,0:0:0:0:
128,320,46742,1,0,0:0:0:0:
384,320,46742,1,0,0:0:0:0:
469,320,46742,1,0,0:0:0:0:
213,320,46820,1,0,0:0:0:0:
298,320,46820,1,0,0:0:0:0:
42,320,46899,1,0,0:0:0:0:
128,320,46899,1,0,0:0:0:0:
384,320,46899,1,0,0:0:0:0:
469,320,46899,1,0,0:0:0:0:
213,320,46977,1,0,0:0:0:0:
298,320,46977,1,0,0:0:0:0:
42,320,47056,128,0,48312:0:0:0:0:
469,320,47056,1,0,0:0:0:0:
128,192,47056,1,0,0:0:0:0:
384,320,47134,1,0,0:0:0:0:
298,320,47213,1,0,0:0:0:0:
213,320,47291,1,0,0:0:0:0:
384,320,47370,1,0,0:0:0:0:
298,320,47448,1,0,0:0:0:0:
213,320,47527,1,0,0:0:0:0:
128,320,47605,1,0,0:0:0:0:
469,320,47684,1,0,0:0:0:0:
384,320,47762,1,0,0:0:0:0:
213,320,47841,1,0,0:0:0:0:
128,320,47920,1,0,0:0:0:0:
384,320,47998,1,0,0:0:0:0:
298,320,48077,1,0,0:0:0:0:
213,320,48155,1,0,0:0:0:0:
128,320,48234,1,0,0:0:0:0:
384,320,48312,1,0,0:0:0:0:
469,320,48312,1,0,0:0:0:0:
469,320,48783,1,0,0:0:0:0:
298,320,48783,1,0,0:0:0:0:
384,320,49098,1,0,0:0:0:0:
128,320,49412,1,0,0:0:0:0:
298,320,49412,1,0,0:0:0:0:
42,192,50197,1,0,0:0:0:0:
384,192,50668,1,0,0:0:0:0:
128,192,50668,1,0,0:0:0:0:
42,320,51139,1,0,0:0:0:0:
213,320,51454,1,0,0:0:0:0:
298,320,51611,1,0,0:0:0:0:
384,320,51768,1,0,0:0:0:0:
128,320,51925,1,0,0:0:0:0:
298,320,51925,1,0,0:0:0:0:
469,320,52239,1,0,0:0:0:0:
384,320,52396,1,0,0:0:0:0:
42,320,52553,128,0,53338:0:0:0:0:
128,320,52553,1,0,0:0:0:0:
298,320,52553,1,0,0:0:0:0:
384,320,52867,1,0,0:0:0:0:
213,320,53024,1,0,0:0:0:0:
384,320,53103,1,0,0:0:0:0:
298,320,53181,1,0,0:0:0:0:
128,320,53260,1,0,0:0:0:0:
213,320,53338,1,0,0:0:0:0:
384,320,53338,1,0,0:0:0:0:
469,320,53338,1,0,0:0:0:0:
128,320,53495,1,0,0:0:0:0:
42,320,53653,1,0,0:0:0:0:
128,320,53810,1,0,0:0:0:0:
384,320,53810,1,0,0:0:0:0:
469,320,53810,1,0,0:0:0:0:
298,320,53967,1,0,0:0:0:0:
213,320,54124,1,0,0:0:0:0:
384,320,54124,1,0,0:0:0:0:
42,320,54281,1,0,0:0:0:0:
128,320,54438,1,0,0:0:0:0:
298,320,54438,1,0,0:0:0:0:
469,320,54438,1,0,0:0:0:0:
213,320,54595,1,0,0:0:0:0:
42,320,54752,1,0,0:0:0:0:
384,320,54752,1,0,0:0:0:0:
298,192,54831,1,0,0:0:0:0:
213,320,54909,1,0,0:0:0:0:
469,320,54909,1,0,0:0:0:0:
128,320,55066,1,0,0:0:0:0:
384,320,55066,1,0,0:0:0:0:
213,320,55223,1,0,0:0:0:0:
298,320,55223,1,0,0:0:0:0:
469,192,55223,1,0,0:0:0:0:
42,320,55380,1,0,0:0:0:0:
128,320,55537,1,0,0:0:0:0:
384,320,55694,1,0,0:0:0:0:
213,320,55694,1,0,0:0:0:0:
469,320,55694,1,0,0:0:0:0:
42,320,55851,1,0,0:0:0:0:
298,320,56009,1,0,0:0:0:0:
469,192,56009,1,0,0:0:0:0:
213,320,56166,1,0,0:0:0:0:
384,192,56166,1,0,0:0:0:0:
128,320,56323,1,0,0:0:0:0:
42,320,56480,1,0,0:0:0:0:
384,320,56480,1,0,0:0:0:0:
128,320,56637,1,0,0:0:0:0:
469,320,56637,1,0,0:0:0:0:
213,320,56794,1,0,0:0:0:0:
384,320,56794,1,0,0:0:0:0:
128,320,56951,1,0,0:0:0:0:
42,320,56951,1,0,0:0:0:0:
298,320,56951,1,0,0:0:0:0:
213,320,57108,1,0,0:0:0:0:
469,320,57265,1,0,0:0:0:0:
298,192,57265,1,0,0:0:0:0:
384,320,57422,1,0,0:0:0:0:
213,192,57422,1,0,0:0:0:0:
42,320,57579,1,0,0:0:0:0:
298,320,57579,1,0,0:0:0:0:
128,192,57579,1,0,0:0:0:0:
384,320,57736,1,0,0:0:0:0:
128,320,57893,1,0,0:0:0:0:
298,320,57893,128,0,57972:0:0:0:0:
42,320,57972,128,0,58050:0:0:0:0:
213,320,58050,128,0,58129:0:0:0:0:
469,192,58050,1,0,0:0:0:0:
384,320,58129,128,0,58207:0:0:0:0:
128,192,58129,1,0,0:0:0:0:
298,320,58207,128,0,58286:0:0:0:0:
42,192,58207,1,0,0:0:0:0:
213,320,58286,128,0,58365:0:0:0:0:
469,192,58286,1,0,0:0:0:0:
384,320,58365,128,0,58836:0:0:0:0:
42,320,58365,128,0,58836:0:0:0:0:
128,192,58365,1,0,0:0:0:0:
128,320,58679,1,0,0:0:0:0:
298,192,58679,1,0,0:0:0:0:
298,320,58836,1,0,0:0:0:0:
213,320,58836,128,0,59150:0:0:0:0:
469,320,58836,128,0,59150:0:0:0:0:
128,192,58836,1,0,0:0:0:0:
42,320,59150,1,0,0:0:0:0:
128,320,59150,128,0,59464:0:0:0:0:
298,320,59150,1,0,0:0:0:0:
384,320,59150,128,0,59464:0:0:0:0:
42,320,59464,128,0,60249:0:0:0:0:
213,320,59464,1,0,0:0:0:0:
298,320,59464,128,0,60249:0:0:0:0:
469,320,59464,1,0,0:0:0:0:
384,320,59621,1,0,0:0:0:0:
128,320,59778,1,0,0:0:0:0:
469,320,59778,1,0,0:0:0:0:
384,192,59935,1,0,0:0:0:0:
128,320,60092,1,0,0:0:0:0:
213,192,60092,1,0,0:0:0:0:
469,320,60249,1,0,0:0:0:0:
213,192,60249,1,0,0:0:0:0:
384,320,60328,1,0,0:0:0:0:
128,192,60406,1,0,0:0:0:0:
42,192,60406,1,0,0:0:0:0:
298,192,60485,1,0,0:0:0:0:
384,192,60485,1,0,0:0:0:0:
128,192,60563,1,0,0:0:0:0:
469,192,60563,1,0,0:0:0:0:
213,320,60642,1,0,0:0:0:0:
298,192,60642,1,0,0:0:0:0:
128,320,60721,128,0,61035:0:0:0:0:
42,320,60721,128,0,61035:0:0:0:0:
384,320,60721,1,0,0:0:0:0:
469,320,60721,1,0,0:0:0:0:
213,320,61035,1,0,0:0:0:0:
469,320,61035,128,0,61113:0:0:0:0:
298,192,61035,1,0,0:0:0:0:
384,192,61113,128,0,61192:0:0:0:0:
42,320,61192,1,0,0:0:0:0:
213,320,61192,128,0,61506:0:0:0:0:
128,192,61192,1,0,0:0:0:0:
384,192,61349,1,0,0:0:0:0:
42,320,61506,1,0,0:0:0:0:
128,320,61506,128,0,61663:0:0:0:0:
298,320,61506,128,0,61663:0:0:0:0:
213,320,61663,128,0,61820:0:0:0:0:
384,320,61663,128,0,61820:0:0:0:0:
128,320,61820,1,0,0:0:0:0:
298,320,61820,128,0,61977:0:0:0:0:
469,320,61820,128,0,61977:0:0:0:0:
213,320,61977,128,0,62134:0:0:0:0:
384,320,61977,128,0,62134:0:0:0:0:
128,320,62134,1,0,0:0:0:0:
42,192,62134,1,0,0:0:0:0:
298,320,62291,128,0,62448:0:0:0:0:
469,320,62291,128,0,62448:0:0:0:0:
42,320,62448,1,0,0:0:0:0:
213,320,62448,128,0,62605:0:0:0:0:
384,320,62448,128,0,62605:0:0:0:0:
128,320,62605,128,0,62920:0:0:0:0:
298,320,62605,128,0,62920:0:0:0:0:
469,320,62762,1,0,0:0:0:0:
384,192,62762,1,0,0:0:0:0:
42,320,62920,128,0,63077:0:0:0:0:
213,320,62920,128,0,63077:0:0:0:0:
128,320,63077,128,0,63155:0:0:0:0:
298,320,63077,1,0,0:0:0:0:
469,320,63077,1,0,0:0:0:0:
384,320,63155,128,0,63234:0:0:0:0:
213,320,63155,1,0,0:0:0:0:
128,320,63234,128,0,63312:0:0:0:0:
298,320,63234,1,0,0:0:0:0:
213,320,63312,128,0,63391:0:0:0:0:
42,320,63391,1,0,0:0:0:0:
384,320,63391,128,0,63705:0:0:0:0:
469,320,63391,128,0,64176:0:0:0:0:
298,192,63391,1,0,0:0:0:0:
213,192,63548,1,0,0:0:0:0:
128,192,63705,1,0,0:0:0:0:
298,192,63705,1,0,0:0:0:0:
42,320,63862,128,0,64176:0:0:0:0:
384,192,64019,1,0,0:0:0:0:
298,192,64019,1,0,0:0:0:0:
128,320,64176,128,0,64490:0:0:0:0:
213,192,64333,1,0,0:0:0:0:
384,192,64333,1,0,0:0:0:0:
42,320,64490,128,0,65276:0:0:0:0:
298,192,64490,128,0,64804:0:0:0:0:
384,192,64490,1,0,0:0:0:0:
469,192,64490,1,0,0:0:0:0:
213,192,64647,1,0,0:0:0:0:
128,320,64804,128,0,64961:0:0:0:0:
469,192,64804,1,0,0:0:0:0:
384,192,64804,1,0,0:0:0:0:
213,320,64961,128,0,65118:0:0:0:0:
469,192,64961,1,0,0:0:0:0:
298,192,64961,1,0,0:0:0:0:
128,320,65118,128,0,65276:0:0:0:0:
213,320,65276,128,0,65747:0:0:0:0:
469,320,65276,1,0,0:0:0:0:
384,192,65276,1,0,0:0:0:0:
298,192,65354,1,0,0:0:0:0:
384,192,65433,1,0,0:0:0:0:
469,192,65511,1,0,0:0:0:0:
128,320,65590,1,0,0:0:0:0:
42,320,65590,1,0,0:0:0:0:
128,320,65747,128,0,66061:0:0:0:0:
298,320,65747,128,0,66061:0:0:0:0:
469,192,65747,128,0,65904:0:0:0:0:
42,192,65747,1,0,0:0:0:0:
213,320,66061,128,0,66218:0:0:0:0:
384,320,66061,128,0,66218:0:0:0:0:
469,320,66061,1,0,0:0:0:0:
298,320,66218,128,0,66532:0:0:0:0:
469,320,66218,128,0,66532:0:0:0:0:
42,192,66218,128,0,66375:0:0:0:0:
128,192,66375,1,0,0:0:0:0:
213,192,66375,1,0,0:0:0:0:
384,192,66532,1,0,0:0:0:0:
42,192,66532,128,0,67160:0:0:0:0:
213,192,66532,128,0,66689:0:0:0:0:
384,192,66689,128,0,66846:0:0:0:0:
298,192,66689,1,0,0:0:0:0:
128,192,66768,1,0,0:0:0:0:
469,320,66846,1,0,0:0:0:0:
213,192,66846,128,0,66925:0:0:0:0:
384,192,66925,1,0,0:0:0:0:
128,192,66925,128,0,67003:0:0:0:0:
298,192,67003,1,0,0:0:0:0:
469,192,67003,128,0,67082:0:0:0:0:
213,320,67082,1,0,0:0:0:0:
384,192,67082,128,0,67160:0:0:0:0:
128,320,67160,128,0,67239:0:0:0:0:
298,320,67160,128,0,67239:0:0:0:0:
469,192,67160,128,0,67239:0:0:0:0:
128,320,67396,128,0,67474:0:0:0:0:
298,320,67396,128,0,67474:0:0:0:0:
469,320,67396,128,0,67474:0:0:0:0:
128,320,67632,128,0,67710:0:0:0:0:
213,320,67632,128,0,67710:0:0:0:0:
384,320,67632,128,0,67710:0:0:0:0:
42,320,67789,1,0,0:0:0:0:
298,320,67789,128,0,67867:0:0:0:0:
384,320,67789,128,0,67867:0:0:0:0:
469,320,67789,128,0,67867:0:0:0:0:
128,320,67867,1,0,0:0:0:0:
213,320,67906,1,0,0:0:0:0:
42,320,67946,1,0,0:0:0:0:
128,320,67985,1,0,0:0:0:0:
469,320,68024,1,0,0:0:0:0:
298,320,68024,128,0,68103:0:0:0:0:
384,320,68024,128,0,68103:0:0:0:0:
213,320,68024,128,0,68103:0:0:0:0:
42,320,68103,1,0,0:0:0:0:
128,320,68260,1,0,0:0:0:0:
213,320,68260,128,0,68338:0:0:0:0:
384,320,68260,128,0,68338:0:0:0:0:
469,320,68260,128,0,68338:0:0:0:0:
42,320,68417,128,0,70930:0:0:0:0:
298,320,68417,1,0,0:0:0:0:
469,320,68417,128,0,69673:0:0:0:0:
128,192,68417,1,0,0:0:0:0:
298,320,68888,1,0,0:0:0:0:
128,320,69359,1,0,0:0:0:0:
213,320,69673,1,0,0:0:0:0:
384,320,69673,1,0,0:0:0:0:
469,320,69831,1,0,0:0:0:0:
384,320,69909,1,0,0:0:0:0:
128,320,70145,1,0,0:0:0:0:
469,320,70145,1,0,0:0:0:0:
384,320,70223,1,0,0:0:0:0:
469,320,70459,1,0,0:0:0:0:
384,320,70537,1,0,0:0:0:0:
213,320,70616,1,0,0:0:0:0:
469,320,70773,1,0,0:0:0:0:
384,320,70851,1,0,0:0:0:0:
213,320,70930,1,0,0:0:0:0:
298,320,70930,1,0,0:0:0:0:
42,320,71087,1,0,0:0:0:0:
128,320,71166,1,0,0:0:0:0:
42,320,71401,1,0,0:0:0:0:
384,320,71401,1,0,0:0:0:0:
128,320,71480,1,0,0:0:0:0:
42,320,71715,1,0,0:0:0:0:
128,320,71794,1,0,0:0:0:0:
469,320,71872,1,0,0:0:0:0:
42,320,72029,1,0,0:0:0:0:
128,320,72108,1,0,0:0:0:0:
298,320,72187,1,0,0:0:0:0:
384,320,72187,1,0,0:0:0:0:
42,320,72344,1,0,0:0:0:0:
128,320,72422,1,0,0:0:0:0:
42,320,72658,1,0,0:0:0:0:
128,320,72736,1,0,0:0:0:0:
298,320,72815,1,0,0:0:0:0:
469,192,72815,1,0,0:0:0:0:
42,320,72972,1,0,0:0:0:0:
384,192,72972,1,0,0:0:0:0:
128,320,73050,1,0,0:0:0:0:
213,320,73129,1,0,0:0:0:0:
469,192,73129,1,0,0:0:0:0:
298,320,73207,1,0,0:0:0:0:
42,192,73207,1,0,0:0:0:0:
384,320,73286,1,0,0:0:0:0:
128,192,73286,1,0,0:0:0:0:
469,320,73365,1,0,0:0:0:0:
42,320,73443,1,0,0:0:0:0:
213,320,73443,1,0,0:0:0:0:
298,320,73443,1,0,0:0:0:0:
384,320,73522,1,0,0:0:0:0:
469,320,73600,1,0,0:0:0:0:
298,320,73679,1,0,0:0:0:0:
384,320,73757,1,0,0:0:0:0:
298,320,73836,1,0,0:0:0:0:
128,320,73914,1,0,0:0:0:0:
469,320,73914,1,0,0:0:0:0:
384,320,73993,1,0,0:0:0:0:
298,320,74071,1,0,0:0:0:0:
469,320,74150,1,0,0:0:0:0:
384,320,74228,1,0,0:0:0:0:
469,320,74307,1,0,0:0:0:0:
213,320,74385,1,0,0:0:0:0:
298,320,74385,1,0,0:0:0:0:
384,320,74464,1,0,0:0:0:0:
469,320,74543,1,0,0:0:0:0:
298,320,74621,1,0,0:0:0:0:
469,320,74700,1,0,0:0:0:0:
384,320,74700,1,0,0:0:0:0:
128,320,74700,1,0,0:0:0:0:
42,320,74778,1,0,0:0:0:0:
213,320,74857,1,0,0:0:0:0:
128,320,74935,1,0,0:0:0:0:
42,320,75014,1,0,0:0:0:0:
213,320,75092,1,0,0:0:0:0:
298,320,75171,1,0,0:0:0:0:
128,320,75171,1,0,0:0:0:0:
42,320,75249,1,0,0:0:0:0:
128,320,75328,1,0,0:0:0:0:
213,320,75406,1,0,0:0:0:0:
42,320,75485,1,0,0:0:0:0:
128,320,75563,1,0,0:0:0:0:
384,320,75642,1,0,0:0:0:0:
213,320,75642,1,0,0:0:0:0:
42,320,75721,1,0,0:0:0:0:
213,320,75799,1,0,0:0:0:0:
128,320,75878,1,0,0:0:0:0:
42,320,75956,1,0,0:0:0:0:
298,320,75956,1,0,0:0:0:0:
384,320,75956,1,0,0:0:0:0:
128,320,76035,1,0,0:0:0:0:
469,320,76035,1,0,0:0:0:0:
213,320,76113,1,0,0:0:0:0:
384,320,76113,1,0,0:0:0:0:
42,320,76192,1,0,0:0:0:0:
298,320,76192,1,0,0:0:0:0:
128,320,76270,1,0,0:0:0:0:
469,320,76270,1,0,0:0:0:0:
213,320,76349,1,0,0:0:0:0:
384,320,76349,1,0,0:0:0:0:
128,320,76427,1,0,0:0:0:0:
469,320,76427,1,0,0:0:0:0:
42,320,76506,1,0,0:0:0:0:
298,320,76506,1,0,0:0:0:0:
213,320,76584,1,0,0:0:0:0:
384,320,76584,1,0,0:0:0:0:
469,320,76584,1,0,0:0:0:0:
128,320,76663,1,0,0:0:0:0:
298,320,76663,1,0,0:0:0:0:
42,320,76742,1,0,0:0:0:0:
384,320,76742,1,0,0:0:0:0:
213,320,76820,1,0,0:0:0:0:
469,320,76820,1,0,0:0:0:0:
128,320,76899,1,0,0:0:0:0:
298,320,76899,1,0,0:0:0:0:
213,320,76977,1,0,0:0:0:0:
384,320,76977,1,0,0:0:0:0:
42,320,77056,1,0,0:0:0:0:
469,320,77056,1,0,0:0:0:0:
128,320,77134,1,0,0:0:0:0:
298,320,77134,1,0,0:0:0:0:
42,320,77213,1,0,0:0:0:0:
384,320,77213,1,0,0:0:0:0:
469,320,77213,1,0,0:0:0:0:
213,320,77291,1,0,0:0:0:0:
298,320,77291,1,0,0:0:0:0:
128,320,77370,1,0,0:0:0:0:
384,320,77370,1,0,0:0:0:0:
42,320,77448,1,0,0:0:0:0:
469,320,77448,1,0,0:0:0:0:
128,320,77527,1,0,0:0:0:0:
384,320,77527,1,0,0:0:0:0:
298,320,77527,1,0,0:0:0:0:
213,320,77605,1,0,0:0:0:0:
469,320,77605,1,0,0:0:0:0:
128,320,77684,1,0,0:0:0:0:
384,320,77684,1,0,0:0:0:0:
42,320,77762,1,0,0:0:0:0:
298,320,77762,1,0,0:0:0:0:
469,320,77841,1,0,0:0:0:0:
213,320,77841,1,0,0:0:0:0:
384,320,77841,1,0,0:0:0:0:
42,320,77920,1,0,0:0:0:0:
128,192,77920,1,0,0:0:0:0:
469,320,77998,1,0,0:0:0:0:
384,320,78024,1,0,0:0:0:0:
298,320,78050,1,0,0:0:0:0:
213,320,78077,1,0,0:0:0:0:
128,320,78103,1,0,0:0:0:0:
42,320,78129,1,0,0:0:0:0:
469,320,78155,1,0,0:0:0:0:
384,320,78181,1,0,0:0:0:0:
298,320,78207,1,0,0:0:0:0:
213,320,78234,1,0,0:0:0:0:
128,320,78260,1,0,0:0:0:0:
42,320,78286,1,0,0:0:0:0:
469,320,78312,1,0,0:0:0:0:
384,320,78338,1,0,0:0:0:0:
298,320,78365,1,0,0:0:0:0:
213,320,78391,1,0,0:0:0:0:
128,320,78417,1,0,0:0:0:0:
42,320,78443,1,0,0:0:0:0:
213,320,78469,1,0,0:0:0:0:
298,320,78469,1,0,0:0:0:0:
384,320,78469,1,0,0:0:0:0:
469,320,78469,1,0,0:0:0:0:
213,320,78705,1,0,0:0:0:0:
298,320,78705,1,0,0:0:0:0:
384,320,78705,1,0,0:0:0:0:
469,320,78705,1,0,0:0:0:0:
213,320,78940,1,0,0:0:0:0:
298,320,78940,1,0,0:0:0:0:
384,320,78940,1,0,0:0:0:0:
469,320,78940,1,0,0:0:0:0:
128,320,79255,1,0,0:0:0:0:
213,320,79333,1,0,0:0:0:0:
42,320,79412,128,0,79569:0:0:0:0:
384,320,79412,1,0,0:0:0:0:
298,320,79490,1,0,0:0:0:0:
128,320,79569,128,0,79726:0:0:0:0:
469,320,79569,1,0,0:0:0:0:
213,320,79647,1,0,0:0:0:0:
42,320,79726,128,0,79883:0:0:0:0:
384,320,79726,1,0,0:0:0:0:
298,320,79804,1,0,0:0:0:0:
213,320,79883,1,0,0:0:0:0:
469,320,79961,1,0,0:0:0:0:
42,192,79961,128,0,80040:0:0:0:0:
128,320,80040,128,0,80197:0:0:0:0:
384,320,80040,1,0,0:0:0:0:
298,320,80118,1,0,0:0:0:0:
384,320,80197,1,0,0:0:0:0:
469,320,80276,1,0,0:0:0:0:
128,192,80276,128,0,80354:0:0:0:0:
42,320,80354,1,0,0:0:0:0:
213,320,80354,128,0,80511:0:0:0:0:
298,320,80433,1,0,0:0:0:0:
384,320,80511,1,0,0:0:0:0:
469,320,80590,1,0,0:0:0:0:
213,192,80590,128,0,80668:0:0:0:0:
42,320,80668,128,0,80825:0:0:0:0:
128,320,80668,128,0,80825:0:0:0:0:
298,320,80668,1,0,0:0:0:0:
384,320,80747,1,0,0:0:0:0:
213,320,80825,1,0,0:0:0:0:
469,320,80904,1,0,0:0:0:0:
42,192,80904,128,0,80982:0:0:0:0:
213,320,80982,1,0,0:0:0:0:
384,320,80982,1,0,0:0:0:0:
298,320,80982,1,0,0:0:0:0:
128,192,80982,1,0,0:0:0:0:
213,320,81218,1,0,0:0:0:0:
298,320,81218,1,0,0:0:0:0:
384,320,81218,1,0,0:0:0:0:
128,192,81218,1,0,0:0:0:0:
128,320,81454,1,0,0:0:0:0:
298,320,81454,1,0,0:0:0:0:
384,192,81454,1,0,0:0:0:0:
469,192,81454,1,0,0:0:0:0:
128,320,81611,1,0,0:0:0:0:
213,320,81689,1,0,0:0:0:0:
298,320,81768,1,0,0:0:0:0:
213,320,81846,1,0,0:0:0:0:
384,192,81925,1,0,0:0:0:0:
213,320,82003,1,0,0:0:0:0:
42,320,82082,128,0,82553:0:0:0:0:
128,320,82082,128,0,82396:0:0:0:0:
298,320,82082,1,0,0:0:0:0:
469,320,82082,1,0,0:0:0:0:
384,320,82160,1,0,0:0:0:0:
213,320,82239,1,0,0:0:0:0:
384,192,82317,1,0,0:0:0:0:
213,192,82396,1,0,0:0:0:0:
298,192,82474,1,0,0:0:0:0:
469,192,82553,128,0,82867:0:0:0:0:
384,192,82553,128,0,82867:0:0:0:0:
128,192,82553,1,0,0:0:0:0:
213,192,82632,1,0,0:0:0:0:
298,192,82710,1,0,0:0:0:0:
128,192,82789,1,0,0:0:0:0:
42,192,82867,1,0,0:0:0:0:
213,192,82867,1,0,0:0:0:0:
298,192,82946,1,0,0:0:0:0:
128,192,83024,1,0,0:0:0:0:
384,192,83103,1,0,0:0:0:0:
469,320,83181,1,0,0:0:0:0:
42,192,83181,1,0,0:0:0:0:
298,192,83181,1,0,0:0:0:0:
213,192,83260,1,0,0:0:0:0:
128,192,83260,1,0,0:0:0:0:
469,320,83338,1,0,0:0:0:0:
42,192,83338,1,0,0:0:0:0:
384,320,83378,1,0,0:0:0:0:
298,320,83417,1,0,0:0:0:0:
213,320,83456,1,0,0:0:0:0:
42,320,83495,128,0,83967:0:0:0:0:
128,320,83495,1,0,0:0:0:0:
469,320,83495,1,0,0:0:0:0:
384,320,83574,1,0,0:0:0:0:
213,320,83653,1,0,0:0:0:0:
298,320,83731,1,0,0:0:0:0:
128,320,83810,1,0,0:0:0:0:
469,320,83810,1,0,0:0:0:0:
213,320,83888,1,0,0:0:0:0:
384,320,83967,1,0,0:0:0:0:
298,320,84045,1,0,0:0:0:0:
42,320,84124,128,0,84438:0:0:0:0:
128,320,84124,1,0,0:0:0:0:
469,320,84124,1,0,0:0:0:0:
213,320,84202,1,0,0:0:0:0:
384,320,84281,1,0,0:0:0:0:
298,320,84359,1,0,0:0:0:0:
128,320,84438,1,0,0:0:0:0:
213,320,84438,1,0,0:0:0:0:
469,320,84438,128,0,84752:0:0:0:0:
384,320,84516,1,0,0:0:0:0:
128,320,84595,1,0,0:0:0:0:
42,192,84595,1,0,0:0:0:0:
213,320,84673,1,0,0:0:0:0:
42,320,84752,1,0,0:0:0:0:
298,320,84752,128,0,85223:0:0:0:0:
384,320,84752,1,0,0:0:0:0:
128,320,84831,1,0,0:0:0:0:
213,320,84909,1,0,0:0:0:0:
384,320,84909,1,0,0:0:0:0:
469,320,84988,1,0,0:0:0:0:
42,320,85066,1,0,0:0:0:0:
128,320,85066,1,0,0:0:0:0:
213,320,85145,1,0,0:0:0:0:
42,320,85223,1,0,0:0:0:0:
469,320,85223,1,0,0:0:0:0:
128,320,85302,1,0,0:0:0:0:
213,320,85380,1,0,0:0:0:0:
298,320,85380,1,0,0:0:0:0:
384,320,85380,128,0,85694:0:0:0:0:
42,320,85459,1,0,0:0:0:0:
128,320,85537,1,0,0:0:0:0:
298,320,85537,1,0,0:0:0:0:
213,320,85616,1,0,0:0:0:0:
42,320,85694,1,0,0:0:0:0:
298,320,85694,1,0,0:0:0:0:
469,320,85694,128,0,85930:0:0:0:0:
128,320,85773,1,0,0:0:0:0:
213,320,85851,1,0,0:0:0:0:
298,320,85851,1,0,0:0:0:0:
128,320,85930,1,0,0:0:0:0:
384,320,85930,1,0,0:0:0:0:
42,320,86009,128,0,88207:0:0:0:0:
213,320,86009,1,0,0:0:0:0:
298,320,86009,1,0,0:0:0:0:
469,320,86009,1,0,0:0:0:0:
128,320,86087,1,0,0:0:0:0:
298,320,86166,1,0,0:0:0:0:
384,320,86166,1,0,0:0:0:0:
213,320,86244,1,0,0:0:0:0:
128,320,86323,1,0,0:0:0:0:
469,320,86323,1,0,0:0:0:0:
298,320,86401,1,0,0:0:0:0:
128,320,86480,1,0,0:0:0:0:
213,320,86480,1,0,0:0:0:0:
384,320,86480,1,0,0:0:0:0:
469,320,86558,1,0,0:0:0:0:
298,320,86637,1,0,0:0:0:0:
384,320,86637,1,0,0:0:0:0:
213,320,86715,1,0,0:0:0:0:
128,320,86794,1,0,0:0:0:0:
298,320,86794,1,0,0:0:0:0:
469,320,86872,1,0,0:0:0:0:
128,320,86951,1,0,0:0:0:0:
213,320,86951,1,0,0:0:0:0:
384,320,86951,1,0,0:0:0:0:
298,320,87029,1,0,0:0:0:0:
128,320,87108,1,0,0:0:0:0:
469,320,87108,1,0,0:0:0:0:
384,320,87187,1,0,0:0:0:0:
213,320,87265,1,0,0:0:0:0:
298,320,87265,1,0,0:0:0:0:
384,320,87344,1,0,0:0:0:0:
128,320,87422,1,0,0:0:0:0:
213,320,87422,1,0,0:0:0:0:
469,320,87422,1,0,0:0:0:0:
298,320,87501,1,0,0:0:0:0:
384,320,87579,1,0,0:0:0:0:
469,320,87579,1,0,0:0:0:0:
213,320,87658,1,0,0:0:0:0:
128,320,87736,1,0,0:0:0:0:
298,320,87736,1,0,0:0:0:0:
384,320,87815,1,0,0:0:0:0:
128,320,87893,1,0,0:0:0:0:
213,320,87893,1,0,0:0:0:0:
469,320,87893,1,0,0:0:0:0:
298,320,87972,1,0,0:0:0:0:
384,320,88050,1,0,0:0:0:0:
469,192,88050,1,0,0:0:0:0:
213,192,88129,1,0,0:0:0:0:
469,320,88207,1,0,0:0:0:0:
128,192,88207,1,0,0:0:0:0:
384,320,88247,1,0,0:0:0:0:
298,320,88286,1,0,0:0:0:0:
213,320,88325,1,0,0:0:0:0:
128,192,88365,1,0,0:0:0:0:
42,192,88365,1,0,0:0:0:0:
469,320,88443,1,0,0:0:0:0:
384,320,88443,1,0,0:0:0:0:
128,320,88522,1,0,0:0:0:0:
213,320,88522,1,0,0:0:0:0:
298,320,88522,1,0,0:0:0:0:
42,192,88522,1,0,0:0:0:0:
128,320,88757,1,0,0:0:0:0:
42,192,88757,1,0,0:0:0:0:
298,192,88757,1,0,0:0:0:0:
213,192,88757,1,0,0:0:0:0:
128,320,88993,1,0,0:0:0:0:
384,320,88993,1,0,0:0:0:0:
42,192,88993,1,0,0:0:0:0:
298,192,88993,1,0,0:0:0:0:
128,320,89228,1,0,0:0:0:0:
384,320,89228,1,0,0:0:0:0:
42,192,89228,1,0,0:0:0:0:
298,192,89228,1,0,0:0:0:0:
128,320,89464,1,0,0:0:0:0:
384,320,89464,1,0,0:0:0:0:
42,192,89464,1,0,0:0:0:0:
298,192,89464,1,0,0:0:0:0:
298,320,89621,1,0,0:0:0:0:
384,320,89621,1,0,0:0:0:0:
469,320,89621,1,0,0:0:0:0:
42,192,89621,1,0,0:0:0:0:
128,192,89700,1,0,0:0:0:0:
213,192,89700,1,0,0:0:0:0:
42,320,89778,1,0,0:0:0:0:
298,320,89778,128,0,90249:0:0:0:0:
469,320,89778,1,0,0:0:0:0:
213,320,89935,1,0,0:0:0:0:
384,320,89935,1,0,0:0:0:0:
42,320,90092,1,0,0:0:0:0:
128,320,90092,1,0,0:0:0:0:
384,320,90171,1,0,0:0:0:0:
42,320,90249,1,0,0:0:0:0:
469,320,90249,1,0,0:0:0:0:
128,320,90328,1,0,0:0:0:0:
384,320,90406,1,0,0:0:0:0:
213,320,90406,128,0,90721:0:0:0:0:
298,320,90406,1,0,0:0:0:0:
42,320,90485,1,0,0:0:0:0:
128,192,90485,1,0,0:0:0:0:
469,320,90563,1,0,0:0:0:0:
384,320,90563,1,0,0:0:0:0:
42,320,90642,1,0,0:0:0:0:
298,320,90642,1,0,0:0:0:0:
128,320,90721,128,0,91035:0:0:0:0:
384,320,90721,1,0,0:0:0:0:
469,320,90721,1,0,0:0:0:0:
213,320,90799,1,0,0:0:0:0:
298,320,90799,1,0,0:0:0:0:
384,320,90878,1,0,0:0:0:0:
469,320,90878,1,0,0:0:0:0:
213,320,90956,1,0,0:0:0:0:
298,320,90956,1,0,0:0:0:0:
42,320,91035,128,0,92605:0:0:0:0:
384,320,91035,1,0,0:0:0:0:
213,320,91087,1,0,0:0:0:0:
469,320,91139,1,0,0:0:0:0:
128,320,91192,1,0,0:0:0:0:
298,192,91192,1,0,0:0:0:0:
384,192,91244,1,0,0:0:0:0:
213,192,91296,1,0,0:0:0:0:
469,320,91349,1,0,0:0:0:0:
128,192,91401,1,0,0:0:0:0:
298,192,91401,1,0,0:0:0:0:
384,320,91454,1,0,0:0:0:0:
213,192,91506,1,0,0:0:0:0:
469,192,91558,1,0,0:0:0:0:
128,192,91611,1,0,0:0:0:0:
298,192,91611,1,0,0:0:0:0:
384,192,91663,1,0,0:0:0:0:
213,192,91715,1,0,0:0:0:0:
469,192,91768,1,0,0:0:0:0:
128,192,91820,1,0,0:0:0:0:
298,192,91820,1,0,0:0:0:0:
384,192,91872,1,0,0:0:0:0:
213,192,91925,1,0,0:0:0:0:
469,192,91977,1,0,0:0:0:0:
128,192,92029,1,0,0:0:0:0:
298,192,92029,1,0,0:0:0:0:
384,192,92082,1,0,0:0:0:0:
213,192,92134,1,0,0:0:0:0:
469,192,92187,1,0,0:0:0:0:
128,192,92239,1,0,0:0:0:0:
213,320,92291,128,0,92605:0:0:0:0:
469,192,92605,1,0,0:0:0:0:
384,320,92632,1,0,0:0:0:0:
298,320,92658,1,0,0:0:0:0:
213,320,92684,1,0,0:0:0:0:
128,320,92710,1,0,0:0:0:0:
42,320,92736,1,0,0:0:0:0:
469,320,92762,1,0,0:0:0:0:
384,320,92789,1,0,0:0:0:0:
298,320,92815,1,0,0:0:0:0:
213,320,92841,1,0,0:0:0:0:
128,320,92867,1,0,0:0:0:0:
42,320,92893,1,0,0:0:0:0:
469,320,92920,1,0,0:0:0:0:
384,320,92946,1,0,0:0:0:0:
298,320,92972,1,0,0:0:0:0:
213,320,92998,1,0,0:0:0:0:
128,320,93024,1,0,0:0:0:0:
42,320,93050,1,0,0:0:0:0:
469,320,93077,1,0,0:0:0:0:
384,320,93103,1,0,0:0:0:0:
298,320,93129,1,0,0:0:0:0:
213,320,93155,1,0,0:0:0:0:
128,192,93181,1,0,0:0:0:0:
42,192,93207,1,0,0:0:0:0:
469,320,93234,1,0,0:0:0:0:
384,320,93234,1,0,0:0:0:0:
298,320,93234,1,0,0:0:0:0:
42,320,93548,1,0,0:0:0:0:
128,320,93548,1,0,0:0:0:0:
384,320,93548,1,0,0:0:0:0:
469,320,93548,1,0,0:0:0:0:
213,320,93626,1,0,0:0:0:0:
298,320,93626,1,0,0:0:0:0:
128,320,93705,1,0,0:0:0:0:
469,320,93705,1,0,0:0:0:0:
42,320,93783,1,0,0:0:0:0:
384,320,93783,1,0,0:0:0:0:
213,320,93862,1,0,0:0:0:0:
298,320,93862,1,0,0:0:0:0:
469,320,93862,1,0,0:0:0:0:
42,320,93940,1,0,0:0:0:0:
384,192,93940,1,0,0:0:0:0:
128,320,94019,1,0,0:0:0:0:
298,320,94019,1,0,0:0:0:0:
384,320,94098,1,0,0:0:0:0:
469,320,94098,1,0,0:0:0:0:
42,320,94176,1,0,0:0:0:0:
213,320,94176,1,0,0:0:0:0:
298,320,94176,1,0,0:0:0:0:
128,320,94255,1,0,0:0:0:0:
469,320,94255,1,0,0:0:0:0:
213,320,94333,1,0,0:0:0:0:
384,320,94333,1,0,0:0:0:0:
42,320,94412,1,0,0:0:0:0:
298,320,94412,1,0,0:0:0:0:
128,320,94490,1,0,0:0:0:0:
384,320,94490,1,0,0:0:0:0:
469,320,94490,1,0,0:0:0:0:
213,320,94569,1,0,0:0:0:0:
298,320,94569,1,0,0:0:0:0:
42,320,94647,1,0,0:0:0:0:
469,320,94647,1,0,0:0:0:0:
213,320,94726,1,0,0:0:0:0:
298,320,94726,1,0,0:0:0:0:
42,320,94804,1,0,0:0:0:0:
128,320,94804,1,0,0:0:0:0:
384,320,94804,1,0,0:0:0:0:
469,320,94804,1,0,0:0:0:0:
213,320,94883,1,0,0:0:0:0:
298,320,94883,1,0,0:0:0:0:
128,320,94961,1,0,0:0:0:0:
384,320,94961,1,0,0:0:0:0:
42,320,95040,1,0,0:0:0:0:
298,320,95040,1,0,0:0:0:0:
128,320,95118,1,0,0:0:0:0:
384,320,95118,1,0,0:0:0:0:
469,320,95118,1,0,0:0:0:0:
42,320,95197,1,0,0:0:0:0:
213,320,95197,1,0,0:0:0:0:
128,320,95276,1,0,0:0:0:0:
298,320,95276,1,0,0:0:0:0:
213,320,95354,1,0,0:0:0:0:
384,320,95354,1,0,0:0:0:0:
42,320,95433,1,0,0:0:0:0:
298,320,95433,1,0,0:0:0:0:
469,320,95433,1,0,0:0:0:0:
384,320,95511,1,0,0:0:0:0:
128,320,95511,1,0,0:0:0:0:
298,320,95590,1,0,0:0:0:0:
213,320,95590,1,0,0:0:0:0:
42,320,95668,1,0,0:0:0:0:
384,320,95668,1,0,0:0:0:0:
469,320,95668,1,0,0:0:0:0:
128,320,95747,1,0,0:0:0:0:
213,320,95747,1,0,0:0:0:0:
298,320,95747,1,0,0:0:0:0:
384,320,95825,1,0,0:0:0:0:
469,320,95825,1,0,0:0:0:0:
42,320,95904,1,0,0:0:0:0:
128,320,95904,1,0,0:0:0:0:
213,320,95904,1,0,0:0:0:0:
298,320,95982,1,0,0:0:0:0:
384,320,95982,1,0,0:0:0:0:
42,320,96061,1,0,0:0:0:0:
128,320,96061,1,0,0:0:0:0:
213,320,96061,1,0,0:0:0:0:
469,320,96061,1,0,0:0:0:0:
298,320,96139,1,0,0:0:0:0:
384,320,96139,1,0,0:0:0:0:
42,320,96218,1,0,0:0:0:0:
469,320,96218,1,0,0:0:0:0:
128,320,96296,1,0,0:0:0:0:
213,320,96296,1,0,0:0:0:0:
42,320,96375,1,0,0:0:0:0:
298,320,96375,1,0,0:0:0:0:
384,320,96375,1,0,0:0:0:0:
128,320,96454,1,0,0:0:0:0:
469,320,96454,1,0,0:0:0:0:
213,320,96532,1,0,0:0:0:0:
384,320,96532,1,0,0:0:0:0:
42,320,96611,1,0,0:0:0:0:
298,320,96611,1,0,0:0:0:0:
128,320,96689,1,0,0:0:0:0:
384,320,96689,1,0,0:0:0:0:
469,320,96689,1,0,0:0:0:0:
213,320,96768,1,0,0:0:0:0:
298,320,96768,1,0,0:0:0:0:
42,320,96846,1,0,0:0:0:0:
128,320,96846,1,0,0:0:0:0:
384,320,96925,1,0,0:0:0:0:
469,320,96925,1,0,0:0:0:0:
128,320,97003,1,0,0:0:0:0:
213,320,97003,1,0,0:0:0:0:
298,320,97003,1,0,0:0:0:0:
42,320,97082,1,0,0:0:0:0:
384,192,97082,1,0,0:0:0:0:
128,320,97160,1,0,0:0:0:0:
213,320,97160,1,0,0:0:0:0:
384,320,97239,1,0,0:0:0:0:
469,192,97239,1,0,0:0:0:0:
298,320,97317,1,0,0:0:0:0:
42,320,97317,1,0,0:0:0:0:
128,320,97317,1,0,0:0:0:0:
213,320,97317,1,0,0:0:0:0:
469,320,97396,1,0,0:0:0:0:
384,320,97396,1,0,0:0:0:0:
213,320,97474,1,0,0:0:0:0:
298,320,97474,1,0,0:0:0:0:
42,320,97553,1,0,0:0:0:0:
128,320,97553,1,0,0:0:0:0:
213,320,97632,1,0,0:0:0:0:
384,320,97632,1,0,0:0:0:0:
469,320,97632,1,0,0:0:0:0:
128,320,97710,1,0,0:0:0:0:
298,320,97736,1,0,0:0:0:0:
42,320,97789,1,0,0:0:0:0:
384,320,97841,1,0,0:0:0:0:
213,320,97867,1,0,0:0:0:0:
128,320,97946,1,0,0:0:0:0:
298,320,97946,1,0,0:0:0:0:
469,320,97946,1,0,0:0:0:0:
42,320,98024,1,0,0:0:0:0:
384,320,98024,1,0,0:0:0:0:
128,320,98103,1,0,0:0:0:0:
213,320,98103,1,0,0:0:0:0:
469,320,98181,1,0,0:0:0:0:
384,192,98181,1,0,0:0:0:0:
298,192,98181,1,0,0:0:0:0:
213,320,98260,1,0,0:0:0:0:
128,320,98260,1,0,0:0:0:0:
42,192,98260,1,0,0:0:0:0:
469,320,98338,1,0,0:0:0:0:
298,192,98338,1,0,0:0:0:0:
42,192,98417,1,0,0:0:0:0:
128,192,98417,1,0,0:0:0:0:
384,192,98417,1,0,0:0:0:0:
298,320,98495,1,0,0:0:0:0:
213,192,98495,1,0,0:0:0:0:
42,320,98574,1,0,0:0:0:0:
128,320,98574,1,0,0:0:0:0:
384,320,98574,1,0,0:0:0:0:
469,320,98574,1,0,0:0:0:0:
213,320,98653,1,0,0:0:0:0:
298,320,98653,1,0,0:0:0:0:
42,320,98731,1,0,0:0:0:0:
384,320,98731,1,0,0:0:0:0:
128,320,98810,1,0,0:0:0:0:
469,320,98810,1,0,0:0:0:0:
42,320,98888,1,0,0:0:0:0:
213,320,98888,1,0,0:0:0:0:
298,320,98888,1,0,0:0:0:0:
384,320,98967,1,0,0:0:0:0:
469,320,98967,1,0,0:0:0:0:
128,320,99045,1,0,0:0:0:0:
213,320,99045,1,0,0:0:0:0:
298,320,99124,1,0,0:0:0:0:
384,320,99124,1,0,0:0:0:0:
42,320,99202,1,0,0:0:0:0:
128,320,99202,1,0,0:0:0:0:
469,320,99202,1,0,0:0:0:0:
298,320,99281,1,0,0:0:0:0:
384,320,99281,1,0,0:0:0:0:
42,320,99359,1,0,0:0:0:0:
128,320,99359,1,0,0:0:0:0:
213,320,99438,1,0,0:0:0:0:
298,320,99438,1,0,0:0:0:0:
42,320,99516,1,0,0:0:0:0:
384,320,99516,1,0,0:0:0:0:
469,320,99516,1,0,0:0:0:0:
128,320,99595,1,0,0:0:0:0:
298,320,99595,1,0,0:0:0:0:
213,320,99673,1,0,0:0:0:0:
469,320,99673,1,0,0:0:0:0:
42,320,99752,1,0,0:0:0:0:
298,320,99752,1,0,0:0:0:0:
128,320,99831,1,0,0:0:0:0:
213,320,99831,1,0,0:0:0:0:
384,320,99831,1,0,0:0:0:0:
469,320,99831,1,0,0:0:0:0:
42,320,99909,1,0,0:0:0:0:
298,320,99909,1,0,0:0:0:0:
128,320,99988,1,0,0:0:0:0:
469,320,99988,1,0,0:0:0:0:
213,320,100066,1,0,0:0:0:0:
384,320,100066,1,0,0:0:0:0:
42,320,100145,1,0,0:0:0:0:
128,320,100145,1,0,0:0:0:0:
298,320,100145,1,0,0:0:0:0:
213,320,100223,1,0,0:0:0:0:
469,320,100223,1,0,0:0:0:0:
42,320,100302,1,0,0:0:0:0:
384,320,100302,1,0,0:0:0:0:
128,320,100380,1,0,0:0:0:0:
298,320,100380,1,0,0:0:0:0:
213,320,100459,1,0,0:0:0:0:
384,320,100459,1,0,0:0:0:0:
469,320,100459,1,0,0:0:0:0:
42,320,100537,1,0,0:0:0:0:
298,320,100537,1,0,0:0:0:0:
128,320,100616,1,0,0:0:0:0:
384,320,100616,1,0,0:0:0:0:
213,320,100694,1,0,0:0:0:0:
469,320,100694,1,0,0:0:0:0:
42,320,100773,1,0,0:0:0:0:
128,320,100773,1,0,0:0:0:0:
298,320,100773,1,0,0:0:0:0:
213,320,100851,1,0,0:0:0:0:
384,320,100851,1,0,0:0:0:0:
42,320,100930,1,0,0:0:0:0:
469,320,100930,1,0,0:0:0:0:
128,192,100930,1,0,0:0:0:0:
298,320,101009,1,0,0:0:0:0:
213,192,101009,1,0,0:0:0:0:
42,320,101087,1,0,0:0:0:0:
469,320,101087,1,0,0:0:0:0:
384,192,101087,1,0,0:0:0:0:
128,192,101087,1,0,0:0:0:0:
298,320,101166,1,0,0:0:0:0:
213,192,101166,1,0,0:0:0:0:
469,320,101244,1,0,0:0:0:0:
128,192,101244,1,0,0:0:0:0:
298,320,101323,1,0,0:0:0:0:
384,320,101323,1,0,0:0:0:0:
42,320,101401,1,0,0:0:0:0:
469,320,101401,1,0,0:0:0:0:
213,192,101401,1,0,0:0:0:0:
298,320,101480,1,0,0:0:0:0:
384,320,101480,1,0,0:0:0:0:
128,192,101558,1,0,0:0:0:0:
42,192,101558,1,0,0:0:0:0:
384,320,101637,1,0,0:0:0:0:
469,320,101637,1,0,0:0:0:0:
42,320,101715,1,0,0:0:0:0:
128,320,101715,1,0,0:0:0:0:
213,320,101715,1,0,0:0:0:0:
384,320,101794,1,0,0:0:0:0:
469,320,101794,1,0,0:0:0:0:
213,320,101872,1,0,0:0:0:0:
298,320,101872,1,0,0:0:0:0:
42,320,101951,1,0,0:0:0:0:
128,320,101951,1,0,0:0:0:0:
298,320,102029,1,0,0:0:0:0:
384,320,102029,1,0,0:0:0:0:
469,320,102029,1,0,0:0:0:0:
42,320,102108,1,0,0:0:0:0:
128,320,102108,1,0,0:0:0:0:
298,320,102187,1,0,0:0:0:0:
384,320,102187,1,0,0:0:0:0:
469,320,102187,1,0,0:0:0:0:
42,320,102265,1,0,0:0:0:0:
128,320,102265,1,0,0:0:0:0:
213,320,102344,1,0,0:0:0:0:
298,320,102344,1,0,0:0:0:0:
384,320,102344,1,0,0:0:0:0:
469,320,102344,1,0,0:0:0:0:
42,320,102422,1,0,0:0:0:0:
128,320,102422,1,0,0:0:0:0:
213,320,102501,1,0,0:0:0:0:
298,320,102501,1,0,0:0:0:0:
42,320,102579,1,0,0:0:0:0:
469,320,102579,1,0,0:0:0:0:
384,320,102579,1,0,0:0:0:0:
128,320,102658,1,0,0:0:0:0:
213,320,102658,1,0,0:0:0:0:
298,320,102658,1,0,0:0:0:0:
384,320,102736,1,0,0:0:0:0:
469,320,102736,1,0,0:0:0:0:
42,320,102815,1,0,0:0:0:0:
128,320,102815,1,0,0:0:0:0:
213,320,102815,1,0,0:0:0:0:
384,320,102893,1,0,0:0:0:0:
469,320,102893,1,0,0:0:0:0:
42,320,102972,128,0,103286:0:0:0:0:
128,320,102972,1,0,0:0:0:0:
213,320,102972,1,0,0:0:0:0:
298,320,103050,1,0,0:0:0:0:
384,320,103129,1,0,0:0:0:0:
469,320,103168,1,0,0:0:0:0:
213,320,103207,1,0,0:0:0:0:
298,320,103247,1,0,0:0:0:0:
128,320,103286,128,0,103600:0:0:0:0:
384,320,103286,1,0,0:0:0:0:
469,320,103286,1,0,0:0:0:0:
213,320,103365,1,0,0:0:0:0:
384,320,103443,1,0,0:0:0:0:
469,320,103443,1,0,0:0:0:0:
298,320,103522,1,0,0:0:0:0:
42,320,103600,128,0,104778:0:0:0:0:
213,320,103600,1,0,0:0:0:0:
384,320,103600,1,0,0:0:0:0:
469,320,103600,1,0,0:0:0:0:
128,320,103679,1,0,0:0:0:0:
298,320,103679,1,0,0:0:0:0:
213,320,103757,1,0,0:0:0:0:
469,320,103757,1,0,0:0:0:0:
298,320,103836,1,0,0:0:0:0:
384,320,103836,1,0,0:0:0:0:
128,320,103914,1,0,0:0:0:0:
213,320,103914,1,0,0:0:0:0:
469,320,103914,1,0,0:0:0:0:
298,320,103993,1,0,0:0:0:0:
384,320,103993,1,0,0:0:0:0:
128,320,104071,1,0,0:0:0:0:
469,320,104071,1,0,0:0:0:0:
213,320,104150,1,0,0:0:0:0:
298,320,104150,1,0,0:0:0:0:
128,320,104228,1,0,0:0:0:0:
469,320,104228,1,0,0:0:0:0:
384,320,104228,1,0,0:0:0:0:
213,320,104307,1,0,0:0:0:0:
298,320,104307,1,0,0:0:0:0:
128,320,104385,1,0,0:0:0:0:
384,320,104385,1,0,0:0:0:0:
469,320,104464,1,0,0:0:0:0:
298,320,104464,1,0,0:0:0:0:
128,320,104543,1,0,0:0:0:0:
213,320,104543,1,0,0:0:0:0:
384,320,104543,1,0,0:0:0:0:
298,320,104621,1,0,0:0:0:0:
469,320,104621,1,0,0:0:0:0:
213,320,104700,1,0,0:0:0:0:
384,320,104700,1,0,0:0:0:0:
128,320,104778,1,0,0:0:0:0:
298,320,104778,1,0,0:0:0:0:
42,320,104857,1,0,0:0:0:0:
213,320,104857,1,0,0:0:0:0:
384,320,104857,1,0,0:0:0:0:
469,320,104857,128,0,106035:0:0:0:0:
128,320,104935,1,0,0:0:0:0:
298,320,104935,1,0,0:0:0:0:
42,320,105014,1,0,0:0:0:0:
213,320,105014,1,0,0:0:0:0:
298,320,105092,1,0,0:0:0:0:
384,320,105092,1,0,0:0:0:0:
42,320,105171,1,0,0:0:0:0:
128,320,105171,1,0,0:0:0:0:
213,320,105171,1,0,0:0:0:0:
298,320,105249,1,0,0:0:0:0:
384,320,105249,1,0,0:0:0:0:
42,320,105328,1,0,0:0:0:0:
128,320,105328,1,0,0:0:0:0:
213,320,105406,1,0,0:0:0:0:
384,320,105406,1,0,0:0:0:0:
42,320,105485,1,0,0:0:0:0:
128,320,105485,1,0,0:0:0:0:
298,320,105485,1,0,0:0:0:0:
213,320,105563,1,0,0:0:0:0:
384,320,105563,1,0,0:0:0:0:
42,320,105642,1,0,0:0:0:0:
128,320,105642,1,0,0:0:0:0:
298,320,105721,1,0,0:0:0:0:
384,320,105721,1,0,0:0:0:0:
42,320,105799,1,0,0:0:0:0:
128,320,105799,1,0,0:0:0:0:
213,320,105799,1,0,0:0:0:0:
298,320,105878,1,0,0:0:0:0:
384,320,105878,1,0,0:0:0:0:
128,320,105956,1,0,0:0:0:0:
213,320,105956,1,0,0:0:0:0:
42,320,106035,1,0,0:0:0:0:
298,320,106035,1,0,0:0:0:0:
128,320,106113,1,0,0:0:0:0:
213,320,106113,1,0,0:0:0:0:
384,320,106113,1,0,0:0:0:0:
469,320,106113,1,0,0:0:0:0:
42,320,106192,1,0,0:0:0:0:
298,320,106192,1,0,0:0:0:0:
128,320,106270,1,0,0:0:0:0:
384,320,106270,1,0,0:0:0:0:
213,320,106349,1,0,0:0:0:0:
469,320,106349,1,0,0:0:0:0:
42,320,106427,1,0,0:0:0:0:
298,320,106427,1,0,0:0:0:0:
384,320,106427,1,0,0:0:0:0:
128,320,106506,1,0,0:0:0:0:
213,320,106506,1,0,0:0:0:0:
384,320,106584,1,0,0:0:0:0:
469,320,106584,1,0,0:0:0:0:
42,320,106663,1,0,0:0:0:0:
128,320,106663,1,0,0:0:0:0:
213,320,106742,1,0,0:0:0:0:
298,320,106742,1,0,0:0:0:0:
384,320,106742,1,0,0:0:0:0:
469,320,106742,1,0,0:0:0:0:
42,320,106820,1,0,0:0:0:0:
128,320,106820,1,0,0:0:0:0:
213,320,106899,1,0,0:0:0:0:
469,320,106899,1,0,0:0:0:0:
298,320,106977,1,0,0:0:0:0:
384,320,106977,1,0,0:0:0:0:
42,320,107056,1,0,0:0:0:0:
128,320,107056,1,0,0:0:0:0:
469,320,107056,1,0,0:0:0:0:
298,320,107134,1,0,0:0:0:0:
384,320,107134,1,0,0:0:0:0:
42,320,107213,1,0,0:0:0:0:
128,320,107213,1,0,0:0:0:0:
213,320,107213,1,0,0:0:0:0:
384,320,107291,1,0,0:0:0:0:
469,320,107291,1,0,0:0:0:0:
128,320,107370,1,0,0:0:0:0:
213,320,107370,1,0,0:0:0:0:
298,320,107370,1,0,0:0:0:0:
42,192,107370,1,0,0:0:0:0:
384,192,107448,1,0,0:0:0:0:
128,320,107527,1,0,0:0:0:0:
213,192,107527,1,0,0:0:0:0:
42,192,107527,1,0,0:0:0:0:
298,192,107605,1,0,0:0:0:0:
384,192,107605,1,0,0:0:0:0:
469,192,107605,1,0,0:0:0:0:
213,192,107684,1,0,0:0:0:0:
128,320,107762,1,0,0:0:0:0:
298,192,107762,1,0,0:0:0:0:
42,192,107762,1,0,0:0:0:0:
213,192,107841,1,0,0:0:0:0:
469,192,107841,128,0,108155:0:0:0:0:
384,192,107841,128,0,108155:0:0:0:0:
128,192,108155,1,0,0:0:0:0:
298,192,108234,1,0,0:0:0:0:
213,192,108234,1,0,0:0:0:0:
42,320,108312,1,0,0:0:0:0:
384,192,108312,1,0,0:0:0:0:
469,192,108312,1,0,0:0:0:0:
128,192,108312,1,0,0:0:0:0:
298,192,108391,1,0,0:0:0:0:
469,320,108469,1,0,0:0:0:0:
42,192,108469,1,0,0:0:0:0:
213,192,108469,1,0,0:0:0:0:
384,192,108548,1,0,0:0:0:0:
42,320,108626,1,0,0:0:0:0:
128,320,108626,1,0,0:0:0:0:
213,320,108626,1,0,0:0:0:0:
469,320,108626,1,0,0:0:0:0:
298,320,108705,1,0,0:0:0:0:
384,320,108705,1,0,0:0:0:0:
42,320,108783,1,0,0:0:0:0:
213,320,108783,1,0,0:0:0:0:
128,320,108862,1,0,0:0:0:0:
298,320,108862,1,0,0:0:0:0:
213,320,108940,1,0,0:0:0:0:
384,320,108940,1,0,0:0:0:0:
469,320,108940,1,0,0:0:0:0:
42,320,109019,1,0,0:0:0:0:
298,320,109019,1,0,0:0:0:0:
128,320,109098,1,0,0:0:0:0:
469,320,109098,1,0,0:0:0:0:
213,320,109176,1,0,0:0:0:0:
384,320,109176,1,0,0:0:0:0:
42,320,109255,1,0,0:0:0:0:
298,320,109255,1,0,0:0:0:0:
469,320,109255,1,0,0:0:0:0:
128,320,109333,1,0,0:0:0:0:
213,320,109333,1,0,0:0:0:0:
384,320,109412,1,0,0:0:0:0:
469,320,109412,1,0,0:0:0:0:
42,320,109490,1,0,0:0:0:0:
128,320,109490,1,0,0:0:0:0:
213,320,109569,1,0,0:0:0:0:
384,320,109569,1,0,0:0:0:0:
469,320,109569,1,0,0:0:0:0:
42,320,109647,1,0,0:0:0:0:
298,320,109647,1,0,0:0:0:0:
128,320,109726,1,0,0:0:0:0:
384,320,109726,1,0,0:0:0:0:
213,320,109804,1,0,0:0:0:0:
298,320,109804,1,0,0:0:0:0:
42,320,109883,1,0,0:0:0:0:
128,320,109883,1,0,0:0:0:0:
384,320,109883,1,0,0:0:0:0:
469,320,109883,1,0,0:0:0:0:
213,320,109961,1,0,0:0:0:0:
298,320,109961,1,0,0:0:0:0:
128,320,110040,1,0,0:0:0:0:
469,320,110040,1,0,0:0:0:0:
42,320,110118,1,0,0:0:0:0:
298,320,110118,1,0,0:0:0:0:
128,320,110197,1,0,0:0:0:0:
213,320,110197,1,0,0:0:0:0:
384,320,110197,1,0,0:0:0:0:
42,320,110276,1,0,0:0:0:0:
298,320,110276,1,0,0:0:0:0:
469,320,110354,1,0,0:0:0:0:
213,192,110354,1,0,0:0:0:0:
298,320,110433,1,0,0:0:0:0:
128,320,110433,1,0,0:0:0:0:
42,320,110511,1,0,0:0:0:0:
213,320,110511,1,0,0:0:0:0:
469,320,110511,1,0,0:0:0:0:
384,192,110511,1,0,0:0:0:0:
128,192,110590,1,0,0:0:0:0:
298,192,110590,1,0,0:0:0:0:
42,192,110668,1,0,0:0:0:0:
384,192,110668,1,0,0:0:0:0:
213,192,110747,1,0,0:0:0:0:
298,192,110747,1,0,0:0:0:0:
469,320,110825,1,0,0:0:0:0:
384,320,110825,1,0,0:0:0:0:
128,192,110825,1,0,0:0:0:0:
298,320,110904,1,0,0:0:0:0:
42,192,110904,1,0,0:0:0:0:
469,320,110982,1,0,0:0:0:0:
213,320,110982,1,0,0:0:0:0:
384,192,110982,1,0,0:0:0:0:
298,192,111061,1,0,0:0:0:0:
42,320,111139,1,0,0:0:0:0:
128,320,111139,1,0,0:0:0:0:
213,320,111139,1,0,0:0:0:0:
469,192,111139,1,0,0:0:0:0:
298,320,111218,1,0,0:0:0:0:
384,320,111218,1,0,0:0:0:0:
42,320,111296,1,0,0:0:0:0:
128,320,111296,1,0,0:0:0:0:
213,320,111375,1,0,0:0:0:0:
298,320,111375,1,0,0:0:0:0:
384,320,111375,1,0,0:0:0:0:
469,320,111375,1,0,0:0:0:0:
42,320,111454,1,0,0:0:0:0:
128,320,111454,1,0,0:0:0:0:
384,320,111532,1,0,0:0:0:0:
469,320,111532,1,0,0:0:0:0:
42,320,111611,1,0,0:0:0:0:
128,320,111611,1,0,0:0:0:0:
213,320,111611,1,0,0:0:0:0:
298,320,111611,1,0,0:0:0:0:
384,320,111689,1,0,0:0:0:0:
469,320,111689,1,0,0:0:0:0:
42,320,111768,1,0,0:0:0:0:
128,320,111768,1,0,0:0:0:0:
213,320,111846,1,0,0:0:0:0:
298,320,111846,1,0,0:0:0:0:
384,320,111846,1,0,0:0:0:0:
469,320,111846,1,0,0:0:0:0:
42,320,111925,1,0,0:0:0:0:
128,320,111925,1,0,0:0:0:0:
384,320,112003,1,0,0:0:0:0:
469,320,112003,1,0,0:0:0:0:
42,320,112082,1,0,0:0:0:0:
128,320,112082,1,0,0:0:0:0:
213,320,112082,1,0,0:0:0:0:
298,192,112082,1,0,0:0:0:0:
384,320,112160,1,0,0:0:0:0:
469,320,112160,1,0,0:0:0:0:
42,320,112239,1,0,0:0:0:0:
128,320,112239,1,0,0:0:0:0:
213,320,112239,1,0,0:0:0:0:
298,192,112239,1,0,0:0:0:0:
384,320,112317,1,0,0:0:0:0:
469,320,112317,1,0,0:0:0:0:
298,192,112396,1,0,0:0:0:0:
42,320,112396,1,0,0:0:0:0:
128,320,112396,1,0,0:0:0:0:
213,320,112396,1,0,0:0:0:0:
384,320,112474,1,0,0:0:0:0:
469,320,112474,1,0,0:0:0:0:
42,320,112553,1,0,0:0:0:0:
128,320,112553,1,0,0:0:0:0:
213,320,112632,1,0,0:0:0:0:
298,320,112632,1,0,0:0:0:0:
384,320,112632,1,0,0:0:0:0:
469,320,112632,1,0,0:0:0:0:
42,320,112710,1,0,0:0:0:0:
128,320,112710,1,0,0:0:0:0:
213,320,112789,1,0,0:0:0:0:
298,320,112789,1,0,0:0:0:0:
42,320,112867,1,0,0:0:0:0:
128,320,112867,1,0,0:0:0:0:
384,320,112867,1,0,0:0:0:0:
469,320,112867,1,0,0:0:0:0:
213,320,112946,1,0,0:0:0:0:
298,320,112946,1,0,0:0:0:0:
384,320,113024,1,0,0:0:0:0:
469,320,113024,1,0,0:0:0:0:
42,320,113103,1,0,0:0:0:0:
213,320,113103,1,0,0:0:0:0:
298,320,113103,1,0,0:0:0:0:
128,192,113103,1,0,0:0:0:0:
384,320,113181,1,0,0:0:0:0:
469,320,113181,1,0,0:0:0:0:
128,320,113221,1,0,0:0:0:0:
213,320,113260,1,0,0:0:0:0:
298,320,113299,1,0,0:0:0:0:
42,320,113338,1,0,0:0:0:0:
128,320,113338,1,0,0:0:0:0:
384,320,113338,1,0,0:0:0:0:
469,320,113338,1,0,0:0:0:0:
213,320,113417,1,0,0:0:0:0:
298,320,113417,1,0,0:0:0:0:
42,320,113495,1,0,0:0:0:0:
128,320,113495,1,0,0:0:0:0:
384,320,113495,1,0,0:0:0:0:
469,320,113495,1,0,0:0:0:0:
213,320,113574,1,0,0:0:0:0:
298,320,113574,1,0,0:0:0:0:
42,320,113653,1,0,0:0:0:0:
128,320,113653,1,0,0:0:0:0:
384,320,113653,128,0,116166:0:0:0:0:
469,320,113653,128,0,118679:0:0:0:0:
213,320,114124,1,0,0:0:0:0:
128,320,114595,1,0,0:0:0:0:
42,192,115066,1,0,0:0:0:0:
128,320,115537,1,0,0:0:0:0:
298,192,116166,1,0,0:0:0:0:
128,192,116637,1,0,0:0:0:0:
298,192,117108,1,0,0:0:0:0:
128,192,117579,1,0,0:0:0:0:
213,192,118050,1,0,0:0:0:0:
42,320,118679,128,0,121192:0:0:0:0:
128,320,118679,1,0,0:0:0:0:
384,320,118679,1,0,0:0:0:0:
213,320,118836,1,0,0:0:0:0:
298,320,118993,1,0,0:0:0:0:
128,320,119150,1,0,0:0:0:0:
469,320,119150,1,0,0:0:0:0:
384,320,119307,1,0,0:0:0:0:
298,320,119464,1,0,0:0:0:0:
213,320,119621,1,0,0:0:0:0:
469,320,119621,1,0,0:0:0:0:
298,320,119778,1,0,0:0:0:0:
384,320,119935,1,0,0:0:0:0:
213,320,120092,1,0,0:0:0:0:
469,320,120092,1,0,0:0:0:0:
384,320,120249,1,0,0:0:0:0:
298,320,120406,1,0,0:0:0:0:
128,320,120563,1,0,0:0:0:0:
469,320,120563,1,0,0:0:0:0:
213,320,120721,1,0,0:0:0:0:
298,320,120878,1,0,0:0:0:0:
384,320,121035,1,0,0:0:0:0:
128,320,121192,1,0,0:0:0:0:
298,320,121192,1,0,0:0:0:0:
213,320,121349,1,0,0:0:0:0:
469,320,121349,128,0,121506:0:0:0:0:
128,320,121506,1,0,0:0:0:0:
384,320,121506,128,0,121663:0:0:0:0:
42,320,121663,1,0,0:0:0:0:
213,320,121663,1,0,0:0:0:0:
469,320,121663,128,0,121820:0:0:0:0:
128,320,121820,1,0,0:0:0:0:
384,320,121820,128,0,121977:0:0:0:0:
42,320,121977,1,0,0:0:0:0:
298,320,121977,128,0,122134:0:0:0:0:
213,320,122134,128,0,122291:0:0:0:0:
384,320,122134,1,0,0:0:0:0:
469,320,122134,1,0,0:0:0:0:
128,320,122291,128,0,122370:0:0:0:0:
298,320,122291,1,0,0:0:0:0:
42,320,122370,128,0,122448:0:0:0:0:
128,320,122448,128,0,122527:0:0:0:0:
384,320,122448,1,0,0:0:0:0:
213,320,122527,128,0,122605:0:0:0:0:
42,320,122605,1,0,0:0:0:0:
298,320,122605,128,0,122684:0:0:0:0:
384,320,122684,128,0,122762:0:0:0:0:
128,320,122762,1,0,0:0:0:0:
469,320,122762,128,0,122841:0:0:0:0:
384,320,122841,128,0,122920:0:0:0:0:
42,320,122920,1,0,0:0:0:0:
298,320,122920,128,0,122998:0:0:0:0:
213,320,122998,128,0,123077:0:0:0:0:
128,320,123077,128,0,123155:0:0:0:0:
469,320,123077,1,0,0:0:0:0:
42,320,123155,128,0,123234:0:0:0:0:
128,320,123234,128,0,123312:0:0:0:0:
384,320,123234,1,0,0:0:0:0:
213,320,123312,128,0,123391:0:0:0:0:
42,320,123391,1,0,0:0:0:0:
298,320,123391,128,0,123469:0:0:0:0:
384,320,123469,128,0,123548:0:0:0:0:
128,320,123548,1,0,0:0:0:0:
469,320,123548,128,0,123626:0:0:0:0:
384,320,123626,128,0,123705:0:0:0:0:
42,320,123705,1,0,0:0:0:0:
213,320,123705,1,0,0:0:0:0:
298,320,123705,128,0,125590:0:0:0:0:
469,320,123862,1,0,0:0:0:0:
213,320,124019,1,0,0:0:0:0:
128,320,124176,1,0,0:0:0:0:
384,320,124176,1,0,0:0:0:0:
213,320,124333,1,0,0:0:0:0:
42,320,124490,1,0,0:0:0:0:
128,320,124647,1,0,0:0:0:0:
213,320,124647,1,0,0:0:0:0:
384,320,124647,128,0,125590:0:0:0:0:
42,320,124804,1,0,0:0:0:0:
213,320,124961,1,0,0:0:0:0:
42,320,125118,1,0,0:0:0:0:
128,192,125118,1,0,0:0:0:0:
213,192,125197,1,0,0:0:0:0:
128,320,125276,1,0,0:0:0:0:
42,320,125433,1,0,0:0:0:0:
213,320,125433,1,0,0:0:0:0:
128,320,125590,1,0,0:0:0:0:
469,320,125590,128,0,126532:0:0:0:0:
42,192,125590,1,0,0:0:0:0:
213,320,125747,1,0,0:0:0:0:
42,320,125904,1,0,0:0:0:0:
298,320,125904,1,0,0:0:0:0:
213,320,126061,1,0,0:0:0:0:
128,320,126218,1,0,0:0:0:0:
298,320,126218,1,0,0:0:0:0:
213,320,126375,1,0,0:0:0:0:
42,320,126532,1,0,0:0:0:0:
298,320,126532,1,0,0:0:0:0:
384,320,126532,128,0,127160:0:0:0:0:
128,320,126689,1,0,0:0:0:0:
42,320,126846,1,0,0:0:0:0:
298,320,126846,1,0,0:0:0:0:
213,320,127003,1,0,0:0:0:0:
42,320,127160,1,0,0:0:0:0:
128,320,127160,1,0,0:0:0:0:
298,320,127160,128,0,127317:0:0:0:0:
213,320,127317,1,0,0:0:0:0:
384,320,127317,128,0,127474:0:0:0:0:
42,320,127474,1,0,0:0:0:0:
128,320,127474,1,0,0:0:0:0:
469,320,127474,128,0,127632:0:0:0:0:
213,320,127632,1,0,0:0:0:0:
298,320,127632,128,0,127710:0:0:0:0:
384,320,127710,128,0,127789:0:0:0:0:
128,320,127710,1,0,0:0:0:0:
42,320,127789,1,0,0:0:0:0:
469,320,127789,128,0,127946:0:0:0:0:
213,192,127789,1,0,0:0:0:0:
298,320,127946,1,0,0:0:0:0:
384,320,127946,128,0,128103:0:0:0:0:
213,192,128024,1,0,0:0:0:0:
42,320,128103,1,0,0:0:0:0:
298,320,128103,128,0,128260:0:0:0:0:
128,192,128103,1,0,0:0:0:0:
469,320,128260,128,0,128417:0:0:0:0:
384,192,128260,1,0,0:0:0:0:
213,192,128338,1,0,0:0:0:0:
128,320,128417,1,0,0:0:0:0:
384,320,128417,128,0,128574:0:0:0:0:
42,192,128417,1,0,0:0:0:0:
213,192,128495,1,0,0:0:0:0:
298,320,128574,128,0,128731:0:0:0:0:
469,320,128574,1,0,0:0:0:0:
42,192,128574,1,0,0:0:0:0:
213,192,128653,1,0,0:0:0:0:
42,320,128731,128,0,129673:0:0:0:0:
128,320,128731,1,0,0:0:0:0:
384,320,128731,1,0,0:0:0:0:
213,320,128888,1,0,0:0:0:0:
128,320,129045,1,0,0:0:0:0:
469,320,129045,1,0,0:0:0:0:
213,320,129202,128,0,130145:0:0:0:0:
298,320,129202,1,0,0:0:0:0:
128,320,129359,1,0,0:0:0:0:
384,320,129359,1,0,0:0:0:0:
469,320,129516,1,0,0:0:0:0:
128,320,129673,1,0,0:0:0:0:
298,320,129673,128,0,130616:0:0:0:0:
384,320,129673,1,0,0:0:0:0:
469,192,129752,1,0,0:0:0:0:
42,320,129831,1,0,0:0:0:0:
128,192,129909,1,0,0:0:0:0:
469,320,129988,1,0,0:0:0:0:
128,192,130066,1,0,0:0:0:0:
42,320,130145,1,0,0:0:0:0:
384,320,130145,128,0,130930:0:0:0:0:
128,192,130223,1,0,0:0:0:0:
213,320,130302,1,0,0:0:0:0:
42,192,130380,1,0,0:0:0:0:
213,320,130459,1,0,0:0:0:0:
128,192,130537,1,0,0:0:0:0:
42,320,130616,1,0,0:0:0:0:
469,320,130616,128,0,131244:0:0:0:0:
128,320,130694,1,0,0:0:0:0:
213,320,130773,1,0,0:0:0:0:
298,320,130851,1,0,0:0:0:0:
213,320,130930,1,0,0:0:0:0:
128,320,131009,1,0,0:0:0:0:
42,320,131087,1,0,0:0:0:0:
298,320,131166,1,0,0:0:0:0:
213,320,131244,1,0,0:0:0:0:
384,320,131244,128,0,132187:0:0:0:0:
128,320,131323,1,0,0:0:0:0:
42,320,131401,1,0,0:0:0:0:
213,320,131480,1,0,0:0:0:0:
128,320,131558,1,0,0:0:0:0:
42,320,131637,1,0,0:0:0:0:
298,320,131715,128,0,132658:0:0:0:0:
469,320,131715,1,0,0:0:0:0:
213,320,131794,1,0,0:0:0:0:
128,320,131872,1,0,0:0:0:0:
469,320,131951,1,0,0:0:0:0:
42,320,132029,1,0,0:0:0:0:
128,320,132108,1,0,0:0:0:0:
213,320,132187,128,0,133129:0:0:0:0:
469,320,132187,1,0,0:0:0:0:
42,320,132265,1,0,0:0:0:0:
128,320,132344,1,0,0:0:0:0:
384,320,132422,1,0,0:0:0:0:
469,320,132501,1,0,0:0:0:0:
42,320,132579,1,0,0:0:0:0:
128,320,132658,128,0,133679:0:0:0:0:
384,320,132658,1,0,0:0:0:0:
469,320,132736,1,0,0:0:0:0:
298,320,132815,1,0,0:0:0:0:
384,320,132893,1,0,0:0:0:0:
469,320,132972,1,0,0:0:0:0:
384,320,133050,1,0,0:0:0:0:
42,320,133129,128,0,133679:0:0:0:0:
298,320,133129,1,0,0:0:0:0:
469,320,133207,1,0,0:0:0:0:
384,320,133286,1,0,0:0:0:0:
298,320,133365,1,0,0:0:0:0:
469,320,133443,1,0,0:0:0:0:
213,192,133522,1,0,0:0:0:0:
384,192,133600,1,0,0:0:0:0:
298,192,133679,1,0,0:0:0:0:
42,320,133757,1,0,0:0:0:0:
128,320,133757,1,0,0:0:0:0:
213,320,133757,1,0,0:0:0:0:
469,320,133757,1,0,0:0:0:0:
384,320,133836,1,0,0:0:0:0:
298,320,133914,1,0,0:0:0:0:
42,320,133993,1,0,0:0:0:0:
128,320,133993,1,0,0:0:0:0:
213,320,133993,1,0,0:0:0:0:
469,320,133993,1,0,0:0:0:0:
384,320,134071,1,0,0:0:0:0:
298,320,134150,1,0,0:0:0:0:
42,320,134228,1,0,0:0:0:0:
128,320,134228,1,0,0:0:0:0:
213,320,134228,1,0,0:0:0:0:
469,320,134228,1,0,0:0:0:0:
384,320,134307,1,0,0:0:0:0:
298,320,134385,1,0,0:0:0:0:
213,320,134464,1,0,0:0:0:0:
298,320,134543,1,0,0:0:0:0:
384,320,134621,1,0,0:0:0:0:
42,320,134700,1,0,0:0:0:0:
128,320,134700,1,0,0:0:0:0:
213,320,134700,1,0,0:0:0:0:
469,320,134700,1,0,0:0:0:0:
384,320,134778,1,0,0:0:0:0:
298,320,134857,1,0,0:0:0:0:
42,320,134935,1,0,0:0:0:0:
128,320,134935,1,0,0:0:0:0:
213,320,134935,1,0,0:0:0:0:
469,320,134935,1,0,0:0:0:0:
384,320,135014,1,0,0:0:0:0:
298,320,135092,1,0,0:0:0:0:
42,320,135171,1,0,0:0:0:0:
128,320,135171,1,0,0:0:0:0:
213,320,135171,1,0,0:0:0:0:
469,320,135171,1,0,0:0:0:0:
384,320,135249,1,0,0:0:0:0:
298,320,135328,1,0,0:0:0:0:
42,320,135406,1,0,0:0:0:0:
128,320,135406,1,0,0:0:0:0:
384,320,135406,1,0,0:0:0:0:
469,320,135406,1,0,0:0:0:0:
298,320,135485,1,0,0:0:0:0:
213,320,135563,1,0,0:0:0:0:
42,320,135642,1,0,0:0:0:0:
128,320,135642,1,0,0:0:0:0:
469,320,135642,1,0,0:0:0:0:
384,192,135642,128,0,135721:0:0:0:0:
298,192,135721,128,0,135799:0:0:0:0:
213,192,135799,128,0,135878:0:0:0:0:
128,192,135878,128,0,135956:0:0:0:0:
42,320,135956,128,0,136035:0:0:0:0:
298,320,135956,1,0,0:0:0:0:
384,320,135956,1,0,0:0:0:0:
469,320,135956,1,0,0:0:0:0:
128,320,136035,128,0,136113:0:0:0:0:
213,320,136113,128,0,136192:0:0:0:0:
298,320,136192,128,0,136270:0:0:0:0:
42,320,136270,1,0,0:0:0:0:
128,320,136270,1,0,0:0:0:0:
213,320,136270,1,0,0:0:0:0:
469,320,136270,128,0,136349:0:0:0:0:
384,320,136349,128,0,136427:0:0:0:0:
298,320,136427,128,0,136506:0:0:0:0:
42,320,136506,1,0,0:0:0:0:
213,320,136506,128,0,136584:0:0:0:0:
384,320,136506,1,0,0:0:0:0:
469,320,136506,1,0,0:0:0:0:
128,320,136584,128,0,136663:0:0:0:0:
213,320,136663,128,0,136742:0:0:0:0:
42,320,136742,1,0,0:0:0:0:
128,320,136742,1,0,0:0:0:0:
298,320,136742,128,0,136820:0:0:0:0:
469,320,136742,1,0,0:0:0:0:
384,320,136820,128,0,136899:0:0:0:0:
42,320,136899,128,0,136977:0:0:0:0:
128,320,136977,128,0,137056:0:0:0:0:
213,320,137056,128,0,137134:0:0:0:0:
298,320,137134,128,0,137213:0:0:0:0:
42,320,137213,1,0,0:0:0:0:
128,320,137213,1,0,0:0:0:0:
384,320,137213,128,0,137291:0:0:0:0:
469,320,137213,1,0,0:0:0:0:
298,320,137291,128,0,137370:0:0:0:0:
213,320,137370,128,0,137448:0:0:0:0:
42,320,137448,1,0,0:0:0:0:
128,320,137448,128,0,137527:0:0:0:0:
384,320,137448,1,0,0:0:0:0:
469,320,137448,1,0,0:0:0:0:
213,320,137527,128,0,137605:0:0:0:0:
298,320,137605,128,0,137684:0:0:0:0:
42,320,137684,1,0,0:0:0:0:
128,320,137684,1,0,0:0:0:0:
213,320,137684,1,0,0:0:0:0:
384,320,137684,128,0,137762:0:0:0:0:
469,320,137762,128,0,137841:0:0:0:0:
42,320,137841,128,0,137920:0:0:0:0:
128,320,137920,128,0,137998:0:0:0:0:
298,320,137920,1,0,0:0:0:0:
384,320,137920,1,0,0:0:0:0:
469,320,137920,1,0,0:0:0:0:
213,320,137998,128,0,138077:0:0:0:0:
298,320,138077,128,0,138155:0:0:0:0:
42,320,138155,1,0,0:0:0:0:
213,320,138155,128,0,138234:0:0:0:0:
384,320,138155,1,0,0:0:0:0:
469,320,138155,1,0,0:0:0:0:
128,320,138234,128,0,138312:0:0:0:0:
213,320,138312,128,0,138391:0:0:0:0:
384,320,138312,1,0,0:0:0:0:
298,320,138391,128,0,138469:0:0:0:0:
469,320,138391,1,0,0:0:0:0:
42,320,138469,1,0,0:0:0:0:
384,320,138469,128,0,138548:0:0:0:0:
128,192,138509,1,0,0:0:0:0:
298,320,138548,128,0,138626:0:0:0:0:
213,192,138548,1,0,0:0:0:0:
42,192,138587,1,0,0:0:0:0:
384,320,138626,128,0,138705:0:0:0:0:
128,192,138626,1,0,0:0:0:0:
469,320,138705,128,0,138783:0:0:0:0:
213,192,138705,1,0,0:0:0:0:
42,320,138783,128,0,138862:0:0:0:0:
298,320,138783,1,0,0:0:0:0:
384,320,138783,1,0,0:0:0:0:
128,320,138862,128,0,138940:0:0:0:0:
213,320,138940,128,0,139019:0:0:0:0:
42,320,139019,1,0,0:0:0:0:
128,320,139019,1,0,0:0:0:0:
298,320,139019,128,0,139098:0:0:0:0:
469,320,139019,1,0,0:0:0:0:
384,320,139098,128,0,139176:0:0:0:0:
298,320,139176,128,0,139255:0:0:0:0:
42,320,139255,1,0,0:0:0:0:
213,320,139255,128,0,139333:0:0:0:0:
384,320,139255,1,0,0:0:0:0:
469,320,139255,1,0,0:0:0:0:
128,320,139333,128,0,139412:0:0:0:0:
469,320,139412,128,0,139490:0:0:0:0:
384,320,139490,128,0,139569:0:0:0:0:
298,320,139569,128,0,139647:0:0:0:0:
213,320,139647,128,0,139726:0:0:0:0:
42,320,139726,1,0,0:0:0:0:
128,320,139726,128,0,139804:0:0:0:0:
384,320,139726,1,0,0:0:0:0:
469,320,139726,1,0,0:0:0:0:
213,320,139804,128,0,139883:0:0:0:0:
298,320,139883,128,0,139961:0:0:0:0:
128,320,139961,1,0,0:0:0:0:
213,320,139961,1,0,0:0:0:0:
384,320,139961,128,0,140040:0:0:0:0:
469,320,139961,1,0,0:0:0:0:
42,320,140040,128,0,140118:0:0:0:0:
128,320,140118,128,0,140197:0:0:0:0:
42,320,140197,1,0,0:0:0:0:
213,320,140197,128,0,140276:0:0:0:0:
384,320,140197,1,0,0:0:0:0:
469,320,140197,1,0,0:0:0:0:
298,320,140276,128,0,140354:0:0:0:0:
213,320,140354,128,0,140433:0:0:0:0:
42,320,140433,1,0,0:0:0:0:
128,320,140433,128,0,140511:0:0:0:0:
384,320,140433,1,0,0:0:0:0:
469,320,140433,1,0,0:0:0:0:
213,320,140511,128,0,140590:0:0:0:0:
298,320,140590,128,0,140668:0:0:0:0:
42,320,140668,1,0,0:0:0:0:
128,320,140668,1,0,0:0:0:0:
213,320,140668,128,0,140747:0:0:0:0:
384,320,140668,1,0,0:0:0:0:
298,320,140747,128,0,140825:0:0:0:0:
384,320,140825,128,0,140904:0:0:0:0:
469,320,140904,128,0,140982:0:0:0:0:
42,320,140982,1,0,0:0:0:0:
128,320,140982,1,0,0:0:0:0:
384,320,140982,128,0,141061:0:0:0:0:
213,192,140982,1,0,0:0:0:0:
298,320,141061,128,0,141139:0:0:0:0:
213,320,141139,128,0,141218:0:0:0:0:
128,320,141218,128,0,141296:0:0:0:0:
42,320,141296,128,0,141375:0:0:0:0:
213,320,141296,1,0,0:0:0:0:
384,320,141296,1,0,0:0:0:0:
469,320,141296,1,0,0:0:0:0:
128,320,141375,128,0,141454:0:0:0:0:
213,320,141454,128,0,141532:0:0:0:0:
42,320,141532,1,0,0:0:0:0:
128,320,141532,1,0,0:0:0:0:
298,320,141532,128,0,141611:0:0:0:0:
469,320,141532,1,0,0:0:0:0:
384,320,141611,128,0,141689:0:0:0:0:
298,320,141689,128,0,141768:0:0:0:0:
42,320,141768,1,0,0:0:0:0:
213,320,141768,128,0,141846:0:0:0:0:
384,320,141768,1,0,0:0:0:0:
469,320,141768,1,0,0:0:0:0:
128,320,141846,128,0,141925:0:0:0:0:
469,320,141925,128,0,142003:0:0:0:0:
384,320,142003,128,0,142082:0:0:0:0:
128,320,142082,1,0,0:0:0:0:
298,320,142082,128,0,142160:0:0:0:0:
42,192,142082,1,0,0:0:0:0:
213,320,142160,128,0,142239:0:0:0:0:
469,320,142160,1,0,0:0:0:0:
384,192,142160,1,0,0:0:0:0:
42,320,142239,1,0,0:0:0:0:
128,320,142239,128,0,142317:0:0:0:0:
298,320,142239,1,0,0:0:0:0:
213,320,142317,128,0,142396:0:0:0:0:
42,320,142396,1,0,0:0:0:0:
128,320,142396,1,0,0:0:0:0:
298,320,142396,128,0,142474:0:0:0:0:
469,320,142396,1,0,0:0:0:0:
384,320,142474,128,0,142553:0:0:0:0:
213,320,142553,128,0,142632:0:0:0:0:
298,320,142632,128,0,142710:0:0:0:0:
42,320,142710,1,0,0:0:0:0:
128,320,142710,1,0,0:0:0:0:
213,320,142710,1,0,0:0:0:0:
384,320,142710,128,0,142789:0:0:0:0:
469,320,142789,128,0,142867:0:0:0:0:
42,320,142867,1,0,0:0:0:0:
128,320,142867,1,0,0:0:0:0:
213,320,142867,1,0,0:0:0:0:
298,320,142867,128,0,142946:0:0:0:0:
384,320,142946,128,0,143024:0:0:0:0:
42,320,143024,1,0,0:0:0:0:
128,320,143024,1,0,0:0:0:0:
213,320,143024,1,0,0:0:0:0:
469,320,143024,128,0,143103:0:0:0:0:
298,320,143103,128,0,143181:0:0:0:0:
42,320,143181,1,0,0:0:0:0:
469,320,143181,1,0,0:0:0:0:
128,320,143221,1,0,0:0:0:0:
213,320,143260,1,0,0:0:0:0:
384,320,143260,1,0,0:0:0:0:
298,320,143299,1,0,0:0:0:0:
42,320,143338,1,0,0:0:0:0:
469,320,143338,1,0,0:0:0:0:
128,320,143378,1,0,0:0:0:0:
213,320,143417,1,0,0:0:0:0:
384,320,143417,1,0,0:0:0:0:
298,320,143456,1,0,0:0:0:0:
42,320,143495,1,0,0:0:0:0:
469,320,143495,1,0,0:0:0:0:
128,192,143495,1,0,0:0:0:0:
384,192,143574,1,0,0:0:0:0:
213,192,143574,1,0,0:0:0:0:
42,320,143653,1,0,0:0:0:0:
298,192,143653,1,0,0:0:0:0:
469,192,143653,1,0,0:0:0:0:
128,192,143731,1,0,0:0:0:0:
213,192,143731,1,0,0:0:0:0:
42,320,143810,1,0,0:0:0:0:
298,320,143810,1,0,0:0:0:0:
469,320,143810,1,0,0:0:0:0:
384,192,143810,1,0,0:0:0:0:
298,192,144124,1,0,0:0:0:0:
42,192,144124,1,0,0:0:0:0:
469,192,144124,1,0,0:0:0:0:
384,192,144124,1,0,0:0:0:0:
213,192,144202,1,0,0:0:0:0:
128,192,144281,1,0,0:0:0:0:
384,192,144281,1,0,0:0:0:0:
469,192,144281,1,0,0:0:0:0:
298,192,144359,1,0,0:0:0:0:
42,192,144438,1,0,0:0:0:0:
128,192,144438,1,0,0:0:0:0:
384,192,144438,1,0,0:0:0:0:
469,192,144516,1,0,0:0:0:0:
213,192,144595,1,0,0:0:0:0:
42,192,144595,1,0,0:0:0:0:
298,192,144595,1,0,0:0:0:0:
384,192,144673,1,0,0:0:0:0:
469,192,144673,1,0,0:0:0:0:
128,192,144752,1,0,0:0:0:0:
42,192,144752,1,0,0:0:0:0:
213,192,144752,1,0,0:0:0:0:
298,192,144831,1,0,0:0:0:0:
469,192,144909,1,0,0:0:0:0:
128,192,144909,1,0,0:0:0:0:
384,192,144909,1,0,0:0:0:0:
213,192,144988,1,0,0:0:0:0:
42,192,145066,1,0,0:0:0:0:
469,192,145066,1,0,0:0:0:0:
128,192,145066,1,0,0:0:0:0:
384,192,145145,1,0,0:0:0:0:
298,192,145223,1,0,0:0:0:0:
213,192,145223,1,0,0:0:0:0:
128,192,145223,1,0,0:0:0:0:
42,192,145302,1,0,0:0:0:0:
213,192,145380,1,0,0:0:0:0:
298,192,145380,1,0,0:0:0:0:
469,192,145380,1,0,0:0:0:0:
128,192,145459,1,0,0:0:0:0:
42,192,145537,1,0,0:0:0:0:
469,192,145537,1,0,0:0:0:0:
384,192,145537,1,0,0:0:0:0:
298,192,145616,1,0,0:0:0:0:
213,192,145616,1,0,0:0:0:0:
42,192,145694,1,0,0:0:0:0:
128,192,145694,1,0,0:0:0:0:
384,192,145694,1,0,0:0:0:0:
298,192,145773,1,0,0:0:0:0:
128,192,145851,1,0,0:0:0:0:
469,192,145851,1,0,0:0:0:0:
213,192,145891,1,0,0:0:0:0:
298,192,145930,1,0,0:0:0:0:
384,192,145969,1,0,0:0:0:0:
213,192,146009,1,0,0:0:0:0:
469,192,146009,1,0,0:0:0:0:
42,192,146009,1,0,0:0:0:0:
128,192,146087,1,0,0:0:0:0:
298,192,146087,1,0,0:0:0:0:
469,192,146166,1,0,0:0:0:0:
384,192,146166,1,0,0:0:0:0:
42,192,146166,1,0,0:0:0:0:
213,192,146244,1,0,0:0:0:0:
298,192,146244,1,0,0:0:0:0:
128,192,146323,1,0,0:0:0:0:
469,192,146323,1,0,0:0:0:0:
42,192,146323,1,0,0:0:0:0:
384,192,146323,1,0,0:0:0:0:
213,192,146401,1,0,0:0:0:0:
42,192,146480,1,0,0:0:0:0:
298,192,146480,1,0,0:0:0:0:
469,192,146480,1,0,0:0:0:0:
384,192,146558,1,0,0:0:0:0:
128,192,146637,1,0,0:0:0:0:
213,192,146637,1,0,0:0:0:0:
469,192,146637,1,0,0:0:0:0:
384,192,146715,1,0,0:0:0:0:
42,192,146794,1,0,0:0:0:0:
128,192,146794,1,0,0:0:0:0:
298,192,146794,1,0,0:0:0:0:
213,192,146872,1,0,0:0:0:0:
42,192,146951,1,0,0:0:0:0:
128,192,146951,1,0,0:0:0:0:
384,192,146951,1,0,0:0:0:0:
298,192,147029,1,0,0:0:0:0:
128,192,147108,1,0,0:0:0:0:
469,192,147108,1,0,0:0:0:0:
384,192,147108,1,0,0:0:0:0:
213,192,147187,1,0,0:0:0:0:
298,192,147187,1,0,0:0:0:0:
469,192,147265,1,0,0:0:0:0:
42,192,147265,1,0,0:0:0:0:
128,192,147265,1,0,0:0:0:0:
384,192,147344,1,0,0:0:0:0:
213,192,147422,1,0,0:0:0:0:
42,192,147422,1,0,0:0:0:0:
298,192,147422,1,0,0:0:0:0:
384,192,147501,1,0,0:0:0:0:
469,192,147579,1,0,0:0:0:0:
128,192,147579,1,0,0:0:0:0:
213,192,147579,1,0,0:0:0:0:
298,192,147658,1,0,0:0:0:0:
42,192,147736,1,0,0:0:0:0:
384,192,147736,1,0,0:0:0:0:
128,192,147736,1,0,0:0:0:0:
213,192,147815,1,0,0:0:0:0:
298,192,147893,1,0,0:0:0:0:
469,192,147893,1,0,0:0:0:0:
384,192,147893,1,0,0:0:0:0:
213,192,147972,1,0,0:0:0:0:
128,192,147972,1,0,0:0:0:0:
298,192,148050,1,0,0:0:0:0:
469,192,148050,1,0,0:0:0:0:
42,192,148050,1,0,0:0:0:0:
213,192,148129,1,0,0:0:0:0:
384,192,148129,1,0,0:0:0:0:
42,320,148207,1,0,0:0:0:0:
128,320,148207,1,0,0:0:0:0:
298,320,148207,128,0,148522:0:0:0:0:
469,320,148207,128,0,148836:0:0:0:0:
213,192,148522,1,0,0:0:0:0:
128,320,148836,1,0,0:0:0:0:
384,320,148836,1,0,0:0:0:0:
42,192,148836,1,0,0:0:0:0:
213,192,148836,1,0,0:0:0:0:
298,192,148914,1,0,0:0:0:0:
469,192,148993,1,0,0:0:0:0:
213,192,148993,1,0,0:0:0:0:
128,192,148993,1,0,0:0:0:0:
384,192,149071,1,0,0:0:0:0:
42,192,149150,1,0,0:0:0:0:
298,192,149150,1,0,0:0:0:0:
128,192,149150,1,0,0:0:0:0:
213,192,149228,1,0,0:0:0:0:
469,320,149307,1,0,0:0:0:0:
384,192,149307,1,0,0:0:0:0:
128,192,149307,1,0,0:0:0:0:
298,192,149385,1,0,0:0:0:0:
42,192,149464,1,0,0:0:0:0:
213,192,149464,1,0,0:0:0:0:
469,192,149464,1,0,0:0:0:0:
128,192,149543,1,0,0:0:0:0:
384,320,149621,1,0,0:0:0:0:
469,320,149621,1,0,0:0:0:0:
213,192,149621,1,0,0:0:0:0:
42,192,149700,1,0,0:0:0:0:
128,192,149700,1,0,0:0:0:0:
469,320,149778,1,0,0:0:0:0:
384,192,149778,1,0,0:0:0:0:
298,192,149778,1,0,0:0:0:0:
213,192,149857,1,0,0:0:0:0:
384,192,149935,1,0,0:0:0:0:
42,192,149935,1,0,0:0:0:0:
128,192,149935,1,0,0:0:0:0:
298,192,150014,1,0,0:0:0:0:
42,320,150092,1,0,0:0:0:0:
128,320,150092,1,0,0:0:0:0:
213,320,150092,1,0,0:0:0:0:
469,192,150092,1,0,0:0:0:0:
384,192,150171,1,0,0:0:0:0:
469,320,150249,1,0,0:0:0:0:
213,192,150249,1,0,0:0:0:0:
298,192,150249,1,0,0:0:0:0:
128,192,150328,1,0,0:0:0:0:
42,320,150406,1,0,0:0:0:0:
213,192,150406,1,0,0:0:0:0:
384,192,150406,1,0,0:0:0:0:
469,192,150485,1,0,0:0:0:0:
42,192,150563,1,0,0:0:0:0:
128,192,150563,1,0,0:0:0:0:
298,192,150563,1,0,0:0:0:0:
469,320,150642,1,0,0:0:0:0:
384,192,150642,1,0,0:0:0:0:
213,192,150721,1,0,0:0:0:0:
128,192,150721,1,0,0:0:0:0:
42,192,150721,1,0,0:0:0:0:
298,192,150799,1,0,0:0:0:0:
42,320,150878,1,0,0:0:0:0:
384,192,150878,1,0,0:0:0:0:
128,320,150917,1,0,0:0:0:0:
213,320,150956,1,0,0:0:0:0:
469,192,150956,1,0,0:0:0:0:
298,192,150995,1,0,0:0:0:0:
384,192,151035,1,0,0:0:0:0:
42,192,151035,1,0,0:0:0:0:
213,320,151113,1,0,0:0:0:0:
298,192,151113,1,0,0:0:0:0:
128,320,151192,1,0,0:0:0:0:
384,192,151192,1,0,0:0:0:0:
213,320,151270,1,0,0:0:0:0:
469,192,151270,1,0,0:0:0:0:
42,192,151349,128,0,151427:0:0:0:0:
128,192,151349,128,0,151427:0:0:0:0:
298,192,151349,128,0,151427:0:0:0:0:
384,192,151349,128,0,151427:0:0:0:0:
469,192,151427,128,0,151506:0:0:0:0:
213,192,151427,128,0,151506:0:0:0:0:
384,192,151506,128,0,151584:0:0:0:0:
128,192,151506,128,0,151584:0:0:0:0:
298,192,151584,128,0,151663:0:0:0:0:
42,192,151584,128,0,151663:0:0:0:0:
469,320,151663,1,0,0:0:0:0:
213,192,151663,1,0,0:0:0:0:
298,320,151742,1,0,0:0:0:0:
128,192,151742,1,0,0:0:0:0:
384,320,151820,1,0,0:0:0:0:
42,192,151820,1,0,0:0:0:0:
298,320,151899,1,0,0:0:0:0:
213,192,151899,1,0,0:0:0:0:
384,192,151977,128,0,152056:0:0:0:0:
128,192,151977,128,0,152056:0:0:0:0:
42,192,151977,128,0,152056:0:0:0:0:
469,192,151977,128,0,152056:0:0:0:0:
298,192,152056,128,0,152134:0:0:0:0:
213,192,152056,128,0,152134:0:0:0:0:
42,192,152134,128,0,152213:0:0:0:0:
384,192,152134,128,0,152213:0:0:0:0:
128,192,152173,128,0,152252:0:0:0:0:
213,192,152213,128,0,152291:0:0:0:0:
469,192,152213,128,0,152291:0:0:0:0:
298,192,152252,128,0,152291:0:0:0:0:
384,192,152291,1,0,0:0:0:0:
42,192,152291,1,0,0:0:0:0:
128,192,152370,1,0,0:0:0:0:
213,192,152370,1,0,0:0:0:0:
42,192,152448,1,0,0:0:0:0:
469,192,152448,1,0,0:0:0:0:
384,192,152527,1,0,0:0:0:0:
298,192,152527,1,0,0:0:0:0:
469,192,152605,128,0,152684:0:0:0:0:
42,192,152605,128,0,152684:0:0:0:0:
213,192,152605,128,0,152762:0:0:0:0:
128,192,152605,128,0,152723:0:0:0:0:
384,320,152684,128,0,152762:0:0:0:0:
298,192,152684,128,0,152762:0:0:0:0:
469,320,152762,128,0,152841:0:0:0:0:
42,192,152762,128,0,152841:0:0:0:0:
128,192,152802,128,0,152880:0:0:0:0:
298,320,152841,128,0,152920:0:0:0:0:
213,192,152841,128,0,152920:0:0:0:0:
384,192,152880,128,0,152959:0:0:0:0:
469,320,152920,128,0,152998:0:0:0:0:
42,192,152920,128,0,152998:0:0:0:0:
128,192,152920,128,0,153037:0:0:0:0:
213,192,152998,128,0,153077:0:0:0:0:
298,192,152998,128,0,153077:0:0:0:0:
469,320,153077,128,0,153155:0:0:0:0:
42,192,153077,128,0,153155:0:0:0:0:
128,192,153116,128,0,153194:0:0:0:0:
298,320,153155,128,0,153234:0:0:0:0:
213,192,153155,128,0,153234:0:0:0:0:
384,192,153194,128,0,153273:0:0:0:0:
469,320,153234,128,0,153312:0:0:0:0:
42,192,153234,128,0,153312:0:0:0:0:
128,192,153273,128,0,153351:0:0:0:0:
298,320,153312,128,0,153391:0:0:0:0:
213,192,153312,128,0,153391:0:0:0:0:
384,192,153351,128,0,153430:0:0:0:0:
469,320,153391,128,0,153469:0:0:0:0:
42,192,153391,128,0,153469:0:0:0:0:
128,192,153430,128,0,153509:0:0:0:0:
298,320,153469,128,0,153548:0:0:0:0:
213,192,153469,128,0,153548:0:0:0:0:
384,192,153509,128,0,153587:0:0:0:0:
469,320,153548,128,0,153626:0:0:0:0:
42,192,153548,128,0,153626:0:0:0:0:
128,192,153548,128,0,153626:0:0:0:0:
213,192,153626,128,0,153705:0:0:0:0:
298,192,153626,128,0,153705:0:0:0:0:
384,320,153705,128,0,153783:0:0:0:0:
42,192,153705,128,0,153783:0:0:0:0:
128,192,153705,128,0,153783:0:0:0:0:
469,192,153705,128,0,153783:0:0:0:0:
298,320,153783,128,0,153862:0:0:0:0:
213,192,153783,128,0,153862:0:0:0:0:
384,320,153862,128,0,154804:0:0:0:0:
469,320,153862,128,0,154490:0:0:0:0:
128,192,153862,128,0,154804:0:0:0:0:
42,192,153862,128,0,154804:0:0:0:0:
298,320,154804,128,0,155118:0:0:0:0:
42,320,155118,1,0,0:0:0:0:
128,320,155118,1,0,0:0:0:0:
469,320,155118,1,0,0:0:0:0:
384,320,155197,1,0,0:0:0:0:
213,320,155276,1,0,0:0:0:0:
298,320,155276,1,0,0:0:0:0:
42,320,155354,1,0,0:0:0:0:
384,320,155354,1,0,0:0:0:0:
128,320,155433,1,0,0:0:0:0:
213,320,155433,1,0,0:0:0:0:
469,320,155433,1,0,0:0:0:0:
42,320,155511,1,0,0:0:0:0:
298,320,155511,1,0,0:0:0:0:
128,320,155590,1,0,0:0:0:0:
384,320,155590,1,0,0:0:0:0:
213,320,155668,1,0,0:0:0:0:
469,320,155668,1,0,0:0:0:0:
42,320,155747,1,0,0:0:0:0:
298,320,155747,1,0,0:0:0:0:
384,320,155747,1,0,0:0:0:0:
128,320,155825,1,0,0:0:0:0:
213,320,155904,1,0,0:0:0:0:
469,192,155904,1,0,0:0:0:0:
384,192,155982,1,0,0:0:0:0:
42,320,156061,1,0,0:0:0:0:
128,192,156061,1,0,0:0:0:0:
298,192,156061,1,0,0:0:0:0:
213,192,156139,1,0,0:0:0:0:
384,192,156218,1,0,0:0:0:0:
128,192,156218,1,0,0:0:0:0:
298,192,156218,1,0,0:0:0:0:
42,320,156296,1,0,0:0:0:0:
128,320,156375,128,0,156532:0:0:0:0:
213,320,156375,128,0,156532:0:0:0:0:
298,320,156375,128,0,156611:0:0:0:0:
469,320,156375,128,0,156532:0:0:0:0:
384,320,156454,128,0,156611:0:0:0:0:
42,320,156532,128,0,156689:0:0:0:0:
128,320,156611,128,0,156925:0:0:0:0:
213,320,156611,128,0,156768:0:0:0:0:
469,320,156611,128,0,156768:0:0:0:0:
298,320,156689,128,0,156846:0:0:0:0:
384,320,156689,128,0,156925:0:0:0:0:
42,320,156768,128,0,156925:0:0:0:0:
213,320,156846,128,0,157003:0:0:0:0:
469,320,156846,128,0,157003:0:0:0:0:
298,320,156925,128,0,157003:0:0:0:0:
42,192,157003,1,0,0:0:0:0:
128,192,157003,1,0,0:0:0:0:
384,192,157003,1,0,0:0:0:0:
298,192,157082,1,0,0:0:0:0:
213,192,157160,1,0,0:0:0:0:
469,192,157160,1,0,0:0:0:0:
384,192,157239,1,0,0:0:0:0:
42,320,157317,1,0,0:0:0:0:
128,320,157317,1,0,0:0:0:0:
298,320,157317,128,0,157396:0:0:0:0:
213,320,157396,1,0,0:0:0:0:
384,320,157396,128,0,157474:0:0:0:0:
128,320,157474,1,0,0:0:0:0:
469,320,157474,128,0,157527:0:0:0:0:
298,192,157527,128,0,157632:0:0:0:0:
42,320,157553,1,0,0:0:0:0:
128,320,157632,128,0,157789:0:0:0:0:
213,320,157632,128,0,157867:0:0:0:0:
384,320,157632,128,0,157789:0:0:0:0:
469,320,157632,128,0,157789:0:0:0:0:
298,320,157710,128,0,157867:0:0:0:0:
42,320,157789,128,0,157946:0:0:0:0:
128,320,157867,128,0,158024:0:0:0:0:
384,320,157867,128,0,158024:0:0:0:0:
469,320,157867,128,0,158181:0:0:0:0:
213,320,157946,128,0,158103:0:0:0:0:
298,320,157946,128,0,158260:0:0:0:0:
42,320,158024,128,0,158181:0:0:0:0:
384,320,158103,128,0,158181:0:0:0:0:
128,192,158103,128,0,158260:0:0:0:0:
213,320,158181,128,0,158260:0:0:0:0:
42,192,158260,1,0,0:0:0:0:
384,192,158260,1,0,0:0:0:0:
469,192,158260,1,0,0:0:0:0:
298,192,158338,1,0,0:0:0:0:
128,192,158338,1,0,0:0:0:0:
384,192,158417,1,0,0:0:0:0:
213,192,158417,1,0,0:0:0:0:
469,192,158495,1,0,0:0:0:0:
298,192,158495,1,0,0:0:0:0:
128,320,158574,1,0,0:0:0:0:
384,192,158574,1,0,0:0:0:0:
42,192,158574,1,0,0:0:0:0:
469,192,158653,1,0,0:0:0:0:
213,192,158653,1,0,0:0:0:0:
128,192,158731,1,0,0:0:0:0:
298,192,158731,1,0,0:0:0:0:
384,192,158810,1,0,0:0:0:0:
213,192,158810,1,0,0:0:0:0:
469,320,158888,128,0,159045:0:0:0:0:
128,192,158888,128,0,158967:0:0:0:0:
42,192,158888,128,0,159045:0:0:0:0:
298,192,158888,128,0,158967:0:0:0:0:
384,320,158967,128,0,159124:0:0:0:0:
213,192,158967,128,0,159124:0:0:0:0:
298,320,159045,128,0,159202:0:0:0:0:
128,192,159045,128,0,159124:0:0:0:0:
469,320,159124,128,0,159281:0:0:0:0:
42,192,159124,128,0,159202:0:0:0:0:
128,320,159202,1,0,0:0:0:0:
213,320,159202,1,0,0:0:0:0:
384,320,159202,128,0,159359:0:0:0:0:
42,320,159281,1,0,0:0:0:0:
298,320,159281,128,0,159438:0:0:0:0:
469,320,159359,128,0,159438:0:0:0:0:
213,192,159359,1,0,0:0:0:0:
384,320,159438,128,0,159516:0:0:0:0:
128,192,159438,1,0,0:0:0:0:
42,320,159516,128,0,159673:0:0:0:0:
469,320,159516,1,0,0:0:0:0:
213,192,159516,1,0,0:0:0:0:
128,320,159595,128,0,159752:0:0:0:0:
298,192,159595,1,0,0:0:0:0:
213,320,159673,128,0,159831:0:0:0:0:
384,192,159673,1,0,0:0:0:0:
42,320,159752,128,0,159909:0:0:0:0:
298,192,159752,1,0,0:0:0:0:
128,320,159831,128,0,159988:0:0:0:0:
469,192,159831,1,0,0:0:0:0:
384,192,159831,1,0,0:0:0:0:
213,320,159909,128,0,160066:0:0:0:0:
298,192,159909,1,0,0:0:0:0:
384,192,159988,1,0,0:0:0:0:
469,192,159988,1,0,0:0:0:0:
42,192,159988,128,0,160145:0:0:0:0:
128,320,160066,128,0,160145:0:0:0:0:
298,320,160066,1,0,0:0:0:0:
213,320,160145,1,0,0:0:0:0:
469,320,160145,1,0,0:0:0:0:
384,192,160145,128,0,160223:0:0:0:0:
42,320,160223,1,0,0:0:0:0:
298,192,160223,128,0,160302:0:0:0:0:
469,320,160302,1,0,0:0:0:0:
213,192,160302,128,0,160380:0:0:0:0:
384,320,160380,1,0,0:0:0:0:
128,192,160380,128,0,160459:0:0:0:0:
469,320,160459,1,0,0:0:0:0:
42,192,160459,1,0,0:0:0:0:
298,192,160459,128,0,160537:0:0:0:0:
384,192,160537,1,0,0:0:0:0:
213,192,160537,128,0,160616:0:0:0:0:
469,192,160616,128,0,160694:0:0:0:0:
128,192,160616,1,0,0:0:0:0:
298,320,160694,1,0,0:0:0:0:
42,320,160773,1,0,0:0:0:0:
384,192,160773,1,0,0:0:0:0:
213,192,160773,1,0,0:0:0:0:
298,192,160851,1,0,0:0:0:0:
128,320,160930,1,0,0:0:0:0:
469,320,160930,128,0,161009:0:0:0:0:
213,320,161009,1,0,0:0:0:0:
384,320,161009,128,0,161087:0:0:0:0:
42,320,161087,1,0,0:0:0:0:
128,320,161087,1,0,0:0:0:0:
298,320,161087,128,0,161166:0:0:0:0:
213,320,161166,128,0,161244:0:0:0:0:
469,320,161166,1,0,0:0:0:0:
128,320,161244,128,0,161323:0:0:0:0:
384,320,161244,1,0,0:0:0:0:
42,320,161323,128,0,161480:0:0:0:0:
298,192,161323,1,0,0:0:0:0:
384,320,161401,128,0,161637:0:0:0:0:
469,320,161401,128,0,161715:0:0:0:0:
128,192,161401,128,0,161558:0:0:0:0:
213,192,161401,128,0,161558:0:0:0:0:
298,192,161480,128,0,161637:0:0:0:0:
42,192,161558,128,0,161637:0:0:0:0:
213,320,161637,128,0,161872:0:0:0:0:
128,192,161637,128,0,161794:0:0:0:0:
298,320,161715,128,0,161951:0:0:0:0:
384,320,161715,128,0,161951:0:0:0:0:
42,192,161715,128,0,161794:0:0:0:0:
469,192,161794,128,0,161872:0:0:0:0:
128,192,161872,128,0,161951:0:0:0:0:
42,192,161872,128,0,162029:0:0:0:0:
213,192,161951,128,0,162029:0:0:0:0:
469,192,161951,128,0,162029:0:0:0:0:
128,320,162029,1,0,0:0:0:0:
298,320,162029,1,0,0:0:0:0:
384,320,162029,1,0,0:0:0:0:
42,320,162108,1,0,0:0:0:0:
213,192,162108,1,0,0:0:0:0:
128,320,162187,1,0,0:0:0:0:
298,192,162187,1,0,0:0:0:0:
213,320,162265,1,0,0:0:0:0:
384,320,162265,1,0,0:0:0:0:
42,320,162344,1,0,0:0:0:0:
469,320,162344,1,0,0:0:0:0:
298,192,162344,1,0,0:0:0:0:
128,192,162422,1,0,0:0:0:0:
213,192,162422,1,0,0:0:0:0:
42,320,162501,1,0,0:0:0:0:
469,192,162501,1,0,0:0:0:0:
384,192,162501,1,0,0:0:0:0:
213,320,162579,1,0,0:0:0:0:
298,192,162579,1,0,0:0:0:0:
128,320,162658,128,0,162893:0:0:0:0:
384,320,162658,128,0,162815:0:0:0:0:
469,320,162658,128,0,162893:0:0:0:0:
42,192,162658,128,0,162815:0:0:0:0:
298,320,162736,128,0,163050:0:0:0:0:
213,320,162815,128,0,162972:0:0:0:0:
42,320,162893,128,0,163050:0:0:0:0:
384,320,162893,128,0,163129:0:0:0:0:
128,320,162972,128,0,163129:0:0:0:0:
469,320,162972,128,0,163207:0:0:0:0:
213,320,163050,128,0,163207:0:0:0:0:
42,320,163129,128,0,163207:0:0:0:0:
298,320,163129,128,0,163286:0:0:0:0:
128,320,163207,128,0,163286:0:0:0:0:
384,320,163207,128,0,163286:0:0:0:0:
42,192,163286,1,0,0:0:0:0:
213,192,163286,1,0,0:0:0:0:
469,192,163286,1,0,0:0:0:0:
298,192,163365,1,0,0:0:0:0:
128,192,163443,1,0,0:0:0:0:
469,192,163443,1,0,0:0:0:0:
384,192,163522,1,0,0:0:0:0:
128,192,163600,1,0,0:0:0:0:
42,192,163600,1,0,0:0:0:0:
298,192,163600,1,0,0:0:0:0:
469,192,163679,1,0,0:0:0:0:
213,192,163757,1,0,0:0:0:0:
42,192,163757,1,0,0:0:0:0:
384,192,163757,1,0,0:0:0:0:
298,192,163836,1,0,0:0:0:0:
128,320,163914,1,0,0:0:0:0:
213,320,163914,1,0,0:0:0:0:
384,192,163914,1,0,0:0:0:0:
469,192,163914,1,0,0:0:0:0:
298,320,163993,1,0,0:0:0:0:
128,320,164071,1,0,0:0:0:0:
42,320,164071,1,0,0:0:0:0:
384,320,164071,1,0,0:0:0:0:
213,320,164150,1,0,0:0:0:0:
384,320,164228,1,0,0:0:0:0:
469,320,164228,1,0,0:0:0:0:
298,320,164228,1,0,0:0:0:0:
128,320,164307,1,0,0:0:0:0:
213,320,164307,1,0,0:0:0:0:
42,320,164307,1,0,0:0:0:0:
384,320,164385,1,0,0:0:0:0:
469,320,164385,1,0,0:0:0:0:
298,320,164385,1,0,0:0:0:0:
128,320,164464,1,0,0:0:0:0:
42,320,164464,1,0,0:0:0:0:
213,320,164464,1,0,0:0:0:0:
298,320,164543,1,0,0:0:0:0:
384,320,164543,1,0,0:0:0:0:
469,320,164543,1,0,0:0:0:0:
384,320,164700,1,0,0:0:0:0:
213,320,164778,1,0,0:0:0:0:
128,320,164778,1,0,0:0:0:0:
42,320,164857,1,0,0:0:0:0:
298,320,164857,1,0,0:0:0:0:
469,320,164857,1,0,0:0:0:0:
384,320,164935,1,0,0:0:0:0:
298,320,165014,1,0,0:0:0:0:
128,192,165014,1,0,0:0:0:0:
213,192,165092,1,0,0:0:0:0:
384,320,165171,1,0,0:0:0:0:
469,320,165171,1,0,0:0:0:0:
128,192,165171,1,0,0:0:0:0:
298,320,165210,1,0,0:0:0:0:
42,320,165249,1,0,0:0:0:0:
213,320,165289,1,0,0:0:0:0:
384,320,165328,1,0,0:0:0:0:
128,320,165367,1,0,0:0:0:0:
298,320,165406,1,0,0:0:0:0:
469,320,165446,1,0,0:0:0:0:
42,320,165485,1,0,0:0:0:0:
384,320,165485,1,0,0:0:0:0:
213,320,165524,1,0,0:0:0:0:
128,320,165563,1,0,0:0:0:0:
469,320,165603,1,0,0:0:0:0:
298,320,165642,1,0,0:0:0:0:
42,320,165681,1,0,0:0:0:0:
213,320,165721,1,0,0:0:0:0:
384,320,165760,1,0,0:0:0:0:
128,320,165799,1,0,0:0:0:0:
469,320,165799,1,0,0:0:0:0:
298,320,165838,1,0,0:0:0:0:
42,320,165878,1,0,0:0:0:0:
213,320,165917,1,0,0:0:0:0:
384,320,165956,1,0,0:0:0:0:
298,320,165995,1,0,0:0:0:0:
128,320,166035,1,0,0:0:0:0:
469,320,166074,1,0,0:0:0:0:
213,320,166113,1,0,0:0:0:0:
384,192,166113,1,0,0:0:0:0:
298,320,166192,1,0,0:0:0:0:
469,192,166218,1,0,0:0:0:0:
128,320,166270,1,0,0:0:0:0:
384,192,166323,1,0,0:0:0:0:
213,320,166349,1,0,0:0:0:0:
42,320,166427,1,0,0:0:0:0:
469,320,166427,1,0,0:0:0:0:
298,192,166427,1,0,0:0:0:0:
384,320,166467,1,0,0:0:0:0:
128,320,166506,1,0,0:0:0:0:
298,320,166545,1,0,0:0:0:0:
469,320,166584,1,0,0:0:0:0:
213,320,166624,1,0,0:0:0:0:
42,320,166663,1,0,0:0:0:0:
384,320,166702,1,0,0:0:0:0:
128,320,166742,1,0,0:0:0:0:
298,320,166742,1,0,0:0:0:0:
469,320,166781,1,0,0:0:0:0:
42,320,166820,1,0,0:0:0:0:
384,320,166859,1,0,0:0:0:0:
298,320,166899,1,0,0:0:0:0:
128,320,166938,1,0,0:0:0:0:
213,320,166977,1,0,0:0:0:0:
469,320,167016,1,0,0:0:0:0:
42,320,167056,1,0,0:0:0:0:
384,320,167056,1,0,0:0:0:0:
298,320,167095,1,0,0:0:0:0:
213,320,167134,1,0,0:0:0:0:
128,320,167173,1,0,0:0:0:0:
384,320,167213,1,0,0:0:0:0:
298,320,167252,1,0,0:0:0:0:
128,320,167291,1,0,0:0:0:0:
42,320,167331,1,0,0:0:0:0:
384,320,167370,1,0,0:0:0:0:
469,320,167370,1,0,0:0:0:0:
298,320,167409,1,0,0:0:0:0:
213,320,167448,1,0,0:0:0:0:
42,320,167488,1,0,0:0:0:0:
384,320,167527,1,0,0:0:0:0:
469,320,167527,1,0,0:0:0:0:
213,320,167605,1,0,0:0:0:0:
128,320,167684,1,0,0:0:0:0:
298,320,167684,1,0,0:0:0:0:
384,192,167684,1,0,0:0:0:0:
469,320,167723,1,0,0:0:0:0:
42,320,167762,1,0,0:0:0:0:
213,320,167802,1,0,0:0:0:0:
384,320,167841,1,0,0:0:0:0:
298,320,167880,1,0,0:0:0:0:
128,320,167920,1,0,0:0:0:0:
469,320,167959,1,0,0:0:0:0:
42,320,167998,1,0,0:0:0:0:
384,320,167998,1,0,0:0:0:0:
213,320,168037,1,0,0:0:0:0:
128,320,168077,1,0,0:0:0:0:
298,320,168116,1,0,0:0:0:0:
469,320,168155,1,0,0:0:0:0:
213,320,168194,1,0,0:0:0:0:
128,320,168234,1,0,0:0:0:0:
298,320,168273,1,0,0:0:0:0:
42,320,168312,128,0,168469:0:0:0:0:
384,320,168312,1,0,0:0:0:0:
469,320,168312,1,0,0:0:0:0:
128,320,168391,128,0,168548:0:0:0:0:
298,320,168391,1,0,0:0:0:0:
213,320,168469,128,0,168626:0:0:0:0:
469,320,168469,1,0,0:0:0:0:
42,320,168548,128,0,168705:0:0:0:0:
384,320,168548,1,0,0:0:0:0:
128,320,168626,128,0,168783:0:0:0:0:
298,320,168626,1,0,0:0:0:0:
469,320,168626,1,0,0:0:0:0:
213,320,168705,128,0,168862:0:0:0:0:
384,320,168705,1,0,0:0:0:0:
42,320,168783,128,0,168940:0:0:0:0:
298,320,168783,1,0,0:0:0:0:
128,320,168862,128,0,168940:0:0:0:0:
469,320,168862,1,0,0:0:0:0:
213,320,168940,1,0,0:0:0:0:
384,320,168940,1,0,0:0:0:0:
298,320,168980,1,0,0:0:0:0:
42,320,169019,1,0,0:0:0:0:
128,320,169058,1,0,0:0:0:0:
469,320,169098,1,0,0:0:0:0:
213,320,169137,1,0,0:0:0:0:
384,320,169176,1,0,0:0:0:0:
298,320,169215,1,0,0:0:0:0:
42,320,169255,1,0,0:0:0:0:
128,320,169255,1,0,0:0:0:0:
469,320,169294,1,0,0:0:0:0:
213,320,169333,1,0,0:0:0:0:
384,320,169372,1,0,0:0:0:0:
128,320,169412,1,0,0:0:0:0:
298,320,169451,1,0,0:0:0:0:
213,320,169490,1,0,0:0:0:0:
42,320,169529,1,0,0:0:0:0:
384,320,169569,1,0,0:0:0:0:
469,320,169569,1,0,0:0:0:0:
128,320,169608,1,0,0:0:0:0:
213,320,169647,1,0,0:0:0:0:
384,320,169687,1,0,0:0:0:0:
42,320,169726,1,0,0:0:0:0:
298,320,169765,1,0,0:0:0:0:
469,320,169804,1,0,0:0:0:0:
213,320,169844,1,0,0:0:0:0:
128,320,169883,1,0,0:0:0:0:
384,320,169883,1,0,0:0:0:0:
298,320,169922,1,0,0:0:0:0:
42,320,169961,1,0,0:0:0:0:
213,320,170001,1,0,0:0:0:0:
128,320,170040,1,0,0:0:0:0:
469,320,170040,1,0,0:0:0:0:
384,320,170079,1,0,0:0:0:0:
298,320,170118,1,0,0:0:0:0:
213,320,170158,1,0,0:0:0:0:
42,320,170197,1,0,0:0:0:0:
128,320,170197,1,0,0:0:0:0:
469,192,170197,1,0,0:0:0:0:
384,192,170276,1,0,0:0:0:0:
42,320,170354,1,0,0:0:0:0:
213,192,170354,1,0,0:0:0:0:
128,192,170354,1,0,0:0:0:0:
298,192,170433,1,0,0:0:0:0:
128,192,170511,1,0,0:0:0:0:
384,192,170511,1,0,0:0:0:0:
469,192,170511,1,0,0:0:0:0:
213,192,170590,1,0,0:0:0:0:
42,192,170668,1,0,0:0:0:0:
298,192,170668,1,0,0:0:0:0:
469,192,170668,1,0,0:0:0:0:
128,192,170747,1,0,0:0:0:0:
213,192,170825,1,0,0:0:0:0:
384,192,170825,1,0,0:0:0:0:
469,192,170825,1,0,0:0:0:0:
128,192,170904,1,0,0:0:0:0:
42,192,170982,1,0,0:0:0:0:
384,192,170982,1,0,0:0:0:0:
298,192,170982,1,0,0:0:0:0:
213,192,171061,1,0,0:0:0:0:
42,320,171139,1,0,0:0:0:0:
128,192,171139,1,0,0:0:0:0:
298,192,171139,1,0,0:0:0:0:
384,192,171218,1,0,0:0:0:0:
213,320,171296,1,0,0:0:0:0:
298,320,171296,1,0,0:0:0:0:
469,192,171296,1,0,0:0:0:0:
128,320,171375,1,0,0:0:0:0:
42,320,171375,1,0,0:0:0:0:
298,320,171454,1,0,0:0:0:0:
469,320,171454,1,0,0:0:0:0:
384,192,171454,1,0,0:0:0:0:
213,320,171493,1,0,0:0:0:0:
128,320,171532,1,0,0:0:0:0:
42,320,171571,1,0,0:0:0:0:
384,320,171611,1,0,0:0:0:0:
469,320,171611,1,0,0:0:0:0:
298,320,171650,1,0,0:0:0:0:
213,320,171689,1,0,0:0:0:0:
42,320,171728,1,0,0:0:0:0:
128,320,171768,1,0,0:0:0:0:
384,320,171807,1,0,0:0:0:0:
298,320,171846,1,0,0:0:0:0:
42,320,171885,1,0,0:0:0:0:
469,192,171925,1,0,0:0:0:0:
128,320,171964,1,0,0:0:0:0:
298,192,172003,1,0,0:0:0:0:
213,192,172043,1,0,0:0:0:0:
42,320,172082,1,0,0:0:0:0:
469,320,172082,1,0,0:0:0:0:
128,320,172121,1,0,0:0:0:0:
384,320,172160,1,0,0:0:0:0:
213,320,172200,1,0,0:0:0:0:
42,320,172239,1,0,0:0:0:0:
469,320,172239,1,0,0:0:0:0:
298,320,172278,1,0,0:0:0:0:
128,320,172317,1,0,0:0:0:0:
384,320,172357,1,0,0:0:0:0:
42,320,172396,1,0,0:0:0:0:
213,320,172435,1,0,0:0:0:0:
298,320,172474,1,0,0:0:0:0:
469,320,172514,1,0,0:0:0:0:
128,320,172553,1,0,0:0:0:0:
213,320,172592,1,0,0:0:0:0:
298,320,172632,1,0,0:0:0:0:
384,320,172671,1,0,0:0:0:0:
42,320,172710,1,0,0:0:0:0:
128,320,172710,1,0,0:0:0:0:
469,320,172710,1,0,0:0:0:0:
298,320,172789,1,0,0:0:0:0:
128,320,172867,1,0,0:0:0:0:
384,320,172867,1,0,0:0:0:0:
469,320,172867,1,0,0:0:0:0:
213,320,172946,1,0,0:0:0:0:
298,320,173024,1,0,0:0:0:0:
42,320,173024,1,0,0:0:0:0:
469,320,173024,1,0,0:0:0:0:
213,320,173103,1,0,0:0:0:0:
128,320,173181,1,0,0:0:0:0:
384,320,173181,1,0,0:0:0:0:
42,320,173181,1,0,0:0:0:0:
213,320,173260,1,0,0:0:0:0:
298,320,173338,1,0,0:0:0:0:
384,320,173338,1,0,0:0:0:0:
469,320,173338,1,0,0:0:0:0:
213,320,173417,1,0,0:0:0:0:
128,320,173417,1,0,0:0:0:0:
42,320,173495,1,0,0:0:0:0:
384,320,173495,1,0,0:0:0:0:
469,320,173495,1,0,0:0:0:0:
298,320,173574,1,0,0:0:0:0:
42,320,173653,1,0,0:0:0:0:
469,320,173653,1,0,0:0:0:0:
384,192,173692,1,0,0:0:0:0:
128,320,173731,1,0,0:0:0:0:
298,192,173731,1,0,0:0:0:0:
213,192,173770,1,0,0:0:0:0:
469,192,173810,1,0,0:0:0:0:
42,192,173810,1,0,0:0:0:0:
298,192,173888,1,0,0:0:0:0:
384,192,173888,1,0,0:0:0:0:
128,320,173967,1,0,0:0:0:0:
213,320,173967,1,0,0:0:0:0:
42,192,173967,1,0,0:0:0:0:
298,320,174045,1,0,0:0:0:0:
469,320,174124,1,0,0:0:0:0:
384,192,174124,1,0,0:0:0:0:
213,192,174124,1,0,0:0:0:0:
42,192,174202,1,0,0:0:0:0:
128,192,174202,1,0,0:0:0:0:
469,320,174281,1,0,0:0:0:0:
384,192,174281,1,0,0:0:0:0:
298,192,174281,1,0,0:0:0:0:
128,192,174359,1,0,0:0:0:0:
213,192,174359,1,0,0:0:0:0:
384,320,174438,1,0,0:0:0:0:
42,192,174438,1,0,0:0:0:0:
469,192,174438,1,0,0:0:0:0:
213,320,174516,1,0,0:0:0:0:
298,192,174516,1,0,0:0:0:0:
42,320,174595,1,0,0:0:0:0:
128,192,174595,1,0,0:0:0:0:
469,192,174595,1,0,0:0:0:0:
384,192,174673,1,0,0:0:0:0:
298,192,174673,1,0,0:0:0:0:
42,192,174752,1,0,0:0:0:0:
128,192,174752,1,0,0:0:0:0:
213,192,174791,1,0,0:0:0:0:
298,192,174791,1,0,0:0:0:0:
469,192,174831,1,0,0:0:0:0:
384,192,174831,1,0,0:0:0:0:
42,192,174870,1,0,0:0:0:0:
128,192,174870,1,0,0:0:0:0:
213,192,174909,1,0,0:0:0:0:
298,192,174909,1,0,0:0:0:0:
469,192,174988,1,0,0:0:0:0:
384,192,174988,1,0,0:0:0:0:
42,192,175066,1,0,0:0:0:0:
128,192,175066,1,0,0:0:0:0:
213,192,175145,1,0,0:0:0:0:
298,192,175145,1,0,0:0:0:0:
128,192,175223,1,0,0:0:0:0:
42,192,175223,1,0,0:0:0:0:
469,192,175223,1,0,0:0:0:0:
384,192,175223,1,0,0:0:0:0:
213,192,175302,1,0,0:0:0:0:
298,192,175302,1,0,0:0:0:0:
42,192,175459,1,0,0:0:0:0:
128,192,175459,1,0,0:0:0:0:
384,192,175459,1,0,0:0:0:0:
469,192,175459,1,0,0:0:0:0:
298,192,175537,1,0,0:0:0:0:
213,192,175537,1,0,0:0:0:0:
384,192,175694,1,0,0:0:0:0:
469,192,175694,1,0,0:0:0:0:
128,192,175694,1,0,0:0:0:0:
42,192,175694,1,0,0:0:0:0:
213,192,175773,1,0,0:0:0:0:
298,192,175773,1,0,0:0:0:0:
128,192,175851,1,0,0:0:0:0:
469,192,175851,1,0,0:0:0:0:
384,192,175851,1,0,0:0:0:0:
42,192,175851,1,0,0:0:0:0:
213,192,175930,1,0,0:0:0:0:
298,192,175930,1,0,0:0:0:0:
469,320,176009,1,0,0:0:0:0:
384,320,176035,1,0,0:0:0:0:
298,320,176061,1,0,0:0:0:0:
213,320,176087,1,0,0:0:0:0:
128,320,176113,1,0,0:0:0:0:
42,320,176139,1,0,0:0:0:0:
469,320,176166,1,0,0:0:0:0:
384,320,176192,1,0,0:0:0:0:
298,320,176218,1,0,0:0:0:0:
213,320,176244,1,0,0:0:0:0:
128,320,176270,1,0,0:0:0:0:
42,320,176296,1,0,0:0:0:0:
469,320,176323,1,0,0:0:0:0:
384,320,176349,1,0,0:0:0:0:
298,320,176375,1,0,0:0:0:0:
213,320,176401,1,0,0:0:0:0:
128,320,176427,1,0,0:0:0:0:
42,320,176454,1,0,0:0:0:0:
213,320,176480,1,0,0:0:0:0:
298,320,176480,1,0,0:0:0:0:
384,320,176480,1,0,0:0:0:0:
469,320,176480,1,0,0:0:0:0:
213,320,176715,1,0,0:0:0:0:
298,320,176715,1,0,0:0:0:0:
384,320,176715,1,0,0:0:0:0:
469,320,176715,1,0,0:0:0:0:
213,320,176951,1,0,0:0:0:0:
298,320,176951,1,0,0:0:0:0:
384,320,176951,1,0,0:0:0:0:
469,320,176951,1,0,0:0:0:0:
213,320,177265,1,0,0:0:0:0:
298,320,177344,1,0,0:0:0:0:
384,320,177422,1,0,0:0:0:0:
128,320,177501,1,0,0:0:0:0:
469,320,177579,1,0,0:0:0:0:
213,320,177658,1,0,0:0:0:0:
384,320,177736,128,0,177893:0:0:0:0:
298,192,177736,1,0,0:0:0:0:
42,320,177815,1,0,0:0:0:0:
128,320,177893,1,0,0:0:0:0:
469,320,177972,1,0,0:0:0:0:
384,192,177972,128,0,178050:0:0:0:0:
213,320,178050,1,0,0:0:0:0:
298,320,178050,128,0,178207:0:0:0:0:
42,320,178129,1,0,0:0:0:0:
128,320,178207,1,0,0:0:0:0:
469,320,178286,1,0,0:0:0:0:
298,192,178286,128,0,178365:0:0:0:0:
213,320,178365,128,0,178522:0:0:0:0:
384,192,178365,1,0,0:0:0:0:
42,192,178443,1,0,0:0:0:0:
469,192,178522,1,0,0:0:0:0:
128,192,178600,1,0,0:0:0:0:
213,192,178600,128,0,178679:0:0:0:0:
42,320,178679,1,0,0:0:0:0:
469,320,178679,1,0,0:0:0:0:
298,192,178679,128,0,178836:0:0:0:0:
384,192,178679,128,0,178836:0:0:0:0:
213,320,178757,1,0,0:0:0:0:
128,320,178836,1,0,0:0:0:0:
469,192,178914,1,0,0:0:0:0:
384,192,178914,128,0,178993:0:0:0:0:
42,320,178993,1,0,0:0:0:0:
128,320,178993,1,0,0:0:0:0:
213,320,178993,1,0,0:0:0:0:
298,192,178993,1,0,0:0:0:0:
42,320,179228,1,0,0:0:0:0:
128,320,179228,1,0,0:0:0:0:
213,320,179228,1,0,0:0:0:0:
298,192,179228,1,0,0:0:0:0:
42,320,179464,1,0,0:0:0:0:
128,320,179464,1,0,0:0:0:0:
469,320,179464,1,0,0:0:0:0:
384,192,179464,1,0,0:0:0:0:
298,320,179543,1,0,0:0:0:0:
128,192,179621,1,0,0:0:0:0:
213,320,179700,1,0,0:0:0:0:
298,192,179778,1,0,0:0:0:0:
213,320,179857,1,0,0:0:0:0:
384,320,179935,1,0,0:0:0:0:
213,320,180014,1,0,0:0:0:0:
298,320,180092,1,0,0:0:0:0:
469,320,180092,1,0,0:0:0:0:
42,320,180092,128,0,180563:0:0:0:0:
128,320,180092,128,0,180878:0:0:0:0:
384,320,180171,1,0,0:0:0:0:
213,320,180249,1,0,0:0:0:0:
298,320,180328,1,0,0:0:0:0:
384,320,180406,1,0,0:0:0:0:
469,192,180485,128,0,180721:0:0:0:0:
384,192,180563,128,0,180721:0:0:0:0:
213,320,180642,1,0,0:0:0:0:
298,192,180721,1,0,0:0:0:0:
384,320,180799,1,0,0:0:0:0:
42,320,180878,1,0,0:0:0:0:
298,320,180878,1,0,0:0:0:0:
469,192,180878,1,0,0:0:0:0:
213,192,180878,1,0,0:0:0:0:
384,192,180956,1,0,0:0:0:0:
128,192,181035,1,0,0:0:0:0:
298,320,181113,1,0,0:0:0:0:
213,320,181192,1,0,0:0:0:0:
42,192,181192,1,0,0:0:0:0:
384,320,181270,1,0,0:0:0:0:
469,192,181270,1,0,0:0:0:0:
42,320,181349,1,0,0:0:0:0:
128,320,181349,1,0,0:0:0:0:
213,320,181388,1,0,0:0:0:0:
298,320,181427,1,0,0:0:0:0:
384,320,181467,1,0,0:0:0:0:
469,320,181506,1,0,0:0:0:0:
213,320,181506,1,0,0:0:0:0:
42,320,181506,128,0,181584:0:0:0:0:
128,320,181506,128,0,181584:0:0:0:0:
42,320,181742,1,0,0:0:0:0:
128,320,181742,1,0,0:0:0:0:
384,320,181742,128,0,181820:0:0:0:0:
469,320,181742,128,0,181820:0:0:0:0:
42,320,181977,1,0,0:0:0:0:
128,320,181977,1,0,0:0:0:0:
298,192,181977,128,0,182213:0:0:0:0:
384,192,181977,128,0,182134:0:0:0:0:
469,192,182134,128,0,182291:0:0:0:0:
384,192,182213,128,0,182370:0:0:0:0:
298,192,182291,128,0,182448:0:0:0:0:
213,192,182370,128,0,182448:0:0:0:0:
42,320,182448,1,0,0:0:0:0:
128,320,182448,1,0,0:0:0:0:
384,320,182448,128,0,182527:0:0:0:0:
469,320,182448,128,0,182527:0:0:0:0:
42,320,182684,1,0,0:0:0:0:
128,320,182684,1,0,0:0:0:0:
384,320,182684,128,0,182762:0:0:0:0:
469,320,182684,128,0,182762:0:0:0:0:
42,320,182920,1,0,0:0:0:0:
128,320,182920,1,0,0:0:0:0:
384,320,182920,128,0,183077:0:0:0:0:
298,192,182920,128,0,183155:0:0:0:0:
469,192,183077,128,0,183234:0:0:0:0:
384,192,183155,128,0,183312:0:0:0:0:
298,192,183234,128,0,183391:0:0:0:0:
213,192,183312,128,0,183391:0:0:0:0:
42,320,183391,128,0,183626:0:0:0:0:
469,320,183391,1,0,0:0:0:0:
384,320,183469,1,0,0:0:0:0:
298,320,183548,1,0,0:0:0:0:
128,320,183626,128,0,183862:0:0:0:0:
213,320,183626,1,0,0:0:0:0:
384,320,183705,1,0,0:0:0:0:
469,192,183705,1,0,0:0:0:0:
298,320,183783,1,0,0:0:0:0:
42,320,183862,128,0,184647:0:0:0:0:
213,320,183862,1,0,0:0:0:0:
384,320,183940,1,0,0:0:0:0:
128,320,184019,1,0,0:0:0:0:
213,320,184019,1,0,0:0:0:0:
298,320,184019,128,0,184098:0:0:0:0:
469,320,184019,128,0,184098:0:0:0:0:
128,320,184255,1,0,0:0:0:0:
213,320,184255,1,0,0:0:0:0:
384,320,184255,128,0,184333:0:0:0:0:
469,320,184255,128,0,184333:0:0:0:0:
298,192,184333,1,0,0:0:0:0:
128,320,184490,1,0,0:0:0:0:
213,320,184490,1,0,0:0:0:0:
298,192,184490,128,0,184726:0:0:0:0:
384,320,184490,128,0,184647:0:0:0:0:
469,192,184647,128,0,184804:0:0:0:0:
128,192,184647,1,0,0:0:0:0:
384,192,184726,128,0,184883:0:0:0:0:
298,320,184804,128,0,184961:0:0:0:0:
213,192,184883,128,0,184961:0:0:0:0:
42,320,184961,1,0,0:0:0:0:
384,320,184961,128,0,185040:0:0:0:0:
469,320,184961,128,0,185040:0:0:0:0:
128,192,184961,1,0,0:0:0:0:
128,320,185197,1,0,0:0:0:0:
384,320,185197,128,0,185276:0:0:0:0:
469,320,185197,128,0,185276:0:0:0:0:
42,192,185197,1,0,0:0:0:0:
213,192,185276,1,0,0:0:0:0:
213,320,185433,1,0,0:0:0:0:
298,320,185433,128,0,185668:0:0:0:0:
384,320,185433,128,0,185590:0:0:0:0:
42,192,185433,1,0,0:0:0:0:
469,320,185590,128,0,185747:0:0:0:0:
128,192,185590,1,0,0:0:0:0:
384,320,185668,128,0,185825:0:0:0:0:
298,320,185747,128,0,185904:0:0:0:0:
213,320,185825,128,0,185904:0:0:0:0:
128,320,185904,1,0,0:0:0:0:
384,320,185904,1,0,0:0:0:0:
42,320,185904,1,0,0:0:0:0:
298,320,185982,1,0,0:0:0:0:
42,320,186061,1,0,0:0:0:0:
384,320,186061,1,0,0:0:0:0:
469,320,186061,1,0,0:0:0:0:
128,320,186100,1,0,0:0:0:0:
213,320,186139,1,0,0:0:0:0:
298,320,186179,1,0,0:0:0:0:
42,320,186218,1,0,0:0:0:0:
384,320,186218,1,0,0:0:0:0:
469,320,186218,1,0,0:0:0:0:
128,320,186296,1,0,0:0:0:0:
298,320,186296,1,0,0:0:0:0:
213,320,186375,1,0,0:0:0:0:
384,320,186375,1,0,0:0:0:0:
469,320,186375,1,0,0:0:0:0:
128,320,186454,1,0,0:0:0:0:
298,320,186454,1,0,0:0:0:0:
42,320,186532,128,0,187474:0:0:0:0:
213,320,186532,1,0,0:0:0:0:
384,320,186532,1,0,0:0:0:0:
469,320,186532,1,0,0:0:0:0:
128,320,186611,1,0,0:0:0:0:
298,320,186689,1,0,0:0:0:0:
213,320,186768,1,0,0:0:0:0:
128,320,186846,1,0,0:0:0:0:
384,320,186846,1,0,0:0:0:0:
469,320,186846,1,0,0:0:0:0:
298,320,186925,1,0,0:0:0:0:
213,320,187003,1,0,0:0:0:0:
384,320,187082,1,0,0:0:0:0:
128,320,187160,1,0,0:0:0:0:
298,320,187160,1,0,0:0:0:0:
469,320,187160,1,0,0:0:0:0:
213,320,187239,1,0,0:0:0:0:
298,320,187317,1,0,0:0:0:0:
384,320,187396,1,0,0:0:0:0:
128,320,187474,128,0,187789:0:0:0:0:
213,320,187474,1,0,0:0:0:0:
298,320,187474,1,0,0:0:0:0:
469,320,187474,1,0,0:0:0:0:
384,320,187553,1,0,0:0:0:0:
42,320,187632,1,0,0:0:0:0:
298,320,187710,1,0,0:0:0:0:
42,320,187789,1,0,0:0:0:0:
213,320,187789,128,0,188417:0:0:0:0:
384,320,187789,1,0,0:0:0:0:
469,320,187789,1,0,0:0:0:0:
128,320,187867,1,0,0:0:0:0:
298,320,187946,1,0,0:0:0:0:
384,320,188024,1,0,0:0:0:0:
42,320,188103,1,0,0:0:0:0:
128,320,188103,1,0,0:0:0:0:
469,320,188103,1,0,0:0:0:0:
298,320,188181,1,0,0:0:0:0:
384,320,188260,1,0,0:0:0:0:
298,320,188338,1,0,0:0:0:0:
42,320,188417,1,0,0:0:0:0:
128,320,188417,128,0,189045:0:0:0:0:
384,320,188417,1,0,0:0:0:0:
469,320,188417,1,0,0:0:0:0:
213,320,188495,1,0,0:0:0:0:
298,320,188574,1,0,0:0:0:0:
469,320,188653,1,0,0:0:0:0:
42,320,188731,1,0,0:0:0:0:
213,320,188731,1,0,0:0:0:0:
384,320,188731,1,0,0:0:0:0:
298,320,188810,1,0,0:0:0:0:
469,320,188888,1,0,0:0:0:0:
384,320,188967,1,0,0:0:0:0:
42,320,189045,1,0,0:0:0:0:
213,320,189045,128,0,189988:0:0:0:0:
298,320,189045,1,0,0:0:0:0:
469,320,189045,1,0,0:0:0:0:
128,320,189124,1,0,0:0:0:0:
298,320,189202,1,0,0:0:0:0:
384,320,189281,1,0,0:0:0:0:
42,320,189359,1,0,0:0:0:0:
128,320,189359,1,0,0:0:0:0:
469,320,189359,1,0,0:0:0:0:
298,320,189438,1,0,0:0:0:0:
384,320,189516,1,0,0:0:0:0:
128,320,189595,1,0,0:0:0:0:
42,320,189673,1,0,0:0:0:0:
384,320,189673,1,0,0:0:0:0:
469,320,189673,1,0,0:0:0:0:
298,320,189752,1,0,0:0:0:0:
128,320,189831,1,0,0:0:0:0:
42,320,189909,1,0,0:0:0:0:
128,320,189988,1,0,0:0:0:0:
298,320,189988,128,0,190302:0:0:0:0:
384,320,189988,1,0,0:0:0:0:
469,320,189988,1,0,0:0:0:0:
213,320,190066,1,0,0:0:0:0:
42,320,190145,1,0,0:0:0:0:
128,320,190223,1,0,0:0:0:0:
42,320,190302,1,0,0:0:0:0:
213,320,190302,1,0,0:0:0:0:
384,320,190302,1,0,0:0:0:0:
469,320,190302,128,0,191558:0:0:0:0:
298,320,190380,1,0,0:0:0:0:
128,320,190459,1,0,0:0:0:0:
213,320,190537,1,0,0:0:0:0:
42,320,190616,1,0,0:0:0:0:
298,320,190616,1,0,0:0:0:0:
384,320,190616,1,0,0:0:0:0:
128,320,190694,1,0,0:0:0:0:
213,320,190773,1,0,0:0:0:0:
298,320,190851,1,0,0:0:0:0:
42,320,190930,128,0,191480:0:0:0:0:
128,320,190930,1,0,0:0:0:0:
213,320,190930,1,0,0:0:0:0:
384,320,190930,1,0,0:0:0:0:
298,320,191009,1,0,0:0:0:0:
213,320,191087,1,0,0:0:0:0:
298,320,191166,1,0,0:0:0:0:
384,320,191166,1,0,0:0:0:0:
128,320,191244,1,0,0:0:0:0:
213,320,191244,1,0,0:0:0:0:
384,320,191323,1,0,0:0:0:0:
213,320,191401,1,0,0:0:0:0:
298,320,191401,1,0,0:0:0:0:
128,320,191480,1,0,0:0:0:0:
42,320,191558,1,0,0:0:0:0:
213,320,191558,1,0,0:0:0:0:
298,320,191558,1,0,0:0:0:0:
384,320,191558,128,0,192501:0:0:0:0:
128,320,191637,1,0,0:0:0:0:
213,320,191715,1,0,0:0:0:0:
298,320,191794,1,0,0:0:0:0:
42,320,191872,1,0,0:0:0:0:
128,320,191872,1,0,0:0:0:0:
469,320,191872,1,0,0:0:0:0:
213,320,191951,1,0,0:0:0:0:
298,320,192029,1,0,0:0:0:0:
128,320,192108,1,0,0:0:0:0:
42,320,192187,1,0,0:0:0:0:
213,320,192187,1,0,0:0:0:0:
469,320,192187,1,0,0:0:0:0:
298,320,192265,1,0,0:0:0:0:
128,320,192344,1,0,0:0:0:0:
42,320,192422,1,0,0:0:0:0:
128,320,192501,1,0,0:0:0:0:
213,320,192501,1,0,0:0:0:0:
298,320,192501,128,0,192815:0:0:0:0:
469,320,192501,1,0,0:0:0:0:
42,320,192579,1,0,0:0:0:0:
128,320,192658,1,0,0:0:0:0:
384,320,192658,1,0,0:0:0:0:
213,320,192736,1,0,0:0:0:0:
42,320,192815,128,0,193443:0:0:0:0:
128,320,192815,1,0,0:0:0:0:
384,320,192815,1,0,0:0:0:0:
469,320,192815,1,0,0:0:0:0:
213,320,192893,1,0,0:0:0:0:
298,320,192972,1,0,0:0:0:0:
384,320,193050,1,0,0:0:0:0:
128,320,193129,1,0,0:0:0:0:
213,320,193129,1,0,0:0:0:0:
469,320,193129,1,0,0:0:0:0:
384,320,193207,1,0,0:0:0:0:
128,320,193286,1,0,0:0:0:0:
298,320,193286,1,0,0:0:0:0:
213,320,193365,1,0,0:0:0:0:
128,320,193443,1,0,0:0:0:0:
298,320,193443,1,0,0:0:0:0:
384,320,193443,1,0,0:0:0:0:
469,320,193443,128,0,194071:0:0:0:0:
213,320,193522,1,0,0:0:0:0:
298,320,193600,1,0,0:0:0:0:
42,320,193679,1,0,0:0:0:0:
128,320,193757,1,0,0:0:0:0:
213,320,193757,1,0,0:0:0:0:
298,320,193757,1,0,0:0:0:0:
384,320,193836,1,0,0:0:0:0:
128,320,193914,1,0,0:0:0:0:
42,320,193914,1,0,0:0:0:0:
213,320,193993,1,0,0:0:0:0:
298,320,193993,1,0,0:0:0:0:
128,320,194071,1,0,0:0:0:0:
384,320,194071,1,0,0:0:0:0:
42,192,194071,1,0,0:0:0:0:
213,192,194124,1,0,0:0:0:0:
469,320,194176,1,0,0:0:0:0:
128,320,194228,1,0,0:0:0:0:
298,320,194228,1,0,0:0:0:0:
384,320,194281,1,0,0:0:0:0:
42,320,194333,1,0,0:0:0:0:
213,320,194385,1,0,0:0:0:0:
469,320,194385,1,0,0:0:0:0:
384,320,194438,1,0,0:0:0:0:
128,320,194490,1,0,0:0:0:0:
42,320,194543,1,0,0:0:0:0:
298,320,194543,1,0,0:0:0:0:
213,320,194595,1,0,0:0:0:0:
384,320,194647,1,0,0:0:0:0:
128,320,194700,1,0,0:0:0:0:
469,320,194700,1,0,0:0:0:0:
213,320,194778,1,0,0:0:0:0:
42,320,194857,1,0,0:0:0:0:
384,320,194857,1,0,0:0:0:0:
298,320,194935,1,0,0:0:0:0:
128,320,195014,1,0,0:0:0:0:
213,320,195014,1,0,0:0:0:0:
469,320,195014,1,0,0:0:0:0:
42,320,195092,1,0,0:0:0:0:
128,320,195171,1,0,0:0:0:0:
384,320,195171,1,0,0:0:0:0:
213,320,195249,1,0,0:0:0:0:
298,320,195249,1,0,0:0:0:0:
42,320,195328,1,0,0:0:0:0:
128,320,195328,1,0,0:0:0:0:
384,320,195328,1,0,0:0:0:0:
469,320,195328,1,0,0:0:0:0:
298,320,195380,1,0,0:0:0:0:
213,320,195433,1,0,0:0:0:0:
128,320,195485,1,0,0:0:0:0:
384,320,195485,1,0,0:0:0:0:
469,320,195537,1,0,0:0:0:0:
298,320,195590,1,0,0:0:0:0:
42,320,195642,1,0,0:0:0:0:
213,320,195642,1,0,0:0:0:0:
384,320,195694,1,0,0:0:0:0:
128,320,195747,1,0,0:0:0:0:
213,320,195799,1,0,0:0:0:0:
469,320,195799,1,0,0:0:0:0:
298,320,195878,1,0,0:0:0:0:
42,320,195878,1,0,0:0:0:0:
128,320,195956,1,0,0:0:0:0:
384,192,195956,1,0,0:0:0:0:
298,320,196035,1,0,0:0:0:0:
42,320,196113,1,0,0:0:0:0:
469,192,196113,1,0,0:0:0:0:
213,320,196192,1,0,0:0:0:0:
128,320,196270,1,0,0:0:0:0:
298,320,196270,1,0,0:0:0:0:
469,320,196270,1,0,0:0:0:0:
213,320,196349,1,0,0:0:0:0:
384,320,196349,1,0,0:0:0:0:
42,320,196427,1,0,0:0:0:0:
469,320,196427,1,0,0:0:0:0:
128,320,196506,1,0,0:0:0:0:
298,320,196506,1,0,0:0:0:0:
42,320,196584,1,0,0:0:0:0:
213,320,196584,1,0,0:0:0:0:
384,320,196584,1,0,0:0:0:0:
469,320,196584,1,0,0:0:0:0:
128,320,196663,1,0,0:0:0:0:
298,320,196663,1,0,0:0:0:0:
213,320,196742,1,0,0:0:0:0:
384,320,196742,1,0,0:0:0:0:
298,320,196820,1,0,0:0:0:0:
469,320,196820,1,0,0:0:0:0:
42,320,196899,1,0,0:0:0:0:
384,320,196899,1,0,0:0:0:0:
128,320,196977,1,0,0:0:0:0:
298,320,196977,1,0,0:0:0:0:
213,320,197056,1,0,0:0:0:0:
469,320,197056,1,0,0:0:0:0:
42,320,197134,1,0,0:0:0:0:
128,320,197134,1,0,0:0:0:0:
213,320,197213,1,0,0:0:0:0:
298,320,197213,1,0,0:0:0:0:
384,320,197213,1,0,0:0:0:0:
469,320,197213,1,0,0:0:0:0:
42,320,197291,1,0,0:0:0:0:
128,320,197291,1,0,0:0:0:0:
384,320,197370,1,0,0:0:0:0:
469,320,197370,1,0,0:0:0:0:
213,320,197409,1,0,0:0:0:0:
298,320,197409,1,0,0:0:0:0:
42,320,197448,1,0,0:0:0:0:
128,320,197448,1,0,0:0:0:0:
384,320,197488,1,0,0:0:0:0:
469,320,197488,1,0,0:0:0:0:
213,320,197527,1,0,0:0:0:0:
298,320,197527,1,0,0:0:0:0:
42,320,197605,1,0,0:0:0:0:
128,320,197605,1,0,0:0:0:0:
384,320,197684,1,0,0:0:0:0:
469,320,197684,1,0,0:0:0:0:
128,320,197762,1,0,0:0:0:0:
298,320,197762,1,0,0:0:0:0:
42,320,197841,128,0,198155:0:0:0:0:
213,320,197841,128,0,198155:0:0:0:0:
384,320,197841,1,0,0:0:0:0:
469,320,197841,1,0,0:0:0:0:
128,320,198155,128,0,198312:0:0:0:0:
298,320,198155,128,0,198312:0:0:0:0:
213,320,198312,128,0,198469:0:0:0:0:
384,320,198312,128,0,198469:0:0:0:0:
298,320,198626,128,0,198783:0:0:0:0:
469,320,198626,128,0,198783:0:0:0:0:
213,320,198940,128,0,200040:0:0:0:0:
384,320,198940,128,0,200040:0:0:0:0:
128,320,200197,128,0,200276:0:0:0:0:
298,320,200197,128,0,200276:0:0:0:0:
213,320,200276,128,0,200354:0:0:0:0:
384,320,200276,128,0,200354:0:0:0:0:
298,320,200354,128,0,200982:0:0:0:0:
469,320,200354,128,0,200982:0:0:0:0:
42,320,200982,128,0,201611:0:0:0:0:
213,320,200982,128,0,201611:0:0:0:0:
469,320,201087,1,0,0:0:0:0:
384,320,201139,1,0,0:0:0:0:
298,320,201192,1,0,0:0:0:0:
128,320,201244,1,0,0:0:0:0:
469,320,201296,1,0,0:0:0:0:
384,320,201349,1,0,0:0:0:0:
298,320,201401,1,0,0:0:0:0:
128,320,201454,1,0,0:0:0:0:
469,192,201506,1,0,0:0:0:0:
384,192,201558,1,0,0:0:0:0:
298,320,201611,1,0,0:0:0:0:
128,320,201611,1,0,0:0:0:0:
469,320,201611,128,0,202082:0:0:0:0:
213,320,201689,1,0,0:0:0:0:
42,320,201768,1,0,0:0:0:0:
384,320,201768,1,0,0:0:0:0:
298,320,201846,1,0,0:0:0:0:
213,320,201925,1,0,0:0:0:0:
128,320,201925,1,0,0:0:0:0:
42,320,202003,1,0,0:0:0:0:
384,320,202082,1,0,0:0:0:0:
213,320,202082,1,0,0:0:0:0:
298,320,202082,128,0,202867:0:0:0:0:
128,320,202160,1,0,0:0:0:0:
42,320,202239,1,0,0:0:0:0:
469,320,202239,1,0,0:0:0:0:
213,320,202317,1,0,0:0:0:0:
128,320,202396,1,0,0:0:0:0:
384,320,202396,1,0,0:0:0:0:
42,320,202474,1,0,0:0:0:0:
469,320,202553,1,0,0:0:0:0:
213,320,202553,1,0,0:0:0:0:
128,320,202632,1,0,0:0:0:0:
384,320,202710,1,0,0:0:0:0:
469,320,202710,1,0,0:0:0:0:
128,320,202789,1,0,0:0:0:0:
42,320,202867,128,0,203495:0:0:0:0:
213,320,202867,1,0,0:0:0:0:
469,320,202867,1,0,0:0:0:0:
128,320,202946,1,0,0:0:0:0:
384,320,202946,1,0,0:0:0:0:
469,320,203024,1,0,0:0:0:0:
213,320,203024,1,0,0:0:0:0:
384,320,203103,1,0,0:0:0:0:
298,320,203103,1,0,0:0:0:0:
128,320,203181,1,0,0:0:0:0:
469,320,203181,1,0,0:0:0:0:
213,320,203260,1,0,0:0:0:0:
298,320,203260,1,0,0:0:0:0:
128,320,203338,1,0,0:0:0:0:
469,320,203338,1,0,0:0:0:0:
298,320,203417,1,0,0:0:0:0:
384,320,203417,1,0,0:0:0:0:
128,320,203495,128,0,203731:0:0:0:0:
213,320,203495,1,0,0:0:0:0:
469,320,203495,1,0,0:0:0:0:
298,320,203574,1,0,0:0:0:0:
384,320,203574,1,0,0:0:0:0:
42,320,203653,1,0,0:0:0:0:
469,320,203653,1,0,0:0:0:0:
213,320,203731,128,0,203967:0:0:0:0:
298,320,203731,1,0,0:0:0:0:
384,320,203731,1,0,0:0:0:0:
42,320,203810,1,0,0:0:0:0:
128,320,203810,1,0,0:0:0:0:
384,320,203888,1,0,0:0:0:0:
469,320,203888,1,0,0:0:0:0:
42,320,203967,1,0,0:0:0:0:
128,320,203967,1,0,0:0:0:0:
298,320,203967,128,0,204124:0:0:0:0:
213,320,204045,1,0,0:0:0:0:
384,320,204045,1,0,0:0:0:0:
42,320,204124,1,0,0:0:0:0:
128,320,204124,1,0,0:0:0:0:
469,320,204124,128,0,205066:0:0:0:0:
213,320,204202,1,0,0:0:0:0:
298,320,204202,1,0,0:0:0:0:
128,320,204281,1,0,0:0:0:0:
384,320,204281,1,0,0:0:0:0:
42,320,204359,1,0,0:0:0:0:
298,320,204359,1,0,0:0:0:0:
213,320,204438,1,0,0:0:0:0:
384,320,204438,1,0,0:0:0:0:
42,320,204516,1,0,0:0:0:0:
128,320,204516,1,0,0:0:0:0:
213,320,204595,1,0,0:0:0:0:
298,320,204595,1,0,0:0:0:0:
42,320,204673,1,0,0:0:0:0:
128,320,204673,1,0,0:0:0:0:
213,320,204752,1,0,0:0:0:0:
298,320,204752,1,0,0:0:0:0:
384,320,204752,1,0,0:0:0:0:
42,320,204831,1,0,0:0:0:0:
128,320,204831,1,0,0:0:0:0:
298,320,204909,1,0,0:0:0:0:
384,320,204909,1,0,0:0:0:0:
128,320,204988,1,0,0:0:0:0:
42,320,204988,1,0,0:0:0:0:
384,320,205066,1,0,0:0:0:0:
298,320,205066,1,0,0:0:0:0:
128,320,205145,1,0,0:0:0:0:
213,320,205145,1,0,0:0:0:0:
469,320,205223,1,0,0:0:0:0:
384,320,205223,1,0,0:0:0:0:
42,320,205302,1,0,0:0:0:0:
128,320,205302,1,0,0:0:0:0:
213,320,205380,1,0,0:0:0:0:
298,320,205380,1,0,0:0:0:0:
384,320,205380,1,0,0:0:0:0:
469,320,205380,128,0,206009:0:0:0:0:
42,320,205459,1,0,0:0:0:0:
128,320,205459,1,0,0:0:0:0:
298,320,205537,1,0,0:0:0:0:
384,320,205537,1,0,0:0:0:0:
42,320,205616,1,0,0:0:0:0:
128,320,205616,1,0,0:0:0:0:
213,320,205616,1,0,0:0:0:0:
298,320,205694,1,0,0:0:0:0:
384,320,205694,1,0,0:0:0:0:
42,320,205773,1,0,0:0:0:0:
128,320,205773,1,0,0:0:0:0:
213,320,205851,1,0,0:0:0:0:
298,320,205851,1,0,0:0:0:0:
384,320,205851,1,0,0:0:0:0:
42,320,205930,1,0,0:0:0:0:
128,320,205930,1,0,0:0:0:0:
298,320,206009,1,0,0:0:0:0:
384,320,206009,1,0,0:0:0:0:
213,320,206048,1,0,0:0:0:0:
128,320,206087,1,0,0:0:0:0:
42,320,206126,1,0,0:0:0:0:
298,320,206166,1,0,0:0:0:0:
384,320,206166,1,0,0:0:0:0:
128,320,206244,1,0,0:0:0:0:
213,320,206244,1,0,0:0:0:0:
42,320,206323,1,0,0:0:0:0:
298,320,206323,1,0,0:0:0:0:
384,320,206323,1,0,0:0:0:0:
469,320,206323,1,0,0:0:0:0:
42,320,206637,1,0,0:0:0:0:
128,320,206637,1,0,0:0:0:0:
384,320,206637,1,0,0:0:0:0:
469,320,206637,1,0,0:0:0:0:
213,320,206715,1,0,0:0:0:0:
298,320,206715,1,0,0:0:0:0:
42,320,206794,1,0,0:0:0:0:
384,320,206794,1,0,0:0:0:0:
128,320,206872,1,0,0:0:0:0:
469,320,206872,1,0,0:0:0:0:
42,320,206951,1,0,0:0:0:0:
213,320,206951,1,0,0:0:0:0:
298,320,206951,1,0,0:0:0:0:
384,320,207029,1,0,0:0:0:0:
469,320,207029,1,0,0:0:0:0:
128,320,207108,1,0,0:0:0:0:
213,320,207108,1,0,0:0:0:0:
298,320,207187,1,0,0:0:0:0:
384,320,207187,1,0,0:0:0:0:
42,320,207265,1,0,0:0:0:0:
128,320,207265,1,0,0:0:0:0:
469,320,207265,1,0,0:0:0:0:
298,320,207344,1,0,0:0:0:0:
384,320,207344,1,0,0:0:0:0:
42,320,207422,1,0,0:0:0:0:
128,320,207422,1,0,0:0:0:0:
213,320,207501,1,0,0:0:0:0:
298,320,207501,1,0,0:0:0:0:
42,320,207579,1,0,0:0:0:0:
384,320,207579,1,0,0:0:0:0:
469,320,207579,1,0,0:0:0:0:
128,320,207658,1,0,0:0:0:0:
298,320,207658,1,0,0:0:0:0:
213,320,207736,1,0,0:0:0:0:
469,320,207736,1,0,0:0:0:0:
42,320,207815,1,0,0:0:0:0:
298,320,207815,1,0,0:0:0:0:
128,320,207893,1,0,0:0:0:0:
213,320,207893,1,0,0:0:0:0:
384,320,207893,1,0,0:0:0:0:
469,320,207893,1,0,0:0:0:0:
42,320,207972,1,0,0:0:0:0:
298,320,207972,1,0,0:0:0:0:
128,320,208050,1,0,0:0:0:0:
469,320,208050,1,0,0:0:0:0:
213,320,208129,1,0,0:0:0:0:
384,320,208129,1,0,0:0:0:0:
42,320,208207,1,0,0:0:0:0:
128,320,208207,1,0,0:0:0:0:
298,320,208207,1,0,0:0:0:0:
213,320,208286,1,0,0:0:0:0:
469,320,208286,1,0,0:0:0:0:
42,320,208365,1,0,0:0:0:0:
384,320,208365,1,0,0:0:0:0:
128,320,208443,1,0,0:0:0:0:
298,320,208443,1,0,0:0:0:0:
213,320,208522,1,0,0:0:0:0:
384,320,208522,1,0,0:0:0:0:
469,320,208522,1,0,0:0:0:0:
42,320,208600,1,0,0:0:0:0:
298,320,208600,1,0,0:0:0:0:
128,320,208679,1,0,0:0:0:0:
384,320,208679,1,0,0:0:0:0:
213,320,208757,1,0,0:0:0:0:
469,320,208757,1,0,0:0:0:0:
42,320,208836,1,0,0:0:0:0:
128,320,208836,1,0,0:0:0:0:
298,320,208836,1,0,0:0:0:0:
213,320,208914,1,0,0:0:0:0:
384,320,208914,1,0,0:0:0:0:
128,320,208993,1,0,0:0:0:0:
469,320,208993,1,0,0:0:0:0:
298,320,209071,1,0,0:0:0:0:
384,320,209071,1,0,0:0:0:0:
128,192,209150,1,0,0:0:0:0:
42,192,209150,1,0,0:0:0:0:
213,192,209150,1,0,0:0:0:0:
469,192,209150,1,0,0:0:0:0:
384,192,209228,1,0,0:0:0:0:
298,192,209228,1,0,0:0:0:0:
128,192,209307,1,0,0:0:0:0:
42,192,209307,1,0,0:0:0:0:
213,192,209385,1,0,0:0:0:0:
298,192,209385,1,0,0:0:0:0:
42,192,209464,1,0,0:0:0:0:
128,192,209464,1,0,0:0:0:0:
469,192,209464,1,0,0:0:0:0:
384,192,209543,1,0,0:0:0:0:
298,192,209543,1,0,0:0:0:0:
213,192,209621,1,0,0:0:0:0:
128,192,209621,1,0,0:0:0:0:
384,192,209700,1,0,0:0:0:0:
469,192,209700,1,0,0:0:0:0:
213,192,209778,1,0,0:0:0:0:
128,192,209778,1,0,0:0:0:0:
42,192,209778,1,0,0:0:0:0:
384,192,209857,1,0,0:0:0:0:
469,192,209857,1,0,0:0:0:0:
298,192,209935,1,0,0:0:0:0:
213,192,209935,1,0,0:0:0:0:
128,192,210014,1,0,0:0:0:0:
42,192,210014,1,0,0:0:0:0:
298,192,210092,1,0,0:0:0:0:
384,192,210092,1,0,0:0:0:0:
469,192,210092,1,0,0:0:0:0:
213,192,210171,1,0,0:0:0:0:
128,192,210171,1,0,0:0:0:0:
384,192,210249,1,0,0:0:0:0:
469,192,210249,1,0,0:0:0:0:
128,192,210328,1,0,0:0:0:0:
42,192,210328,1,0,0:0:0:0:
213,192,210406,1,0,0:0:0:0:
298,192,210406,1,0,0:0:0:0:
469,192,210406,1,0,0:0:0:0:
384,192,210406,1,0,0:0:0:0:
128,192,210485,1,0,0:0:0:0:
42,192,210485,1,0,0:0:0:0:
213,192,210563,1,0,0:0:0:0:
298,192,210563,1,0,0:0:0:0:
42,192,210642,1,0,0:0:0:0:
384,192,210642,1,0,0:0:0:0:
469,192,210642,1,0,0:0:0:0:
128,192,210721,1,0,0:0:0:0:
298,192,210721,1,0,0:0:0:0:
213,192,210721,1,0,0:0:0:0:
384,192,210799,1,0,0:0:0:0:
469,192,210799,1,0,0:0:0:0:
298,192,210878,1,0,0:0:0:0:
213,192,210878,1,0,0:0:0:0:
128,192,210878,1,0,0:0:0:0:
42,192,210878,1,0,0:0:0:0:
384,192,210956,1,0,0:0:0:0:
469,192,210956,1,0,0:0:0:0:
42,320,211035,128,0,211349:0:0:0:0:
128,320,211035,1,0,0:0:0:0:
213,320,211035,1,0,0:0:0:0:
298,320,211113,1,0,0:0:0:0:
384,320,211113,1,0,0:0:0:0:
128,320,211192,1,0,0:0:0:0:
469,320,211192,1,0,0:0:0:0:
213,320,211270,1,0,0:0:0:0:
298,320,211270,1,0,0:0:0:0:
128,320,211349,128,0,211663:0:0:0:0:
384,320,211349,1,0,0:0:0:0:
469,320,211349,1,0,0:0:0:0:
213,320,211427,1,0,0:0:0:0:
298,320,211427,1,0,0:0:0:0:
384,320,211506,1,0,0:0:0:0:
469,320,211506,1,0,0:0:0:0:
298,320,211584,1,0,0:0:0:0:
42,320,211663,128,0,212841:0:0:0:0:
213,320,211663,1,0,0:0:0:0:
384,320,211663,1,0,0:0:0:0:
469,320,211663,1,0,0:0:0:0:
128,320,211742,1,0,0:0:0:0:
298,320,211742,1,0,0:0:0:0:
213,320,211820,1,0,0:0:0:0:
469,320,211820,1,0,0:0:0:0:
298,320,211899,1,0,0:0:0:0:
384,320,211899,1,0,0:0:0:0:
128,320,211977,1,0,0:0:0:0:
213,320,211977,1,0,0:0:0:0:
469,320,211977,1,0,0:0:0:0:
298,320,212056,1,0,0:0:0:0:
384,320,212056,1,0,0:0:0:0:
128,320,212134,1,0,0:0:0:0:
469,320,212134,1,0,0:0:0:0:
213,320,212213,1,0,0:0:0:0:
298,320,212213,1,0,0:0:0:0:
128,320,212291,1,0,0:0:0:0:
384,320,212291,1,0,0:0:0:0:
469,320,212291,1,0,0:0:0:0:
213,320,212370,1,0,0:0:0:0:
298,320,212370,1,0,0:0:0:0:
384,320,212448,1,0,0:0:0:0:
469,320,212448,1,0,0:0:0:0:
298,320,212527,1,0,0:0:0:0:
128,320,212527,1,0,0:0:0:0:
213,320,212605,1,0,0:0:0:0:
384,320,212605,1,0,0:0:0:0:
469,320,212605,1,0,0:0:0:0:
298,320,212684,1,0,0:0:0:0:
128,320,212684,1,0,0:0:0:0:
213,320,212762,1,0,0:0:0:0:
469,320,212762,1,0,0:0:0:0:
128,320,212841,1,0,0:0:0:0:
298,320,212841,1,0,0:0:0:0:
42,320,212920,1,0,0:0:0:0:
213,320,212920,1,0,0:0:0:0:
384,320,212920,1,0,0:0:0:0:
469,320,212920,128,0,214098:0:0:0:0:
128,320,212998,1,0,0:0:0:0:
298,320,212998,1,0,0:0:0:0:
42,320,213077,1,0,0:0:0:0:
213,320,213077,1,0,0:0:0:0:
298,320,213155,1,0,0:0:0:0:
384,320,213155,1,0,0:0:0:0:
42,320,213234,1,0,0:0:0:0:
128,320,213234,1,0,0:0:0:0:
213,320,213234,1,0,0:0:0:0:
298,320,213312,1,0,0:0:0:0:
384,320,213312,1,0,0:0:0:0:
42,320,213391,1,0,0:0:0:0:
128,320,213391,1,0,0:0:0:0:
213,320,213469,1,0,0:0:0:0:
384,320,213469,1,0,0:0:0:0:
42,320,213548,1,0,0:0:0:0:
128,320,213548,1,0,0:0:0:0:
298,320,213548,1,0,0:0:0:0:
213,320,213626,1,0,0:0:0:0:
384,320,213626,1,0,0:0:0:0:
128,320,213705,1,0,0:0:0:0:
213,320,213744,1,0,0:0:0:0:
298,320,213783,1,0,0:0:0:0:
42,320,213823,1,0,0:0:0:0:
128,192,213862,1,0,0:0:0:0:
213,192,213862,1,0,0:0:0:0:
298,320,213940,1,0,0:0:0:0:
384,320,213940,1,0,0:0:0:0:
128,320,214019,1,0,0:0:0:0:
213,320,214019,1,0,0:0:0:0:
42,320,214098,1,0,0:0:0:0:
298,320,214098,1,0,0:0:0:0:
128,320,214176,1,0,0:0:0:0:
213,320,214176,1,0,0:0:0:0:
384,320,214176,1,0,0:0:0:0:
469,320,214176,1,0,0:0:0:0:
42,320,214255,1,0,0:0:0:0:
298,320,214255,1,0,0:0:0:0:
213,320,214333,1,0,0:0:0:0:
469,320,214333,1,0,0:0:0:0:
128,320,214412,1,0,0:0:0:0:
298,320,214412,1,0,0:0:0:0:
384,320,214412,1,0,0:0:0:0:
42,320,214490,1,0,0:0:0:0:
469,320,214490,1,0,0:0:0:0:
213,320,214569,1,0,0:0:0:0:
298,320,214569,1,0,0:0:0:0:
42,320,214647,1,0,0:0:0:0:
128,320,214647,1,0,0:0:0:0:
384,320,214647,1,0,0:0:0:0:
213,320,214726,1,0,0:0:0:0:
298,320,214726,1,0,0:0:0:0:
42,320,214804,1,0,0:0:0:0:
384,320,214804,1,0,0:0:0:0:
469,320,214804,1,0,0:0:0:0:
128,320,214883,1,0,0:0:0:0:
213,320,214883,1,0,0:0:0:0:
298,320,214883,1,0,0:0:0:0:
384,320,214961,1,0,0:0:0:0:
469,320,214961,1,0,0:0:0:0:
213,320,215040,1,0,0:0:0:0:
298,320,215040,1,0,0:0:0:0:
42,320,215118,1,0,0:0:0:0:
128,320,215118,1,0,0:0:0:0:
469,320,215118,1,0,0:0:0:0:
298,320,215197,1,0,0:0:0:0:
384,320,215197,1,0,0:0:0:0:
42,320,215276,1,0,0:0:0:0:
128,320,215276,1,0,0:0:0:0:
213,320,215276,1,0,0:0:0:0:
384,320,215354,1,0,0:0:0:0:
469,320,215354,1,0,0:0:0:0:
298,192,215354,1,0,0:0:0:0:
42,320,215433,128,0,215904:0:0:0:0:
128,320,215433,1,0,0:0:0:0:
213,320,215433,1,0,0:0:0:0:
384,320,215511,1,0,0:0:0:0:
469,320,215511,1,0,0:0:0:0:
128,320,215590,1,0,0:0:0:0:
213,320,215590,1,0,0:0:0:0:
298,320,215668,1,0,0:0:0:0:
384,320,215668,1,0,0:0:0:0:
469,320,215668,1,0,0:0:0:0:
128,320,215747,1,0,0:0:0:0:
213,320,215747,1,0,0:0:0:0:
298,320,215825,1,0,0:0:0:0:
128,320,215904,1,0,0:0:0:0:
213,320,215904,1,0,0:0:0:0:
384,320,215904,128,0,216375:0:0:0:0:
469,320,215904,128,0,216375:0:0:0:0:
42,192,216218,1,0,0:0:0:0:
128,192,216257,1,0,0:0:0:0:
213,192,216296,1,0,0:0:0:0:
298,192,216336,1,0,0:0:0:0:
42,320,216375,1,0,0:0:0:0:
128,320,216375,128,0,216611:0:0:0:0:
298,320,216454,1,0,0:0:0:0:
384,320,216454,1,0,0:0:0:0:
213,320,216532,1,0,0:0:0:0:
469,320,216532,1,0,0:0:0:0:
298,320,216611,1,0,0:0:0:0:
384,320,216611,1,0,0:0:0:0:
42,320,216689,1,0,0:0:0:0:
128,320,216689,1,0,0:0:0:0:
213,320,216689,1,0,0:0:0:0:
469,320,216689,1,0,0:0:0:0:
298,320,216768,1,0,0:0:0:0:
384,320,216768,1,0,0:0:0:0:
42,320,216846,1,0,0:0:0:0:
213,320,216846,1,0,0:0:0:0:
128,320,216925,1,0,0:0:0:0:
298,320,216925,1,0,0:0:0:0:
213,320,217003,1,0,0:0:0:0:
384,320,217003,1,0,0:0:0:0:
469,320,217003,1,0,0:0:0:0:
42,320,217082,1,0,0:0:0:0:
298,320,217082,1,0,0:0:0:0:
128,320,217160,1,0,0:0:0:0:
469,320,217160,1,0,0:0:0:0:
213,320,217239,1,0,0:0:0:0:
384,320,217239,1,0,0:0:0:0:
42,320,217317,1,0,0:0:0:0:
298,320,217317,1,0,0:0:0:0:
469,320,217317,1,0,0:0:0:0:
128,320,217396,1,0,0:0:0:0:
213,320,217396,1,0,0:0:0:0:
384,320,217474,1,0,0:0:0:0:
469,320,217474,1,0,0:0:0:0:
42,320,217553,1,0,0:0:0:0:
128,320,217553,1,0,0:0:0:0:
213,320,217632,1,0,0:0:0:0:
384,320,217632,1,0,0:0:0:0:
469,320,217632,1,0,0:0:0:0:
42,320,217710,1,0,0:0:0:0:
298,320,217710,1,0,0:0:0:0:
128,320,217789,1,0,0:0:0:0:
384,320,217789,1,0,0:0:0:0:
213,320,217867,1,0,0:0:0:0:
298,320,217867,1,0,0:0:0:0:
42,320,217946,1,0,0:0:0:0:
128,320,217946,1,0,0:0:0:0:
384,320,217946,1,0,0:0:0:0:
469,320,217946,1,0,0:0:0:0:
213,320,218024,1,0,0:0:0:0:
298,320,218024,1,0,0:0:0:0:
469,320,218103,1,0,0:0:0:0:
128,192,218103,1,0,0:0:0:0:
42,320,218181,1,0,0:0:0:0:
298,320,218181,1,0,0:0:0:0:
128,320,218260,1,0,0:0:0:0:
213,320,218260,1,0,0:0:0:0:
384,320,218260,1,0,0:0:0:0:
42,320,218338,1,0,0:0:0:0:
469,320,218338,1,0,0:0:0:0:
384,192,218417,1,0,0:0:0:0:
128,192,218417,1,0,0:0:0:0:
213,320,218495,1,0,0:0:0:0:
298,192,218495,1,0,0:0:0:0:
469,320,218574,1,0,0:0:0:0:
42,320,218574,1,0,0:0:0:0:
384,320,218574,1,0,0:0:0:0:
128,192,218574,1,0,0:0:0:0:
298,320,218653,1,0,0:0:0:0:
213,320,218653,1,0,0:0:0:0:
469,192,218731,1,0,0:0:0:0:
42,192,218731,1,0,0:0:0:0:
128,192,218810,1,0,0:0:0:0:
298,192,218810,1,0,0:0:0:0:
42,320,218888,1,0,0:0:0:0:
469,192,218888,1,0,0:0:0:0:
384,192,218888,1,0,0:0:0:0:
213,192,218967,1,0,0:0:0:0:
298,192,218967,1,0,0:0:0:0:
384,192,219045,1,0,0:0:0:0:
128,192,219045,1,0,0:0:0:0:
42,192,219045,1,0,0:0:0:0:
298,192,219124,1,0,0:0:0:0:
42,320,219202,1,0,0:0:0:0:
128,320,219202,1,0,0:0:0:0:
213,320,219202,1,0,0:0:0:0:
469,192,219202,1,0,0:0:0:0:
298,320,219281,1,0,0:0:0:0:
384,320,219281,1,0,0:0:0:0:
42,320,219359,1,0,0:0:0:0:
128,320,219359,1,0,0:0:0:0:
213,320,219438,1,0,0:0:0:0:
298,320,219438,1,0,0:0:0:0:
384,320,219438,1,0,0:0:0:0:
469,320,219438,1,0,0:0:0:0:
42,320,219516,1,0,0:0:0:0:
128,320,219516,1,0,0:0:0:0:
384,320,219595,1,0,0:0:0:0:
469,320,219595,1,0,0:0:0:0:
42,320,219673,1,0,0:0:0:0:
128,320,219673,1,0,0:0:0:0:
213,320,219673,1,0,0:0:0:0:
298,192,219673,1,0,0:0:0:0:
384,320,219752,1,0,0:0:0:0:
469,320,219752,1,0,0:0:0:0:
42,320,219831,1,0,0:0:0:0:
128,320,219831,1,0,0:0:0:0:
213,320,219909,1,0,0:0:0:0:
298,320,219909,1,0,0:0:0:0:
384,320,219909,1,0,0:0:0:0:
469,320,219909,1,0,0:0:0:0:
42,320,219988,1,0,0:0:0:0:
128,320,219988,1,0,0:0:0:0:
384,320,220066,1,0,0:0:0:0:
469,320,220066,1,0,0:0:0:0:
42,320,220145,1,0,0:0:0:0:
128,320,220145,1,0,0:0:0:0:
213,320,220145,1,0,0:0:0:0:
298,192,220145,1,0,0:0:0:0:
384,320,220223,1,0,0:0:0:0:
469,320,220223,1,0,0:0:0:0:
42,320,220302,1,0,0:0:0:0:
128,320,220302,1,0,0:0:0:0:
213,320,220302,1,0,0:0:0:0:
298,192,220302,1,0,0:0:0:0:
384,320,220380,1,0,0:0:0:0:
469,320,220380,1,0,0:0:0:0:
298,320,220459,1,0,0:0:0:0:
42,320,220459,1,0,0:0:0:0:
128,320,220459,1,0,0:0:0:0:
213,320,220459,1,0,0:0:0:0:
384,320,220537,1,0,0:0:0:0:
469,320,220537,1,0,0:0:0:0:
42,320,220616,1,0,0:0:0:0:
128,320,220616,1,0,0:0:0:0:
213,320,220694,1,0,0:0:0:0:
298,320,220694,1,0,0:0:0:0:
384,320,220694,1,0,0:0:0:0:
469,320,220694,1,0,0:0:0:0:
42,320,220773,1,0,0:0:0:0:
128,320,220773,1,0,0:0:0:0:
213,320,220851,1,0,0:0:0:0:
298,320,220851,1,0,0:0:0:0:
42,320,220930,1,0,0:0:0:0:
128,320,220930,1,0,0:0:0:0:
384,320,220930,1,0,0:0:0:0:
469,320,220930,1,0,0:0:0:0:
213,320,221009,1,0,0:0:0:0:
298,320,221009,1,0,0:0:0:0:
384,320,221087,1,0,0:0:0:0:
469,320,221087,1,0,0:0:0:0:
42,320,221166,1,0,0:0:0:0:
128,320,221166,1,0,0:0:0:0:
213,320,221166,1,0,0:0:0:0:
298,320,221166,1,0,0:0:0:0:
384,320,221244,1,0,0:0:0:0:
469,320,221244,1,0,0:0:0:0:
128,320,221283,1,0,0:0:0:0:
213,320,221323,1,0,0:0:0:0:
298,320,221362,1,0,0:0:0:0:
42,320,221401,1,0,0:0:0:0:
128,320,221401,1,0,0:0:0:0:
384,320,221401,1,0,0:0:0:0:
469,320,221401,1,0,0:0:0:0:
213,320,221480,1,0,0:0:0:0:
298,320,221480,1,0,0:0:0:0:
42,320,221558,1,0,0:0:0:0:
128,320,221558,1,0,0:0:0:0:
384,320,221558,1,0,0:0:0:0:
469,320,221558,1,0,0:0:0:0:
213,320,221637,1,0,0:0:0:0:
298,320,221637,1,0,0:0:0:0:
42,192,221715,1,0,0:0:0:0:
128,192,221715,1,0,0:0:0:0:
469,192,221715,128,0,221872:0:0:0:0:
213,192,221794,1,0,0:0:0:0:
384,192,221794,128,0,221951:0:0:0:0:
128,192,221872,1,0,0:0:0:0:
298,192,221872,128,0,221951:0:0:0:0:
42,192,221951,1,0,0:0:0:0:
469,192,221951,128,0,222108:0:0:0:0:
213,192,222029,1,0,0:0:0:0:
384,192,222029,128,0,222187:0:0:0:0:
128,192,222029,1,0,0:0:0:0:
298,192,222108,128,0,222187:0:0:0:0:
42,192,222108,1,0,0:0:0:0:
213,192,222187,1,0,0:0:0:0:
469,192,222187,128,0,222344:0:0:0:0:
128,192,222265,1,0,0:0:0:0:
384,192,222265,128,0,222344:0:0:0:0:
42,192,222344,1,0,0:0:0:0:
213,192,222344,128,0,222501:0:0:0:0:
298,192,222344,128,0,222422:0:0:0:0:
384,192,222422,128,0,222579:0:0:0:0:
469,192,222422,128,0,222501:0:0:0:0:
128,192,222501,128,0,222658:0:0:0:0:
42,192,222501,128,0,222579:0:0:0:0:
298,192,222579,128,0,222658:0:0:0:0:
213,192,222579,128,0,222658:0:0:0:0:
42,192,222658,1,0,0:0:0:0:
384,192,222658,128,0,222736:0:0:0:0:
469,192,222658,128,0,222736:0:0:0:0:
128,192,222736,1,0,0:0:0:0:
298,192,222736,1,0,0:0:0:0:
213,192,222815,1,0,0:0:0:0:
384,192,222815,128,0,222893:0:0:0:0:
469,192,222815,128,0,222893:0:0:0:0:
42,192,222893,1,0,0:0:0:0:
128,192,222893,1,0,0:0:0:0:
298,192,222972,128,0,223129:0:0:0:0:
384,192,222972,128,0,223050:0:0:0:0:
469,192,222972,1,0,0:0:0:0:
128,192,223050,1,0,0:0:0:0:
213,192,223050,128,0,223207:0:0:0:0:
469,192,223129,1,0,0:0:0:0:
42,192,223129,128,0,223207:0:0:0:0:
384,192,223207,1,0,0:0:0:0:
128,192,223207,1,0,0:0:0:0:
213,192,223286,128,0,223365:0:0:0:0:
42,192,223286,128,0,223365:0:0:0:0:
469,192,223286,1,0,0:0:0:0:
128,192,223365,128,0,223443:0:0:0:0:
298,192,223365,128,0,223443:0:0:0:0:
213,192,223443,128,0,223522:0:0:0:0:
384,192,223443,128,0,223522:0:0:0:0:
298,192,223522,128,0,223600:0:0:0:0:
128,192,223522,128,0,223600:0:0:0:0:
42,192,223600,1,0,0:0:0:0:
384,192,223600,128,0,223757:0:0:0:0:
469,192,223600,128,0,223679:0:0:0:0:
298,192,223679,1,0,0:0:0:0:
213,192,223679,128,0,223836:0:0:0:0:
42,192,223757,1,0,0:0:0:0:
128,192,223757,128,0,223836:0:0:0:0:
298,192,223836,1,0,0:0:0:0:
384,192,223836,128,0,223993:0:0:0:0:
128,192,223914,1,0,0:0:0:0:
213,192,223914,128,0,224071:0:0:0:0:
469,192,223914,1,0,0:0:0:0:
298,192,223993,1,0,0:0:0:0:
42,192,223993,128,0,224071:0:0:0:0:
384,192,224071,128,0,224150:0:0:0:0:
128,192,224071,128,0,224150:0:0:0:0:
42,192,224150,128,0,224228:0:0:0:0:
469,192,224150,128,0,224228:0:0:0:0:
128,320,224228,128,0,224307:0:0:0:0:
213,320,224228,128,0,224385:0:0:0:0:
298,320,224228,128,0,224385:0:0:0:0:
384,320,224228,128,0,224307:0:0:0:0:
42,320,224307,128,0,224464:0:0:0:0:
469,320,224307,128,0,224464:0:0:0:0:
128,320,224385,128,0,224543:0:0:0:0:
384,320,224385,128,0,224543:0:0:0:0:
213,320,224464,128,0,224621:0:0:0:0:
298,320,224464,128,0,224621:0:0:0:0:
42,320,224543,128,0,224700:0:0:0:0:
469,320,224543,128,0,224700:0:0:0:0:
128,320,224621,128,0,224778:0:0:0:0:
384,320,224621,128,0,224778:0:0:0:0:
213,320,224700,128,0,224778:0:0:0:0:
298,320,224700,128,0,224778:0:0:0:0:
42,320,224778,128,0,224857:0:0:0:0:
469,320,224778,128,0,224857:0:0:0:0:
128,320,224857,128,0,225014:0:0:0:0:
213,320,224857,128,0,224935:0:0:0:0:
298,320,224857,128,0,224935:0:0:0:0:
384,320,224857,128,0,225014:0:0:0:0:
42,320,224935,128,0,225092:0:0:0:0:
469,320,224935,128,0,225092:0:0:0:0:
213,320,225014,128,0,225171:0:0:0:0:
298,320,225014,128,0,225171:0:0:0:0:
128,320,225092,128,0,225249:0:0:0:0:
384,320,225092,128,0,225249:0:0:0:0:
42,320,225171,128,0,225406:0:0:0:0:
469,320,225171,128,0,225406:0:0:0:0:
213,320,225249,128,0,225328:0:0:0:0:
298,320,225249,128,0,225328:0:0:0:0:
128,320,225328,128,0,225485:0:0:0:0:
384,320,225328,128,0,225406:0:0:0:0:
213,320,225406,128,0,225485:0:0:0:0:
298,320,225406,128,0,225642:0:0:0:0:
42,320,225485,128,0,225721:0:0:0:0:
384,320,225485,128,0,225563:0:0:0:0:
469,320,225485,128,0,225563:0:0:0:0:
128,320,225563,128,0,225825:0:0:0:0:
213,320,225563,128,0,225642:0:0:0:0:
384,320,225642,128,0,225721:0:0:0:0:
469,320,225642,128,0,225721:0:0:0:0:
213,320,225721,128,0,225930:0:0:0:0:
298,320,225721,128,0,225799:0:0:0:0:
42,320,225799,128,0,226035:0:0:0:0:
384,320,225799,128,0,225956:0:0:0:0:
469,320,225799,128,0,225878:0:0:0:0:
298,320,225878,128,0,226035:0:0:0:0:
128,320,225904,128,0,226035:0:0:0:0:
469,320,225956,128,0,226192:0:0:0:0:
213,320,226009,128,0,226113:0:0:0:0:
384,320,226035,128,0,226113:0:0:0:0:
42,320,226113,128,0,226270:0:0:0:0:
128,320,226113,128,0,226192:0:0:0:0:
298,320,226113,128,0,226270:0:0:0:0:
213,320,226192,128,0,226349:0:0:0:0:
384,320,226192,128,0,226349:0:0:0:0:
128,320,226270,128,0,226427:0:0:0:0:
469,320,226270,128,0,226349:0:0:0:0:
42,320,226349,128,0,226506:0:0:0:0:
298,320,226349,128,0,226427:0:0:0:0:
213,320,226427,128,0,226584:0:0:0:0:
384,320,226427,128,0,226506:0:0:0:0:
469,320,226427,128,0,226584:0:0:0:0:
128,320,226506,128,0,226663:0:0:0:0:
298,320,226506,128,0,226663:0:0:0:0:
42,320,226584,128,0,226663:0:0:0:0:
384,320,226584,128,0,226663:0:0:0:0:
213,320,226663,128,0,226742:0:0:0:0:
469,320,226663,128,0,226742:0:0:0:0:
42,320,226742,128,0,226899:0:0:0:0:
128,320,226742,1,0,0:0:0:0:
298,192,226742,128,0,226820:0:0:0:0:
384,192,226742,128,0,226820:0:0:0:0:
469,320,226820,128,0,226899:0:0:0:0:
213,320,226820,1,0,0:0:0:0:
298,320,226899,128,0,226977:0:0:0:0:
128,320,226899,1,0,0:0:0:0:
213,320,226977,128,0,227056:0:0:0:0:
384,320,226977,1,0,0:0:0:0:
469,320,227056,1,0,0:0:0:0:
298,320,227056,1,0,0:0:0:0:
42,320,227056,128,0,227134:0:0:0:0:
213,320,227134,1,0,0:0:0:0:
384,320,227134,128,0,227213:0:0:0:0:
128,320,227213,1,0,0:0:0:0:
298,320,227213,128,0,227291:0:0:0:0:
213,320,227291,128,0,227370:0:0:0:0:
384,320,227291,1,0,0:0:0:0:
128,320,227370,128,0,227448:0:0:0:0:
298,320,227370,1,0,0:0:0:0:
469,320,227370,1,0,0:0:0:0:
384,320,227448,128,0,227527:0:0:0:0:
42,320,227448,1,0,0:0:0:0:
298,320,227527,128,0,227605:0:0:0:0:
128,320,227527,1,0,0:0:0:0:
213,320,227605,128,0,227684:0:0:0:0:
384,320,227605,1,0,0:0:0:0:
42,320,227684,1,0,0:0:0:0:
469,320,227684,128,0,227762:0:0:0:0:
298,320,227684,1,0,0:0:0:0:
384,320,227762,128,0,227841:0:0:0:0:
128,320,227762,1,0,0:0:0:0:
42,320,227841,1,0,0:0:0:0:
469,320,227841,128,0,227920:0:0:0:0:
213,320,227920,1,0,0:0:0:0:
298,320,227920,128,0,227998:0:0:0:0:
384,320,227998,128,0,228077:0:0:0:0:
42,192,227998,128,0,228155:0:0:0:0:
128,192,227998,128,0,228077:0:0:0:0:
213,320,228077,1,0,0:0:0:0:
469,320,228077,128,0,228155:0:0:0:0:
128,320,228155,1,0,0:0:0:0:
298,320,228155,128,0,228234:0:0:0:0:
213,320,228234,128,0,228312:0:0:0:0:
469,320,228234,1,0,0:0:0:0:
42,320,228312,1,0,0:0:0:0:
128,320,228312,1,0,0:0:0:0:
298,320,228312,128,0,228391:0:0:0:0:
213,320,228391,1,0,0:0:0:0:
384,320,228391,128,0,228469:0:0:0:0:
42,320,228469,1,0,0:0:0:0:
298,320,228469,128,0,228548:0:0:0:0:
213,320,228548,128,0,228626:0:0:0:0:
469,320,228548,1,0,0:0:0:0:
128,320,228626,128,0,228705:0:0:0:0:
42,320,228626,1,0,0:0:0:0:
384,320,228626,1,0,0:0:0:0:
469,320,228705,128,0,228783:0:0:0:0:
298,320,228705,1,0,0:0:0:0:
384,320,228783,128,0,228862:0:0:0:0:
128,320,228783,1,0,0:0:0:0:
298,320,228862,128,0,228940:0:0:0:0:
213,192,228862,1,0,0:0:0:0:
469,320,228940,128,0,229019:0:0:0:0:
42,320,228940,1,0,0:0:0:0:
128,320,228940,1,0,0:0:0:0:
213,192,229019,1,0,0:0:0:0:
298,320,229019,128,0,229098:0:0:0:0:
469,320,229098,128,0,229176:0:0:0:0:
42,320,229098,1,0,0:0:0:0:
128,192,229098,1,0,0:0:0:0:
298,320,229176,1,0,0:0:0:0:
384,320,229176,128,0,229255:0:0:0:0:
42,192,229255,1,0,0:0:0:0:
128,192,229255,128,0,229333:0:0:0:0:
213,192,229255,128,0,229412:0:0:0:0:
384,192,229333,1,0,0:0:0:0:
298,192,229333,128,0,229412:0:0:0:0:
42,192,229412,1,0,0:0:0:0:
469,192,229412,128,0,229490:0:0:0:0:
298,192,229490,1,0,0:0:0:0:
128,192,229490,128,0,229569:0:0:0:0:
213,192,229490,128,0,229569:0:0:0:0:
42,192,229569,1,0,0:0:0:0:
469,192,229569,1,0,0:0:0:0:
384,192,229569,128,0,229647:0:0:0:0:
213,192,229647,1,0,0:0:0:0:
128,192,229647,128,0,229726:0:0:0:0:
298,192,229726,1,0,0:0:0:0:
384,192,229726,128,0,229804:0:0:0:0:
469,192,229726,128,0,229804:0:0:0:0:
128,192,229804,1,0,0:0:0:0:
42,192,229804,128,0,229883:0:0:0:0:
213,192,229883,1,0,0:0:0:0:
298,192,229883,128,0,229961:0:0:0:0:
384,192,229961,128,0,230040:0:0:0:0:
469,192,229961,128,0,230040:0:0:0:0:
42,192,229961,1,0,0:0:0:0:
213,192,230040,1,0,0:0:0:0:
128,192,230040,128,0,230118:0:0:0:0:
384,192,230118,1,0,0:0:0:0:
298,192,230118,128,0,230197:0:0:0:0:
469,192,230197,1,0,0:0:0:0:
42,192,230197,128,0,230276:0:0:0:0:
128,192,230197,128,0,230276:0:0:0:0:
298,192,230276,1,0,0:0:0:0:
213,192,230276,128,0,230354:0:0:0:0:
42,192,230354,1,0,0:0:0:0:
384,192,230354,128,0,230433:0:0:0:0:
469,192,230354,128,0,230433:0:0:0:0:
213,192,230433,1,0,0:0:0:0:
128,192,230433,128,0,230511:0:0:0:0:
298,192,230511,128,0,230590:0:0:0:0:
384,192,230511,128,0,230590:0:0:0:0:
469,192,230511,128,0,230668:0:0:0:0:
128,192,230590,1,0,0:0:0:0:
213,192,230590,128,0,230668:0:0:0:0:
384,192,230668,128,0,230747:0:0:0:0:
298,192,230668,1,0,0:0:0:0:
213,192,230747,1,0,0:0:0:0:
42,192,230747,128,0,230825:0:0:0:0:
128,192,230747,128,0,230825:0:0:0:0:
469,192,230825,1,0,0:0:0:0:
384,192,230825,128,0,230904:0:0:0:0:
42,192,230904,1,0,0:0:0:0:
128,192,230904,128,0,230982:0:0:0:0:
469,192,230982,1,0,0:0:0:0:
298,192,230982,128,0,231061:0:0:0:0:
384,192,230982,128,0,231061:0:0:0:0:
128,192,231061,128,0,231139:0:0:0:0:
213,192,231061,1,0,0:0:0:0:
42,320,231139,1,0,0:0:0:0:
298,320,231139,1,0,0:0:0:0:
384,320,231139,1,0,0:0:0:0:
469,320,231139,128,0,231454:0:0:0:0:
128,320,231218,1,0,0:0:0:0:
213,320,231218,1,0,0:0:0:0:
384,320,231296,1,0,0:0:0:0:
298,320,231336,1,0,0:0:0:0:
213,320,231375,1,0,0:0:0:0:
128,320,231414,1,0,0:0:0:0:
42,320,231454,1,0,0:0:0:0:
298,320,231454,1,0,0:0:0:0:
384,320,231454,128,0,231689:0:0:0:0:
213,320,231532,1,0,0:0:0:0:
469,320,231532,1,0,0:0:0:0:
298,320,231611,1,0,0:0:0:0:
128,320,231611,1,0,0:0:0:0:
213,320,231689,1,0,0:0:0:0:
469,320,231689,1,0,0:0:0:0:
42,320,231768,128,0,232946:0:0:0:0:
128,320,231768,1,0,0:0:0:0:
298,320,231768,128,0,231846:0:0:0:0:
384,320,231768,1,0,0:0:0:0:
213,320,231846,1,0,0:0:0:0:
469,320,231846,128,0,231925:0:0:0:0:
298,320,231925,1,0,0:0:0:0:
384,320,231925,128,0,232003:0:0:0:0:
128,320,232003,1,0,0:0:0:0:
213,320,232003,128,0,232082:0:0:0:0:
298,320,232082,128,0,232160:0:0:0:0:
384,320,232082,1,0,0:0:0:0:
469,320,232082,1,0,0:0:0:0:
128,320,232160,1,0,0:0:0:0:
213,320,232160,128,0,232239:0:0:0:0:
384,320,232239,128,0,232317:0:0:0:0:
469,320,232239,1,0,0:0:0:0:
213,320,232317,1,0,0:0:0:0:
298,320,232317,128,0,232396:0:0:0:0:
128,320,232396,128,0,232474:0:0:0:0:
384,320,232396,1,0,0:0:0:0:
469,320,232396,1,0,0:0:0:0:
213,320,232474,128,0,232553:0:0:0:0:
298,320,232474,1,0,0:0:0:0:
384,320,232553,128,0,232632:0:0:0:0:
469,320,232553,1,0,0:0:0:0:
128,320,232632,1,0,0:0:0:0:
213,320,232632,128,0,232710:0:0:0:0:
298,320,232710,128,0,232789:0:0:0:0:
384,320,232710,1,0,0:0:0:0:
469,320,232710,1,0,0:0:0:0:
128,320,232789,128,0,232867:0:0:0:0:
213,320,232789,1,0,0:0:0:0:
298,320,232867,1,0,0:0:0:0:
384,320,232867,128,0,232946:0:0:0:0:
128,320,232946,1,0,0:0:0:0:
213,320,232946,128,0,233024:0:0:0:0:
42,320,233024,1,0,0:0:0:0:
298,320,233024,128,0,233103:0:0:0:0:
384,320,233024,1,0,0:0:0:0:
469,320,233024,128,0,234281:0:0:0:0:
128,320,233103,1,0,0:0:0:0:
213,320,233103,128,0,233181:0:0:0:0:
298,320,233181,1,0,0:0:0:0:
384,320,233181,128,0,233260:0:0:0:0:
42,320,233260,1,0,0:0:0:0:
128,320,233260,128,0,233338:0:0:0:0:
213,320,233338,128,0,233417:0:0:0:0:
298,320,233338,1,0,0:0:0:0:
384,320,233338,1,0,0:0:0:0:
42,320,233417,128,0,233495:0:0:0:0:
128,320,233417,1,0,0:0:0:0:
213,320,233495,128,0,233574:0:0:0:0:
298,320,233495,1,0,0:0:0:0:
42,320,233574,1,0,0:0:0:0:
384,320,233574,128,0,233653:0:0:0:0:
128,320,233653,128,0,233731:0:0:0:0:
213,320,233653,1,0,0:0:0:0:
298,320,233653,1,0,0:0:0:0:
42,320,233731,1,0,0:0:0:0:
384,320,233731,128,0,233810:0:0:0:0:
213,320,233810,1,0,0:0:0:0:
298,320,233810,128,0,233888:0:0:0:0:
42,320,233888,1,0,0:0:0:0:
128,320,233888,128,0,233967:0:0:0:0:
213,320,233967,128,0,234045:0:0:0:0:
298,320,233967,1,0,0:0:0:0:
384,320,233967,1,0,0:0:0:0:
42,320,234045,128,0,234124:0:0:0:0:
128,320,234045,1,0,0:0:0:0:
298,320,234124,128,0,234202:0:0:0:0:
384,320,234124,1,0,0:0:0:0:
128,320,234202,1,0,0:0:0:0:
213,320,234202,128,0,234281:0:0:0:0:
42,320,234281,128,0,234438:0:0:0:0:
384,320,234281,128,0,234359:0:0:0:0:
298,320,234281,128,0,234831:0:0:0:0:
213,320,234359,128,0,234516:0:0:0:0:
469,192,234359,128,0,234438:0:0:0:0:
128,320,234438,128,0,234516:0:0:0:0:
384,320,234438,128,0,234516:0:0:0:0:
42,320,234516,128,0,234595:0:0:0:0:
469,192,234516,128,0,234752:0:0:0:0:
128,320,234595,128,0,234673:0:0:0:0:
213,320,234595,128,0,234752:0:0:0:0:
384,320,234595,128,0,234673:0:0:0:0:
42,320,234673,128,0,234831:0:0:0:0:
128,320,234752,128,0,234831:0:0:0:0:
384,320,234752,128,0,234831:0:0:0:0:
213,320,234831,128,0,234909:0:0:0:0:
469,320,234831,128,0,234909:0:0:0:0:
128,320,234909,128,0,235066:0:0:0:0:
298,320,234909,128,0,234988:0:0:0:0:
384,320,234909,128,0,235066:0:0:0:0:
42,192,234909,128,0,235459:0:0:0:0:
213,320,234988,128,0,235145:0:0:0:0:
469,320,234988,128,0,235145:0:0:0:0:
298,320,235066,128,0,235145:0:0:0:0:
128,320,235145,128,0,235223:0:0:0:0:
384,320,235145,128,0,235302:0:0:0:0:
213,320,235223,128,0,235380:0:0:0:0:
298,320,235223,128,0,235302:0:0:0:0:
469,320,235223,128,0,235459:0:0:0:0:
128,320,235302,128,0,235380:0:0:0:0:
298,320,235380,128,0,235459:0:0:0:0:
384,320,235380,128,0,235459:0:0:0:0:
128,320,235459,128,0,235537:0:0:0:0:
213,320,235459,128,0,235537:0:0:0:0:
42,320,235537,1,0,0:0:0:0:
298,320,235537,1,0,0:0:0:0:
469,192,235537,1,0,0:0:0:0:
384,192,235537,1,0,0:0:0:0:
128,192,235616,1,0,0:0:0:0:
298,320,235694,1,0,0:0:0:0:
42,320,235694,1,0,0:0:0:0:
213,192,235694,1,0,0:0:0:0:
128,320,235773,1,0,0:0:0:0:
469,320,235773,1,0,0:0:0:0:
384,192,235773,1,0,0:0:0:0:
213,192,235851,1,0,0:0:0:0:
42,192,235930,1,0,0:0:0:0:
298,192,235930,1,0,0:0:0:0:
128,192,235930,1,0,0:0:0:0:
384,320,236009,128,0,236323:0:0:0:0:
469,320,236009,128,0,236323:0:0:0:0:
213,192,236009,128,0,236323:0:0:0:0:
42,320,236323,1,0,0:0:0:0:
128,320,236401,1,0,0:0:0:0:
298,320,236401,1,0,0:0:0:0:
213,320,236480,1,0,0:0:0:0:
469,320,236480,1,0,0:0:0:0:
384,192,236480,1,0,0:0:0:0:
42,320,236558,1,0,0:0:0:0:
128,192,236558,1,0,0:0:0:0:
298,320,236637,1,0,0:0:0:0:
384,320,236637,1,0,0:0:0:0:
469,192,236637,1,0,0:0:0:0:
213,320,236715,1,0,0:0:0:0:
128,192,236715,1,0,0:0:0:0:
384,192,236794,128,0,236951:0:0:0:0:
469,192,236794,128,0,236872:0:0:0:0:
42,192,236794,128,0,236872:0:0:0:0:
128,320,236872,1,0,0:0:0:0:
298,320,236872,128,0,236951:0:0:0:0:
213,320,236951,128,0,237029:0:0:0:0:
469,320,236951,1,0,0:0:0:0:
128,320,237029,128,0,237108:0:0:0:0:
384,320,237029,1,0,0:0:0:0:
42,320,237108,128,0,237187:0:0:0:0:
298,192,237108,128,0,237265:0:0:0:0:
213,192,237108,128,0,237187:0:0:0:0:
384,320,237187,128,0,237265:0:0:0:0:
469,320,237187,1,0,0:0:0:0:
128,320,237265,1,0,0:0:0:0:
213,320,237265,128,0,237344:0:0:0:0:
298,320,237344,128,0,237422:0:0:0:0:
384,320,237344,1,0,0:0:0:0:
469,192,237422,128,0,237579:0:0:0:0:
128,192,237422,128,0,237501:0:0:0:0:
42,192,237422,128,0,237501:0:0:0:0:
213,320,237501,1,0,0:0:0:0:
298,320,237501,128,0,237579:0:0:0:0:
42,320,237579,1,0,0:0:0:0:
128,320,237579,128,0,237658:0:0:0:0:
298,320,237658,1,0,0:0:0:0:
384,320,237658,128,0,237736:0:0:0:0:
213,320,237736,128,0,237815:0:0:0:0:
42,192,237736,128,0,237893:0:0:0:0:
128,192,237736,128,0,237815:0:0:0:0:
384,320,237815,128,0,237893:0:0:0:0:
469,320,237815,1,0,0:0:0:0:
213,320,237893,1,0,0:0:0:0:
298,320,237893,128,0,237972:0:0:0:0:
42,320,237972,1,0,0:0:0:0:
128,320,237972,128,0,238050:0:0:0:0:
213,320,238050,128,0,238129:0:0:0:0:
384,192,238050,128,0,238129:0:0:0:0:
469,192,238050,128,0,238207:0:0:0:0:
42,320,238129,128,0,238207:0:0:0:0:
128,320,238129,1,0,0:0:0:0:
213,320,238207,128,0,238286:0:0:0:0:
298,320,238207,1,0,0:0:0:0:
384,320,238286,128,0,238365:0:0:0:0:
469,320,238286,1,0,0:0:0:0:
42,320,238365,128,0,238443:0:0:0:0:
213,192,238365,128,0,238443:0:0:0:0:
128,192,238365,128,0,238522:0:0:0:0:
384,320,238443,1,0,0:0:0:0:
469,320,238443,128,0,238522:0:0:0:0:
213,320,238522,1,0,0:0:0:0:
298,320,238522,128,0,238600:0:0:0:0:
42,320,238600,1,0,0:0:0:0:
128,320,238600,128,0,238679:0:0:0:0:
298,320,238679,128,0,238757:0:0:0:0:
469,192,238679,128,0,238757:0:0:0:0:
384,192,238679,128,0,238836:0:0:0:0:
42,320,238757,128,0,238836:0:0:0:0:
128,320,238757,1,0,0:0:0:0:
213,320,238836,128,0,238914:0:0:0:0:
298,320,238836,1,0,0:0:0:0:
384,320,238914,128,0,238993:0:0:0:0:
469,320,238914,1,0,0:0:0:0:
42,320,238993,1,0,0:0:0:0:
128,320,238993,1,0,0:0:0:0:
213,192,238993,1,0,0:0:0:0:
298,320,239071,1,0,0:0:0:0:
384,320,239071,1,0,0:0:0:0:
42,320,239150,1,0,0:0:0:0:
128,320,239150,1,0,0:0:0:0:
213,192,239150,1,0,0:0:0:0:
384,320,239228,1,0,0:0:0:0:
469,192,239228,1,0,0:0:0:0:
42,320,239307,128,0,239385:0:0:0:0:
128,320,239307,128,0,239385:0:0:0:0:
213,320,239307,128,0,239464:0:0:0:0:
298,320,239307,128,0,239464:0:0:0:0:
384,320,239385,128,0,239464:0:0:0:0:
469,320,239385,128,0,239464:0:0:0:0:
42,320,239464,128,0,239543:0:0:0:0:
128,320,239464,128,0,239543:0:0:0:0:
213,320,239543,128,0,239621:0:0:0:0:
298,320,239543,128,0,239621:0:0:0:0:
384,320,239543,128,0,239700:0:0:0:0:
469,320,239543,128,0,239700:0:0:0:0:
42,320,239621,128,0,239700:0:0:0:0:
128,320,239621,128,0,239700:0:0:0:0:
213,320,239700,128,0,239778:0:0:0:0:
298,320,239700,128,0,239778:0:0:0:0:
42,320,239778,128,0,239935:0:0:0:0:
128,320,239778,128,0,239935:0:0:0:0:
384,320,239778,128,0,239857:0:0:0:0:
469,320,239778,128,0,239857:0:0:0:0:
213,320,239857,128,0,239935:0:0:0:0:
298,320,239857,128,0,239935:0:0:0:0:
384,320,239935,128,0,240014:0:0:0:0:
469,320,239935,128,0,240014:0:0:0:0:
42,320,240014,128,0,240092:0:0:0:0:
128,320,240014,128,0,240092:0:0:0:0:
213,320,240014,128,0,240171:0:0:0:0:
298,320,240014,128,0,240171:0:0:0:0:
384,320,240092,128,0,240171:0:0:0:0:
469,320,240092,128,0,240171:0:0:0:0:
42,320,240171,128,0,240249:0:0:0:0:
128,320,240171,128,0,240249:0:0:0:0:
469,192,240249,128,0,240328:0:0:0:0:
384,192,240249,128,0,240328:0:0:0:0:
298,192,240249,128,0,240328:0:0:0:0:
213,192,240249,128,0,240328:0:0:0:0:
128,192,240328,128,0,240406:0:0:0:0:
42,192,240328,128,0,240406:0:0:0:0:
298,192,240406,128,0,240485:0:0:0:0:
213,192,240406,128,0,240485:0:0:0:0:
384,192,240406,128,0,240485:0:0:0:0:
469,192,240406,128,0,240485:0:0:0:0:
128,192,240485,128,0,240563:0:0:0:0:
42,192,240485,128,0,240563:0:0:0:0:
298,192,240563,128,0,240642:0:0:0:0:
469,192,240563,128,0,240721:0:0:0:0:
384,192,240563,128,0,240721:0:0:0:0:
213,192,240563,128,0,240642:0:0:0:0:
128,192,240642,128,0,240721:0:0:0:0:
42,192,240642,128,0,240721:0:0:0:0:
213,192,240721,128,0,240799:0:0:0:0:
298,192,240721,128,0,240799:0:0:0:0:
384,192,240799,128,0,240956:0:0:0:0:
469,192,240799,128,0,240956:0:0:0:0:
42,192,240799,128,0,240878:0:0:0:0:
128,192,240799,128,0,240878:0:0:0:0:
298,192,240878,128,0,240956:0:0:0:0:
213,192,240878,128,0,240956:0:0:0:0:
128,192,240956,128,0,241035:0:0:0:0:
42,192,240956,128,0,241035:0:0:0:0:
384,192,241035,128,0,241113:0:0:0:0:
469,192,241035,128,0,241113:0:0:0:0:
213,192,241035,128,0,241192:0:0:0:0:
298,192,241035,128,0,241192:0:0:0:0:
128,192,241113,128,0,241192:0:0:0:0:
42,192,241113,128,0,241192:0:0:0:0:
469,192,241192,128,0,241270:0:0:0:0:
384,192,241192,128,0,241270:0:0:0:0:
128,192,241270,128,0,241349:0:0:0:0:
42,192,241270,128,0,241349:0:0:0:0:
213,192,241270,128,0,241349:0:0:0:0:
298,192,241270,128,0,241349:0:0:0:0:
469,192,241349,128,0,241388:0:0:0:0:
384,192,241388,128,0,241427:0:0:0:0:
298,192,241427,128,0,241467:0:0:0:0:
213,192,241467,128,0,241506:0:0:0:0:
128,192,241506,128,0,241584:0:0:0:0:
384,192,241506,128,0,241584:0:0:0:0:
42,192,241506,128,0,241584:0:0:0:0:
469,192,241506,128,0,241584:0:0:0:0:
298,192,241584,128,0,241663:0:0:0:0:
213,192,241584,128,0,241663:0:0:0:0:
128,192,241663,128,0,241742:0:0:0:0:
384,192,241663,128,0,241742:0:0:0:0:
469,192,241663,128,0,241742:0:0:0:0:
42,192,241663,128,0,241742:0:0:0:0:
298,192,241742,128,0,241820:0:0:0:0:
213,192,241742,128,0,241820:0:0:0:0:
128,192,241820,1,0,0:0:0:0:
384,192,241820,1,0,0:0:0:0:
42,320,242134,128,0,242998:0:0:0:0:
298,320,242134,1,0,0:0:0:0:
384,320,242134,1,0,0:0:0:0:
469,320,242134,128,0,242998:0:0:0:0:
128,320,242213,1,0,0:0:0:0:
213,320,242213,1,0,0:0:0:0:
298,320,242291,1,0,0:0:0:0:
384,320,242291,1,0,0:0:0:0:
128,320,242370,1,0,0:0:0:0:
213,320,242370,1,0,0:0:0:0:
298,320,242448,1,0,0:0:0:0:
384,320,242448,1,0,0:0:0:0:
128,320,242527,1,0,0:0:0:0:
213,320,242527,1,0,0:0:0:0:
298,320,242605,1,0,0:0:0:0:
384,320,242605,1,0,0:0:0:0:
128,320,242684,1,0,0:0:0:0:
213,320,242684,1,0,0:0:0:0:
298,320,242762,1,0,0:0:0:0:
384,320,242762,1,0,0:0:0:0:
128,320,242841,1,0,0:0:0:0:
213,320,242841,1,0,0:0:0:0:
298,320,242920,1,0,0:0:0:0:
384,320,242920,1,0,0:0:0:0:
128,320,242998,1,0,0:0:0:0:
213,320,242998,1,0,0:0:0:0:
298,320,243077,1,0,0:0:0:0:
384,320,243077,1,0,0:0:0:0:
469,192,243077,1,0,0:0:0:0:
42,320,243155,1,0,0:0:0:0:
128,320,243155,1,0,0:0:0:0:
384,320,243234,1,0,0:0:0:0:
469,320,243234,1,0,0:0:0:0:
298,320,243273,1,0,0:0:0:0:
128,320,243312,1,0,0:0:0:0:
213,320,243312,1,0,0:0:0:0:
42,320,243351,1,0,0:0:0:0:
384,320,243391,1,0,0:0:0:0:
469,320,243391,1,0,0:0:0:0:
128,320,243469,1,0,0:0:0:0:
213,320,243469,1,0,0:0:0:0:
298,320,243548,1,0,0:0:0:0:
384,320,243548,1,0,0:0:0:0:
469,320,243587,1,0,0:0:0:0:
42,320,243626,1,0,0:0:0:0:
128,320,243626,1,0,0:0:0:0:
213,320,243666,1,0,0:0:0:0:
298,320,243705,1,0,0:0:0:0:
384,320,243705,1,0,0:0:0:0:
469,320,243744,1,0,0:0:0:0:
42,320,243783,1,0,0:0:0:0:
128,320,243783,1,0,0:0:0:0:
384,320,243862,1,0,0:0:0:0:
469,320,243862,1,0,0:0:0:0:
298,320,243901,1,0,0:0:0:0:
128,320,243940,1,0,0:0:0:0:
213,320,243940,1,0,0:0:0:0:
42,320,243980,1,0,0:0:0:0:
384,320,244019,1,0,0:0:0:0:
469,320,244019,1,0,0:0:0:0:
298,192,244019,1,0,0:0:0:0:
128,320,244098,1,0,0:0:0:0:
213,320,244098,1,0,0:0:0:0:
384,320,244176,1,0,0:0:0:0:
469,192,244176,1,0,0:0:0:0:
42,192,244176,1,0,0:0:0:0:
298,192,244255,1,0,0:0:0:0:
213,192,244255,1,0,0:0:0:0:
42,320,244647,128,0,249359:0:0:0:0:
128,320,244647,128,0,249359:0:0:0:0:
213,320,244647,128,0,249359:0:0:0:0:
298,320,244647,128,0,249359:0:0:0:0:
384,320,244647,128,0,249359:0:0:0:0:
469,320,244647,128,0,249359:0:0:0:0:
