osu file format v14

[General]
AudioFilename: audio.mp3
AudioLeadIn: 0
PreviewTime: 169576
Countdown: 1
SampleSet: Normal
StackLeniency: 0.7
Mode: 0
LetterboxInBreaks: 0
WidescreenStoryboard: 0

[Editor]
Bookmarks: 197084,199409,200609,203084,205409,206684,207209,207884,209009,210209,211409,212009,216209,217409,218609,219809,221009,222209
DistanceSpacing: 1
BeatDivisor: 4
GridSize: 4
TimelineZoom: 2.2

[Metadata]
Title:Vanitas
TitleUnicode:Vanitas
Artist:xi
ArtistUnicode:xi
Creator:Weriko
Version:Vain
Source:
Tags:deathstream, stream, xi, lol, wtf, pp
BeatmapID:1016853
BeatmapSetID:475983

[Difficulty]
HPDrainRate:2
CircleSize:4.4
OverallDifficulty:9.3
ApproachRate:9.5
SliderMultiplier:1.7
SliderTickRate:1

[Events]
//Background and Video events
0,0,"FIVEDIMENSIONAL!.jpg",0,0
//Break Periods
2,109759,111284
2,246409,252809
//Storyboard Layer 0 (Background)
//Storyboard Layer 1 (Fail)
//Storyboard Layer 2 (Pass)
//Storyboard Layer 3 (Foreground)
//Storyboard Sound Samples
Sample,177942,0,"hitsound4.wav",70
Sample,177942,0,"hitsound4.wav",70

[TimingPoints]
3809,300,4,2,0,50,1,0
3809,-133.333333333333,4,1,0,50,0,0
7334,-133.333333333333,4,2,0,5,0,0
7409,-133.333333333333,4,1,0,50,0,0
23009,-100,4,2,0,80,0,0
39809,-200,4,2,0,80,0,0
40784,-133.333333333333,4,2,0,80,0,0
41909,-100,4,2,0,80,0,0
42209,-100,4,2,0,80,0,0
64109,-133.333333333333,4,2,0,80,0,0
71009,-100,4,2,0,80,0,0
72232,-100,4,2,0,80,0,0
74159,-100,4,2,0,80,0,0
75725,-100,4,2,0,80,0,0
77070,-100,4,2,0,80,0,0
86361,-100,4,2,0,80,0,0
99717,-66.6666666666667,4,2,0,80,0,0
102039,-66.6666666666667,4,1,0,80,0,0
102264,-100,4,1,0,80,0,0
102534,-66.6666666666667,4,2,0,80,0,0
112651,-133.333333333333,4,1,0,80,0,0
121409,-133.333333333333,4,1,0,14,0,0
130589,-133.333333333333,4,1,0,80,0,0
147809,-133.333333333333,4,2,0,80,0,0
149609,-100,4,2,0,80,0,0
150209,-80,4,2,0,80,0,0
152770,-83.3333333333333,4,2,0,80,0,0
159509,-133.333333333333,4,2,0,80,0,0
160109,-100,4,2,0,80,0,0
160709,-80,4,2,0,80,0,0
163109,-100,4,2,0,80,0,0
163709,-133.333333333333,4,2,0,80,0,0
164309,-100,4,2,0,80,0,0
164909,-66.6666666666667,4,2,0,80,0,0
166409,-100,4,2,0,80,0,0
171809,-80,4,2,0,80,0,0
173609,-80,4,3,0,80,0,0
174209,-80,4,2,0,80,0,0
174809,-80,4,2,0,80,0,0
175409,-80,4,2,0,80,0,0
176009,-80,4,2,0,80,0,0
178409,-66.6666666666667,4,2,0,80,0,0
179009,-57.1428571428571,4,2,0,80,0,0
179684,-80,4,2,0,80,0,0
181351,-80,4,2,0,80,0,0
183209,-100,4,2,0,80,0,0
184409,-133.333333333333,4,2,0,80,0,0
185009,-83.3333333333333,4,2,0,80,0,0
185909,-83.3333333333333,4,2,0,80,0,0
187709,-83.3333333333333,4,2,0,80,0,0
192209,-200,4,2,0,80,0,0
195627,-71.4285714285714,4,2,2,90,0,1
198209,-71.4285714285714,4,2,2,90,0,1
198809,-71.4285714285714,4,2,2,90,0,1
201509,-71.4285714285714,4,2,2,90,0,1
202109,-71.4285714285714,4,2,2,90,0,1
202409,-62.5,4,2,2,90,0,1
203009,-71.4285714285714,4,2,2,90,0,1
205409,-71.4285714285714,4,2,2,90,0,1
210209,-71.4285714285714,4,2,2,90,0,1
215009,-50,4,2,2,90,0,1
215309,-66.6666666666667,4,2,2,90,0,1
218609,-66.6666666666667,4,2,2,90,0,1
219504,-66.6666666666667,4,2,2,90,0,1
220109,-66.6666666666667,4,2,2,90,0,1
221309,-66.6666666666667,4,2,2,90,0,1
222809,-76.9230769230769,4,2,2,90,0,1
224609,-66.6666666666667,4,2,2,90,0,1
227909,-100,4,2,2,90,0,1
228209,-58.8235294117647,4,2,2,90,0,1
235409,-50,4,3,0,80,0,0
236609,-133.333333333333,4,3,0,80,0,0
253249,-50,4,2,0,80,0,0

[Colours]
Combo1 : 213,0,106
Combo2 : 128,255,255
Combo3 : 0,206,206
Combo4 : 0,128,255
Combo5 : 255,0,255
Combo6 : 255,0,128

[HitObjects]
76,88,3809,6,0,B|184:192|204:324|204:324|256:320|296:268|272:208|236:136|192:192,1,510.000019454957
412,68,6209,6,0,B|440:124|376:192|376:192|408:256|296:296|296:296|284:364|216:276|256:232|280:188|280:188|240:208,1,510.000019454957
88,80,8609,6,0,B|203:115|172:232|172:232|315:151|250:298|414:268|414:268|419:198,1,510.000019454957
416,264,10109,6,0,L|352:224,1,63.7500024318696
312,164,10409,2,0,B|252:76|252:76|228:168|228:168|184:128,1,255.000009727478
256,60,12059,6,0,L|212:60,1,31.8750012159348
152,56,12209,2,0,B|72:184|148:236|176:244|192:240|212:216|216:208|244:196|256:224|256:224|268:184|268:184|284:180|300:192|300:192|300:200,1,350.625013375283
316,188,13109,2,0,B|327:127|311:103|311:103|295:131|295:131|271:123,1,127.500004863739
376,300,14459,6,0,L|316:296,1,31.8750012159348
312,300,14609,2,0,B|216:316|216:316|98:277|64:172|264:232|36:120|185:75|185:75|239:145|260:76,1,510.000019454957
88,56,17009,2,0,B|144:200|328:280|356:240|356:240|240:160|368:136|368:136,1,510.000019454957
80,96,19409,2,0,B|156:192|156:192|280:76|384:264|384:264,1,382.500014591218
284,56,20609,2,0,B|184:88|184:88|232:208|9:72|20:264|246:372|228:240|228:240|264:245,1,510.000019454957
256,192,21884,12,0,22709,0:0:0:0:
65,183,23009,6,0,B|159:139|224:176|254:133|254:133|281:189|205:232|205:232|285:256|206:332|206:332|265:368,1,510
307,370,23984,1,0,0:0:0:0:
330,337,24059,1,0,0:0:0:0:
307,304,24134,1,0,0:0:0:0:
293,263,24209,2,0,B|294:188|383:218|383:218|415:151|462:65|332:42|332:42|288:123|198:34,1,510
168,26,25184,1,0,0:0:0:0:
136,48,25259,1,0,0:0:0:0:
153,83,25334,1,0,0:0:0:0:
196,92,25409,6,0,B|204:224|288:191|288:191|208:228|235:315|235:315|135:183|114:322,1,510
110,352,26384,1,0,0:0:0:0:
69,350,26459,1,0,0:0:0:0:
45,317,26534,1,0,0:0:0:0:
41,278,26609,2,0,B|81:90|81:90|133:245|130:126|130:126|195:217|283:139|283:139,1,510
314,131,27584,1,0,0:0:0:0:
318,91,27659,1,0,0:0:0:0:
283,70,27734,1,0,0:0:0:0:
240,68,27809,2,0,B|159:26|159:26|161:115|73:98|73:98|154:177|19:153|19:153|145:377|369:377|455:278|369:186|381:121|252:105|240:257|308:156,1,977.5
312,212,29609,6,0,P|312:340|141:356,1,297.5
128,364,30209,2,0,B|28:285|44:160|132:99|235:68|220:158|220:158|188:190|140:266|327:187|325:189|325:189|337:280,1,680
474,218,31709,6,0,L|403:222,2,56.6666666666667
456,164,32009,6,0,L|385:168,2,56.6666666666667
437,110,32309,6,0,L|366:114,2,56.6666666666667
493,105,32609,5,0,0:0:0:0:
364,264,32759,1,0,0:0:0:0:
276,344,32909,2,0,P|176:320|128:180,1,255
116,152,33434,1,0,0:0:0:0:
135,115,33509,1,0,0:0:0:0:
173,96,33584,1,0,0:0:0:0:
214,103,33659,1,0,0:0:0:0:
324,108,33809,2,0,P|380:140|372:236,1,170
200,204,34409,2,0,P|244:256|340:196,1,170
184,244,34859,1,0,0:0:0:0:
110,180,35009,2,0,B|148:114|148:114|170:148|184:82|245:92,1,170
260,248,35609,5,0,0:0:0:0:
218,245,35684,1,0,0:0:0:0:
207,209,35759,1,0,0:0:0:0:
235,178,35834,1,0,0:0:0:0:
277,173,35909,1,0,0:0:0:0:
313,194,35984,1,0,0:0:0:0:
334,230,36059,1,0,0:0:0:0:
338,272,36134,1,0,0:0:0:0:
323,311,36209,1,0,0:0:0:0:
286,158,36509,2,0,B|201:120|152:161|152:161|195:211,1,170
136,128,37109,1,0,0:0:0:0:
296,192,37409,2,0,P|284:260|144:120,1,425
120,264,38309,1,0,0:0:0:0:
248,160,38459,1,0,0:0:0:0:
184,64,38609,2,0,P|152:124|248:268,1,255
256,164,39209,5,0,0:0:0:0:
304,48,39509,2,0,B|208:100|156:76|152:64,1,127.5
144,104,39809,5,4,0:0:0:0:
135,123,39884,1,0,0:0:0:0:
135,144,39959,1,0,0:0:0:0:
144,163,40034,1,0,0:0:0:0:
160,177,40109,1,0,0:0:0:0:
180,183,40184,1,0,0:0:0:0:
201,180,40259,5,0,0:0:0:0:
219,168,40334,1,0,0:0:0:0:
230,151,40409,1,0,0:0:0:0:
233,130,40484,1,0,0:0:0:0:
228,110,40559,1,0,0:0:0:0:
214,94,40634,1,0,0:0:0:0:
195,85,40709,1,0,0:0:0:0:
172,80,40784,5,0,0:0:0:0:
142,92,40859,1,0,0:0:0:0:
118,113,40934,1,0,0:0:0:0:
101,139,41009,1,0,0:0:0:0:
93,170,41084,1,0,0:0:0:0:
94,202,41159,1,0,0:0:0:0:
104,232,41234,1,0,0:0:0:0:
123,257,41309,5,0,0:0:0:0:
149,276,41384,1,0,0:0:0:0:
179,286,41459,1,0,0:0:0:0:
210,287,41534,1,0,0:0:0:0:
241,279,41609,1,4,0:0:0:0:
240,248,41684,1,0,0:0:0:0:
226,219,41759,1,0,0:0:0:0:
209,192,41834,1,0,0:0:0:0:
189,167,41909,1,0,0:0:0:0:
166,145,41984,1,0,0:0:0:0:
140,126,42059,1,0,0:0:0:0:
113,110,42134,1,0,0:0:0:0:
84,97,42209,5,4,0:0:0:0:
73,138,42284,1,0,0:0:0:0:
64,179,42359,1,0,0:0:0:0:
66,221,42434,1,0,0:0:0:0:
78,262,42509,1,0,0:0:0:0:
101,297,42584,1,0,0:0:0:0:
132,326,42659,1,0,0:0:0:0:
170,346,42734,1,0,0:0:0:0:
211,356,42809,5,0,0:0:0:0:
253,355,42884,1,0,0:0:0:0:
294,343,42959,1,0,0:0:0:0:
330,321,43034,1,0,0:0:0:0:
360,291,43109,1,0,0:0:0:0:
380,254,43184,1,0,0:0:0:0:
391,213,43259,1,0,0:0:0:0:
391,170,43334,1,0,0:0:0:0:
372,132,43409,6,2,L|347:84,3,42.5
330,122,43709,6,2,L|293:81,3,42.5
289,123,44009,6,2,L|243:93,3,42.5
248,135,44309,6,2,L|196:118,3,42.5
308,184,44609,6,0,B|332:276|252:256|252:256,1,85,2|0,0:0|0:0,0:0:0:0:
135,204,44909,2,0,B|131:260|131:260|159:280|191:284,1,85,0|2,0:0|0:0,0:0:0:0:
320,324,45209,5,0,0:0:0:0:
465,168,45359,1,0,0:0:0:0:
320,324,45509,1,0,0:0:0:0:
263,119,45659,1,0,0:0:0:0:
465,168,45809,1,0,0:0:0:0:
136,124,45959,6,0,L|236:184,1,85,2|0,0:0|0:0,0:0:0:0:
391,298,46259,1,0,0:0:0:0:
221,282,46409,1,2,0:0:0:0:
105,157,46559,1,0,0:0:0:0:
266,210,46709,1,0,0:0:0:0:
145,90,46859,1,2,0:0:0:0:
340,180,47009,2,0,P|388:156|316:104,1,170
492,80,47459,5,0,0:0:0:0:
467,248,47609,1,0,0:0:0:0:
314,173,47759,1,0,0:0:0:0:
512,213,47909,5,0,0:0:0:0:
410,345,48059,1,0,0:0:0:0:
315,204,48209,1,0,0:0:0:0:
240,92,48359,2,0,B|304:88|300:128|324:120,1,85
448,45,48659,1,0,0:0:0:0:
448,228,48809,6,0,P|384:232|308:184,1,127.5
292,184,49109,1,2,0:0:0:0:
251,193,49184,1,2,0:0:0:0:
220,222,49259,1,2,0:0:0:0:
208,262,49334,1,2,0:0:0:0:
218,303,49409,1,2,0:0:0:0:
326,285,49559,5,0,0:0:0:0:
188,204,49709,1,0,0:0:0:0:
408,127,49859,2,0,P|401:177|368:179,1,85
178,115,50159,1,0,0:0:0:0:
377,222,50309,1,0,0:0:0:0:
159,102,50459,1,0,0:0:0:0:
357,250,50609,1,0,0:0:0:0:
151,302,50759,5,0,0:0:0:0:
327,184,50909,1,2,0:0:0:0:
244,24,51059,2,0,L|232:120,1,85,2|0,0:0|0:0,0:0:0:0:
421,115,51359,5,0,0:0:0:0:
273,213,51509,1,0,0:0:0:0:
421,254,51659,1,0,0:0:0:0:
205,277,51809,5,0,0:0:0:0:
64,152,51959,1,0,0:0:0:0:
216,76,52109,1,0,0:0:0:0:
320,208,52259,1,2,0:0:0:0:
156,160,52409,1,0,0:0:0:0:
316,224,52559,1,0,0:0:0:0:
180,328,52709,2,0,L|84:356,1,85
104,180,53009,6,0,L|68:144,1,42.5
32,76,53159,2,0,L|64:76,4,21.25
116,76,53384,2,2,P|152:24|224:40,2,127.5
156,88,53909,1,0,0:0:0:0:
195,102,53984,1,0,0:0:0:0:
231,125,54059,1,0,0:0:0:0:
262,155,54134,1,0,0:0:0:0:
284,190,54209,5,0,0:0:0:0:
400,332,54359,2,0,B|392:268|376:268|392:248,1,85
368,80,54659,1,2,0:0:0:0:
222,66,54809,1,0,0:0:0:0:
295,219,54959,1,0,0:0:0:0:
413,178,55109,5,2,0:0:0:0:
310,73,55259,1,0,0:0:0:0:
268,237,55409,1,0,0:0:0:0:
385,282,55559,5,2,0:0:0:0:
374,136,55709,1,0,0:0:0:0:
236,235,55859,1,0,0:0:0:0:
120,267,56009,6,0,B|184:260|161:183,1,85
119,41,56309,1,2,0:0:0:0:
268,88,56459,1,0,0:0:0:0:
400,196,56609,1,2,0:0:0:0:
276,188,56759,2,0,L|188:159,1,85
221,281,57059,5,0,0:0:0:0:
290,102,57209,1,0,0:0:0:0:
166,157,57359,1,0,0:0:0:0:
345,226,57509,1,0,0:0:0:0:
145,251,57659,5,0,0:0:0:0:
365,130,57809,1,0,0:0:0:0:
194,81,57959,1,0,0:0:0:0:
315,301,58109,1,0,0:0:0:0:
104,161,58259,5,0,0:0:0:0:
406,220,58409,1,0,0:0:0:0:
284,39,58559,1,0,0:0:0:0:
227,344,58709,1,0,0:0:0:0:
269,348,58784,1,0,0:0:0:0:
302,372,58859,1,0,0:0:0:0:
344,381,58934,1,0,0:0:0:0:
385,370,59009,1,4,0:0:0:0:
397,237,59159,5,0,0:0:0:0:
172,315,59309,1,0,0:0:0:0:
344,78,59459,1,0,0:0:0:0:
187,151,59609,5,0,0:0:0:0:
187,151,59684,1,0,0:0:0:0:
187,151,59759,1,0,0:0:0:0:
187,151,59834,1,0,0:0:0:0:
187,151,59909,1,0,0:0:0:0:
324,59,60059,5,8,0:0:0:0:
417,208,60209,1,4,0:0:0:0:
270,268,60359,5,0,0:0:0:0:
270,268,60434,1,0,0:0:0:0:
270,268,60509,1,0,0:0:0:0:
35,286,60659,5,8,0:0:0:0:
331,128,60809,1,4,0:0:0:0:
130,88,60959,1,0,0:0:0:0:
414,220,61109,1,0,0:0:0:0:
417,208,61184,1,0,0:0:0:0:
414,220,61259,1,0,0:0:0:0:
191,213,61409,5,4,0:0:0:0:
298,134,61559,1,0,0:0:0:0:
204,236,61709,1,4,0:0:0:0:
296,84,61859,1,0,0:0:0:0:
230,255,62009,1,4,0:0:0:0:
247,32,62159,1,0,0:0:0:0:
259,259,62309,1,4,0:0:0:0:
165,8,62459,1,0,0:0:0:0:
302,240,62609,5,8,0:0:0:0:
260,248,62684,1,0,0:0:0:0:
223,270,62759,1,0,0:0:0:0:
182,278,62834,1,8,0:0:0:0:
140,271,62909,1,0,0:0:0:0:
103,250,62984,1,0,0:0:0:0:
76,218,63059,1,8,0:0:0:0:
62,178,63134,1,0,0:0:0:0:
60,144,63209,1,0,0:0:0:0:
89,173,63284,1,8,0:0:0:0:
130,178,63359,1,0,0:0:0:0:
166,157,63434,1,0,0:0:0:0:
181,118,63509,1,8,0:0:0:0:
168,78,63584,1,0,0:0:0:0:
134,55,63659,1,0,0:0:0:0:
92,58,63734,1,8,0:0:0:0:
61,86,63809,1,0,0:0:0:0:
228,56,64109,5,2,0:0:0:0:
197,46,64184,1,0,0:0:0:0:
165,46,64259,1,0,0:0:0:0:
135,57,64334,1,0,0:0:0:0:
110,75,64409,1,0,0:0:0:0:
91,101,64484,1,0,0:0:0:0:
81,131,64559,5,2,0:0:0:0:
81,163,64634,1,0,0:0:0:0:
91,193,64709,5,0,0:0:0:0:
110,219,64784,1,0,0:0:0:0:
135,238,64859,1,0,0:0:0:0:
165,248,64934,1,0,0:0:0:0:
197,249,65009,1,2,0:0:0:0:
227,239,65084,1,0,0:0:0:0:
253,221,65159,1,0,0:0:0:0:
273,196,65234,1,0,0:0:0:0:
283,166,65309,5,0,0:0:0:0:
292,136,65384,1,0,0:0:0:0:
320,121,65459,1,2,0:0:0:0:
351,115,65534,1,0,0:0:0:0:
383,119,65609,1,0,0:0:0:0:
412,131,65684,1,0,0:0:0:0:
436,152,65759,1,0,0:0:0:0:
453,178,65834,1,0,0:0:0:0:
462,209,65909,5,2,0:0:0:0:
462,241,65984,1,0,0:0:0:0:
452,271,66059,1,0,0:0:0:0:
434,297,66134,1,0,0:0:0:0:
405,311,66209,2,0,L|372:262,1,31.8750012159348
272,183,66359,2,0,L|305:232,1,31.8750012159348
272,303,66509,2,0,L|239:254,1,31.8750012159348
139,175,66659,2,0,L|172:224,1,31.8750012159348
212,300,66809,5,0,0:0:0:0:
188,284,66884,1,0,0:0:0:0:
159,271,66959,1,0,0:0:0:0:
135,251,67034,1,0,0:0:0:0:
117,225,67109,1,2,0:0:0:0:
108,194,67184,1,0,0:0:0:0:
108,163,67259,1,0,0:0:0:0:
117,132,67334,1,0,0:0:0:0:
134,105,67409,1,0,0:0:0:0:
160,84,67484,1,0,0:0:0:0:
191,80,67559,5,2,0:0:0:0:
223,79,67634,1,0,0:0:0:0:
255,82,67709,1,0,0:0:0:0:
286,89,67784,1,0,0:0:0:0:
316,99,67859,1,0,0:0:0:0:
345,112,67934,1,0,0:0:0:0:
372,128,68009,1,2,0:0:0:0:
398,148,68084,1,0,0:0:0:0:
421,170,68159,1,0,0:0:0:0:
441,194,68234,1,0,0:0:0:0:
451,224,68309,6,2,P|451:260|435:280,2,42.5000016212464
424,257,68609,2,0,L|384:273,2,31.8750012159348
184,248,68909,5,2,0:0:0:0:
280,84,69059,1,0,0:0:0:0:
368,252,69209,1,0,0:0:0:0:
200,160,69359,1,2,0:0:0:0:
300,304,69509,1,0,0:0:0:0:
452,188,69659,1,0,0:0:0:0:
260,184,69809,6,0,L|340:148,1,63.7500024318696,2|0,0:0|0:0,0:0:0:0:
152,252,70109,1,0,0:0:0:0:
164,60,70259,1,2,0:0:0:0:
308,188,70409,1,0,0:0:0:0:
152,296,70559,1,0,0:0:0:0:
148,104,70709,1,2,0:0:0:0:
276,248,70859,1,0,0:0:0:0:
384,36,71009,5,2,0:0:0:0:
421,53,71084,1,2,0:0:0:0:
436,92,71159,1,2,0:0:0:0:
422,130,71234,1,2,0:0:0:0:
384,149,71309,1,2,0:0:0:0:
345,136,71384,1,2,0:0:0:0:
304,120,71459,5,2,0:0:0:0:
264,107,71534,1,2,0:0:0:0:
227,126,71609,1,2,0:0:0:0:
212,164,71684,1,2,0:0:0:0:
227,203,71759,1,2,0:0:0:0:
265,221,71834,1,2,0:0:0:0:
308,228,71909,5,2,0:0:0:0:
345,245,71984,1,2,0:0:0:0:
360,284,72059,1,2,0:0:0:0:
346,322,72134,1,2,0:0:0:0:
308,341,72209,1,2,0:0:0:0:
269,329,72284,1,2,0:0:0:0:
227,318,72359,6,0,L|211:338,4,21.25
138,264,72659,1,0,0:0:0:0:
176,152,72809,2,0,P|212:128|304:148,2,127.5
256,204,73409,5,0,0:0:0:0:
269,243,73484,1,0,0:0:0:0:
262,285,73559,1,0,0:0:0:0:
236,318,73634,1,0,0:0:0:0:
197,335,73709,1,0,0:0:0:0:
155,331,73784,1,0,0:0:0:0:
120,308,73859,1,0,0:0:0:0:
100,272,73934,1,0,0:0:0:0:
99,230,74009,1,0,0:0:0:0:
119,192,74084,1,0,0:0:0:0:
144,160,74159,1,0,0:0:0:0:
184,140,74234,1,0,0:0:0:0:
224,128,74309,1,0,0:0:0:0:
264,116,74384,1,0,0:0:0:0:
289,83,74459,1,0,0:0:0:0:
291,41,74534,1,0,0:0:0:0:
267,7,74609,5,0,0:0:0:0:
227,0,74684,1,0,0:0:0:0:
187,6,74759,1,0,0:0:0:0:
163,39,74834,1,0,0:0:0:0:
156,80,74909,1,0,0:0:0:0:
149,121,74984,1,0,0:0:0:0:
153,163,75059,1,0,0:0:0:0:
169,203,75134,1,0,0:0:0:0:
195,236,75209,1,0,0:0:0:0:
229,261,75284,1,0,0:0:0:0:
269,276,75359,1,0,0:0:0:0:
311,280,75434,1,0,0:0:0:0:
344,276,75509,1,0,0:0:0:0:
383,266,75584,1,0,0:0:0:0:
390,226,75659,1,0,0:0:0:0:
357,203,75734,1,0,0:0:0:0:
319,167,75809,6,2,L|366:132,3,42.5
298,138,76109,6,2,L|321:85,3,42.5
265,124,76409,6,2,L|259:66,3,42.5
231,129,76709,6,2,L|196:81,3,42.5
214,203,77009,6,0,P|238:247|290:227,2,85
59,182,77459,2,0,L|99:158,1,42.5
176,112,77609,2,0,P|244:124|228:96,2,127.5
233,50,78209,1,4,0:0:0:0:
194,61,78284,1,0,0:0:0:0:
178,99,78359,1,0,0:0:0:0:
197,135,78434,1,0,0:0:0:0:
231,161,78509,1,0,0:0:0:0:
271,166,78584,1,0,0:0:0:0:
285,203,78659,1,0,0:0:0:0:
259,234,78734,1,0,0:0:0:0:
220,225,78809,1,0,0:0:0:0:
178,215,78884,1,0,0:0:0:0:
137,215,78959,1,0,0:0:0:0:
115,250,79034,1,0,0:0:0:0:
133,287,79109,1,0,0:0:0:0:
173,292,79184,1,0,0:0:0:0:
216,293,79259,2,0,L|268:255,1,42.5
372,108,79409,5,4,0:0:0:0:
413,104,79484,1,0,0:0:0:0:
448,126,79559,1,2,0:0:0:0:
461,166,79634,1,0,0:0:0:0:
446,205,79709,1,0,0:0:0:0:
410,226,79784,1,0,0:0:0:0:
376,220,79859,2,0,L|316:208,1,42.5
152,168,80009,1,6,0:0:0:0:
110,175,80084,1,0,0:0:0:0:
82,206,80159,1,0,0:0:0:0:
76,247,80234,1,0,0:0:0:0:
95,284,80309,1,0,0:0:0:0:
132,303,80384,1,0,0:0:0:0:
184,300,80459,2,0,L|224:244,1,42.5,2|0,0:0|0:0,0:0:0:0:
300,136,80609,6,0,P|316:128|344:172,1,42.5,4|0,0:0|0:0,0:0:0:0:
212,248,80759,2,0,P|196:256|168:212,1,42.5
326,183,80909,6,0,P|343:189|332:240,1,42.5,4|0,0:0|0:0,0:0:0:0:
185,200,81059,2,0,P|168:194|179:143,1,42.5
312,236,81209,6,0,P|320:252|276:280,1,42.5,4|0,0:0|0:0,0:0:0:0:
200,147,81359,2,0,P|192:131|236:104,1,42.5
264,262,81509,6,0,P|258:279|207:268,1,42.5,4|0,0:0|0:0,0:0:0:0:
247,121,81659,2,0,P|253:104|304:115,1,42.5
328,160,81809,6,0,L|348:132,5,28.3333333333333
308,180,82109,2,0,L|320:204,6,21.25
240,232,82409,2,0,L|240:252,9,14.1666666666667
224,164,82709,2,0,L|240:168,12,10.625
228,112,83009,1,0,0:0:0:0:
312,108,83159,5,2,0:0:0:0:
354,111,83234,1,0,0:0:0:0:
390,132,83309,1,0,0:0:0:0:
414,166,83384,1,0,0:0:0:0:
422,208,83459,1,0,0:0:0:0:
411,249,83534,1,0,0:0:0:0:
384,281,83609,1,2,0:0:0:0:
346,299,83684,1,0,0:0:0:0:
304,299,83759,1,0,0:0:0:0:
265,281,83834,1,0,0:0:0:0:
238,248,83909,1,0,0:0:0:0:
216,212,83984,1,0,0:0:0:0:
174,212,84059,1,2,0:0:0:0:
138,190,84134,1,0,0:0:0:0:
120,152,84209,1,0,0:0:0:0:
126,111,84284,1,0,0:0:0:0:
153,79,84359,1,0,0:0:0:0:
193,68,84434,1,0,0:0:0:0:
233,80,84509,1,2,0:0:0:0:
261,112,84584,1,0,0:0:0:0:
272,152,84659,5,0,0:0:0:0:
272,194,84734,1,0,0:0:0:0:
260,234,84809,1,0,0:0:0:0:
236,269,84884,1,0,0:0:0:0:
203,295,84959,1,2,0:0:0:0:
163,310,85034,1,0,0:0:0:0:
121,311,85109,1,0,0:0:0:0:
80,300,85184,1,0,0:0:0:0:
44,276,85259,1,0,0:0:0:0:
18,243,85334,1,0,0:0:0:0:
3,204,85409,1,2,0:0:0:0:
1,162,85484,1,0,0:0:0:0:
11,121,85559,1,0,0:0:0:0:
32,84,85634,1,0,0:0:0:0:
71,70,85709,1,0,0:0:0:0:
112,78,85784,1,0,0:0:0:0:
143,107,85859,1,2,0:0:0:0:
156,147,85934,1,0,0:0:0:0:
146,187,86009,1,0,0:0:0:0:
104,184,86084,1,0,0:0:0:0:
67,203,86159,5,0,0:0:0:0:
46,240,86234,1,0,0:0:0:0:
47,282,86309,1,2,0:0:0:0:
70,316,86384,1,0,0:0:0:0:
109,334,86459,1,0,0:0:0:0:
150,328,86534,1,0,0:0:0:0:
182,301,86609,1,0,0:0:0:0:
196,261,86684,1,0,0:0:0:0:
186,221,86759,1,2,0:0:0:0:
156,191,86834,1,0,0:0:0:0:
120,168,86909,1,0,0:0:0:0:
149,137,86984,1,0,0:0:0:0:
188,122,87059,1,0,0:0:0:0:
230,125,87134,1,0,0:0:0:0:
267,146,87209,1,2,0:0:0:0:
292,180,87284,1,0,0:0:0:0:
300,221,87359,1,0,0:0:0:0:
290,262,87434,1,0,0:0:0:0:
263,295,87509,1,2,0:0:0:0:
225,313,87584,1,0,0:0:0:0:
183,314,87659,5,0,0:0:0:0:
144,296,87734,1,0,0:0:0:0:
118,263,87809,6,2,P|143:248|128:219,1,42.5
102,211,87959,2,2,P|130:205|126:173,1,42.5
104,157,88109,2,2,P|133:162|140:130,1,42.5
125,107,88259,2,2,P|151:122|168:94,1,42.5
162,68,88409,2,2,P|181:90|207:70,1,42.5
210,43,88559,2,2,P|220:70|251:61,1,42.5
263,36,88709,2,2,P|264:66|296:67,1,42.5
316,48,88859,2,2,P|306:76|336:89,1,42.5
318,128,89009,1,4,0:0:0:0:
304,169,89084,1,2,0:0:0:0:
297,209,89159,5,2,0:0:0:0:
326,238,89234,1,2,0:0:0:0:
350,256,89309,1,2,0:0:0:0:
335,294,89384,1,0,0:0:0:0:
296,307,89459,1,0,0:0:0:0:
261,286,89534,1,0,0:0:0:0:
255,245,89609,1,0,0:0:0:0:
283,215,89684,1,0,0:0:0:0:
262,180,89759,1,0,0:0:0:0:
221,167,89834,1,0,0:0:0:0:
179,171,89909,1,0,0:0:0:0:
141,190,89984,1,0,0:0:0:0:
113,222,90059,1,0,0:0:0:0:
99,261,90134,1,0,0:0:0:0:
131,260,90209,6,2,L|179:296,3,42.5
70,263,90509,6,2,L|20:296,3,42.5
79,209,90809,6,2,L|65:151,3,42.5
139,210,91109,6,2,L|201:186,3,42.5
171,237,91409,2,0,L|227:230,1,42.5
254,240,91559,2,8,L|278:248,4,21.25
339,240,91859,2,0,L|371:196,1,42.5
388,169,92009,2,2,P|440:161|500:217,2,127.5
356,77,92609,5,0,0:0:0:0:
338,114,92684,1,0,0:0:0:0:
299,127,92759,1,0,0:0:0:0:
262,108,92834,1,0,0:0:0:0:
232,78,92909,1,0,0:0:0:0:
194,58,92984,1,0,0:0:0:0:
152,61,93059,1,0,0:0:0:0:
119,86,93134,1,0,0:0:0:0:
103,125,93209,1,0,0:0:0:0:
110,166,93284,1,0,0:0:0:0:
137,197,93359,1,0,0:0:0:0:
177,209,93434,1,0,0:0:0:0:
225,219,93509,5,0,0:0:0:0:
266,224,93584,1,0,0:0:0:0:
296,253,93659,1,0,0:0:0:0:
303,295,93734,1,0,0:0:0:0:
285,332,93809,1,0,0:0:0:0:
248,351,93884,1,0,0:0:0:0:
206,345,93959,1,0,0:0:0:0:
176,316,94034,1,0,0:0:0:0:
170,275,94109,1,0,0:0:0:0:
189,237,94184,1,0,0:0:0:0:
196,196,94259,1,0,0:0:0:0:
184,157,94334,1,0,0:0:0:0:
145,147,94409,5,0,0:0:0:0:
115,174,94484,1,0,0:0:0:0:
122,214,94559,1,0,0:0:0:0:
160,230,94634,1,0,0:0:0:0:
202,235,94709,1,0,0:0:0:0:
231,204,94784,1,0,0:0:0:0:
272,196,94859,1,0,0:0:0:0:
310,212,94934,1,0,0:0:0:0:
346,235,95009,6,2,P|346:219|322:195,1,42.5
388,224,95159,2,2,P|380:210|348:202,1,42.5
419,193,95309,2,2,P|405:185|373:194,1,42.5
430,151,95459,2,2,P|414:151|391:175,1,42.5
419,109,95609,2,2,P|405:117|397:150,1,42.5
419,109,95759,2,2,P|405:117|397:150,1,42.5
388,79,95909,2,2,P|380:93|389:125,1,42.5
347,68,96059,2,2,P|346:83|370:107,1,42.5
292,74,96209,2,8,P|279:111|240:108,2,85
160,84,96659,1,0,0:0:0:0:
97,170,96809,2,2,P|97:218|141:290,2,127.5
209,59,97409,1,4,0:0:0:0:
236,176,97559,6,0,P|320:204|328:216,1,85
264,300,97859,1,0,0:0:0:0:
148,184,98009,2,0,P|124:172|148:112,1,85
248,168,98309,1,0,0:0:0:0:
388,152,98459,2,0,P|420:224|400:248,1,85,0|4,0:0|0:0,0:0:0:0:
356,304,98759,2,8,L|376:292,4,21.25
300,172,99059,1,0,0:0:0:0:
216,176,99209,1,4,0:0:0:0:
108,160,99359,2,8,L|112:128,4,21.25
140,248,99659,1,0,0:0:0:0:
308,104,99809,6,0,P|308:136|348:136,1,63.7500024318696,4|0,0:0|0:0,0:0:0:0:
344,244,99959,2,0,P|312:244|312:284,1,63.7500024318696
204,280,100109,2,0,P|204:248|164:248,1,63.7500024318696,4|0,0:0|0:0,0:0:0:0:
168,140,100259,2,0,P|200:140|200:100,1,63.7500024318696
345,141,100409,2,0,P|329:169|363:189,1,63.7500024318696,4|0,0:0|0:0,0:0:0:0:
306,281,100559,2,0,P|278:265|258:299,1,63.7500024318696
166,242,100709,2,0,P|182:214|148:194,1,63.7500024318696,4|0,0:0|0:0,0:0:0:0:
205,102,100859,2,0,P|233:118|253:84,1,63.7500024318696
358,193,101009,2,0,P|330:209|350:243,1,63.7500024318696,4|0,0:0|0:0,0:0:0:0:
254,294,101159,2,0,P|238:266|204:286,1,63.7500024318696
153,190,101309,2,0,P|181:174|161:140,1,63.7500024318696,4|0,0:0|0:0,0:0:0:0:
257,89,101459,2,0,P|273:117|307:97,1,63.7500024318696
364,192,101609,2,0,L|396:216,6,31.8750012159348,4|0|0|0|0|0|0,0:0|0:0|0:0|0:0|0:0|0:0|0:0,0:0:0:0:
256,280,101909,2,0,L|248:296,12,15.9375006079674
256,192,102209,12,0,104609,0:0:0:0:
256,192,107009,12,0,109559,0:0:0:0:
256,192,111809,5,0,0:0:0:0:
100,148,113009,6,0,B|136:188|136:188|192:144|192:144|228:200|236:224|256:224|272:140|288:136|312:152|320:184|320:224|320:224|332:244|360:268|416:288|448:256|424:204,1,510.000019454957
20,128,115409,2,0,B|112:108|112:108|168:232|168:232|240:124|312:176|308:240|340:296|372:264|368:212|364:204,1,510.000019454957
156,76,118409,2,0,B|144:140|144:140|184:160|184:164|248:128|296:128|340:184,1,255.000009727478
248,212,120209,1,0,0:0:0:0:
64,108,121409,1,0,0:0:0:0:
101,92,121509,1,0,0:0:0:0:
140,109,121609,1,0,0:0:0:0:
179,124,121709,1,0,0:0:0:0:
220,113,121809,1,0,0:0:0:0:
256,91,121909,1,0,0:0:0:0:
295,74,122009,1,0,0:0:0:0:
267,118,122309,6,0,L|328:96,1,42.5000016212464
211,132,122509,2,0,L|248:68,1,42.5000016212464
182,180,122709,2,0,L|164:100,1,42.5000016212464
196,236,122909,2,0,L|132:196,1,42.5000016212464
244,265,123109,2,0,L|164:288,1,42.5000016212464
300,252,123309,2,0,L|264:312,1,42.5000016212464
329,203,123509,2,0,L|348:276,1,42.5000016212464
316,147,123709,2,0,L|376:184,1,42.5000016212464
267,118,123909,2,0,L|336:104,1,42.5000016212464
211,132,124109,2,0,L|252:68,3,42.5000016212464
384,64,124709,5,0,0:0:0:0:
351,91,124809,1,0,0:0:0:0:
318,118,124909,1,0,0:0:0:0:
289,145,125009,1,0,0:0:0:0:
319,175,125109,1,0,0:0:0:0:
349,205,125209,1,0,0:0:0:0:
318,228,125309,1,0,0:0:0:0:
281,250,125409,1,0,0:0:0:0:
245,272,125509,1,0,0:0:0:0:
208,293,125609,1,0,0:0:0:0:
148,80,125909,6,0,L|200:124,2,42.5000016212464
192,49,126209,2,0,L|232:116,2,42.5000016212464
245,36,126509,2,0,L|260:108,2,42.5000016212464
288,36,126809,1,0,0:0:0:0:
408,56,127109,5,0,0:0:0:0:
410,98,127209,1,0,0:0:0:0:
412,140,127309,1,0,0:0:0:0:
415,183,127409,1,0,0:0:0:0:
384,156,127509,1,0,0:0:0:0:
349,130,127609,1,0,0:0:0:0:
313,108,127709,1,0,0:0:0:0:
296,148,127809,1,0,0:0:0:0:
296,190,127909,1,0,0:0:0:0:
296,233,128009,1,0,0:0:0:0:
292,276,128109,1,0,0:0:0:0:
250,270,128209,1,0,0:0:0:0:
208,260,128309,1,0,0:0:0:0:
169,246,128409,5,0,0:0:0:0:
131,225,128509,1,0,0:0:0:0:
99,198,128609,1,0,0:0:0:0:
76,163,128709,1,0,0:0:0:0:
73,121,128809,1,0,0:0:0:0:
96,86,128909,1,0,0:0:0:0:
134,68,129009,1,0,0:0:0:0:
176,65,129109,1,0,0:0:0:0:
217,75,129209,1,0,0:0:0:0:
192,108,129309,6,0,L|260:128,1,42.5000016212464
272,140,129509,1,0,0:0:0:0:
316,144,129609,2,0,L|264:88,1,42.5000016212464
260,80,129809,1,0,0:0:0:0:
217,75,129909,2,0,L|153:71,1,42.5000016212464
132,80,130109,1,0,0:0:0:0:
148,120,130209,1,0,0:0:0:0:
176,152,130309,1,0,0:0:0:0:
216,172,130409,1,0,0:0:0:0:
376,68,130709,5,0,0:0:0:0:
385,130,130784,1,0,0:0:0:0:
374,193,130859,1,0,0:0:0:0:
344,248,130934,1,0,0:0:0:0:
320,272,131009,2,0,B|216:304|216:256|216:256|188:232|92:280|74:129,1,318.750012159348
131,114,131909,6,0,P|172:127|187:100,1,63.7500024318696
218,63,132209,2,0,B|242:21|242:21|355:145|363:83|444:69|401:100|371:127|433:142|433:142|408:173|384:175|424:209|387:208|387:208|251:234,1,510.000019454957
234,225,133484,2,0,B|129:203|96:148|96:148|157:132|94:106|196:100|44:78|94:33|94:33|36:27,1,350.625013375283
122,40,134459,1,0,0:0:0:0:
184,72,134609,2,0,B|257:81|257:81|318:31|373:89|373:89,1,191.250007295609
409,147,135209,6,0,B|400:205|400:205|391:197|360:191,2,85.0000032424928
388,115,135809,2,0,B|324:78|324:78|282:104|282:104|277:158|195:126|168:82|168:82|134:135,1,318.750012159348
133,185,136709,1,0,0:0:0:0:
156,244,136859,1,0,0:0:0:0:
209,279,137009,6,0,B|291:253|291:253|254:200|261:157|309:135,1,223.125008511544
327,124,137609,2,0,B|323:72|323:72|396:77|440:122|450:189,1,223.125008511544
451,222,138209,2,0,B|380:230|380:230|346:157|346:157|245:133|231:242|167:223|167:223|156:161|43:109,1,510.000019454957
67,85,139484,2,0,B|105:48|117:57|117:57|127:70|194:91|250:31,1,191.250007295609
260,65,140009,2,0,B|289:19|289:19|312:154|408:0|411:153,1,255.000009727478
28,76,141359,5,0,0:0:0:0:
59,87,141509,1,0,0:0:0:0:
96,100,141659,1,0,0:0:0:0:
154,126,141809,2,0,B|228:108|228:108|273:215|308:94|373:177,1,255.000009727478
421,64,142859,5,0,0:0:0:0:
218,262,143009,1,0,0:0:0:0:
284,228,143609,1,0,0:0:0:0:
314,223,143684,1,0,0:0:0:0:
328,195,143759,1,0,0:0:0:0:
315,168,143834,1,0,0:0:0:0:
285,162,143909,1,0,0:0:0:0:
262,183,143984,1,0,0:0:0:0:
265,213,144059,1,0,0:0:0:0:
282,240,144134,1,0,0:0:0:0:
302,264,144209,2,0,B|364:278|364:278|312:178|449:220|325:138|477:142|241:51,1,382.500014591218
158,131,145409,6,0,B|166:171|166:171|287:59|287:59|330:178,1,318.750012159348
334,228,146309,1,0,0:0:0:0:
325,290,146459,1,0,0:0:0:0:
300,348,146609,1,0,0:0:0:0:
132,177,147209,1,0,0:0:0:0:
128,32,147809,5,0,0:0:0:0:
97,23,147884,1,0,0:0:0:0:
68,32,147959,1,0,0:0:0:0:
49,58,148034,1,0,0:0:0:0:
48,89,148109,1,0,0:0:0:0:
64,115,148184,1,0,0:0:0:0:
93,127,148259,1,0,0:0:0:0:
124,121,148334,1,0,0:0:0:0:
156,116,148409,5,0,0:0:0:0:
186,109,148484,1,0,0:0:0:0:
215,121,148559,1,0,0:0:0:0:
232,147,148634,1,0,0:0:0:0:
231,179,148709,1,0,0:0:0:0:
212,204,148784,1,0,0:0:0:0:
182,214,148859,1,0,0:0:0:0:
152,205,148934,1,0,0:0:0:0:
128,184,149009,1,0,0:0:0:0:
103,164,149084,1,0,0:0:0:0:
72,162,149159,1,0,0:0:0:0:
46,179,149234,1,0,0:0:0:0:
34,208,149309,1,0,0:0:0:0:
43,238,149384,1,0,0:0:0:0:
68,260,149459,2,0,L|108:252,1,31.8750012159348
412,224,149609,5,4,0:0:0:0:
450,206,149684,1,0,0:0:0:0:
472,171,149759,1,0,0:0:0:0:
469,129,149834,1,0,0:0:0:0:
444,96,149909,1,0,0:0:0:0:
404,83,149984,1,0,0:0:0:0:
364,95,150059,2,0,L|300:136,1,42.5
92,232,150209,1,4,0:0:0:0:
68,278,150284,1,0,0:0:0:0:
80,328,150359,1,0,0:0:0:0:
123,358,150434,1,0,0:0:0:0:
175,353,150509,1,0,0:0:0:0:
210,314,150584,1,0,0:0:0:0:
212,262,150659,1,0,0:0:0:0:
184,216,150734,1,0,0:0:0:0:
175,164,150809,1,0,0:0:0:0:
196,116,150884,1,0,0:0:0:0:
240,88,150959,1,0,0:0:0:0:
293,88,151034,1,0,0:0:0:0:
336,117,151109,1,0,0:0:0:0:
357,165,151184,1,0,0:0:0:0:
348,217,151259,1,0,0:0:0:0:
312,255,151334,1,0,0:0:0:0:
280,296,151409,6,0,L|266:373,3,53.125
218,341,151709,2,0,L|167:400,3,53.125
137,357,152009,2,0,L|63:384,3,53.125
60,329,152309,2,0,L|-17:315,3,53.125
136,272,152609,2,0,P|188:232|200:172,1,106.25
164,48,152909,1,4,0:0:0:0:
116,66,152984,1,0,0:0:0:0:
83,104,153059,1,0,0:0:0:0:
69,152,153134,1,0,0:0:0:0:
80,202,153209,1,4,0:0:0:0:
111,241,153284,1,0,0:0:0:0:
157,263,153359,1,0,0:0:0:0:
207,261,153434,1,0,0:0:0:0:
252,237,153509,1,4,0:0:0:0:
280,195,153584,1,0,0:0:0:0:
296,148,153659,1,0,0:0:0:0:
341,126,153734,5,0,0:0:0:0:
392,126,153809,1,0,0:0:0:0:
437,149,153884,1,0,0:0:0:0:
468,189,153959,1,0,0:0:0:0:
478,238,154034,1,0,0:0:0:0:
466,287,154109,1,4,0:0:0:0:
433,326,154184,1,0,0:0:0:0:
387,346,154259,1,0,0:0:0:0:
337,345,154334,1,0,0:0:0:0:
292,321,154409,1,4,0:0:0:0:
256,288,154484,1,0,0:0:0:0:
209,305,154559,1,0,0:0:0:0:
164,284,154634,5,0,0:0:0:0:
148,237,154709,1,4,0:0:0:0:
170,193,154784,1,0,0:0:0:0:
218,178,154859,1,0,0:0:0:0:
261,201,154934,1,0,0:0:0:0:
296,240,155009,1,0,0:0:0:0:
346,239,155084,1,0,0:0:0:0:
388,212,155159,1,0,0:0:0:0:
410,166,155234,1,0,0:0:0:0:
404,116,155309,1,4,0:0:0:0:
373,77,155384,1,0,0:0:0:0:
325,60,155459,1,0,0:0:0:0:
276,71,155534,5,0,0:0:0:0:
240,106,155609,1,4,0:0:0:0:
228,155,155684,1,0,0:0:0:0:
248,204,155759,1,0,0:0:0:0:
259,245,155834,1,0,0:0:0:0:
255,296,155909,1,4,0:0:0:0:
268,345,155984,1,0,0:0:0:0:
309,371,156059,1,0,0:0:0:0:
350,345,156134,1,0,0:0:0:0:
356,295,156209,1,0,0:0:0:0:
339,248,156284,1,0,0:0:0:0:
316,204,156359,1,0,0:0:0:0:
287,162,156434,1,0,0:0:0:0:
241,140,156509,5,4,0:0:0:0:
191,142,156584,1,0,0:0:0:0:
148,169,156659,1,0,0:0:0:0:
124,213,156734,1,0,0:0:0:0:
124,264,156809,1,4,0:0:0:0:
148,308,156884,1,0,0:0:0:0:
191,334,156959,1,0,0:0:0:0:
241,337,157034,1,0,0:0:0:0:
284,312,157109,6,0,L|328:336,3,50.9999984436036,4|0|0|0,0:0|0:0|0:0|0:0,0:0:0:0:
315,262,157409,2,0,L|365:251,3,50.9999984436036,4|0|0|0,0:0|0:0|0:0|0:0,0:0:0:0:
308,203,157709,2,0,L|339:162,3,50.9999984436036,4|0|0|0,0:0|0:0|0:0|0:0,0:0:0:0:
264,164,158009,2,0,L|262:113,3,50.9999984436036
191,167,158310,2,0,L|150:135,3,50.9999984436036,4|0|0|0,0:0|0:0|0:0|0:0,0:0:0:0:
236,260,158609,6,4,P|168:252|148:212,3,101.999996887207
136,108,159209,2,0,P|192:60|252:72,1,101.999996887207
344,156,159509,1,0,0:0:0:0:
367,176,159584,1,0,0:0:0:0:
378,206,159659,1,0,0:0:0:0:
373,237,159734,1,0,0:0:0:0:
354,262,159809,1,0,0:0:0:0:
325,274,159884,1,0,0:0:0:0:
294,271,159959,1,0,0:0:0:0:
268,253,160034,1,0,0:0:0:0:
236,224,160109,1,4,0:0:0:0:
208,192,160184,1,0,0:0:0:0:
168,180,160259,1,0,0:0:0:0:
128,193,160334,1,0,0:0:0:0:
102,226,160409,5,4,0:0:0:0:
99,267,160484,1,0,0:0:0:0:
119,304,160559,1,0,0:0:0:0:
156,323,160634,1,0,0:0:0:0:
207,328,160709,1,4,0:0:0:0:
255,306,160784,1,0,0:0:0:0:
294,271,160859,1,0,0:0:0:0:
320,224,160934,1,0,0:0:0:0:
352,180,161009,2,0,L|352:116,1,53.125
260,128,161159,2,0,L|288:108,4,26.5625
452,216,161459,1,0,0:0:0:0:
480,332,161609,2,2,P|400:336|344:264,1,159.375
160,188,162059,2,2,L|248:128,1,106.25
296,116,162284,5,2,0:0:0:0:
344,135,162359,1,2,0:0:0:0:
381,174,162434,1,2,0:0:0:0:
398,223,162509,1,2,0:0:0:0:
394,276,162584,1,2,0:0:0:0:
369,322,162659,1,2,0:0:0:0:
327,354,162734,1,2,0:0:0:0:
275,366,162809,1,2,0:0:0:0:
224,355,162884,1,2,0:0:0:0:
181,325,162959,1,2,0:0:0:0:
154,279,163034,1,2,0:0:0:0:
136,232,163109,5,2,0:0:0:0:
139,190,163184,1,2,0:0:0:0:
161,154,163259,1,2,0:0:0:0:
197,132,163334,1,2,0:0:0:0:
239,129,163409,1,2,0:0:0:0:
278,146,163484,1,2,0:0:0:0:
304,179,163559,1,2,0:0:0:0:
313,220,163634,1,2,0:0:0:0:
320,252,163709,1,2,0:0:0:0:
345,270,163784,1,2,0:0:0:0:
376,274,163859,1,2,0:0:0:0:
405,261,163934,1,2,0:0:0:0:
424,236,164009,5,2,0:0:0:0:
428,205,164084,1,2,0:0:0:0:
416,176,164159,1,2,0:0:0:0:
391,156,164234,1,2,0:0:0:0:
364,144,164309,1,2,0:0:0:0:
324,160,164384,1,2,0:0:0:0:
283,168,164459,1,2,0:0:0:0:
240,166,164534,1,2,0:0:0:0:
199,157,164609,1,2,0:0:0:0:
161,138,164684,1,2,0:0:0:0:
127,112,164759,1,2,0:0:0:0:
100,80,164834,1,2,0:0:0:0:
76,48,164909,5,2,0:0:0:0:
45,102,164984,1,2,0:0:0:0:
55,164,165059,1,2,0:0:0:0:
101,206,165134,1,2,0:0:0:0:
163,210,165209,1,2,0:0:0:0:
215,175,165284,1,2,0:0:0:0:
233,115,165359,1,2,0:0:0:0:
210,57,165434,1,2,0:0:0:0:
276,56,165509,2,2,L|336:148,3,63.7500024318696
372,96,165809,2,2,L|432:188,3,63.7500024318696
472,152,166109,2,2,L|532:244,3,63.7500024318696
488,244,166409,1,2,0:0:0:0:
446,253,166484,1,2,0:0:0:0:
404,256,166559,1,2,0:0:0:0:
361,253,166634,1,2,0:0:0:0:
320,243,166709,5,2,0:0:0:0:
196,237,166859,1,0,0:0:0:0:
252,140,167009,1,4,0:0:0:0:
225,107,167084,5,0,0:0:0:0:
189,84,167159,1,0,0:0:0:0:
148,75,167234,1,0,0:0:0:0:
106,79,167309,1,0,0:0:0:0:
67,96,167384,1,0,0:0:0:0:
36,125,167459,1,0,0:0:0:0:
17,163,167534,1,0,0:0:0:0:
10,205,167609,1,0,0:0:0:0:
17,246,167684,1,0,0:0:0:0:
38,283,167759,1,0,0:0:0:0:
69,312,167834,1,0,0:0:0:0:
108,329,167909,1,0,0:0:0:0:
150,332,167984,1,0,0:0:0:0:
191,322,168059,1,0,0:0:0:0:
227,299,168134,1,0,0:0:0:0:
260,276,168209,2,0,L|304:240,1,42.5,4|0,0:0|0:0,0:0:0:0:
408,188,168359,1,0,0:0:0:0:
416,146,168434,1,0,0:0:0:0:
407,105,168509,5,0,0:0:0:0:
382,71,168584,1,0,0:0:0:0:
345,50,168659,1,0,0:0:0:0:
303,45,168734,1,0,0:0:0:0:
260,48,168809,2,0,P|236:56|236:96,1,42.5,4|0,0:0|0:0,0:0:0:0:
232,200,168959,1,0,0:0:0:0:
234,241,169034,1,0,0:0:0:0:
259,275,169109,1,0,0:0:0:0:
298,290,169184,1,0,0:0:0:0:
340,282,169259,1,0,0:0:0:0:
370,253,169334,1,0,0:0:0:0:
432,124,169409,5,4,0:0:0:0:
427,164,169484,1,0,0:0:0:0:
391,184,169559,1,0,0:0:0:0:
348,192,169634,2,0,L|292:192,1,42.5,0|4,0:0|0:0,0:0:0:0:
156,124,169784,1,0,0:0:0:0:
118,139,169859,1,0,0:0:0:0:
116,179,169934,1,0,0:0:0:0:
148,200,170009,6,0,L|184:232,1,42.5,4|0,0:0|0:0,0:0:0:0:
340,148,170159,2,0,L|308:120,1,42.5
151,162,170309,6,0,L|174:204,1,42.5,4|0,0:0|0:0,0:0:0:0:
349,179,170459,2,0,L|329:142,1,42.5
168,128,170609,6,0,L|175:176,1,42.5,4|0,0:0|0:0,0:0:0:0:
348,212,170759,2,0,L|342:170,1,42.5,4|0,0:0|0:0,0:0:0:0:
195,102,170909,6,0,L|185:149,1,42.5,4|0,0:0|0:0,0:0:0:0:
336,242,171059,2,0,L|344:201,1,28.3333333333333,4|0,0:0|0:0,0:0:0:0:
324,160,171209,2,0,L|340:124,1,28.3333333333333
324,160,171309,2,0,L|360:145,1,28.3333333333333
324,159,171409,2,0,L|359:175,1,28.3333333333333
324,159,171509,2,0,L|338:196,1,28.3333333333333
324,159,171609,2,0,L|308:195,1,28.3333333333333
470,15,171809,5,0,0:0:0:0:
471,67,171884,1,0,0:0:0:0:
453,117,171959,1,0,0:0:0:0:
418,157,172034,1,0,0:0:0:0:
371,182,172109,1,0,0:0:0:0:
322,202,172184,5,0,0:0:0:0:
275,226,172259,1,0,0:0:0:0:
240,266,172334,1,0,0:0:0:0:
222,316,172409,1,0,0:0:0:0:
223,369,172484,1,0,0:0:0:0:
276,379,172559,5,0,0:0:0:0:
323,355,172634,1,0,0:0:0:0:
357,315,172709,1,0,0:0:0:0:
375,265,172784,1,0,0:0:0:0:
374,212,172859,1,0,0:0:0:0:
371,158,172934,1,0,0:0:0:0:
358,106,173009,1,4,0:0:0:0:
319,145,173084,1,0,0:0:0:0:
270,163,173159,1,0,0:0:0:0:
221,148,173234,1,0,0:0:0:0:
190,105,173309,1,0,0:0:0:0:
192,53,173384,1,0,0:0:0:0:
224,13,173459,1,0,0:0:0:0:
275,0,173534,5,0,0:0:0:0:
323,21,173609,1,0,0:0:0:0:
362,56,173684,1,0,0:0:0:0:
367,108,173759,1,0,0:0:0:0:
349,158,173834,1,0,0:0:0:0:
313,196,173909,1,0,0:0:0:0:
264,215,173984,1,0,0:0:0:0:
213,232,174059,1,0,0:0:0:0:
160,226,174134,1,0,0:0:0:0:
115,252,174209,1,4,0:0:0:0:
152,290,174284,1,0,0:0:0:0:
205,296,174359,1,0,0:0:0:0:
258,297,174434,1,0,0:0:0:0:
310,291,174509,1,0,0:0:0:0:
362,278,174584,1,0,0:0:0:0:
411,256,174659,1,0,0:0:0:0:
444,221,174734,1,0,0:0:0:0:
419,174,174809,5,0,0:0:0:0:
411,122,174884,1,0,0:0:0:0:
407,68,174959,1,0,0:0:0:0:
361,94,175034,1,0,0:0:0:0:
309,103,175109,1,0,0:0:0:0:
257,92,175184,1,0,0:0:0:0:
204,93,175259,1,0,0:0:0:0:
153,82,175334,1,0,0:0:0:0:
101,90,175409,1,4,0:0:0:0:
55,117,175484,1,0,0:0:0:0:
33,150,175559,1,0,0:0:0:0:
12,198,175634,5,0,0:0:0:0:
12,251,175709,1,0,0:0:0:0:
31,300,175784,1,0,0:0:0:0:
67,339,175859,1,0,0:0:0:0:
115,361,175934,1,0,0:0:0:0:
161,369,176009,2,0,P|258:352|286:290,2,159.375
167,275,176609,2,0,L|225:260,1,53.125,4|0,0:0|0:0,0:0:0:0:
315,241,176759,5,0,0:0:0:0:
359,212,176834,1,0,0:0:0:0:
387,168,176909,1,0,0:0:0:0:
391,115,176984,5,0,0:0:0:0:
419,70,177059,1,0,0:0:0:0:
464,42,177134,1,0,0:0:0:0:
460,93,177209,2,0,B|455:122|419:98|389:157,1,53.125
311,64,177359,2,0,B|306:93|270:69|240:128,1,53.125
329,179,177509,2,0,B|324:208|288:184|258:243,1,53.125
180,150,177659,2,0,B|175:179|139:155|109:214,1,53.125
128,224,177809,6,0,B|52:208|52:208|96:164|96:164|140:120|348:180,1,371.875,4|0,0:0|0:0,0:0:0:0:
372,212,178409,2,0,B|404:168|324:144|324:144|232:240|232:240|216:96|44:264,1,446.250017023087,4|0,0:0|0:0,0:0:0:0:
84,304,179009,2,0,B|196:272|196:272|168:220|168:220|192:76|348:164|376:44|376:44|312:4|232:76,1,595.000005674362,4|0,0:0|0:0,0:0:0:0:
168,108,179684,1,0,0:0:0:0:
144,155,179759,1,0,0:0:0:0:
141,207,179834,1,0,0:0:0:0:
159,257,179909,1,0,0:0:0:0:
196,295,179984,1,0,0:0:0:0:
245,315,180059,1,0,0:0:0:0:
298,313,180134,1,0,0:0:0:0:
345,291,180209,1,0,0:0:0:0:
384,176,180359,2,0,L|396:140,4,26.5625
292,160,180659,2,0,L|236:152,1,53.125
168,132,180809,2,0,B|104:156|156:200|96:272,2,159.375
320,240,181409,5,4,0:0:0:0:
276,266,181484,1,0,0:0:0:0:
224,258,181559,1,0,0:0:0:0:
174,241,181634,1,0,0:0:0:0:
124,221,181709,1,0,0:0:0:0:
74,205,181784,1,0,0:0:0:0:
24,192,181859,1,0,0:0:0:0:
26,244,181934,1,0,0:0:0:0:
51,291,182009,1,0,0:0:0:0:
93,322,182084,1,0,0:0:0:0:
145,333,182159,5,0,0:0:0:0:
196,322,182234,1,0,0:0:0:0:
238,289,182309,1,0,0:0:0:0:
262,242,182384,1,0,0:0:0:0:
264,190,182459,1,0,0:0:0:0:
264,140,182534,1,0,0:0:0:0:
270,87,182609,1,4,0:0:0:0:
302,46,182684,1,0,0:0:0:0:
351,27,182759,1,0,0:0:0:0:
403,36,182834,1,0,0:0:0:0:
443,69,182909,5,0,0:0:0:0:
460,119,182984,1,0,0:0:0:0:
449,170,183059,1,0,0:0:0:0:
414,209,183134,1,0,0:0:0:0:
372,240,183209,6,0,P|292:276|256:256,2,127.5,4|0|0,0:0|0:0|0:0,0:0:0:0:
332,172,183809,1,4,0:0:0:0:
308,136,183884,1,0,0:0:0:0:
272,116,183959,1,0,0:0:0:0:
229,115,184034,1,0,0:0:0:0:
192,134,184109,1,0,0:0:0:0:
167,168,184184,1,0,0:0:0:0:
162,210,184259,1,0,0:0:0:0:
176,249,184334,1,0,0:0:0:0:
196,276,184409,1,0,0:0:0:0:
218,297,184484,1,0,0:0:0:0:
249,298,184559,1,0,0:0:0:0:
273,277,184634,1,0,0:0:0:0:
276,246,184709,1,0,0:0:0:0:
258,221,184784,1,0,0:0:0:0:
228,215,184859,1,0,0:0:0:0:
201,231,184934,1,0,0:0:0:0:
188,280,185009,1,4,0:0:0:0:
170,327,185084,1,0,0:0:0:0:
129,357,185159,1,0,0:0:0:0:
79,361,185234,5,0,0:0:0:0:
34,338,185309,1,0,0:0:0:0:
9,295,185384,1,0,0:0:0:0:
10,245,185459,1,0,0:0:0:0:
38,203,185534,1,0,0:0:0:0:
84,182,185609,1,0,0:0:0:0:
133,189,185684,1,0,0:0:0:0:
180,212,185759,1,0,0:0:0:0:
222,239,185834,1,0,0:0:0:0:
271,252,185909,1,0,0:0:0:0:
322,251,185984,1,0,0:0:0:0:
371,235,186059,1,0,0:0:0:0:
412,206,186134,1,0,0:0:0:0:
444,166,186209,1,4,0:0:0:0:
396,148,186284,1,0,0:0:0:0:
345,140,186359,1,0,0:0:0:0:
294,141,186434,1,0,0:0:0:0:
244,151,186509,1,0,0:0:0:0:
197,170,186584,1,0,0:0:0:0:
160,204,186659,1,0,0:0:0:0:
132,244,186734,5,0,0:0:0:0:
108,288,186809,1,0,0:0:0:0:
100,340,186884,1,0,0:0:0:0:
110,387,186959,1,0,0:0:0:0:
157,396,187034,1,0,0:0:0:0:
184,357,187109,1,0,0:0:0:0:
200,308,187184,1,0,0:0:0:0:
218,264,187259,1,0,0:0:0:0:
268,256,187334,1,0,0:0:0:0:
302,294,187409,1,4,0:0:0:0:
328,251,187484,1,0,0:0:0:0:
351,206,187559,1,0,0:0:0:0:
359,155,187634,1,0,0:0:0:0:
350,106,187709,1,0,0:0:0:0:
325,61,187784,1,0,0:0:0:0:
287,28,187859,1,0,0:0:0:0:
240,9,187934,1,0,0:0:0:0:
189,6,188009,1,4,0:0:0:0:
168,55,188084,1,0,0:0:0:0:
153,103,188159,1,0,0:0:0:0:
150,154,188234,5,0,0:0:0:0:
160,204,188309,1,0,0:0:0:0:
182,250,188384,1,0,0:0:0:0:
215,289,188459,1,0,0:0:0:0:
256,319,188534,1,0,0:0:0:0:
303,338,188609,1,4,0:0:0:0:
134,339,188759,1,0,0:0:0:0:
251,137,188909,1,4,0:0:0:0:
230,375,189059,1,0,0:0:0:0:
65,209,189209,1,4,0:0:0:0:
291,149,189359,1,0,0:0:0:0:
107,304,189509,1,4,0:0:0:0:
109,70,189659,1,0,0:0:0:0:
311,187,189809,1,4,0:0:0:0:
136,156,189959,2,0,L|88:182,1,50.9999984436036,4|0,0:0|0:0,0:0:0:0:
328,268,190109,6,0,L|280:241,1,50.9999984436036,4|0,0:0|0:0,0:0:0:0:
376,156,190259,2,0,L|427:186,1,50.9999984436036,4|0,0:0|0:0,0:0:0:0:
184,116,190409,6,0,L|241:143,1,50.9999984436036,4|0,0:0|0:0,0:0:0:0:
136,228,190559,2,0,L|90:199,1,50.9999984436036,4|0,0:0|0:0,0:0:0:0:
328,116,190709,6,0,L|277:140,1,50.9999984436036,4|0,0:0|0:0,0:0:0:0:
376,228,190859,2,0,L|421:204,1,50.9999984436036,4|0,0:0|0:0,0:0:0:0:
381,235,191009,2,0,L|380:276,28,25.4999992218018
192,128,192209,5,2,0:0:0:0:
200,136,192284,1,2,0:0:0:0:
208,144,192359,1,2,0:0:0:0:
216,152,192434,1,2,0:0:0:0:
256,160,192509,5,2,0:0:0:0:
264,168,192584,1,2,0:0:0:0:
272,176,192659,1,2,0:0:0:0:
280,184,192734,1,2,0:0:0:0:
320,192,192809,5,2,0:0:0:0:
328,200,192884,1,2,0:0:0:0:
336,208,192959,1,2,0:0:0:0:
344,216,193034,1,2,0:0:0:0:
384,224,193109,5,2,0:0:0:0:
392,232,193184,1,2,0:0:0:0:
400,240,193259,1,2,0:0:0:0:
408,248,193334,1,2,0:0:0:0:
416,256,193409,2,0,B|416:296|376:272|340:232|296:216|224:220|200:264|200:264|196:276|188:276,1,255
68,124,194609,6,2,L|96:136,14,21.25
321,45,195809,5,10,0:0:0:0:
379,41,195884,1,0,0:0:0:0:
427,74,195959,1,0,0:0:0:0:
445,129,196034,1,0,0:0:0:0:
425,184,196109,1,2,0:0:0:0:
376,216,196184,1,0,0:0:0:0:
318,211,196259,1,0,0:0:0:0:
275,171,196334,1,0,0:0:0:0:
243,120,196409,1,10,0:0:0:0:
203,77,196484,1,0,0:0:0:0:
145,67,196559,1,2,0:0:0:0:
93,95,196634,1,0,0:0:0:0:
69,148,196709,1,0,0:0:0:0:
82,205,196784,1,0,0:0:0:0:
128,242,196859,6,0,P|166:259|193:233,1,59.4999981842042
349,31,197009,1,14,0:0:0:0:
405,27,197084,1,0,0:0:0:0:
434,75,197159,1,0,0:0:0:0:
405,123,197234,1,0,0:0:0:0:
349,119,197309,1,2,0:0:0:0:
296,94,197384,1,0,0:0:0:0:
244,69,197459,1,0,0:0:0:0:
195,99,197534,1,0,0:0:0:0:
194,156,197609,1,10,0:0:0:0:
241,189,197684,1,0,0:0:0:0:
293,204,197759,1,2,0:0:0:0:
330,247,197834,1,0,0:0:0:0:
317,303,197909,1,0,0:0:0:0:
264,326,197984,1,0,0:0:0:0:
215,297,198059,6,0,P|185:274|185:235,1,59.4999981842042
189,60,198209,1,6,0:0:0:0:
242,38,198284,1,0,0:0:0:0:
289,71,198359,1,0,0:0:0:0:
288,128,198434,1,0,0:0:0:0:
240,159,198509,1,2,0:0:0:0:
185,182,198584,1,0,0:0:0:0:
130,202,198659,1,0,0:0:0:0:
96,249,198734,1,0,0:0:0:0:
93,308,198809,1,2,0:0:0:0:
123,358,198884,1,0,0:0:0:0:
175,384,198959,1,2,0:0:0:0:
233,376,199034,1,0,0:0:0:0:
278,338,199109,1,0,0:0:0:0:
293,281,199184,1,0,0:0:0:0:
308,223,199259,6,0,P|315:192|305:164,1,59.4999981842042
197,64,199409,1,14,0:0:0:0:
139,64,199484,1,0,0:0:0:0:
92,100,199559,1,0,0:0:0:0:
75,156,199634,1,0,0:0:0:0:
95,210,199709,1,2,0:0:0:0:
144,243,199784,1,0,0:0:0:0:
202,240,199859,1,0,0:0:0:0:
248,202,199934,1,0,0:0:0:0:
271,158,200009,1,10,0:0:0:0:
302,195,200084,1,0,0:0:0:0:
351,225,200159,1,2,0:0:0:0:
408,215,200234,1,0,0:0:0:0:
443,169,200309,1,0,0:0:0:0:
438,111,200384,1,0,0:0:0:0:
396,71,200459,6,0,P|332:69|316:107,1,59.4999981842042
114,81,200609,1,14,0:0:0:0:
62,108,200684,1,0,0:0:0:0:
38,161,200759,1,0,0:0:0:0:
51,218,200834,1,0,0:0:0:0:
97,254,200909,1,2,0:0:0:0:
155,255,200984,1,0,0:0:0:0:
202,220,201059,1,0,0:0:0:0:
217,163,201134,1,0,0:0:0:0:
221,104,201209,1,10,0:0:0:0:
242,49,201284,1,0,0:0:0:0:
287,11,201359,1,2,0:0:0:0:
345,0,201434,1,0,0:0:0:0:
401,16,201509,5,0,0:0:0:0:
444,57,201584,1,0,0:0:0:0:
460,114,201659,1,0,0:0:0:0:
448,172,201734,1,0,0:0:0:0:
410,217,201809,1,14,0:0:0:0:
355,238,201884,1,0,0:0:0:0:
296,231,201959,1,0,0:0:0:0:
248,197,202034,1,0,0:0:0:0:
229,148,202109,5,0,0:0:0:0:
192,100,202184,1,0,0:0:0:0:
136,79,202259,1,0,0:0:0:0:
77,89,202334,1,0,0:0:0:0:
25,155,202409,2,2,B|49:135|68:171|110:152,1,68,14|2,0:0|0:0,0:0:0:0:
303,214,202559,2,2,B|279:194|260:230|218:211,1,68
21,281,202709,2,2,B|45:261|64:297|106:278,1,68
299,340,202859,2,2,B|275:320|256:356|214:337,1,68
404,371,203009,1,12,0:0:0:0:
450,337,203084,1,0,0:0:0:0:
449,280,203159,1,0,0:0:0:0:
402,247,203234,1,0,0:0:0:0:
348,266,203309,5,2,0:0:0:0:
288,271,203384,1,0,0:0:0:0:
231,252,203459,1,0,0:0:0:0:
189,211,203534,1,0,0:0:0:0:
170,155,203609,1,10,0:0:0:0:
154,97,203684,1,0,0:0:0:0:
149,39,203759,1,2,0:0:0:0:
103,4,203834,1,0,0:0:0:0:
47,16,203909,1,0,0:0:0:0:
18,67,203984,1,0,0:0:0:0:
38,121,204059,2,0,L|117:157,1,59.4999981842042
217,210,204209,2,0,L|291:246,1,59.4999981842042,8|0,0:0|0:0,0:0:0:0:
371,301,204359,6,0,L|404:315,4,29.7499990921021
460,78,204659,1,2,0:0:0:0:
349,94,204809,2,10,B|305:48|255:68|174:90,2,178.499994552612
431,198,205409,5,10,0:0:0:0:
407,252,205484,1,0,0:0:0:0:
354,277,205559,1,0,0:0:0:0:
297,259,205634,1,0,0:0:0:0:
256,214,205709,1,2,0:0:0:0:
200,196,205784,1,0,0:0:0:0:
146,221,205859,1,0,0:0:0:0:
123,275,205934,1,0,0:0:0:0:
149,330,206009,5,10,0:0:0:0:
206,347,206084,1,0,0:0:0:0:
259,322,206159,1,2,0:0:0:0:
283,268,206234,1,0,0:0:0:0:
290,207,206309,1,0,0:0:0:0:
251,160,206384,1,0,0:0:0:0:
236,102,206459,6,0,P|266:87|295:114,1,59.4999981842042
493,321,206609,1,8,0:0:0:0:
482,263,206684,1,0,0:0:0:0:
438,225,206759,1,0,0:0:0:0:
379,222,206834,1,0,0:0:0:0:
332,257,206909,1,0,0:0:0:0:
310,312,206984,1,0,0:0:0:0:
262,346,207059,6,0,P|230:350|202:322,1,59.4999981842042
60,161,207209,1,8,0:0:0:0:
50,103,207284,1,0,0:0:0:0:
74,49,207359,1,0,0:0:0:0:
123,18,207434,1,0,0:0:0:0:
182,20,207509,1,0,0:0:0:0:
230,54,207584,1,0,0:0:0:0:
251,109,207659,6,0,P|252:140|281:123,1,59.4999981842042
470,35,207809,1,12,0:0:0:0:
487,90,207884,1,0,0:0:0:0:
459,140,207959,1,0,0:0:0:0:
402,153,208034,1,0,0:0:0:0:
355,120,208109,1,0,0:0:0:0:
317,75,208184,1,0,0:0:0:0:
268,42,208259,1,0,0:0:0:0:
209,45,208334,1,0,0:0:0:0:
164,83,208409,1,8,0:0:0:0:
150,139,208484,1,0,0:0:0:0:
158,198,208559,1,0,0:0:0:0:
177,253,208634,1,0,0:0:0:0:
143,299,208709,1,0,0:0:0:0:
86,298,208784,1,0,0:0:0:0:
54,250,208859,6,0,P|61:205|95:189,1,59.4999981842042
281,82,209009,1,12,0:0:0:0:
329,49,209084,1,0,0:0:0:0:
387,54,209159,1,0,0:0:0:0:
430,94,209234,1,0,0:0:0:0:
439,152,209309,1,0,0:0:0:0:
410,203,209384,1,0,0:0:0:0:
355,224,209459,1,0,0:0:0:0:
299,208,209534,1,0,0:0:0:0:
266,160,209609,1,8,0:0:0:0:
233,110,209684,1,0,0:0:0:0:
189,71,209759,1,0,0:0:0:0:
130,68,209834,1,0,0:0:0:0:
82,100,209909,1,0,0:0:0:0:
64,156,209984,1,0,0:0:0:0:
84,211,210059,6,0,P|110:241|141:240,1,59.4999981842042
381,278,210209,1,12,0:0:0:0:
436,261,210284,1,0,0:0:0:0:
459,209,210359,1,0,0:0:0:0:
435,157,210434,1,0,0:0:0:0:
379,142,210509,1,0,0:0:0:0:
332,176,210584,1,0,0:0:0:0:
317,234,210659,1,0,0:0:0:0:
280,279,210734,1,0,0:0:0:0:
223,285,210809,1,8,0:0:0:0:
178,249,210884,1,0,0:0:0:0:
172,191,210959,1,0,0:0:0:0:
210,146,211034,1,0,0:0:0:0:
261,116,211109,1,0,0:0:0:0:
318,127,211184,1,0,0:0:0:0:
370,99,211259,6,0,P|428:109|423:151,1,59.4999981842042
473,308,211409,1,8,0:0:0:0:
434,349,211484,1,0,0:0:0:0:
378,336,211559,1,0,0:0:0:0:
362,281,211634,1,0,0:0:0:0:
380,224,211709,1,0,0:0:0:0:
395,167,211784,1,0,0:0:0:0:
369,115,211859,1,0,0:0:0:0:
315,94,211934,1,0,0:0:0:0:
261,116,212009,6,0,P|264:167|225:153,1,59.4999981842042
95,138,212159,2,0,P|66:107|83:93,1,59.4999981842042
236,4,212309,2,8,P|228:72|289:51,1,127.500004863739
124,227,212609,1,8,0:0:0:0:
351,25,212759,1,2,0:0:0:0:
291,323,212909,1,8,0:0:0:0:
149,56,213059,1,2,0:0:0:0:
426,216,213209,5,8,0:0:0:0:
351,25,213359,1,2,0:0:0:0:
291,323,213509,1,8,0:0:0:0:
149,56,213659,1,2,0:0:0:0:
320,128,213809,6,8,L|378:175,1,63.7500024318696
192,128,213959,2,2,L|129:177,1,63.7500024318696
416,160,214109,2,8,L|475:209,1,63.7500024318696
96,160,214259,2,2,L|36:211,1,63.7500024318696
320,256,214409,2,8,L|373:209,1,63.7500024318696
192,256,214559,2,2,L|135:208,1,63.7500024318696
416,224,214709,2,8,L|470:175,1,63.7500024318696
96,224,214859,2,2,L|40:178,1,63.7500024318696
377,210,215009,2,2,B|467:118|446:71|394:32|343:68|375:137|455:136|430:82|391:93,1,255
453,113,215309,5,4,0:0:0:0:
463,175,215384,1,0,0:0:0:0:
440,233,215459,1,0,0:0:0:0:
389,271,215534,1,0,0:0:0:0:
326,276,215609,1,0,0:0:0:0:
270,249,215684,1,0,0:0:0:0:
236,195,215759,1,0,0:0:0:0:
226,133,215834,1,0,0:0:0:0:
224,72,215909,1,0,0:0:0:0:
170,43,215984,1,0,0:0:0:0:
118,75,216059,6,0,L|121:149,1,63.7500024318696
252,357,216209,1,4,0:0:0:0:
307,383,216284,1,0,0:0:0:0:
363,357,216359,1,0,0:0:0:0:
378,298,216434,1,0,0:0:0:0:
342,248,216509,1,0,0:0:0:0:
282,225,216584,1,0,0:0:0:0:
220,214,216659,1,0,0:0:0:0:
178,167,216734,1,0,0:0:0:0:
174,105,216809,1,0,0:0:0:0:
209,53,216884,1,0,0:0:0:0:
269,35,216959,1,0,0:0:0:0:
328,57,217034,1,0,0:0:0:0:
360,110,217109,1,0,0:0:0:0:
352,173,217184,1,0,0:0:0:0:
345,236,217259,6,0,P|323:275|281:271,1,63.7500024318696
64,104,217409,1,4,0:0:0:0:
115,68,217484,1,0,0:0:0:0:
176,76,217559,1,0,0:0:0:0:
216,124,217634,1,0,0:0:0:0:
214,186,217709,1,0,0:0:0:0:
231,248,217784,1,0,0:0:0:0:
253,306,217859,1,0,0:0:0:0:
305,340,217934,1,0,0:0:0:0:
368,337,218009,1,0,0:0:0:0:
417,298,218084,1,0,0:0:0:0:
433,237,218159,1,0,0:0:0:0:
411,179,218234,1,0,0:0:0:0:
358,145,218309,1,0,0:0:0:0:
295,148,218384,1,0,0:0:0:0:
234,164,218459,6,0,P|226:129|201:149,1,63.7500024318696
74,313,218609,1,4,0:0:0:0:
46,257,218684,1,0,0:0:0:0:
71,201,218759,1,0,0:0:0:0:
130,183,218834,1,0,0:0:0:0:
182,218,218909,1,0,0:0:0:0:
188,279,218984,1,0,0:0:0:0:
146,324,219059,1,0,0:0:0:0:
82,317,219134,1,0,0:0:0:0:
97,257,219209,1,0,0:0:0:0:
155,238,219284,1,0,0:0:0:0:
203,276,219359,1,0,0:0:0:0:
262,300,219434,1,0,0:0:0:0:
322,284,219509,1,0,0:0:0:0:
353,230,219584,1,0,0:0:0:0:
336,170,219659,6,0,L|279:138,1,63.7500024318696
28,98,219809,1,4,0:0:0:0:
55,42,219884,1,0,0:0:0:0:
114,23,219959,1,0,0:0:0:0:
168,53,220034,1,0,0:0:0:0:
184,113,220109,1,0,0:0:0:0:
151,166,220184,1,0,0:0:0:0:
116,219,220259,1,0,0:0:0:0:
100,279,220334,1,0,0:0:0:0:
131,332,220409,1,0,0:0:0:0:
191,349,220484,1,0,0:0:0:0:
245,319,220559,1,0,0:0:0:0:
262,259,220634,1,0,0:0:0:0:
252,193,220709,5,0,0:0:0:0:
249,130,220784,1,0,0:0:0:0:
292,86,220859,1,0,0:0:0:0:
354,86,220934,1,0,0:0:0:0:
397,131,221009,1,4,0:0:0:0:
340,159,221084,1,0,0:0:0:0:
281,136,221159,1,0,0:0:0:0:
223,158,221234,1,0,0:0:0:0:
194,213,221309,1,0,0:0:0:0:
209,274,221384,1,0,0:0:0:0:
261,309,221459,1,0,0:0:0:0:
322,301,221534,1,0,0:0:0:0:
357,247,221609,1,4,0:0:0:0:
417,234,221684,1,0,0:0:0:0:
464,274,221759,1,0,0:0:0:0:
461,335,221834,1,0,0:0:0:0:
411,371,221909,1,0,0:0:0:0:
352,354,221984,1,0,0:0:0:0:
319,300,222059,6,0,L|257:248,1,63.7500024318696
106,51,222209,5,6,0:0:0:0:
172,52,222284,1,0,0:0:0:0:
222,89,222359,1,2,0:0:0:0:
251,145,222434,1,0,0:0:0:0:
252,208,222509,1,10,0:0:0:0:
225,265,222584,1,0,0:0:0:0:
191,319,222659,5,2,0:0:0:0:
191,319,222734,1,2,0:0:0:0:
183,321,222809,2,2,L|271:286,1,55.2499974708558
345,173,222959,5,2,0:0:0:0:
345,173,223034,1,2,0:0:0:0:
353,171,223109,2,2,L|261:209,1,55.2499974708558,10|2,0:0|0:0,0:0:0:0:
70,195,223259,5,2,0:0:0:0:
70,195,223334,1,10,0:0:0:0:
62,197,223409,2,2,L|146:167,1,55.2499974708558
188,284,223559,2,0,L|192:236,4,27.6249987354279,0|0|0|0|8,0:0|0:0|0:0|0:0|0:0,0:0:0:0:
172,88,223784,1,0,0:0:0:0:
172,88,223859,1,0,0:0:0:0:
172,88,223934,1,0,0:0:0:0:
172,88,224009,2,10,P|240:92|296:172,2,165.749992412568
48,68,224609,5,6,0:0:0:0:
20,124,224684,1,0,0:0:0:0:
26,186,224759,1,0,0:0:0:0:
65,236,224834,1,0,0:0:0:0:
125,256,224909,1,0,0:0:0:0:
186,242,224984,1,0,0:0:0:0:
336,36,225059,2,0,L|380:100,1,63.7500024318696,4|0,0:0|0:0,0:0:0:0:
480,324,225209,2,0,L|408:264,1,63.7500024318696,4|0,0:0|0:0,0:0:0:0:
312,120,225359,1,0,0:0:0:0:
258,86,225434,1,0,0:0:0:0:
196,91,225509,1,0,0:0:0:0:
149,133,225584,1,0,0:0:0:0:
136,194,225659,1,0,0:0:0:0:
162,251,225734,1,0,0:0:0:0:
208,292,225809,6,0,P|276:308|288:284,1,63.7500024318696,4|0,0:0|0:0,0:0:0:0:
408,92,225959,1,0,0:0:0:0:
441,143,226034,1,0,0:0:0:0:
419,200,226109,1,0,0:0:0:0:
360,214,226184,1,0,0:0:0:0:
104,216,226259,2,0,L|168:144,1,63.7500024318696
344,88,226409,2,0,L|304:156,1,63.7500024318696,4|0,0:0|0:0,0:0:0:0:
144,288,226559,1,0,0:0:0:0:
200,314,226634,1,0,0:0:0:0:
263,308,226709,5,0,0:0:0:0:
314,270,226784,1,0,0:0:0:0:
337,212,226859,1,0,0:0:0:0:
328,150,226934,1,0,0:0:0:0:
287,101,227009,1,0,0:0:0:0:
228,81,227084,1,0,0:0:0:0:
166,94,227159,1,0,0:0:0:0:
120,137,227234,1,0,0:0:0:0:
27,278,227309,5,10,0:0:0:0:
24,273,227384,1,2,0:0:0:0:
24,273,227459,2,2,L|101:276,1,63.7500024318696
260,154,227609,5,2,0:0:0:0:
257,149,227684,1,2,0:0:0:0:
257,149,227759,2,2,L|334:152,1,63.7500024318696
396,92,227909,5,10,0:0:0:0:
402,51,227984,1,0,0:0:0:0:
439,35,228059,1,0,0:0:0:0:
473,58,228134,1,0,0:0:0:0:
472,96,228209,1,10,0:0:0:0:
463,166,228284,1,2,0:0:0:0:
410,214,228359,1,2,0:0:0:0:
340,216,228434,1,2,0:0:0:0:
284,173,228509,1,10,0:0:0:0:
270,103,228584,1,2,0:0:0:0:
303,41,228659,1,2,0:0:0:0:
369,16,228734,1,2,0:0:0:0:
436,39,228809,5,10,0:0:0:0:
492,84,228884,1,2,0:0:0:0:
484,155,228959,1,2,0:0:0:0:
456,221,229034,1,2,0:0:0:0:
410,277,229109,1,10,0:0:0:0:
350,317,229184,1,2,0:0:0:0:
281,338,229259,1,2,0:0:0:0:
209,338,229334,1,2,0:0:0:0:
148,304,229409,6,0,L|120:204,1,72.2500013780594,12|0,0:0|0:0,0:0:0:0:
64,92,229559,1,0,0:0:0:0:
122,49,229634,1,0,0:0:0:0:
192,33,229709,1,8,0:0:0:0:
262,45,229784,1,0,0:0:0:0:
323,84,229859,1,0,0:0:0:0:
363,143,229934,1,0,0:0:0:0:
378,214,230009,1,8,0:0:0:0:
364,284,230084,1,0,0:0:0:0:
324,343,230159,1,0,0:0:0:0:
264,383,230234,1,0,0:0:0:0:
193,395,230309,1,8,0:0:0:0:
123,380,230384,1,0,0:0:0:0:
65,338,230459,1,0,0:0:0:0:
27,277,230534,1,0,0:0:0:0:
28,208,230609,6,0,L|116:152,1,72.2500013780594,12|0,0:0|0:0,0:0:0:0:
296,88,230759,1,0,0:0:0:0:
349,135,230834,1,0,0:0:0:0:
370,203,230909,1,8,0:0:0:0:
354,273,230984,1,0,0:0:0:0:
305,324,231059,1,0,0:0:0:0:
236,344,231134,1,0,0:0:0:0:
164,336,231209,6,0,L|88:276,1,72.2500013780594,12|0,0:0|0:0,0:0:0:0:
44,168,231359,1,0,0:0:0:0:
68,100,231434,1,0,0:0:0:0:
122,52,231509,1,8,0:0:0:0:
191,33,231584,1,0,0:0:0:0:
261,47,231659,1,0,0:0:0:0:
318,91,231734,1,0,0:0:0:0:
432,192,231809,5,2,0:0:0:0:
292,152,231959,1,2,0:0:0:0:
496,356,232109,1,2,0:0:0:0:
224,256,232259,1,2,0:0:0:0:
456,80,232409,1,2,0:0:0:0:
168,120,232559,1,2,0:0:0:0:
416,264,232709,1,2,0:0:0:0:
140,184,232859,1,2,0:0:0:0:
404,64,233009,5,2,0:0:0:0:
192,260,233159,1,2,0:0:0:0:
480,232,233309,1,2,0:0:0:0:
248,112,233459,1,2,0:0:0:0:
44,332,233609,1,2,0:0:0:0:
340,212,233759,1,2,0:0:0:0:
24,48,233909,1,2,0:0:0:0:
396,112,234059,1,2,0:0:0:0:
192,124,234209,6,0,L|248:188,1,72.2500013780594
320,260,234359,2,0,L|264:196,1,72.2500013780594
130,128,234509,2,0,L|242:190,1,72.2500013780594
381,255,234659,2,0,L|269:193,1,72.2500013780594
47,167,234809,2,0,L|180:192,1,72.2500013780594
464,216,234959,2,0,L|332:192,1,72.2500013780594
51,240,235109,2,0,L|184:217,1,72.2500013780594
460,143,235259,2,0,L|327:166,1,72.2500013780594
175,83,235409,6,0,P|179:123|142:137,1,85
147,272,235559,2,0,P|187:268|201:305,1,85
336,300,235708,2,0,P|332:260|369:246,1,85
364,111,235859,2,0,P|324:115|310:78,1,85
143,103,236008,2,0,P|139:144|100:157,1,85
167,304,236158,2,0,P|208:308|221:347,1,85
368,280,236309,2,0,P|372:239|411:226,1,85
344,79,236458,2,0,P|303:75|290:36,1,85
292,168,236609,6,0,P|220:280|180:268,1,191.250007295609
100,112,237509,2,0,B|128:196|200:216|200:216|260:224,1,191.250007295609
444,172,238409,2,0,P|404:220|328:232,1,127.500004863739
292,232,238859,1,0,0:0:0:0:
224,220,239009,1,0,0:0:0:0:
384,308,239459,2,0,B|264:148,1,191.250007295609
80,48,240359,2,0,P|128:152|200:200,1,191.250007295609
304,136,241109,1,0,0:0:0:0:
310,167,241184,1,0,0:0:0:0:
326,194,241259,1,0,0:0:0:0:
349,216,241334,1,0,0:0:0:0:
375,234,241409,1,0,0:0:0:0:
376,160,241859,6,0,P|280:160|232:256,1,191.250007295609
176,120,242759,2,0,L|352:216,1,191.250007295609
295,70,243509,1,0,0:0:0:0:
117,181,243659,1,0,0:0:0:0:
295,70,243809,1,0,0:0:0:0:
384,288,244259,1,0,0:0:0:0:
260,168,244709,1,0,0:0:0:0:
424,80,245159,2,0,L|436:92,4,15.9375006079674
260,168,245459,1,0,0:0:0:0:
188,136,245609,1,0,0:0:0:0:
124,204,245834,1,0,0:0:0:0:
220,264,246059,1,0,0:0:0:0:
272,228,246209,1,0,0:0:0:0:
176,128,253409,6,0,L|240:64,1,85
336,256,253559,2,0,L|272:320,1,85
202,104,253709,6,0,L|284:66,1,85
309,279,253859,2,0,L|227:317,1,85
235,91,254009,6,0,L|326:83,1,85
276,292,254159,2,0,L|185:300,1,85
271,90,254309,6,0,L|358:114,1,85
240,293,254459,2,0,L|153:269,1,85
223,169,254609,1,0,0:0:0:0:
304,158,254684,1,0,0:0:0:0:
332,227,254759,1,0,0:0:0:0:
261,267,254834,1,0,0:0:0:0:
180,248,254909,1,0,0:0:0:0:
127,183,254984,1,0,0:0:0:0:
137,102,255059,1,0,0:0:0:0:
204,50,255134,1,0,0:0:0:0:
304,40,255209,1,0,0:0:0:0:
399,74,255284,1,0,0:0:0:0:
474,143,255359,1,0,0:0:0:0:
495,242,255434,1,0,0:0:0:0:
424,316,255509,1,0,0:0:0:0:
313,365,255584,1,0,0:0:0:0:
193,359,255659,1,0,0:0:0:0:
87,298,255734,1,0,0:0:0:0:
21,196,255809,1,14,0:0:0:0:
