osu file format v14

[General]
AudioFilename: audio.mp3
AudioLeadIn: 0
PreviewTime: 169576
Countdown: 1
SampleSet: Soft
StackLeniency: 0.7
Mode: 0
LetterboxInBreaks: 0
WidescreenStoryboard: 1

[Editor]
Bookmarks: 111294,113019,114219,115419,116619,118419,119019,120219,133419,134619,135209,135219,135434,135659,135819,135884,137019,137619,138219,139494,140619,141894,143019,144294,145419,146619,147219,147819,185019,186219,187419,188019,197019,198219,199419,236619,237069,237594,238044,238494,238794,238944,239094,239619,239994,240444,240894,241194,241344,241494,241944,242394,242844,243219,243594,243744,243894
DistanceSpacing: 1
BeatDivisor: 4
GridSize: 4
TimelineZoom: 2.2

[Metadata]
Title:Vanitas
TitleUnicode:Vanitas
Artist:xi
ArtistUnicode:xi
Creator:Weriko
Version:Pride
Source:
Tags:deathstream, stream, xi, lol, wtf, pp
BeatmapID:1041307
BeatmapSetID:475983

[Difficulty]
HPDrainRate:2
CircleSize:4
OverallDifficulty:8.5
ApproachRate:9.2
SliderMultiplier:1.6
SliderTickRate:1

[Events]
//Background and Video events
0,0,"FIVEDIMENSIONAL!.jpg",0,0
//Break Periods
2,54409,63539
2,104809,112439
2,130609,147239
2,190834,195239
//Storyboard Layer 0 (Background)
//Storyboard Layer 1 (Fail)
//Storyboard Layer 2 (Pass)
//Storyboard Layer 3 (Foreground)
//Storyboard Sound Samples
Sample,177942,0,"hitsound4.wav",70
Sample,177942,0,"hitsound4.wav",70

[TimingPoints]
3809,300,4,2,0,50,1,0
3809,-133.333333333333,4,2,0,50,0,0
7334,-133.333333333333,4,2,0,5,0,0
7409,-133.333333333333,4,2,0,50,0,0
23009,-100,4,2,0,80,0,0
39809,-200,4,2,0,80,0,0
40784,-133.333333333333,4,2,0,80,0,0
41909,-133.333333333333,4,2,0,80,0,0
42209,-133.333333333333,4,2,0,80,0,0
64109,-133.333333333333,4,2,0,80,0,0
71009,-100,4,2,0,80,0,0
72232,-100,4,2,0,80,0,0
74159,-100,4,2,0,80,0,0
75725,-100,4,2,0,80,0,0
77070,-100,4,2,0,80,0,0
86361,-100,4,2,0,80,0,0
99717,-66.6666666666667,4,2,0,80,0,0
102039,-66.6666666666667,4,1,0,80,0,0
102264,-100,4,1,0,80,0,0
102534,-66.6666666666667,4,2,0,80,0,0
112651,-133.333333333333,4,1,0,80,0,0
121409,-133.333333333333,4,1,0,14,0,0
130589,-133.333333333333,4,1,0,80,0,0
147809,-83.3333333333333,4,1,0,80,0,0
149609,-83.3333333333333,4,1,0,80,0,0
150209,-80,4,1,0,80,0,0
152770,-83.3333333333333,4,2,0,80,0,0
159509,-83.3333333333333,4,2,0,80,0,0
160109,-100,4,2,0,80,0,0
160709,-80,4,2,0,80,0,0
163109,-80,4,2,0,80,0,0
163709,-80,4,2,0,80,0,0
164309,-80,4,2,0,80,0,0
164909,-80,4,2,0,80,0,0
166409,-80,4,2,0,80,0,0
171809,-80,4,2,0,80,0,0
173609,-80,4,3,0,80,0,0
174209,-80,4,2,0,80,0,0
174809,-80,4,2,0,80,0,0
175409,-80,4,2,0,80,0,0
176009,-80,4,2,0,80,0,0
178409,-66.6666666666667,4,2,0,80,0,0
179009,-80,4,2,0,80,0,0
179684,-80,4,2,0,80,0,0
181351,-80,4,2,0,80,0,0
183209,-80,4,2,0,80,0,0
184409,-80,4,2,0,80,0,0
185009,-83.3333333333333,4,2,0,80,0,0
185909,-83.3333333333333,4,2,0,80,0,0
187709,-83.3333333333333,4,2,0,80,0,0
192209,-200,4,2,0,80,0,0
195627,-76.9230769230769,4,2,0,80,0,1
198209,-71.4285714285714,4,2,0,80,0,1
198809,-71.4285714285714,4,2,0,80,0,1
201509,-71.4285714285714,4,2,0,80,0,1
202109,-71.4285714285714,4,2,0,80,0,1
202326,-71.4285714285714,4,2,0,80,0,1
203009,-71.4285714285714,4,2,0,80,0,1
205409,-71.4285714285714,4,2,0,80,0,1
210209,-71.4285714285714,4,2,0,80,0,1
215009,-71.4285714285714,4,2,0,80,0,1
215309,-71.4285714285714,4,2,0,80,0,1
218609,-71.4285714285714,4,2,0,80,0,1
219504,-71.4285714285714,4,2,0,80,0,1
220109,-71.4285714285714,4,2,0,80,0,1
221309,-71.4285714285714,4,2,0,80,0,1
222809,-71.4285714285714,4,2,0,80,0,1
224609,-71.4285714285714,4,2,0,80,0,1
227909,-71.4285714285714,4,2,0,80,0,1
228209,-71.4285714285714,4,2,0,80,0,1
235409,-50,4,3,0,80,0,0
236609,-133.333333333333,4,3,0,80,0,0
253249,-50,4,2,0,80,0,0

[Colours]
Combo1 : 213,0,106
Combo2 : 128,255,255
Combo3 : 0,206,206
Combo4 : 0,128,255
Combo5 : 255,0,255
Combo6 : 255,0,128

[HitObjects]
239,212,3809,6,0,B|310:257|405:188|405:188|337:146|419:91|419:91|240:64,1,480.000018310548
178,175,6209,2,0,B|188:262|280:266|268:135|268:135|285:97|283:35|363:37|363:37|374:165,1,480.000018310548
187,73,8609,2,0,B|246:222|246:222|356:69|210:17|336:249|333:281|277:306,2,480.000018310548
146,203,12209,1,0,0:0:0:0:
502,193,13109,2,0,B|453:178|443:157|370:153,1,120.000004577637
157,157,14609,1,0,0:0:0:0:
119,48,15809,2,0,B|132:146|121:246|25:254|25:254|238:351,1,480.000018310548
201,228,18209,2,0,B|127:177|272:149|272:149|415:128|414:193|381:48|305:0|264:3|217:44,1,480.000018310548
91,265,20609,2,0,B|184:249|184:249|253:184|253:184|321:257|389:97|389:97|295:51,1,480.000018310548
62,189,23009,6,0,P|94:212|368:142,1,320
178,104,24209,2,0,B|203:155|151:267|151:267|81:298|43:201|21:333|37:351|8:335,1,320
170,87,25409,2,0,B|205:142|205:142|307:102|307:102|259:226|346:199,1,320
388,78,26609,2,0,B|337:98|337:98|359:171|359:171|276:149|141:217,1,320
165,96,27809,2,0,B|240:104|240:104|164:359|285:225,1,320
245,193,29009,1,0,0:0:0:0:
245,193,29609,1,0,0:0:0:0:
245,193,30209,1,0,0:0:0:0:
245,193,30809,1,0,0:0:0:0:
245,193,31409,1,0,0:0:0:0:
245,193,32009,1,0,0:0:0:0:
245,193,32609,1,0,0:0:0:0:
245,193,32909,1,0,0:0:0:0:
245,193,33209,1,0,0:0:0:0:
245,193,33509,1,0,0:0:0:0:
245,193,33809,1,0,0:0:0:0:
245,193,34109,1,0,0:0:0:0:
245,193,34409,1,0,0:0:0:0:
245,193,34709,1,0,0:0:0:0:
245,193,35009,1,0,0:0:0:0:
245,193,35309,1,0,0:0:0:0:
245,193,35609,1,0,0:0:0:0:
245,193,35909,1,0,0:0:0:0:
245,193,36209,1,0,0:0:0:0:
245,193,36509,1,0,0:0:0:0:
245,193,36809,1,0,0:0:0:0:
245,193,37109,1,0,0:0:0:0:
245,193,37409,1,0,0:0:0:0:
245,193,37709,1,0,0:0:0:0:
245,193,38009,1,0,0:0:0:0:
245,193,38309,1,0,0:0:0:0:
245,193,38609,1,0,0:0:0:0:
245,193,38909,1,0,0:0:0:0:
245,193,39059,1,0,0:0:0:0:
245,193,39209,1,0,0:0:0:0:
245,193,39359,1,0,0:0:0:0:
245,193,39509,1,0,0:0:0:0:
245,193,39659,1,0,0:0:0:0:
373,186,39809,6,0,L|390:216,3,20
341,112,40109,2,0,L|374:124,3,20
270,75,40409,2,0,L|302:64,3,20
304,62,40709,1,0,0:0:0:0:
322,54,40784,1,0,0:0:0:0:
342,51,40859,1,0,0:0:0:0:
361,55,40934,1,0,0:0:0:0:
379,63,41009,1,0,0:0:0:0:
394,77,41084,1,0,0:0:0:0:
405,94,41159,1,0,0:0:0:0:
410,113,41234,1,0,0:0:0:0:
410,133,41309,1,0,0:0:0:0:
404,152,41384,1,0,0:0:0:0:
393,169,41459,1,0,0:0:0:0:
378,182,41534,1,0,0:0:0:0:
348,180,41609,1,0,0:0:0:0:
324,162,41684,1,0,0:0:0:0:
296,152,41759,1,0,0:0:0:0:
266,150,41834,1,0,0:0:0:0:
237,156,41909,1,0,0:0:0:0:
211,171,41984,1,0,0:0:0:0:
191,193,42059,1,0,0:0:0:0:
177,220,42134,1,0,0:0:0:0:
173,249,42209,2,0,L|201:270,3,30.0000011444092
229,289,42509,2,0,L|264:287,3,30.0000011444092
297,283,42809,2,0,L|323:259,3,30.0000011444092
346,235,43109,2,0,L|351:200,3,30.0000011444092
351,175,43409,1,0,0:0:0:0:
324,161,43484,1,0,0:0:0:0:
297,147,43559,1,0,0:0:0:0:
66,194,43709,1,0,0:0:0:0:
81,168,43784,1,0,0:0:0:0:
104,150,43859,1,0,0:0:0:0:
133,141,43934,1,0,0:0:0:0:
163,144,44009,1,0,0:0:0:0:
189,158,44084,1,0,0:0:0:0:
214,179,44159,1,0,0:0:0:0:
240,192,44234,1,0,0:0:0:0:
269,199,44309,1,0,0:0:0:0:
299,198,44384,1,0,0:0:0:0:
328,189,44459,1,0,0:0:0:0:
353,173,44534,1,0,0:0:0:0:
373,151,44609,1,0,0:0:0:0:
324,102,44759,1,0,0:0:0:0:
373,53,44909,1,0,0:0:0:0:
421,102,45059,1,0,0:0:0:0:
373,151,45209,1,0,0:0:0:0:
324,102,45359,2,0,L|237:100,1,60.0000022888184
147,96,45659,1,0,0:0:0:0:
42,163,45809,1,0,0:0:0:0:
158,206,45959,1,0,0:0:0:0:
56,263,46109,1,0,0:0:0:0:
151,329,46259,2,0,L|236:338,1,60.0000022888184
307,232,46559,1,0,0:0:0:0:
343,104,46709,1,0,0:0:0:0:
241,40,46859,1,0,0:0:0:0:
144,111,47009,2,0,B|92:155|92:155|80:239,2,120.000004577637
244,44,47759,1,0,0:0:0:0:
336,120,47909,1,0,0:0:0:0:
384,10,48059,1,0,0:0:0:0:
336,120,48209,1,0,0:0:0:0:
346,239,48359,2,0,L|281:271,1,60.0000022888184
175,235,48659,2,0,L|138:170,1,60.0000022888184
180,68,48959,1,0,0:0:0:0:
304,156,49109,1,0,0:0:0:0:
333,151,49184,1,0,0:0:0:0:
360,162,49259,1,0,0:0:0:0:
379,185,49334,1,0,0:0:0:0:
384,214,49409,1,0,0:0:0:0:
304,316,49559,2,0,L|224:284,1,60.0000022888184
168,256,49859,1,0,0:0:0:0:
104,156,50009,1,0,0:0:0:0:
220,132,50159,1,0,0:0:0:0:
151,222,50309,1,0,0:0:0:0:
125,106,50459,1,0,0:0:0:0:
242,123,50609,1,0,0:0:0:0:
360,160,50759,2,0,L|368:232,1,60.0000022888184
380,332,51059,1,0,0:0:0:0:
260,328,51209,2,0,P|180:316|132:264,1,120.000004577637
88,188,51659,2,0,L|108:112,1,60.0000022888184
204,76,51959,2,0,L|280:72,1,60.0000022888184
368,136,52259,1,0,0:0:0:0:
352,256,52409,1,0,0:0:0:0:
244,212,52559,1,0,0:0:0:0:
200,116,52709,1,0,0:0:0:0:
320,124,52859,1,0,0:0:0:0:
244,212,53009,1,0,0:0:0:0:
356,228,53159,2,0,L|376:224,4,15.0000005722046
316,304,53459,2,0,L|236:324,1,60.0000022888184
156,232,53759,2,0,P|108:208|104:188,1,60.0000022888184
76,156,53984,1,0,0:0:0:0:
76,156,54059,1,0,0:0:0:0:
76,156,54134,1,0,0:0:0:0:
76,156,54209,1,0,0:0:0:0:
336,84,64109,6,0,L|376:118,3,30.0000011444092
372,130,64409,1,0,0:0:0:0:
378,158,64484,1,0,0:0:0:0:
369,187,64559,1,0,0:0:0:0:
347,206,64634,1,0,0:0:0:0:
321,222,64709,2,0,P|288:217|271:228,3,30.0000011444092
264,206,65009,1,0,0:0:0:0:
245,183,65084,1,0,0:0:0:0:
217,174,65159,1,0,0:0:0:0:
189,184,65234,1,0,0:0:0:0:
160,193,65309,6,0,P|132:169|124:170,3,30.0000011444092
126,145,65609,1,0,0:0:0:0:
103,126,65684,1,0,0:0:0:0:
73,125,65759,1,0,0:0:0:0:
48,140,65834,1,0,0:0:0:0:
40,174,65909,2,0,P|43:195|59:205,3,30.0000011444092
74,224,66209,1,0,0:0:0:0:
103,228,66284,1,0,0:0:0:0:
133,223,66359,1,0,0:0:0:0:
161,212,66434,1,0,0:0:0:0:
185,194,66509,5,0,0:0:0:0:
207,174,66584,1,0,0:0:0:0:
232,156,66659,1,0,0:0:0:0:
260,146,66734,1,0,0:0:0:0:
295,136,66809,2,0,P|318:130|328:149,3,30.0000011444092
348,145,67109,1,0,0:0:0:0:
362,171,67184,1,0,0:0:0:0:
366,200,67259,1,0,0:0:0:0:
360,229,67334,1,0,0:0:0:0:
352,257,67409,6,0,P|346:280|329:290,3,30.0000011444092
331,304,67709,1,0,0:0:0:0:
302,313,67784,1,0,0:0:0:0:
273,319,67859,1,0,0:0:0:0:
243,320,67934,1,0,0:0:0:0:
214,327,68009,2,0,P|180:320|107:243,1,120.000004577637
111,226,68384,2,0,P|102:202|118:185,3,30.0000011444092
150,161,68759,6,0,B|180:127|208:122|202:113,1,60.0000022888184
214,327,69059,1,0,0:0:0:0:
308,129,69209,2,0,P|359:140|377:160,1,60.0000022888184
214,327,69509,1,0,0:0:0:0:
408,243,69659,2,0,B|401:287|386:288|366:284,1,60.0000022888184
320,104,69959,1,0,0:0:0:0:
266,304,70109,2,0,B|208:302|194:292|184:291,1,60.0000022888184
320,104,70409,1,0,0:0:0:0:
98,247,70559,2,0,P|64:220|61:184,1,60.0000022888184
320,104,70859,1,0,0:0:0:0:
216,145,71009,6,0,P|220:101|239:98,3,40
196,182,71309,2,0,P|170:145|183:131,3,40
203,222,71609,2,0,P|160:211|161:191,3,40
235,249,71909,2,0,P|195:267|183:252,3,40
271,281,72209,2,0,P|290:300|328:287,1,40
338,284,72359,2,0,L|361:271,4,20
384,242,72609,2,0,P|410:179|385:145,2,106.666666666667
347,159,73259,5,0,0:0:0:0:
192,118,73409,1,0,0:0:0:0:
128,237,73559,1,0,0:0:0:0:
318,117,73709,1,0,0:0:0:0:
163,159,73859,1,0,0:0:0:0:
167,294,74009,1,0,0:0:0:0:
272,96,74159,1,0,0:0:0:0:
159,210,74309,1,0,0:0:0:0:
230,325,74459,1,0,0:0:0:0:
215,262,74609,5,0,0:0:0:0:
215,121,74759,1,0,0:0:0:0:
336,192,74909,1,0,0:0:0:0:
175,192,75059,1,0,0:0:0:0:
296,262,75209,1,0,0:0:0:0:
296,122,75359,1,0,0:0:0:0:
197,321,75509,2,0,P|221:253|238:251,1,80
395,201,75809,5,0,0:0:0:0:
400,162,75884,1,0,0:0:0:0:
374,133,75959,1,0,0:0:0:0:
336,131,76034,1,0,0:0:0:0:
308,157,76109,1,0,0:0:0:0:
293,195,76184,1,0,0:0:0:0:
264,221,76259,1,0,0:0:0:0:
226,219,76334,1,0,0:0:0:0:
200,190,76409,1,0,0:0:0:0:
205,151,76484,1,0,0:0:0:0:
213,112,76559,1,0,0:0:0:0:
218,73,76634,1,0,0:0:0:0:
193,44,76709,5,0,0:0:0:0:
154,42,76784,1,0,0:0:0:0:
126,69,76859,1,0,0:0:0:0:
122,110,76934,1,0,0:0:0:0:
129,147,77009,1,0,0:0:0:0:
140,199,77109,2,0,P|190:253|229:251,1,106.666666666667
280,303,77459,1,0,0:0:0:0:
357,253,77609,2,0,P|316:239|281:165,2,120
411,187,78209,5,4,0:0:0:0:
380,161,78359,1,0,0:0:0:0:
345,140,78509,1,0,0:0:0:0:
311,121,78659,1,0,0:0:0:0:
278,108,78809,1,0,0:0:0:0:
240,87,78959,1,0,0:0:0:0:
200,78,79109,1,0,0:0:0:0:
167,74,79259,1,8,0:0:0:0:
134,286,79409,1,4,0:0:0:0:
173,286,79559,1,0,0:0:0:0:
212,289,79709,1,0,0:0:0:0:
251,282,79859,1,8,0:0:0:0:
459,148,80009,1,4,0:0:0:0:
429,132,80159,1,0,0:0:0:0:
393,113,80309,1,0,0:0:0:0:
359,105,80459,1,0,0:0:0:0:
339,240,80609,5,4,0:0:0:0:
171,143,80759,1,0,0:0:0:0:
304,275,80909,1,4,0:0:0:0:
207,107,81059,1,0,0:0:0:0:
256,289,81209,1,4,0:0:0:0:
256,94,81359,1,4,0:0:0:0:
207,275,81509,1,4,0:0:0:0:
304,107,81659,1,4,0:0:0:0:
135,261,81809,2,0,L|174:229,3,40
181,266,82109,2,0,P|228:264|228:264,4,26.6666666666667
172,302,82409,2,0,L|190:323,6,20
132,308,82709,2,0,L|116:316,9,13.3333333333333
164,331,83009,2,0,L|253:300,1,80
301,257,83309,5,0,0:0:0:0:
337,242,83384,1,0,0:0:0:0:
363,212,83459,1,0,0:0:0:0:
373,173,83534,1,0,0:0:0:0:
365,135,83609,1,0,0:0:0:0:
340,104,83684,1,0,0:0:0:0:
304,88,83759,1,0,0:0:0:0:
264,89,83834,1,0,0:0:0:0:
229,109,83909,1,0,0:0:0:0:
212,145,83984,1,0,0:0:0:0:
195,180,84059,1,0,0:0:0:0:
160,196,84134,1,0,0:0:0:0:
122,184,84209,1,0,0:0:0:0:
103,150,84284,1,0,0:0:0:0:
100,110,84359,1,0,0:0:0:0:
107,72,84434,1,0,0:0:0:0:
92,34,84509,2,0,P|71:24|67:45,3,40
56,64,84809,5,0,0:0:0:0:
64,102,84884,1,0,0:0:0:0:
82,138,84959,1,0,0:0:0:0:
108,169,85034,1,0,0:0:0:0:
140,192,85109,1,0,0:0:0:0:
177,207,85184,1,0,0:0:0:0:
216,213,85259,1,0,0:0:0:0:
249,209,85334,1,0,0:0:0:0:
273,177,85409,1,0,0:0:0:0:
309,162,85484,1,0,0:0:0:0:
349,166,85559,1,0,0:0:0:0:
381,188,85634,1,0,0:0:0:0:
420,223,85709,1,0,0:0:0:0:
455,237,85784,1,0,0:0:0:0:
486,215,85859,1,0,0:0:0:0:
482,177,85934,1,0,0:0:0:0:
475,141,86009,2,0,B|453:102|445:104|426:113|426:113,3,40
421,82,86309,5,0,0:0:0:0:
389,106,86384,1,0,0:0:0:0:
352,122,86459,1,0,0:0:0:0:
313,128,86534,1,0,0:0:0:0:
273,123,86609,1,0,0:0:0:0:
233,121,86684,1,0,0:0:0:0:
197,102,86759,1,0,0:0:0:0:
158,96,86834,1,0,0:0:0:0:
119,104,86909,1,0,0:0:0:0:
80,111,86984,1,0,0:0:0:0:
85,151,87059,1,0,0:0:0:0:
83,190,87134,1,0,0:0:0:0:
74,229,87209,5,0,0:0:0:0:
59,267,87284,1,0,0:0:0:0:
58,303,87359,1,0,0:0:0:0:
70,340,87434,1,0,0:0:0:0:
123,348,87509,2,0,L|173:318,3,40
189,304,87809,2,0,L|239:274,3,40
254,258,88109,2,0,L|304:228,3,40
315,207,88409,2,0,L|365:177,3,40
380,161,88709,2,0,L|430:131,3,40
369,58,89009,5,0,0:0:0:0:
244,87,89159,5,0,0:0:0:0:
149,173,89309,1,0,0:0:0:0:
183,296,89459,1,0,0:0:0:0:
310,293,89609,1,0,0:0:0:0:
302,165,89759,1,0,0:0:0:0:
429,231,89909,6,0,B|405:171|405:171|376:168|341:146,1,120
316,136,90209,1,0,0:0:0:0:
287,109,90284,1,0,0:0:0:0:
248,107,90359,1,0,0:0:0:0:
217,131,90434,1,0,0:0:0:0:
209,170,90509,1,0,0:0:0:0:
229,204,90584,1,0,0:0:0:0:
265,217,90659,1,0,0:0:0:0:
302,204,90734,1,0,0:0:0:0:
336,184,90809,1,0,0:0:0:0:
362,154,90884,1,0,0:0:0:0:
399,140,90959,1,0,0:0:0:0:
436,126,91034,1,0,0:0:0:0:
474,136,91109,1,0,0:0:0:0:
498,166,91184,1,0,0:0:0:0:
501,205,91259,1,0,0:0:0:0:
480,239,91334,1,0,0:0:0:0:
444,254,91409,1,0,0:0:0:0:
366,293,91559,6,0,L|334:311,4,20
296,277,91859,1,0,0:0:0:0:
180,250,92009,1,0,0:0:0:0:
105,169,92234,1,0,0:0:0:0:
179,131,92459,1,0,0:0:0:0:
271,153,92609,5,0,0:0:0:0:
309,144,92684,1,0,0:0:0:0:
346,156,92759,1,0,0:0:0:0:
372,186,92834,1,0,0:0:0:0:
378,225,92909,1,0,0:0:0:0:
384,265,92984,1,0,0:0:0:0:
386,304,93059,1,0,0:0:0:0:
367,339,93134,1,0,0:0:0:0:
333,359,93209,1,0,0:0:0:0:
294,359,93284,1,0,0:0:0:0:
260,339,93359,1,0,0:0:0:0:
224,315,93434,1,0,0:0:0:0:
243,280,93509,5,0,0:0:0:0:
235,242,93584,1,0,0:0:0:0:
205,216,93659,1,0,0:0:0:0:
166,216,93734,1,0,0:0:0:0:
120,222,93809,2,0,P|86:217|97:193,3,40
85,177,94109,1,0,0:0:0:0:
107,144,94184,1,0,0:0:0:0:
140,121,94259,1,0,0:0:0:0:
179,112,94334,1,0,0:0:0:0:
218,117,94409,1,0,0:0:0:0:
253,135,94484,1,0,0:0:0:0:
282,163,94559,1,0,0:0:0:0:
301,197,94634,1,0,0:0:0:0:
334,219,94709,5,0,0:0:0:0:
373,222,94784,1,0,0:0:0:0:
410,206,94859,1,0,0:0:0:0:
434,174,94934,1,0,0:0:0:0:
443,130,95009,6,0,P|424:123|414:95,1,40
410,85,95159,2,0,P|389:83|372:58,1,40
367,51,95309,2,0,P|347:54|324:35,1,40
317,29,95459,2,0,P|298:37|271:24,1,40
272,18,95609,2,0,P|257:31|227:26,1,40
227,20,95759,2,0,P|215:36|186:39,1,40
183,33,95909,2,0,P|176:52|148:62,1,40
145,57,96059,2,0,P|143:77|119:94,1,40
136,149,96209,2,0,P|155:198|192:209,2,80
214,166,96659,1,0,0:0:0:0:
136,149,96809,2,0,P|165:250|189:257,2,120
362,229,97409,5,0,0:0:0:0:
376,191,97484,1,0,0:0:0:0:
371,152,97559,1,0,0:0:0:0:
349,119,97634,1,0,0:0:0:0:
314,101,97709,1,0,0:0:0:0:
274,100,97784,1,0,0:0:0:0:
239,118,97859,1,0,0:0:0:0:
216,150,97934,1,0,0:0:0:0:
210,189,98009,1,0,0:0:0:0:
209,223,98084,1,0,0:0:0:0:
215,261,98159,1,0,0:0:0:0:
200,298,98234,1,0,0:0:0:0:
168,321,98309,1,0,0:0:0:0:
129,323,98384,1,0,0:0:0:0:
91,309,98459,6,0,L|87:252,1,40
93,193,98609,1,4,0:0:0:0:
119,162,98684,1,0,0:0:0:0:
152,141,98759,1,0,0:0:0:0:
191,131,98834,1,0,0:0:0:0:
231,132,98909,1,0,0:0:0:0:
268,144,98984,1,0,0:0:0:0:
302,170,99059,6,0,L|334:204,1,40
348,278,99209,1,4,0:0:0:0:
310,286,99284,1,0,0:0:0:0:
270,280,99359,1,0,0:0:0:0:
236,260,99434,1,0,0:0:0:0:
210,229,99509,1,0,0:0:0:0:
198,192,99584,1,0,0:0:0:0:
199,152,99659,1,0,0:0:0:0:
215,115,99734,1,0,0:0:0:0:
242,87,99809,5,0,0:0:0:0:
418,249,99959,1,0,0:0:0:0:
178,251,100109,1,0,0:0:0:0:
339,73,100259,1,0,0:0:0:0:
294,308,100409,1,0,0:0:0:0:
148,117,100559,1,0,0:0:0:0:
365,217,100709,1,0,0:0:0:0:
177,67,100859,1,0,0:0:0:0:
391,119,101009,2,0,L|312:117,1,60.0000022888184
278,148,101159,2,0,L|357:150,1,60.0000022888184
389,182,101309,2,0,L|310:180,1,60.0000022888184
276,211,101459,6,0,L|355:213,1,60.0000022888184
393,231,101609,2,0,L|314:229,1,60.0000022888184
280,260,101759,2,0,L|359:262,1,60.0000022888184
391,294,101909,2,0,L|312:292,1,60.0000022888184
278,323,102059,2,0,L|357:325,1,60.0000022888184
256,192,102209,12,0,104609,0:0:0:0:
288,195,113009,5,0,0:0:0:0:
399,175,114209,1,0,0:0:0:0:
123,107,115409,1,0,0:0:0:0:
211,257,116609,1,0,0:0:0:0:
409,83,118409,1,0,0:0:0:0:
178,150,119009,1,0,0:0:0:0:
408,250,120209,1,0,0:0:0:0:
137,141,121409,5,0,0:0:0:0:
123,178,121509,1,0,0:0:0:0:
125,218,121609,1,0,0:0:0:0:
142,254,121709,1,0,0:0:0:0:
171,281,121809,1,0,0:0:0:0:
208,295,121909,1,0,0:0:0:0:
248,294,122009,1,0,0:0:0:0:
265,188,122309,5,0,0:0:0:0:
301,201,122409,1,0,0:0:0:0:
338,189,122509,1,0,0:0:0:0:
359,156,122609,1,0,0:0:0:0:
354,117,122709,1,0,0:0:0:0:
326,90,122809,1,0,0:0:0:0:
287,87,122909,1,0,0:0:0:0:
252,92,123009,1,0,0:0:0:0:
215,106,123109,1,0,0:0:0:0:
175,109,123209,1,0,0:0:0:0:
136,99,123309,1,0,0:0:0:0:
103,77,123409,1,0,0:0:0:0:
78,46,123509,5,0,0:0:0:0:
77,86,123609,1,0,0:0:0:0:
76,125,123709,1,0,0:0:0:0:
76,165,123809,1,0,0:0:0:0:
76,205,123909,1,0,0:0:0:0:
76,245,124009,1,0,0:0:0:0:
76,285,124109,1,0,0:0:0:0:
78,325,124209,2,0,L|78:374,2,40.000001525879
189,237,124709,5,0,0:0:0:0:
196,275,124809,1,0,0:0:0:0:
222,305,124909,1,0,0:0:0:0:
259,319,125009,1,0,0:0:0:0:
298,313,125109,1,0,0:0:0:0:
330,289,125209,1,0,0:0:0:0:
345,253,125309,1,0,0:0:0:0:
342,213,125409,1,0,0:0:0:0:
319,181,125509,1,0,0:0:0:0:
284,163,125609,1,0,0:0:0:0:
410,175,125909,5,0,0:0:0:0:
409,135,126009,1,0,0:0:0:0:
394,98,126109,1,0,0:0:0:0:
368,68,126209,1,0,0:0:0:0:
333,49,126309,1,0,0:0:0:0:
294,43,126409,1,0,0:0:0:0:
255,51,126509,1,0,0:0:0:0:
221,72,126609,1,0,0:0:0:0:
196,103,126709,1,0,0:0:0:0:
184,141,126809,1,0,0:0:0:0:
79,201,127109,5,0,0:0:0:0:
95,237,127209,1,0,0:0:0:0:
121,267,127309,1,0,0:0:0:0:
155,288,127409,1,0,0:0:0:0:
193,299,127509,1,0,0:0:0:0:
233,298,127609,1,0,0:0:0:0:
271,285,127709,1,0,0:0:0:0:
303,262,127809,1,0,0:0:0:0:
327,230,127909,1,0,0:0:0:0:
355,201,128009,1,0,0:0:0:0:
325,175,128109,1,0,0:0:0:0:
311,138,128209,1,0,0:0:0:0:
317,99,128309,5,0,0:0:0:0:
340,67,128409,1,0,0:0:0:0:
376,50,128509,1,0,0:0:0:0:
422,52,128609,1,0,0:0:0:0:
422,91,128709,1,0,0:0:0:0:
422,131,128809,1,0,0:0:0:0:
423,171,128909,1,0,0:0:0:0:
423,211,129009,1,0,0:0:0:0:
424,251,129109,1,0,0:0:0:0:
424,291,129209,1,0,0:0:0:0:
424,331,129309,1,0,0:0:0:0:
386,344,129409,1,0,0:0:0:0:
346,349,129509,5,0,0:0:0:0:
307,346,129609,1,0,0:0:0:0:
269,333,129709,1,0,0:0:0:0:
234,313,129809,1,0,0:0:0:0:
205,286,129909,1,0,0:0:0:0:
183,252,130009,1,0,0:0:0:0:
174,199,130109,1,0,0:0:0:0:
181,160,130209,1,0,0:0:0:0:
174,121,130309,1,0,0:0:0:0:
152,87,130409,1,0,0:0:0:0:
448,144,147809,5,0,0:0:0:0:
414,177,147884,1,0,0:0:0:0:
369,195,147959,1,0,0:0:0:0:
322,194,148034,1,0,0:0:0:0:
278,175,148109,1,0,0:0:0:0:
236,152,148184,1,0,0:0:0:0:
197,123,148259,1,0,0:0:0:0:
150,115,148334,1,0,0:0:0:0:
104,128,148409,1,0,0:0:0:0:
69,159,148484,1,0,0:0:0:0:
50,203,148559,1,0,0:0:0:0:
53,251,148634,1,0,0:0:0:0:
76,292,148709,5,0,0:0:0:0:
115,320,148784,1,0,0:0:0:0:
162,328,148859,1,0,0:0:0:0:
207,314,148934,1,0,0:0:0:0:
251,295,149009,5,0,0:0:0:0:
285,261,149084,1,0,0:0:0:0:
329,243,149159,1,0,0:0:0:0:
377,244,149234,1,0,0:0:0:0:
424,249,149309,6,0,P|447:229|428:209,3,47.9999985351563
443,172,149609,1,4,0:0:0:0:
414,133,149684,1,0,0:0:0:0:
375,106,149759,1,0,0:0:0:0:
329,93,149834,1,0,0:0:0:0:
281,97,149909,1,0,0:0:0:0:
235,109,149984,1,0,0:0:0:0:
188,107,150059,1,0,0:0:0:0:
152,138,150134,1,0,0:0:0:0:
135,185,150209,6,0,P|156:219|178:218,3,50,4|0|0|0,0:0|0:0|0:0|0:0,0:0:0:0:
190,243,150509,1,0,0:0:0:0:
229,272,150584,1,0,0:0:0:0:
277,269,150659,1,0,0:0:0:0:
313,235,150734,1,0,0:0:0:0:
317,186,150809,1,0,0:0:0:0:
302,139,150884,1,0,0:0:0:0:
266,104,150959,1,0,0:0:0:0:
244,59,151034,1,0,0:0:0:0:
206,26,151109,1,0,0:0:0:0:
157,18,151184,1,0,0:0:0:0:
116,44,151259,1,0,0:0:0:0:
103,91,151334,1,0,0:0:0:0:
120,138,151409,6,0,L|159:190,3,50
146,94,151709,2,0,L|165:156,3,50
186,63,152009,2,0,L|182:128,3,50
234,47,152309,2,0,L|209:106,3,50
462,85,152909,5,0,0:0:0:0:
462,85,152984,1,0,0:0:0:0:
462,85,153059,2,0,L|403:80,1,47.9999985351563
359,72,153209,2,0,P|302:73|272:199,1,191.999994140625
239,292,153659,2,0,L|331:248,1,95.9999970703126
361,149,153959,1,0,0:0:0:0:
361,149,154034,1,0,0:0:0:0:
361,149,154109,2,0,L|280:118,1,47.9999985351563
229,105,154259,1,0,0:0:0:0:
229,105,154334,1,0,0:0:0:0:
229,105,154409,2,0,P|230:164|320:265,1,191.999994140625
376,185,154859,2,0,P|416:124|399:115,1,95.9999970703126
334,84,155159,1,0,0:0:0:0:
334,84,155234,1,0,0:0:0:0:
334,84,155309,1,0,0:0:0:0:
334,84,155384,1,0,0:0:0:0:
334,84,155459,2,0,L|260:78,1,47.9999985351563
256,73,155609,2,0,P|169:83|175:181,1,191.999994140625
203,254,156059,2,0,P|247:294|258:272,1,95.9999970703126
322,228,156359,1,0,0:0:0:0:
322,228,156434,1,0,0:0:0:0:
322,228,156509,1,0,0:0:0:0:
322,228,156584,1,0,0:0:0:0:
322,228,156659,2,0,L|380:223,1,47.9999985351563
427,199,156809,2,0,B|412:141|369:141|369:141|345:122|261:108,1,191.999994140625
182,108,157259,2,0,L|121:186,1,95.9999970703126
138,273,157559,1,0,0:0:0:0:
138,273,157634,1,0,0:0:0:0:
138,273,157709,1,0,0:0:0:0:
138,273,157784,1,0,0:0:0:0:
138,273,157859,2,0,L|188:278,1,47.9999985351563
234,281,158009,2,0,P|310:262|306:153,1,191.999994140625
284,63,158459,1,0,0:0:0:0:
237,56,158534,1,0,0:0:0:0:
196,80,158609,1,0,0:0:0:0:
177,123,158684,1,0,0:0:0:0:
188,169,158759,1,0,0:0:0:0:
225,198,158834,1,0,0:0:0:0:
271,209,158909,1,0,0:0:0:0:
317,203,158984,1,0,0:0:0:0:
352,234,159059,1,0,0:0:0:0:
351,281,159134,1,0,0:0:0:0:
316,311,159209,1,0,0:0:0:0:
270,326,159284,1,0,0:0:0:0:
225,342,159359,1,0,0:0:0:0:
179,331,159434,1,0,0:0:0:0:
145,297,159509,2,0,B|118:242|118:242|231:175,1,191.999994140625
375,106,160109,5,0,0:0:0:0:
375,106,160184,1,0,0:0:0:0:
375,106,160259,1,0,0:0:0:0:
375,106,160334,1,0,0:0:0:0:
375,106,160409,2,0,L|374:153,1,40
376,205,160559,2,0,B|339:228|331:203|308:210,1,40
299,212,160709,2,0,B|268:196|262:212|225:211,1,50
201,216,160859,2,0,B|166:198|149:186|172:140,1,50
139,128,161009,1,0,0:0:0:0:
139,128,161084,1,0,0:0:0:0:
139,128,161159,2,0,L|184:124,4,25
224,184,161459,1,0,0:0:0:0:
200,88,161609,2,0,P|256:68|316:0,2,150
383,44,162209,5,0,0:0:0:0:
370,92,162284,1,0,0:0:0:0:
333,124,162359,1,0,0:0:0:0:
285,135,162434,1,0,0:0:0:0:
235,137,162509,1,0,0:0:0:0:
185,135,162584,1,0,0:0:0:0:
136,138,162659,1,0,0:0:0:0:
105,176,162734,1,0,0:0:0:0:
110,224,162809,1,0,0:0:0:0:
148,255,162884,1,0,0:0:0:0:
196,249,162959,1,0,0:0:0:0:
246,249,163034,5,0,0:0:0:0:
296,251,163109,1,0,0:0:0:0:
345,262,163184,1,0,0:0:0:0:
381,295,163259,1,0,0:0:0:0:
394,343,163334,1,0,0:0:0:0:
425,381,163409,2,0,P|467:331|446:301,1,100
333,172,163709,2,0,L|347:106,3,50
263,159,164009,2,0,L|277:93,3,50
194,154,164309,2,0,L|208:88,3,50
150,127,164609,5,0,0:0:0:0:
104,110,164684,1,0,0:0:0:0:
58,128,164759,1,0,0:0:0:0:
38,172,164834,1,0,0:0:0:0:
52,219,164909,1,0,0:0:0:0:
101,209,164984,1,0,0:0:0:0:
148,194,165059,1,0,0:0:0:0:
198,187,165134,1,0,0:0:0:0:
248,189,165209,1,0,0:0:0:0:
296,200,165284,1,0,0:0:0:0:
342,220,165359,1,0,0:0:0:0:
383,247,165434,1,0,0:0:0:0:
423,275,165509,1,0,0:0:0:0:
388,310,165584,1,0,0:0:0:0:
341,323,165659,1,0,0:0:0:0:
293,311,165734,1,0,0:0:0:0:
257,276,165809,1,0,0:0:0:0:
243,229,165884,1,0,0:0:0:0:
254,181,165959,1,0,0:0:0:0:
287,145,166034,1,0,0:0:0:0:
335,117,166109,1,0,0:0:0:0:
359,75,166184,1,0,0:0:0:0:
340,31,166259,1,0,0:0:0:0:
293,21,166334,1,0,0:0:0:0:
242,29,166409,2,0,L|159:44,1,50
102,111,166559,2,0,L|161:95,1,50
271,105,166709,2,0,L|188:120,1,50
110,188,166859,6,0,L|239:185,1,100
328,177,167159,1,0,0:0:0:0:
375,189,167234,1,0,0:0:0:0:
407,227,167309,1,0,0:0:0:0:
412,276,167384,1,0,0:0:0:0:
389,319,167459,1,0,0:0:0:0:
345,342,167534,1,0,0:0:0:0:
296,335,167609,1,0,0:0:0:0:
253,320,167684,1,0,0:0:0:0:
208,296,167759,1,0,0:0:0:0:
160,283,167834,1,0,0:0:0:0:
110,281,167909,1,0,0:0:0:0:
61,291,167984,1,0,0:0:0:0:
40,191,168059,2,0,P|48:134|110:122,1,100
182,91,168359,1,0,0:0:0:0:
226,70,168434,1,0,0:0:0:0:
276,74,168509,1,0,0:0:0:0:
316,102,168584,1,0,0:0:0:0:
379,191,168659,2,0,P|364:250|330:248,1,100
230,260,168959,1,0,0:0:0:0:
193,291,169034,1,0,0:0:0:0:
144,286,169109,1,0,0:0:0:0:
115,247,169184,1,0,0:0:0:0:
124,199,169259,1,0,0:0:0:0:
346,305,169409,1,0,0:0:0:0:
125,129,169559,1,0,0:0:0:0:
401,192,169709,1,0,0:0:0:0:
223,333,169859,1,0,0:0:0:0:
223,50,170009,1,0,0:0:0:0:
125,254,170159,1,0,0:0:0:0:
346,305,170309,1,0,0:0:0:0:
346,78,170459,1,0,0:0:0:0:
343,173,170609,6,0,L|390:139,1,50
344,203,170759,6,0,L|400:188,1,50
334,233,170909,6,0,L|392:237,1,50
315,257,171059,6,0,L|368:281,1,50
294,294,171209,6,0,L|331:316,1,33.3333333333333
256,300,171309,6,0,L|284:334,1,33.3333333333333
219,294,171409,6,0,L|233:335,1,33.3333333333333
186,275,171509,6,0,L|186:318,1,33.3333333333333
162,247,171609,6,0,L|146:287,1,33.3333333333333
120,180,171809,1,0,0:0:0:0:
168,160,171884,1,0,0:0:0:0:
200,124,171959,1,0,0:0:0:0:
236,88,172034,2,0,P|256:76|288:84,1,50
376,136,172184,1,0,0:0:0:0:
376,136,172259,1,0,0:0:0:0:
376,136,172334,2,0,L|324:188,1,50
308,212,172484,2,0,B|288:224|264:216|240:232,1,50
212,232,172634,2,0,P|176:240|160:228,1,50
76,160,172784,1,0,0:0:0:0:
76,160,172859,1,0,0:0:0:0:
76,160,172934,2,0,L|128:140,1,50
172,124,173084,1,0,0:0:0:0:
219,111,173159,1,0,0:0:0:0:
372,224,173309,1,0,0:0:0:0:
372,224,173384,1,0,0:0:0:0:
372,224,173459,2,0,L|304:224,1,50
152,280,173609,1,0,0:0:0:0:
104,269,173684,1,0,0:0:0:0:
73,231,173759,1,0,0:0:0:0:
74,182,173834,1,0,0:0:0:0:
106,145,173909,1,0,0:0:0:0:
152,172,173984,1,0,0:0:0:0:
199,184,174059,1,0,0:0:0:0:
248,175,174134,1,0,0:0:0:0:
284,140,174209,2,0,L|340:152,1,50
444,216,174359,1,0,0:0:0:0:
444,216,174434,1,0,0:0:0:0:
444,216,174509,2,0,L|376:220,1,50
364,228,174659,1,0,0:0:0:0:
324,257,174734,1,0,0:0:0:0:
275,263,174809,1,0,0:0:0:0:
224,268,174884,1,0,0:0:0:0:
176,281,174959,1,0,0:0:0:0:
127,271,175034,1,0,0:0:0:0:
88,241,175109,1,0,0:0:0:0:
60,192,175184,1,0,0:0:0:0:
60,144,175259,2,0,L|136:128,1,50
244,104,175409,1,0,0:0:0:0:
244,104,175484,1,0,0:0:0:0:
244,104,175559,2,0,L|248:168,1,50
256,204,175709,1,0,0:0:0:0:
256,252,175784,1,0,0:0:0:0:
221,286,175859,1,0,0:0:0:0:
173,284,175934,1,0,0:0:0:0:
132,280,176009,2,0,P|96:256|96:236,1,50
100,132,176159,2,0,P|128:116|144:120,1,50
300,120,176309,2,0,B|284:140|292:152|268:172,1,50
244,256,176459,2,0,P|216:280|256:304,1,50
260,312,176609,1,0,0:0:0:0:
301,338,176684,1,0,0:0:0:0:
351,340,176759,1,0,0:0:0:0:
395,318,176834,1,0,0:0:0:0:
423,277,176909,1,0,0:0:0:0:
427,228,176984,1,0,0:0:0:0:
406,183,177059,1,0,0:0:0:0:
366,154,177134,1,0,0:0:0:0:
316,149,177209,1,0,0:0:0:0:
268,144,177284,1,0,0:0:0:0:
218,145,177359,1,0,0:0:0:0:
168,148,177434,1,0,0:0:0:0:
120,152,177509,2,0,L|32:140,1,50
40,140,177659,2,0,P|16:184|32:208,1,50
48,320,177809,1,0,0:0:0:0:
48,320,177884,1,0,0:0:0:0:
48,320,177959,1,0,0:0:0:0:
48,320,178034,1,0,0:0:0:0:
48,320,178109,1,0,0:0:0:0:
48,320,178184,1,0,0:0:0:0:
48,320,178259,2,0,L|116:292,1,50
180,212,178409,1,0,0:0:0:0:
180,212,178484,1,0,0:0:0:0:
180,212,178559,1,0,0:0:0:0:
180,212,178634,1,0,0:0:0:0:
180,212,178709,1,0,0:0:0:0:
180,212,178784,1,0,0:0:0:0:
180,212,178859,2,0,L|248:204,1,60.0000022888184
400,184,179009,1,0,0:0:0:0:
400,184,179084,1,0,0:0:0:0:
400,184,179159,1,0,0:0:0:0:
400,184,179234,1,0,0:0:0:0:
400,184,179309,1,0,0:0:0:0:
400,184,179384,1,0,0:0:0:0:
400,184,179459,1,0,0:0:0:0:
400,184,179534,1,0,0:0:0:0:
400,184,179609,1,0,0:0:0:0:
408,232,179684,1,0,0:0:0:0:
395,280,179759,1,0,0:0:0:0:
364,319,179834,1,0,0:0:0:0:
319,340,179909,1,0,0:0:0:0:
270,342,179984,1,0,0:0:0:0:
224,322,180059,1,0,0:0:0:0:
191,285,180134,1,0,0:0:0:0:
176,238,180209,1,0,0:0:0:0:
96,188,180359,2,0,L|116:168,4,25
148,76,180659,2,0,P|200:96|212:160,1,100
240,252,180959,2,0,P|248:184|316:44,1,200
420,92,181409,5,0,0:0:0:0:
395,135,181484,1,0,0:0:0:0:
357,166,181559,1,0,0:0:0:0:
320,200,181634,1,0,0:0:0:0:
293,242,181709,1,0,0:0:0:0:
280,292,181784,1,0,0:0:0:0:
241,323,181859,1,0,0:0:0:0:
193,334,181934,1,0,0:0:0:0:
145,322,182009,1,0,0:0:0:0:
108,289,182084,1,0,0:0:0:0:
90,243,182159,1,0,0:0:0:0:
95,194,182234,1,0,0:0:0:0:
121,152,182309,1,0,0:0:0:0:
164,127,182384,1,0,0:0:0:0:
204,124,182459,1,0,0:0:0:0:
252,136,182534,1,0,0:0:0:0:
244,180,182609,1,0,0:0:0:0:
237,228,182684,1,0,0:0:0:0:
254,275,182759,1,0,0:0:0:0:
291,307,182834,1,0,0:0:0:0:
340,316,182909,6,0,L|416:312,3,50
377,279,183209,6,0,L|447:250,3,50
392,220,183509,1,0,0:0:0:0:
374,173,183584,1,0,0:0:0:0:
338,140,183659,1,0,0:0:0:0:
290,126,183734,1,0,0:0:0:0:
242,136,183809,1,0,0:0:0:0:
203,167,183884,1,0,0:0:0:0:
196,216,183959,1,0,0:0:0:0:
160,250,184034,1,0,0:0:0:0:
112,260,184109,1,0,0:0:0:0:
65,242,184184,1,0,0:0:0:0:
36,203,184259,1,0,0:0:0:0:
31,154,184334,1,0,0:0:0:0:
68,123,184409,2,0,L|140:87,3,50
168,79,184709,2,0,L|236:67,3,50
261,74,185009,5,0,0:0:0:0:
310,71,185084,1,0,0:0:0:0:
351,99,185159,1,0,0:0:0:0:
368,145,185234,1,0,0:0:0:0:
355,192,185309,1,0,0:0:0:0:
317,223,185384,1,0,0:0:0:0:
268,226,185459,1,0,0:0:0:0:
227,200,185534,1,0,0:0:0:0:
186,175,185609,1,0,0:0:0:0:
149,145,185684,1,0,0:0:0:0:
102,140,185759,1,0,0:0:0:0:
59,162,185834,1,0,0:0:0:0:
36,203,185909,1,0,0:0:0:0:
38,250,185984,1,0,0:0:0:0:
66,288,186059,1,0,0:0:0:0:
111,305,186134,1,0,0:0:0:0:
159,310,186209,1,4,0:0:0:0:
197,281,186284,1,0,0:0:0:0:
244,273,186359,1,0,0:0:0:0:
287,291,186434,1,0,0:0:0:0:
312,316,186509,2,0,L|308:388,2,47.9999985351563
360,316,186734,1,0,0:0:0:0:
405,303,186809,1,0,0:0:0:0:
432,264,186884,1,0,0:0:0:0:
429,218,186959,1,0,0:0:0:0:
396,183,187034,1,0,0:0:0:0:
348,180,187109,1,0,0:0:0:0:
302,193,187184,1,0,0:0:0:0:
254,195,187259,1,0,0:0:0:0:
207,183,187334,1,0,0:0:0:0:
160,192,187409,2,0,L|176:244,2,47.9999985351563,4|0|0,0:0|0:0|0:0,0:0:0:0:
120,200,187634,1,0,0:0:0:0:
73,195,187709,1,0,0:0:0:0:
49,155,187784,1,0,0:0:0:0:
65,112,187859,1,0,0:0:0:0:
109,97,187934,1,0,0:0:0:0:
156,88,188009,2,0,L|172:140,2,47.9999985351563,4|0|0,0:0|0:0|0:0,0:0:0:0:
204,80,188234,1,0,0:0:0:0:
250,71,188309,1,0,0:0:0:0:
297,81,188384,1,0,0:0:0:0:
337,107,188459,1,0,0:0:0:0:
363,147,188534,1,0,0:0:0:0:
380,192,188609,1,0,0:0:0:0:
234,243,188759,1,0,0:0:0:0:
261,92,188909,1,0,0:0:0:0:
363,254,189059,1,0,0:0:0:0:
211,225,189209,1,0,0:0:0:0:
310,107,189359,1,0,0:0:0:0:
318,299,189509,1,0,0:0:0:0:
200,198,189659,1,0,0:0:0:0:
192,128,189809,2,0,L|225:161,1,47.9999985351563
320,256,189959,2,0,L|286:222,1,47.9999985351563
165,184,190109,2,0,L|213:188,1,47.9999985351563
346,199,190258,2,0,L|298:195,1,47.9999985351563
181,243,190409,2,0,L|221:216,1,47.9999985351563
330,140,190559,2,0,L|290:167,1,47.9999985351563
47,98,195809,5,0,0:0:0:0:
55,148,195884,1,0,0:0:0:0:
82,192,195959,1,0,0:0:0:0:
125,221,196034,1,0,0:0:0:0:
176,231,196109,1,0,0:0:0:0:
226,220,196184,1,0,0:0:0:0:
268,189,196259,1,0,0:0:0:0:
294,145,196334,1,0,0:0:0:0:
301,94,196409,1,0,0:0:0:0:
304,47,196484,1,0,0:0:0:0:
340,10,196559,1,0,0:0:0:0:
390,0,196634,1,0,0:0:0:0:
439,12,196709,1,0,0:0:0:0:
474,49,196784,1,0,0:0:0:0:
486,99,196859,1,0,0:0:0:0:
470,148,196934,1,0,0:0:0:0:
471,200,197009,2,0,L|521:242,1,51.999997619629
411,216,197159,2,0,L|443:272,1,51.999997619629
370,256,197309,2,0,L|381:320,1,51.999997619629
325,298,197459,2,0,L|313:362,1,51.999997619629
268,321,197609,2,0,L|235:377,1,51.999997619629
207,324,197759,2,0,L|156:365,1,51.999997619629
158,303,197909,2,0,L|96:325,1,51.999997619629
120,267,198059,2,0,L|54:266,1,51.999997619629
19,239,198209,1,0,0:0:0:0:
29,184,198284,1,0,0:0:0:0:
62,139,198359,1,0,0:0:0:0:
110,112,198434,1,0,0:0:0:0:
166,109,198509,1,0,0:0:0:0:
218,129,198584,1,0,0:0:0:0:
256,169,198659,1,0,0:0:0:0:
287,215,198734,1,0,0:0:0:0:
319,259,198809,1,0,0:0:0:0:
371,275,198884,1,0,0:0:0:0:
423,255,198959,1,0,0:0:0:0:
451,208,199034,1,0,0:0:0:0:
445,154,199109,1,0,0:0:0:0:
407,114,199184,1,0,0:0:0:0:
353,106,199259,1,0,0:0:0:0:
305,133,199334,1,0,0:0:0:0:
256,169,199409,2,0,P|214:142|201:152,1,55.9999982910157
234,184,199559,2,0,P|194:214|199:230,1,55.9999982910157
241,209,199709,2,0,P|256:257|272:257,1,55.9999982910157
267,211,199859,2,0,P|317:214|323:199,1,55.9999982910157
278,188,200009,2,0,P|297:141|285:130,1,55.9999982910157
259,169,200159,2,0,P|223:135|208:143,1,55.9999982910157
236,180,200309,2,0,P|191:203|193:219,1,55.9999982910157
238,206,200459,2,0,P|244:256|260:259,1,55.9999982910157
269,302,200609,1,0,0:0:0:0:
323,313,200684,1,0,0:0:0:0:
374,294,200759,1,0,0:0:0:0:
408,250,200834,1,0,0:0:0:0:
413,195,200909,1,0,0:0:0:0:
387,146,200984,1,0,0:0:0:0:
340,118,201059,1,0,0:0:0:0:
284,121,201134,1,0,0:0:0:0:
239,152,201209,1,0,0:0:0:0:
191,188,201284,1,0,0:0:0:0:
138,204,201359,1,0,0:0:0:0:
87,184,201434,1,0,0:0:0:0:
61,136,201509,1,0,0:0:0:0:
81,84,201584,1,0,0:0:0:0:
134,68,201659,1,0,0:0:0:0:
185,88,201734,1,0,0:0:0:0:
211,136,201809,1,0,0:0:0:0:
194,188,201884,1,0,0:0:0:0:
174,239,201959,1,0,0:0:0:0:
182,294,202034,1,0,0:0:0:0:
214,339,202109,1,0,0:0:0:0:
264,364,202184,1,0,0:0:0:0:
319,362,202259,1,0,0:0:0:0:
367,335,202334,1,0,0:0:0:0:
376,304,202409,2,0,L|368:232,1,55.9999982910157
328,156,202559,2,0,L|260:148,1,55.9999982910157
176,148,202709,2,0,L|132:200,1,55.9999982910157
159,273,202859,2,0,B|234:302|212:293|212:293|211:294,1,55.9999982910157
316,292,203009,2,0,L|352:228,1,55.9999982910157
360,188,203159,1,0,0:0:0:0:
361,132,203234,1,0,0:0:0:0:
333,85,203309,1,0,0:0:0:0:
284,59,203384,1,0,0:0:0:0:
229,63,203459,1,0,0:0:0:0:
184,96,203534,1,0,0:0:0:0:
164,147,203609,1,0,0:0:0:0:
160,200,203684,1,0,0:0:0:0:
163,254,203759,1,0,0:0:0:0:
130,299,203834,1,0,0:0:0:0:
77,312,203909,1,0,0:0:0:0:
28,287,203984,1,0,0:0:0:0:
6,237,204059,1,0,0:0:0:0:
21,184,204134,1,0,0:0:0:0:
56,140,204209,2,0,L|120:96,1,55.9999982910157
152,76,204359,2,0,P|184:72|192:72,4,27.9999991455078
428,108,205409,5,0,0:0:0:0:
430,162,205484,1,0,0:0:0:0:
390,198,205559,1,0,0:0:0:0:
336,190,205634,1,0,0:0:0:0:
309,143,205709,1,0,0:0:0:0:
296,88,205784,5,0,0:0:0:0:
268,41,205859,1,0,0:0:0:0:
214,33,205934,1,0,0:0:0:0:
174,69,206009,1,0,0:0:0:0:
176,123,206084,1,0,0:0:0:0:
204,170,206159,1,0,0:0:0:0:
248,208,206234,1,0,0:0:0:0:
302,203,206309,1,0,0:0:0:0:
349,233,206384,1,0,0:0:0:0:
368,285,206459,1,0,0:0:0:0:
368,340,206534,1,0,0:0:0:0:
312,350,206609,2,0,L|236:342,3,55.9999982910157
200,316,206909,1,0,0:0:0:0:
145,305,206984,1,0,0:0:0:0:
109,264,207059,1,0,0:0:0:0:
107,209,207134,1,0,0:0:0:0:
112,160,207209,2,0,P|112:136|144:112,3,55.9999982910157
176,76,207509,1,0,0:0:0:0:
225,52,207584,1,0,0:0:0:0:
280,62,207659,1,0,0:0:0:0:
318,102,207734,1,0,0:0:0:0:
356,144,207809,2,0,P|372:172|356:196,3,55.9999982910157
359,247,208109,1,0,0:0:0:0:
319,285,208184,1,0,0:0:0:0:
264,292,208259,1,0,0:0:0:0:
217,264,208334,1,0,0:0:0:0:
180,221,208409,1,0,0:0:0:0:
160,169,208484,1,0,0:0:0:0:
118,133,208559,1,0,0:0:0:0:
63,125,208634,1,0,0:0:0:0:
9,139,208709,2,0,L|45:195,1,55.9999982910157
15,269,208859,2,0,L|74:300,1,55.9999982910157
86,379,209009,2,0,L|153:376,1,55.9999982910157
304,304,209159,2,0,L|237:307,1,55.9999982910157
77,266,209309,2,0,L|143:262,1,55.9999982910157
295,191,209459,2,0,L|228:194,1,55.9999982910157
68,154,209609,2,0,L|134:150,1,55.9999982910157
286,79,209759,2,0,L|219:82,1,55.9999982910157
174,88,209909,1,0,0:0:0:0:
119,88,209984,1,0,0:0:0:0:
80,127,210059,1,0,0:0:0:0:
78,181,210134,1,0,0:0:0:0:
94,234,210209,1,0,0:0:0:0:
137,199,210284,1,0,0:0:0:0:
190,182,210359,1,0,0:0:0:0:
246,185,210434,1,0,0:0:0:0:
297,207,210509,1,0,0:0:0:0:
337,246,210584,1,0,0:0:0:0:
373,289,210659,1,0,0:0:0:0:
392,338,210734,1,0,0:0:0:0:
358,379,210809,1,0,0:0:0:0:
306,368,210884,1,0,0:0:0:0:
291,317,210959,1,0,0:0:0:0:
292,265,211034,1,0,0:0:0:0:
290,209,211109,1,0,0:0:0:0:
311,158,211184,1,0,0:0:0:0:
352,119,211259,1,0,0:0:0:0:
404,101,211334,1,0,0:0:0:0:
448,97,211409,2,0,L|465:163,3,55.9999982910157
474,205,211709,1,0,0:0:0:0:
491,257,211784,1,0,0:0:0:0:
469,308,211859,1,0,0:0:0:0:
420,332,211934,1,0,0:0:0:0:
369,322,212009,2,0,L|310:313,3,55.9999982910157
258,303,212309,1,0,0:0:0:0:
204,292,212384,1,0,0:0:0:0:
167,251,212459,1,0,0:0:0:0:
162,196,212534,1,0,0:0:0:0:
192,150,212609,1,0,0:0:0:0:
313,122,212759,1,0,0:0:0:0:
340,242,212909,1,0,0:0:0:0:
220,270,213059,1,0,0:0:0:0:
230,95,213209,1,0,0:0:0:0:
371,173,213359,1,0,0:0:0:0:
293,313,213509,1,0,0:0:0:0:
153,236,213659,1,0,0:0:0:0:
293,313,213809,2,0,P|317:334|353:324,1,55.9999982910157
377,154,213959,2,0,P|398:131|388:95,1,55.9999982910157
237,77,214109,2,0,P|213:56|177:66,1,55.9999982910157
141,211,214259,2,0,P|120:234|130:270,1,55.9999982910157
368,251,214409,2,0,P|399:249|417:216,1,55.9999982910157
315,79,214559,2,0,P|313:48|280:30,1,55.9999982910157
161,124,214709,2,0,P|130:125|111:158,1,55.9999982910157
188,286,214859,2,0,P|189:317|222:336,1,55.9999982910157
368,251,215009,2,0,P|337:195|221:201,1,167.999994873047
205,193,215309,1,0,0:0:0:0:
152,177,215384,1,0,0:0:0:0:
106,206,215459,1,0,0:0:0:0:
98,260,215534,1,0,0:0:0:0:
133,302,215609,1,0,0:0:0:0:
187,303,215684,1,0,0:0:0:0:
224,264,215759,1,0,0:0:0:0:
245,215,215834,1,0,0:0:0:0:
243,159,215909,1,0,0:0:0:0:
271,112,215984,1,0,0:0:0:0:
320,86,216059,1,0,0:0:0:0:
375,89,216134,1,0,0:0:0:0:
426,113,216209,2,0,L|437:169,3,55.9999982910157
448,231,216509,1,0,0:0:0:0:
444,286,216584,1,0,0:0:0:0:
412,331,216659,1,0,0:0:0:0:
361,353,216734,1,0,0:0:0:0:
306,345,216809,1,0,0:0:0:0:
263,310,216884,1,0,0:0:0:0:
245,258,216959,1,0,0:0:0:0:
256,204,217034,1,0,0:0:0:0:
242,149,217109,1,0,0:0:0:0:
219,98,217184,1,0,0:0:0:0:
172,70,217259,1,0,0:0:0:0:
117,74,217334,1,0,0:0:0:0:
70,104,217409,2,0,P|60:144|87:154,3,55.9999982910157
109,192,217709,1,0,0:0:0:0:
164,190,217784,1,0,0:0:0:0:
220,198,217859,1,0,0:0:0:0:
273,215,217934,1,0,0:0:0:0:
323,241,218009,1,0,0:0:0:0:
368,274,218084,1,0,0:0:0:0:
396,320,218159,1,0,0:0:0:0:
449,332,218234,1,0,0:0:0:0:
494,300,218309,1,0,0:0:0:0:
502,246,218384,1,0,0:0:0:0:
468,204,218459,1,0,0:0:0:0:
413,200,218534,1,0,0:0:0:0:
367,192,218609,2,0,P|293:173|286:166,3,55.9999982910157
260,163,218909,1,0,0:0:0:0:
216,131,218984,1,0,0:0:0:0:
160,128,219059,1,0,0:0:0:0:
112,155,219134,1,0,0:0:0:0:
87,204,219209,1,0,0:0:0:0:
92,259,219284,1,0,0:0:0:0:
126,303,219359,1,0,0:0:0:0:
178,321,219434,1,0,0:0:0:0:
256,334,219509,1,0,0:0:0:0:
256,334,219584,1,0,0:0:0:0:
256,334,219659,1,0,0:0:0:0:
256,334,219734,1,0,0:0:0:0:
256,334,219809,1,0,0:0:0:0:
310,324,219884,1,0,0:0:0:0:
355,291,219959,1,0,0:0:0:0:
381,242,220034,1,0,0:0:0:0:
381,187,220109,1,0,0:0:0:0:
358,137,220184,1,0,0:0:0:0:
314,102,220259,1,0,0:0:0:0:
260,91,220334,1,0,0:0:0:0:
204,80,220409,2,0,L|143:68,3,55.9999982910157
92,74,220709,1,0,0:0:0:0:
53,113,220784,1,0,0:0:0:0:
34,166,220859,1,0,0:0:0:0:
40,221,220934,1,0,0:0:0:0:
68,269,221009,1,0,0:0:0:0:
114,300,221084,1,0,0:0:0:0:
169,308,221159,1,0,0:0:0:0:
223,293,221234,1,0,0:0:0:0:
263,269,221309,1,0,0:0:0:0:
282,217,221384,1,0,0:0:0:0:
328,187,221459,1,0,0:0:0:0:
383,191,221534,1,0,0:0:0:0:
439,193,221609,2,0,P|452:166|427:146,3,55.9999982910157
393,118,221909,1,0,0:0:0:0:
348,86,221984,1,0,0:0:0:0:
293,95,222059,1,0,0:0:0:0:
260,138,222134,1,0,0:0:0:0:
265,192,222209,1,0,0:0:0:0:
276,247,222284,1,0,0:0:0:0:
282,300,222359,1,0,0:0:0:0:
242,336,222434,1,0,0:0:0:0:
187,348,222509,1,0,0:0:0:0:
144,313,222584,1,0,0:0:0:0:
127,260,222659,1,0,0:0:0:0:
144,207,222734,1,0,0:0:0:0:
154,131,222809,2,0,L|235:134,6,55.9999982910157
262,122,223409,2,0,L|206:124,3,55.9999982910157
234,90,223709,2,0,L|182:111,3,55.9999982910157
198,70,224009,2,0,L|156:107,3,55.9999982910157
158,64,224308,2,0,L|131:113,3,55.9999982910157
95,74,224609,1,0,0:0:0:0:
95,129,224684,1,0,0:0:0:0:
119,179,224759,1,0,0:0:0:0:
162,214,224834,1,0,0:0:0:0:
216,228,224909,1,0,0:0:0:0:
271,218,224984,1,0,0:0:0:0:
374,183,225059,2,0,L|397:244,1,55.9999982910157
475,291,225209,2,0,L|444:217,1,55.9999982910157
465,118,225359,1,0,0:0:0:0:
437,69,225434,1,0,0:0:0:0:
394,34,225509,1,0,0:0:0:0:
341,16,225584,1,0,0:0:0:0:
286,18,225659,1,0,0:0:0:0:
234,40,225734,1,0,0:0:0:0:
133,128,225809,2,0,L|189:173,1,55.9999982910157
224,193,225959,1,0,0:0:0:0:
277,211,226034,1,0,0:0:0:0:
331,201,226109,1,0,0:0:0:0:
375,167,226184,1,0,0:0:0:0:
402,65,226259,2,0,L|425:126,1,55.9999982910157
503,173,226409,2,0,L|472:99,1,55.9999982910157
459,70,226559,1,0,0:0:0:0:
410,42,226634,1,0,0:0:0:0:
355,38,226709,1,0,0:0:0:0:
304,60,226784,1,0,0:0:0:0:
267,101,226859,1,0,0:0:0:0:
253,155,226934,1,0,0:0:0:0:
264,209,227009,1,0,0:0:0:0:
296,267,227084,1,0,0:0:0:0:
318,316,227159,1,0,0:0:0:0:
294,365,227234,1,0,0:0:0:0:
241,377,227309,1,0,0:0:0:0:
198,344,227384,1,0,0:0:0:0:
196,290,227459,1,0,0:0:0:0:
196,234,227534,1,0,0:0:0:0:
207,180,227609,1,0,0:0:0:0:
193,126,227684,1,0,0:0:0:0:
157,85,227759,1,0,0:0:0:0:
105,63,227834,1,0,0:0:0:0:
50,67,227909,1,0,0:0:0:0:
307,60,228209,5,0,0:0:0:0:
362,66,228284,1,0,0:0:0:0:
410,94,228359,1,0,0:0:0:0:
443,138,228434,1,0,0:0:0:0:
456,192,228509,1,0,0:0:0:0:
446,247,228584,1,0,0:0:0:0:
416,293,228659,1,0,0:0:0:0:
369,324,228734,1,0,0:0:0:0:
314,333,228809,1,0,0:0:0:0:
260,320,228884,1,0,0:0:0:0:
223,278,228959,1,0,0:0:0:0:
205,225,229034,1,0,0:0:0:0:
167,184,229109,1,0,0:0:0:0:
114,165,229184,1,0,0:0:0:0:
59,166,229259,1,0,0:0:0:0:
20,129,229334,1,0,0:0:0:0:
19,74,229409,1,0,0:0:0:0:
58,36,229484,1,0,0:0:0:0:
113,37,229559,1,0,0:0:0:0:
150,77,229634,1,0,0:0:0:0:
184,122,229709,1,0,0:0:0:0:
215,167,229784,1,0,0:0:0:0:
269,176,229859,1,0,0:0:0:0:
314,145,229934,1,0,0:0:0:0:
323,92,230009,1,0,0:0:0:0:
325,26,230084,1,0,0:0:0:0:
372,0,230159,1,0,0:0:0:0:
424,14,230234,1,0,0:0:0:0:
450,62,230309,1,0,0:0:0:0:
433,114,230384,1,0,0:0:0:0:
405,163,230459,1,0,0:0:0:0:
350,158,230534,1,0,0:0:0:0:
308,194,230609,1,0,0:0:0:0:
303,248,230684,1,0,0:0:0:0:
338,290,230759,1,0,0:0:0:0:
388,317,230834,1,0,0:0:0:0:
411,265,230909,1,0,0:0:0:0:
429,212,230984,1,0,0:0:0:0:
449,160,231059,1,0,0:0:0:0:
468,107,231134,1,0,0:0:0:0:
475,60,231209,1,0,0:0:0:0:
437,19,231284,1,0,0:0:0:0:
386,0,231359,1,0,0:0:0:0:
330,0,231434,1,0,0:0:0:0:
280,21,231509,1,0,0:0:0:0:
243,63,231584,1,0,0:0:0:0:
227,117,231659,1,0,0:0:0:0:
235,172,231734,1,0,0:0:0:0:
