osu file format v14

[General]
AudioFilename: audio.mp3
AudioLeadIn: 0
PreviewTime: 169576
Countdown: 1
SampleSet: Soft
StackLeniency: 0.7
Mode: 0
LetterboxInBreaks: 0
WidescreenStoryboard: 1

[Editor]
Bookmarks: 111294,113019,114219,115419,116619,118419,119019,120219,133419,134619,135209,135219,135434,135659,135819,135884,137019,137619,138219,139494,140619,141894,143019,144294,145419,146619,147219,147819,185019,186219,187419,188019,197019,198219,199419,236619,237069,237594,238044,238494,238794,238944,239094,239619,239994,240444,240894,241194,241344,241494,241944,242394,242844,243219,243594,243744,243894
DistanceSpacing: 1
BeatDivisor: 4
GridSize: 4
TimelineZoom: 2.2

[Metadata]
Title:Vanitas
TitleUnicode:Vanitas
Artist:xi
ArtistUnicode:xi
Creator:Weriko
Version:Easy
Source:
Tags:deathstream, stream, xi, lol, wtf, pp
BeatmapID:1043775
BeatmapSetID:475983

[Difficulty]
HPDrainRate:3
CircleSize:3
OverallDifficulty:7
ApproachRate:7
SliderMultiplier:0.6
SliderTickRate:1

[Events]
//Background and Video events
0,0,"FIVEDIMENSIONAL!.jpg",0,0
//Break Periods
//Storyboard Layer 0 (Background)
//Storyboard Layer 1 (Fail)
//Storyboard Layer 2 (Pass)
//Storyboard Layer 3 (Foreground)
//Storyboard Sound Samples
Sample,177942,0,"hitsound4.wav",70
Sample,177942,0,"hitsound4.wav",70

[TimingPoints]
3809,300,4,2,0,50,1,0
3809,-133.333333333333,4,1,0,50,0,0
7334,-133.333333333333,4,2,0,5,0,0
7409,-133.333333333333,4,1,0,50,0,0
23009,-100,4,2,0,80,0,0
39809,-100,4,2,0,80,0,0
40784,-100,4,2,0,80,0,0
41909,-100,4,2,0,80,0,0
42209,-100,4,2,0,80,0,0
64109,-133.333333333333,4,2,0,80,0,0
71009,-100,4,2,0,80,0,0
72232,-100,4,2,0,80,0,0
74159,-100,4,2,0,80,0,0
75725,-100,4,2,0,80,0,0
77070,-100,4,2,0,80,0,0
86361,-100,4,2,0,80,0,0
99717,-66.6666666666667,4,2,0,80,0,0
102039,-66.6666666666667,4,1,0,80,0,0
102264,-100,4,1,0,80,0,0
102534,-66.6666666666667,4,2,0,80,0,0
112651,-133.333333333333,4,1,0,80,0,0
121409,-133.333333333333,4,1,0,14,0,0
130589,-133.333333333333,4,1,0,80,0,0
147809,-133.333333333333,4,1,0,80,0,0
149609,-100,4,1,0,80,0,0
150209,-80,4,1,0,80,0,0
152770,-83.3333333333333,4,2,0,80,0,0
159509,-133.333333333333,4,2,0,80,0,0
160109,-100,4,2,0,80,0,0
160709,-80,4,2,0,80,0,0
163109,-100,4,2,0,80,0,0
163709,-133.333333333333,4,2,0,80,0,0
164309,-100,4,2,0,80,0,0
164909,-66.6666666666667,4,2,0,80,0,0
166409,-100,4,2,0,80,0,0
171809,-80,4,2,0,80,0,0
173609,-80,4,3,0,80,0,0
174209,-80,4,2,0,80,0,0
174809,-80,4,2,0,80,0,0
175409,-80,4,2,0,80,0,0
176009,-80,4,2,0,80,0,0
178409,-66.6666666666667,4,2,0,80,0,0
179009,-57.1428571428571,4,2,0,80,0,0
179684,-80,4,2,0,80,0,0
181351,-80,4,2,0,80,0,0
183209,-100,4,2,0,80,0,0
184409,-133.333333333333,4,2,0,80,0,0
185009,-83.3333333333333,4,2,0,80,0,0
185909,-83.3333333333333,4,2,0,80,0,0
187709,-83.3333333333333,4,2,0,80,0,0
192209,-200,4,2,0,80,0,0
195627,-71.4285714285714,4,2,0,80,0,1
198209,-71.4285714285714,4,2,0,80,0,1
198809,-71.4285714285714,4,2,0,80,0,1
201509,-71.4285714285714,4,2,0,80,0,1
202109,-80,4,2,0,80,0,1
202326,-62.5,4,2,0,80,0,1
203009,-71.4285714285714,4,2,0,80,0,1
205409,-66.6666666666667,4,2,0,80,0,1
210209,-66.6666666666667,4,2,0,80,0,1
215009,-50,4,2,0,80,0,1
215309,-66.6666666666667,4,2,0,80,0,1
218609,-66.6666666666667,4,2,0,80,0,1
219504,-62.5,4,2,0,80,0,1
220109,-133.333333333333,4,2,0,80,0,1
221309,-66.6666666666667,4,2,0,80,0,1
222809,-76.9230769230769,4,2,0,80,0,1
224609,-66.6666666666667,4,2,0,80,0,1
227909,-100,4,2,0,80,0,1
228209,-58.8235294117647,4,2,0,80,0,1
235409,-50,4,3,0,80,0,0
236609,-133.333333333333,4,3,0,80,0,0
253249,-50,4,2,0,80,0,0

[Colours]
Combo1 : 213,0,106
Combo2 : 128,255,255
Combo3 : 0,206,206
Combo4 : 0,128,255
Combo5 : 255,0,255
Combo6 : 255,0,128

[HitObjects]
192,112,3809,6,0,P|232:92|360:132,1,180.000006866455
442,281,6209,2,0,P|412:324|296:315,1,180.000006866455
172,185,8609,2,0,P|214:124|319:126,1,180.000006866455
338,205,10409,2,0,P|342:249|298:254,1,90.0000034332276
129,295,12209,2,0,P|97:233|105:222,2,90.0000034332276
109,109,14609,2,0,P|141:88|256:143,1,180.000006866455
358,281,17009,2,0,P|317:295|193:255,1,180.000006866455
60,134,19409,2,0,P|112:126|237:169,1,180.000006866455
437,235,23009,6,0,P|425:262|236:285,2,240
202,202,26609,2,0,P|213:153|349:202,2,240
278,294,29609,2,0,P|334:319|392:285,1,120
74,291,32609,2,0,P|75:251|148:233,1,120
259,255,33809,2,0,P|305:261|304:200,1,120
246,97,35009,2,0,P|200:79|158:130,1,120
154,246,36209,2,0,P|175:294|242:277,1,120
336,225,37409,2,0,P|372:184|336:135,1,120
234,79,38609,2,0,P|137:93|134:106,1,120
139,157,39809,2,0,L|203:177,3,60
239,188,41009,2,0,L|306:191,3,60
358,195,42209,2,0,P|386:198|391:231,3,60
391,285,43409,2,0,P|376:319|217:277,1,240
128,278,45059,1,0,0:0:0:0:
124,188,45509,2,0,P|149:153|195:154,1,89.9999999999999
271,197,46409,2,0,P|325:214|339:210,2,60
197,145,47459,2,0,P|148:135|136:168,1,90
113,251,48359,2,0,P|156:261|201:267,1,89.9999999999999
260,260,49109,2,0,L|290:230,2,30
273,349,49859,2,0,P|340:350|361:334,1,90
397,258,50759,2,0,P|420:220|399:178,1,90
343,180,51509,2,0,L|310:168,2,30
350,269,52259,2,0,P|289:242|291:235,1,90
209,200,53159,2,0,P|229:170|248:168,4,45
204,267,54209,2,0,P|253:314|277:312,1,90
359,301,55109,2,0,P|394:306|453:292,1,90
433,205,56009,2,0,P|426:189|387:158,1,60
341,133,56609,2,0,P|272:118|261:132,1,90
183,159,57509,2,0,P|166:186|205:232,1,90
251,300,58409,2,0,P|283:290|312:266,1,60
350,235,59009,2,0,P|379:214|388:154,1,90
330,96,59909,2,0,L|246:149,1,90
181,198,60809,2,0,P|155:225|155:249,1,60
164,305,61409,2,0,P|189:338|243:329,1,90
320,311,62309,2,0,P|386:261|394:250,1,90
171,142,64109,6,0,L|201:140,4,22.5000008583069
239,94,65009,6,0,L|260:116,4,22.5000008583069
320,116,65909,6,0,L|316:146,4,22.5000008583069
354,192,66809,6,0,L|329:209,4,22.5000008583069
318,268,67709,6,0,L|289:259,4,22.5000008583069
237,288,68609,2,0,P|237:319|86:293,1,270.000010299683
86,247,70709,1,0,0:0:0:0:
97,206,71009,2,0,L|129:228,4,30
143,79,71909,2,0,L|146:117,4,30
269,32,72809,2,0,L|242:60,4,30
323,71,73709,2,0,P|389:119|259:295,1,360
207,283,75809,2,0,L|225:307,4,30
191,215,76709,2,0,L|184:244,4,30
233,160,77609,2,0,L|206:173,4,30
303,156,78509,2,0,L|275:144,4,30
313,204,79409,2,0,L|305:176,4,30
283,243,80309,2,0,L|299:219,4,30
234,246,81209,2,0,L|263:243,4,30
