osu file format v14

[General]
AudioFilename: audio.mp3
AudioLeadIn: 0
PreviewTime: 72056
Countdown: 0
SampleSet: Normal
StackLeniency: 0.2
Mode: 0
LetterboxInBreaks: 0
WidescreenStoryboard: 0

[Editor]
Bookmarks: 41538,73263,141021,163090,185159,201711,223780
DistanceSpacing: 0.9
BeatDivisor: 4
GridSize: 32
TimelineZoom: 3.199999

[Metadata]
Title:Valhalla
TitleUnicode:Valhalla
Artist:xi
ArtistUnicode:xi
Creator:Anxient
Version:Afterlife
Source:Groove Coaster 3: Link Fever
Tags:Agartha
BeatmapID:1464891
BeatmapSetID:692288

[Difficulty]
HPDrainRate:7
CircleSize:4.5
OverallDifficulty:9
ApproachRate:9.5
SliderMultiplier:2.4
SliderTickRate:1

[Events]
//Background and Video events
0,0,"__chrono_dragon_and_original_drawn_by_miyai_haruki__0484b19415510374fa40d6429bfa1c7a.jpg",0,0
//Break Periods
2,157773,159807
2,185359,189634
//Storyboard Layer 0 (Background)
//Storyboard Layer 1 (Fail)
//Storyboard Layer 2 (Pass)
//Storyboard Layer 3 (Foreground)
//Storyboard Layer 4 (Overlay)
//Storyboard Sound Samples

[TimingPoints]
332,344.827586206897,4,1,0,50,1,0
56883,-76.9230769230769,4,1,0,50,0,0
59642,-100,4,1,0,50,0,0
67918,-76.9230769230769,4,1,0,50,0,0
72056,-76.9230769230769,4,1,0,50,0,1
96883,-133.333333333333,4,1,0,15,0,0
102400,-133.333333333333,4,1,0,25,0,0
107918,-117.647058823529,4,1,0,40,0,0
116194,-100,4,1,0,50,0,0
118607,-83.3333333333333,4,1,0,50,0,0
118952,-100,4,1,0,50,0,0
129642,-83.3333333333333,4,1,0,50,0,0
129987,-90.9090909090909,4,1,0,50,0,0
141366,-83.3333333333333,4,1,0,50,0,0
160332,-133.333333333333,4,1,0,50,0,0
161021,-117.647058823529,4,1,0,50,0,0
161366,-100,4,1,0,50,0,0
162745,-76.9230769230769,4,1,0,50,0,0
190159,-133.333333333333,4,1,0,15,0,0
196194,-133.333333333333,4,1,0,20,0,0
198952,-133.333333333333,4,1,0,35,0,0
199987,-76.9230769230769,4,1,0,50,0,0
201711,-76.9230769230769,4,1,0,50,0,1
212400,-71.4285714285714,4,1,0,50,0,1
234814,-76.9230769230769,4,1,0,50,0,0

[Colours]
Combo1 : 240,193,255
Combo2 : 71,239,222
Combo3 : 40,242,187

[HitObjects]
124,132,41538,5,0,0:0:0:0:
124,132,42228,1,0,0:0:0:0:
141,123,45245,5,0,0:0:0:0:
141,123,46021,1,0,0:0:0:0:
158,114,48952,5,0,0:0:0:0:
354,270,49814,5,0,0:0:0:0:
256,192,52745,12,0,56366,0:0:0:0:
403,265,56538,6,0,P|411:236|415:206,1,60
306,31,56711,2,0,P|277:22|247:18,1,60
48,202,56883,6,0,L|209:161,1,155.999992858887
338,337,57228,2,0,L|413:356,1,77.9999964294436
479,169,57400,6,0,P|400:135|346:202,1,155.999992858887
178,342,57745,2,0,L|197:266,1,77.9999964294436
9,50,57918,6,0,L|50:211,1,155.999992858887
231,94,58263,2,0,P|242:56|247:18,1,77.9999964294436
178,190,58435,6,0,L|197:265,1,77.9999964294436
338,337,58607,2,0,L|357:261,1,77.9999964294436
479,169,58780,2,0,L|498:244,1,77.9999964294436
314,323,58952,6,0,P|280:244|347:190,1,155.999992858887
357,261,59211,2,0,L|205:299,1,155.999992858887
57,116,59469,1,0,0:0:0:0:
57,116,59642,5,0,0:0:0:0:
60,101,59728,1,0,0:0:0:0:
64,86,59814,1,0,0:0:0:0:
67,72,59900,1,0,0:0:0:0:
71,57,59987,2,0,P|135:20|197:62,1,120
319,196,60332,6,0,P|263:133|186:167,1,180
171,200,60676,2,0,L|200:316,1,120
208,345,60935,1,0,0:0:0:0:
401,244,61107,6,0,P|412:206|417:168,2,60
319,196,61366,2,0,L|272:14,1,160
92,81,61797,2,0,L|77:139,2,60
188,91,62055,6,0,P|182:61|174:32,2,60
171,200,62314,2,0,L|210:355,1,160
394,76,62745,1,0,0:0:0:0:
394,76,62918,6,0,P|388:46|379:17,1,60
312,68,63090,2,0,P|303:96|297:126,2,60
279,40,63349,1,0,0:0:0:0:
512,0,63607,1,0,0:0:0:0:
512,0,63866,5,0,0:0:0:0:
506,22,63952,1,0,0:0:0:0:
500,44,64038,1,0,0:0:0:0:
495,66,64124,1,0,0:0:0:0:
489,88,64210,1,0,0:0:0:0:
483,110,64297,1,0,0:0:0:0:
478,132,64383,1,0,0:0:0:0:
472,155,64469,2,0,P|416:218|339:184,1,180
66,221,64987,6,0,P|113:186|170:199,1,120
187,237,65245,2,0,P|175:264|152:284,2,60
245,109,65504,2,0,P|233:81|210:61,2,60
339,184,65763,6,0,L|382:358,1,180
409,326,66107,1,0,0:0:0:0:
436,294,66194,2,0,L|421:236,3,60
483,110,66538,6,0,L|498:52,1,60
429,13,66711,2,0,L|414:71,1,60
339,184,66883,2,0,L|354:126,1,60
285,87,67056,1,0,0:0:0:0:
285,87,67228,5,0,0:0:0:0:
257,74,67314,1,0,0:0:0:0:
228,74,67400,1,0,0:0:0:0:
201,86,67486,1,0,0:0:0:0:
181,109,67573,1,0,0:0:0:0:
124,96,67659,1,0,0:0:0:0:
77,131,67745,1,0,0:0:0:0:
64,188,67832,1,0,0:0:0:0:
99,235,67918,6,0,L|273:192,1,155.999992858887
281,232,68176,2,0,L|262:307,1,77.9999964294435
454,369,68435,6,0,L|435:293,1,77.9999964294435
498,43,68694,6,0,L|479:118,1,77.9999964294435
353,223,68952,6,0,P|297:160|220:194,1,155.999992858887
198,162,69211,2,0,P|184:126|153:102,1,77.9999964294435
11,292,69469,6,0,L|86:273,1,77.9999964294435
338,326,69728,6,0,L|262:307,1,77.9999964294435
191,235,69900,2,0,P|204:199|235:175,1,77.9999964294435
463,116,70073,2,0,L|506:290,1,155.999992858887
470,293,70332,2,0,L|460:330,7,38.9999982147218
430,356,70676,5,0,0:0:0:0:
353,223,70849,6,0,P|297:160|220:194,1,155.999992858887
198,188,71107,2,0,P|124:200|80:140,1,155.999992858887
81,101,71366,2,0,P|94:65|125:41,1,77.9999964294435
288,73,71538,2,0,L|364:92,2,77.9999964294435
353,223,71797,2,0,L|406:209,5,38.9999982147218
427,203,72056,6,0,L|389:354,1,155.999992858887
179,112,72400,2,0,L|198:188,1,77.9999964294435
293,300,72573,6,0,P|220:288|176:347,1,155.999992858887
86,22,72918,1,0,0:0:0:0:
49,174,73090,1,0,0:0:0:0:
283,79,73263,6,0,P|356:66|400:125,1,155.999992858887
216,263,73607,2,0,L|197:187,1,77.9999964294435
49,174,73780,2,0,P|-10:218|2:291,1,155.999992858887
39,303,74038,2,0,L|48:340,1,38.9999982147218
75,314,74125,6,0,L|226:276,1,155.999992858887
348,224,74383,2,0,L|196:186,1,155.999992858887
86,22,74642,2,0,L|67:97,1,77.9999964294435
297,121,74814,6,0,P|315:19|212:8,1,233.999989288331
185,37,75159,1,0,0:0:0:0:
20,227,75332,2,0,L|38:302,1,77.9999964294435
158,337,75504,6,0,L|196:185,1,155.999992858887
410,277,75763,2,0,L|259:320,1,155.999992858887
233,89,76021,2,0,L|334:187,1,77.9999964294435
359,108,76194,6,0,L|368:145,3,38.9999982147218
440,177,76366,6,0,L|478:26,1,155.999992858887
259,319,76711,2,0,L|239:243,1,77.9999964294435
177,135,76883,6,0,P|164:61|223:17,1,155.999992858887
233,89,77142,2,0,L|195:240,1,155.999992858887
50,321,77400,2,0,L|30:245,1,77.9999964294435
115,43,77573,6,0,P|189:30|233:89,1,155.999992858887
251,164,77832,2,0,P|325:151|369:210,1,155.999992858887
451,231,78090,2,0,L|300:269,1,155.999992858887
424,44,78435,1,0,0:0:0:0:
280,35,78607,1,0,0:0:0:0:
245,18,78693,1,0,0:0:0:0:
207,21,78779,1,0,0:0:0:0:
176,44,78865,1,0,0:0:0:0:
162,80,78952,5,0,0:0:0:0:
116,57,79038,1,0,0:0:0:0:
67,61,79124,1,0,0:0:0:0:
26,91,79211,1,0,0:0:0:0:
34,141,79297,1,0,0:0:0:0:
67,178,79383,1,0,0:0:0:0:
115,195,79469,6,0,L|77:346,1,155.999992858887
350,133,79814,2,0,L|368:208,1,77.9999964294435
393,352,79987,2,0,P|347:293|275:306,1,155.999992858887
479,65,80332,6,0,L|460:140,2,77.9999964294435
322,115,80590,2,0,L|303:39,1,77.9999964294435
89,156,80849,6,0,P|161:142|206:201,1,155.999992858887
44,380,81194,2,0,P|57:344|88:320,1,77.9999964294435
87,320,81366,2,0,L|239:358,1,155.999992858887
510,67,81711,6,0,L|358:105,1,155.999992858887
322,115,81969,2,0,L|331:78,1,38.9999982147218
285,126,82056,2,0,P|268:160|272:198,1,77.9999964294435
480,284,82228,2,0,P|484:245|467:211,1,77.9999964294435
309,353,82400,6,0,P|263:294|191:307,1,155.999992858887
0,384,82745,2,0,L|18:308,1,77.9999964294435
36,232,82918,2,0,L|54:156,1,77.9999964294435
90,4,83090,6,0,L|128:156,1,155.999992858887
340,180,83435,2,0,L|358:104,1,77.9999964294435
217,0,83607,6,0,P|203:73|262:118,1,155.999992858887
512,152,83952,2,0,L|474:304,1,155.999992858887
167,377,84297,6,0,P|225:290|309:353,1,233.999989288331
238,360,84642,1,0,0:0:0:0:
25,53,84814,2,0,L|63:205,1,155.999992858887
73,241,85072,2,0,L|36:232,1,38.9999982147218
84,278,85159,6,0,P|118:295|199:215,1,155.999992858887
200,208,85418,2,0,L|238:360,1,155.999992858887
308,352,85676,2,0,L|289:276,1,77.9999964294435
504,59,85849,6,0,L|469:195,1,77.9999964294435
466,210,86021,1,0,0:0:0:0:
155,154,86194,2,0,P|189:137|270:217,1,155.999992858887
72,383,86538,6,0,L|34:231,1,155.999992858887
192,2,86797,2,0,L|154:154,1,155.999992858887
89,108,87056,2,0,L|70:32,1,77.9999964294435
3,71,87228,6,0,L|12:108,3,38.9999982147218
21,145,87400,5,0,0:0:0:0:
337,55,87573,1,0,0:0:0:0:
289,276,87745,2,0,L|270:200,1,77.9999964294435
348,202,87918,6,0,P|382:185|463:265,1,155.999992858887
330,384,88176,2,0,L|178:346,1,155.999992858887
102,327,88435,2,0,L|83:251,1,77.9999964294435
307,48,88607,6,0,L|269:200,1,155.999992858887
15,245,88866,2,0,P|58:184|130:197,1,155.999992858887
404,176,89125,6,0,P|322:111|269:200,1,233.999989288331
296,225,89469,1,0,0:0:0:0:
499,277,89642,1,0,0:0:0:0:
465,260,89728,1,0,0:0:0:0:
427,264,89814,1,0,0:0:0:0:
396,288,89900,1,0,0:0:0:0:
384,324,89987,5,0,0:0:0:0:
339,301,90073,1,0,0:0:0:0:
290,307,90159,1,0,0:0:0:0:
250,338,90245,1,0,0:0:0:0:
205,360,90332,1,0,0:0:0:0:
156,355,90418,1,0,0:0:0:0:
116,323,90504,6,0,L|154:171,1,155.999992858887
25,0,90849,2,0,L|43:75,1,77.9999964294435
177,29,91021,6,0,P|147:53|135:90,1,77.9999964294435
296,225,91194,1,0,0:0:0:0:
512,37,91366,6,0,L|360:-1,1,155.999992858887
227,194,91711,2,0,P|251:163|287:151,1,77.9999964294435
435,271,91883,1,0,0:0:0:0:
435,271,92228,6,0,L|416:195,1,77.9999964294435
306,76,92400,2,0,L|287:151,1,77.9999964294435
116,352,92573,2,0,P|128:315|158:291,1,77.9999964294435
441,168,92745,6,0,L|459:243,1,77.9999964294435
146,105,93004,5,0,0:0:0:0:
437,56,93176,1,0,0:0:0:0:
459,92,93349,5,0,0:0:0:0:
440,167,93435,1,0,0:0:0:0:
324,384,93607,6,0,L|306:309,1,77.9999964294435
146,105,93780,2,0,L|120:205,2,103.999995239258
212,53,94125,1,0,0:0:0:0:
128,384,94297,1,0,0:0:0:0:
256,192,94383,12,0,95504,0:0:0:0:
256,192,95590,12,0,96883,0:0:0:0:
212,53,97745,6,0,L|182:169,1,90.0000034332277
190,140,98090,1,0,0:0:0:0:
338,230,98263,6,0,P|362:199|420:191,1,90.0000034332277
302,368,98607,2,0,P|278:337|220:329,1,90.0000034332277
230,326,98952,5,0,0:0:0:0:
3,198,99125,2,0,L|185:243,1,180.000006866455
316,142,99642,6,0,L|337:229,1,90.0000034332277
479,223,99987,2,0,L|468:266,2,45.0000017166138
379,115,100332,2,0,P|355:84|260:103,2,120.000004577637
448,231,100964,2,0,L|426:318,1,90.0000034332277
230,325,101538,6,0,L|241:282,1,45.0000017166138
144,110,101711,2,0,L|178:249,1,135.000005149841
146,261,102056,2,0,P|122:230|27:249,1,135.000005149841
21,271,102400,6,0,L|42:358,1,90.0000034332277
283,238,102745,2,0,L|261:325,1,90.0000034332277
144,110,103090,2,0,L|178:249,2,120.000004577637
350,210,103780,6,0,P|326:179|268:171,1,90.0000034332277
468,266,104125,2,0,L|446:353,1,90.0000034332277
458,136,104469,5,0,0:0:0:0:
458,136,104642,1,0,0:0:0:0:
283,237,104814,2,0,P|271:257|254:271,2,45.0000017166138
256,80,105159,6,0,L|278:168,1,90.0000034332277
209,365,105504,2,0,P|185:334|127:326,1,90.0000034332277
77,223,105849,6,0,L|106:106,1,120.000004577637
90,73,106194,2,0,P|46:80|18:114,1,90.0000034332277
256,80,106538,6,0,L|278:168,1,90.0000034332277
449,0,106883,2,0,L|427:87,1,90.0000034332277
405,174,107228,2,0,L|427:87,1,90.0000034332277
426,261,107573,1,0,0:0:0:0:
431,282,107659,1,0,0:0:0:0:
436,304,107745,1,0,0:0:0:0:
442,326,107831,1,0,0:0:0:0:
447,348,107918,6,0,L|342:321,1,102.000001945496
65,226,108263,2,0,L|164:201,1,102.000001945496
217,140,108607,2,0,P|210:96|131:68,2,136.000002593994
55,334,109469,6,0,L|165:305,2,102.000001945496
296,139,109987,1,0,0:0:0:0:
296,161,110073,1,0,0:0:0:0:
289,182,110159,1,0,0:0:0:0:
274,199,110245,1,0,0:0:0:0:
254,210,110332,2,0,L|155:235,1,102.000001945496
427,86,110676,6,0,L|389:233,1,153.000002918243
419,254,111021,2,0,L|320:279,1,102.000001945496
320,279,111366,1,0,0:0:0:0:
217,140,111596,6,0,P|155:118|143:54,2,136.000002593994,0|0|0,0:0|0:0|2:0,0:0:0:0:
478,0,112228,6,0,L|452:98,1,102.000001945496
320,279,112573,2,0,L|307:229,1,51.0000009727478
430,213,112745,6,0,L|389:371,1,153.000002918243
359,346,113090,2,0,L|336:257,2,68.0000012969971
126,325,113435,6,0,P|153:283|201:273,1,102.000001945496
256,78,113780,1,0,0:0:0:0:
281,78,113866,1,0,0:0:0:0:
304,88,113952,1,0,0:0:0:0:
322,106,114038,1,0,0:0:0:0:
332,130,114125,6,0,L|295:272,1,102.000001945496
95,149,114469,1,0,0:0:0:0:
88,124,114555,1,0,0:0:0:0:
82,99,114641,1,0,0:0:0:0:
76,74,114727,1,0,0:0:0:0:
69,50,114814,6,0,L|11:277,1,204.000003890991
18,247,115332,1,0,0:0:0:0:
260,222,115504,6,0,P|287:180|335:170,1,102.000001945496
408,298,115849,2,0,P|380:256|332:246,1,102.000001945496
115,321,116194,6,0,L|145:202,1,120
320,111,116538,2,0,L|335:169,1,60
464,69,116711,2,0,L|449:128,1,60
408,298,116883,2,0,P|380:256|332:246,1,102.000001945496
234,384,117228,6,0,L|218:325,1,60
53,226,117400,2,0,L|68:167,1,60
160,146,117573,6,0,L|144:204,1,60
160,146,117745,2,0,L|175:87,1,60
316,187,117918,6,0,L|331:245,1,60
316,187,118090,2,0,L|300:128,1,60
343,63,118263,2,0,P|391:73|419:136,1,120
115,321,118607,6,0,P|125:272|245:322,1,215.999993408203
218,326,118952,6,0,L|269:123,1,180
234,119,119297,1,0,0:0:0:0:
219,60,119642,6,0,L|233:118,1,60
404,191,119814,2,0,L|419:133,1,60
471,48,119987,6,0,L|426:222,1,180
449,254,120332,2,0,L|434:312,1,60
363,356,120504,5,0,0:0:0:0:
115,321,120676,2,0,L|83:194,1,120
157,48,121021,6,0,P|205:58|233:121,1,120
309,136,121280,2,0,P|260:146|232:209,1,120
283,264,121538,2,0,L|268:322,1,60
426,103,121883,6,0,L|415:143,3,30
458,127,122056,2,0,L|487:243,1,120
486,242,122400,6,0,L|472:301,1,60
268,322,122573,2,0,P|288:267|344:251,1,120
397,309,122832,2,0,L|382:367,1,60
309,136,123090,6,0,L|279:19,1,120
122,63,123349,1,0,0:0:0:0:
114,88,123435,2,0,L|84:204,1,120
8,274,123780,5,0,0:0:0:0:
12,244,123866,1,0,0:0:0:0:
28,220,123952,1,0,0:0:0:0:
54,205,124038,1,0,0:0:0:0:
84,203,124125,2,0,L|98:261,1,60
253,380,124297,2,0,L|267:321,1,60
325,269,124469,6,0,L|313:222,3,30
351,261,124642,2,0,L|339:214,3,30
380,243,124814,6,0,L|409:126,1,120
512,384,125159,2,0,L|497:325,1,60
478,131,125332,6,0,P|458:76|403:59,1,120
207,133,125676,2,0,L|192:191,1,60
203,67,125849,1,0,0:0:0:0:
98,261,126021,1,0,0:0:0:0:
319,255,126194,2,0,L|333:196,1,60
217,8,126366,2,0,L|203:67,1,60
107,295,126538,6,0,L|78:178,1,120
234,263,126797,2,0,L|205:380,1,120
435,356,127056,2,0,L|420:297,1,60
448,266,127228,1,0,0:0:0:0:
485,101,127400,6,0,L|472:153,3,30
454,150,127573,2,0,L|425:33,1,120
192,191,127918,2,0,L|215:284,1,60
16,192,128090,6,0,P|35:137|90:120,1,120
312,245,128435,2,0,L|297:303,1,60
340,128,128607,2,0,L|354:69,2,60
206,249,128866,6,0,L|192:191,2,60
402,298,129125,2,0,L|416:356,2,60
461,239,129383,2,0,L|475:180,2,60
258,202,129642,2,0,P|233:137|165:128,1,143.999995605469
160,319,129987,6,0,L|194:178,1,132.00000402832
106,0,130332,1,0,0:0:0:0:
106,0,130504,2,0,L|90:64,1,66.0000020141602
21,103,130676,2,0,L|5:167,1,66.0000020141602
165,128,130849,6,0,P|233:137|258:201,1,143.999995605469
76,350,131194,2,0,P|106:339|139:344,1,66.0000020141602
160,319,131366,6,0,L|194:178,1,132.00000402832
405,151,131711,2,0,L|420:215,1,66.0000020141602
490,164,131883,2,0,L|505:99,1,66.0000020141602
223,62,132056,6,0,L|191:190,1,132.00000402832
410,299,132314,2,0,L|378:170,1,132.00000402832
309,211,132573,2,0,L|324:275,1,66.0000020141602
75,349,132745,6,0,L|91:285,1,66.0000020141602
159,318,132918,2,0,L|144:383,1,66.0000020141602
191,190,133090,2,0,L|159:61,1,132.00000402832
339,5,133435,2,0,P|371:-5|403:0,1,66.0000020141602
293,146,133607,2,0,L|308:210,1,66.0000020141602
457,167,133780,6,0,P|426:156|393:161,1,66.0000020141602
504,308,133952,2,0,L|488:372,1,66.0000020141602
222,318,134125,5,0,0:0:0:0:
214,285,134211,1,0,0:0:0:0:
206,253,134297,1,0,0:0:0:0:
198,221,134383,1,0,0:0:0:0:
190,189,134469,1,0,0:0:0:0:
166,211,134556,1,0,0:0:0:0:
142,234,134642,1,0,0:0:0:0:
119,257,134728,1,0,0:0:0:0:
94,279,134814,5,0,0:0:0:0:
63,222,134900,1,0,0:0:0:0:
64,157,134986,1,0,0:0:0:0:
96,100,135072,1,0,0:0:0:0:
152,67,135158,1,0,0:0:0:0:
217,65,135245,1,0,0:0:0:0:
275,95,135331,1,0,0:0:0:0:
311,150,135417,1,0,0:0:0:0:
315,215,135504,6,0,P|330:210|347:210,7,33.0000010070801
421,233,135849,6,0,L|453:104,1,132.00000402832
206,253,136194,2,0,L|221:317,1,66.0000020141602
295,346,136366,1,0,0:0:0:0:
71,258,136538,6,0,L|55:193,1,66.0000020141602
259,159,136711,2,0,L|275:95,1,66.0000020141602
222,0,136883,2,0,L|190:129,1,132.00000402832
436,297,137228,5,0,0:0:0:0:
428,265,137314,1,0,0:0:0:0:
421,233,137400,1,0,0:0:0:0:
413,200,137486,1,0,0:0:0:0:
405,168,137573,6,0,P|337:177|312:241,1,143.999995605469
237,286,137832,2,0,P|212:222|144:212,1,143.999995605469
102,287,138090,2,0,L|117:351,1,66.0000020141602
0,303,138263,6,0,L|15:238,1,66.0000020141602
67,36,138435,2,0,P|64:20|57:6,3,33.0000010070801
100,64,138607,2,0,P|132:59|188:141,1,132.00000402832
405,168,138952,6,0,L|420:103,1,66.0000020141602
221,221,139125,2,0,L|236:285,1,66.0000020141602
497,214,139297,6,0,L|512:149,1,66.0000020141602
313,267,139470,2,0,L|328:331,1,66.0000020141602
481,384,139642,6,0,L|513:255,1,132.00000402832
373,39,139900,2,0,L|405:168,1,132.00000402832
313,267,140159,2,0,L|297:202,2,66.0000020141602
213,361,140418,6,0,P|185:303|122:296,1,132.00000402832
105,213,140676,2,0,P|162:185|169:122,1,132.00000402832
73,84,141021,5,0,0:0:0:0:
80,116,141107,1,0,0:0:0:0:
88,148,141193,1,0,0:0:0:0:
96,180,141279,1,0,0:0:0:0:
105,213,141366,6,0,P|261:185|217:22,1,359.999989013672
188,24,141883,1,0,0:0:0:0:
169,122,142056,6,0,L|310:86,1,143.999995605469
345,109,142314,1,0,0:0:0:0:
381,131,142400,1,0,0:0:0:0:
295,346,142573,2,0,B|193:296|225:192|225:192|290:196|304:258,1,287.999991210938
483,114,143090,6,0,P|484:150|465:183,1,71.9999978027344
409,369,143263,2,0,P|410:332|391:299,1,71.9999978027344
225,192,143435,2,0,L|85:226,1,143.999995605469
386,0,143780,6,0,L|351:139,1,143.999995605469
187,375,144125,2,0,L|204:305,1,71.9999978027344
186,266,144297,2,0,P|95:274|106:360,1,143.999995605469
23,57,144642,1,0,0:0:0:0:
0,234,144814,1,0,0:0:0:0:
224,25,144987,2,0,L|207:95,1,71.9999978027344
288,218,145159,6,0,P|221:208|185:265,1,143.999995605469
351,139,145504,2,0,L|386:0,1,143.999995605469
477,106,145849,2,0,L|512:245,1,143.999995605469
488,277,146194,6,0,L|470:207,1,71.9999978027344
250,45,146366,2,0,L|232:114,1,71.9999978027344
392,172,146538,6,0,P|301:180|312:266,1,143.999995605469
318,250,146797,1,0,0:0:0:0:
347,281,146883,2,0,P|310:338|243:327,1,143.999995605469
0,234,147228,6,0,L|17:164,1,71.9999978027344
23,57,147400,2,0,L|58:196,1,143.999995605469
115,0,147745,1,0,0:0:0:0:
232,113,147918,6,0,L|371:148,1,143.999995605469
148,333,148263,2,0,L|9:368,1,143.999995605469
16,164,148607,6,0,P|83:175|120:118,1,143.999995605469,0|0,0:0|2:0,0:0:0:0:
161,133,148866,2,0,P|149:200|206:237,1,143.999995605469,0|0,0:0|2:0,0:0:0:0:
192,278,149125,2,0,P|160:262|124:266,1,71.9999978027344
26,47,149297,6,0,L|165:12,1,143.999995605469
16,164,149642,1,0,0:0:0:0:
208,175,149814,6,0,L|347:140,1,143.999995605469
198,292,150159,1,0,0:0:0:0:
390,303,150332,5,0,0:0:0:0:
20,259,150504,1,0,0:0:0:0:
58,327,150676,6,0,L|197:292,1,143.999995605469
393,88,151021,6,0,P|361:72|325:76,1,71.9999978027344
349,140,151194,2,0,P|381:156|417:152,1,71.9999978027344
329,258,151366,6,0,P|313:290|317:326,2,71.9999978027344
488,174,151625,2,0,P|491:138|476:107,2,71.9999978027344
478,384,151883,2,0,L|461:314,1,71.9999978027344
197,291,152056,6,0,B|136:201|28:207|28:207|-2:167|39:100,1,287.999991210938
279,28,152573,2,0,L|244:167,1,143.999995605469
189,375,152918,1,0,0:0:0:0:
258,342,153090,2,0,L|237:258,1,71.9999978027344
27,206,153263,2,0,L|44:136,1,71.9999978027344
0,46,153435,6,0,L|139:11,1,143.999995605469
347,214,153780,2,0,P|310:156|243:167,1,143.999995605469
240,272,154125,2,0,L|258:342,2,71.9999978027344
347,214,154383,2,0,L|364:144,2,71.9999978027344
428,267,154642,1,0,0:0:0:0:
124,315,154814,6,0,B|42:349|-2:284|-2:284|15:187|152:223,1,287.999991210938
341,303,155332,1,0,0:0:0:0:
290,63,155504,6,0,P|300:130|242:166,1,95.9999970703126
58,110,155734,2,0,P|47:177|105:213,1,95.9999970703126
168,108,155964,2,0,L|195:2,1,95.9999970703126
452,94,156194,6,0,L|476:188,1,95.9999970703126
363,209,156423,2,0,L|341:303,1,95.9999970703126
512,384,156653,2,0,P|443:361|372:362,1,95.9999970703126
269,265,156883,6,0,L|234:126,1,95.9999970703126
116,266,157113,2,0,L|92:359,1,95.9999970703126
186,352,157343,5,0,0:0:0:0:
268,15,157573,1,0,0:0:0:0:
368,28,160332,6,0,L|333:167,2,135.000005149841
457,95,161021,2,0,L|422:234,1,102.000001945496
256,248,161366,2,0,L|285:364,1,120
122,94,161711,6,0,L|238:123,1,120
267,102,161969,1,0,0:0:0:0:
296,81,162056,2,0,P|308:37|304:3,1,60
44,78,162228,2,0,P|45:107|55:136,1,60
189,205,162400,6,0,P|177:249|181:283,1,60
441,208,162572,2,0,P|439:178|429:149,1,60
357,196,162745,6,0,L|395:347,1,155.999992858887
52,343,163090,5,0,0:0:0:0:
270,306,163263,1,0,0:0:0:0:
55,136,163435,6,0,L|35:211,1,77.9999964294435
141,18,163694,6,0,L|121:93,1,77.9999964294435
177,263,163952,6,0,L|157:338,1,77.9999964294435
270,306,164125,2,0,L|232:155,1,155.999992858887
497,199,164469,6,0,P|430:188|398:267,1,155.999992858887
191,108,164728,2,0,P|258:97|290:176,1,155.999992858887
157,338,164987,2,0,B|57:304|75:198|75:198|180:182|184:280,1,311.999985717774
345,325,165504,6,0,L|269:305,1,77.9999964294435
395,257,165676,2,0,L|470:237,1,77.9999964294435
330,15,165849,6,0,L|292:166,1,155.999992858887
490,312,166194,6,0,L|470:237,1,77.9999964294435
269,305,166452,6,0,L|249:380,1,77.9999964294435
180,251,166625,2,0,L|160:176,1,77.9999964294435
121,326,166883,6,0,L|159:175,1,155.999992858887
446,44,167228,6,0,P|379:33|347:112,1,155.999992858887
159,174,167487,2,0,P|226:163|258:242,1,155.999992858887
500,323,167745,2,0,B|540:232|458:156|458:156|369:201|404:306,1,311.999985717774
149,368,168263,6,0,L|300:330,1,155.999992858887
75,60,168607,6,0,L|37:211,1,155.999992858887
330,15,168952,6,0,L|255:35,1,77.9999964294435
138,249,169211,6,0,L|158:174,1,77.9999964294435
280,254,169469,6,0,L|300:328,1,77.9999964294435
400,275,169642,2,0,L|438:124,1,155.999992858887
56,293,169987,6,0,P|123:282|155:361,1,155.999992858887
381,195,170245,2,0,P|314:184|282:263,1,155.999992858887
158,173,170504,2,0,B|118:82|200:6|200:6|289:51|254:156,1,311.999985717774
467,213,171021,6,0,P|465:171|446:138,1,77.9999964294435
460,351,171194,2,0,P|418:352|385:371,1,77.9999964294435
127,291,171366,6,0,L|278:253,1,155.999992858887
75,60,171711,6,0,L|0:40,1,77.9999964294435
233,153,171969,6,0,L|157:172,1,77.9999964294435
71,357,172142,2,0,P|37:277|95:213,1,155.999992858887
127,291,172400,2,0,L|278:253,1,155.999992858887
466,33,172745,6,0,P|399:22|367:101,1,155.999992858887
278,252,173004,2,0,P|306:185|379:193,1,155.999992858887
460,351,173263,2,0,L|498:200,1,155.999992858887
236,384,173607,6,0,L|216:308,1,77.9999964294435
166,140,173780,1,0,0:0:0:0:
156,177,173866,1,0,0:0:0:0:
146,215,173952,1,0,0:0:0:0:
137,253,174038,1,0,0:0:0:0:
127,291,174125,6,0,L|107:215,2,77.9999964294435
20,277,174383,2,0,L|0:353,1,77.9999964294435
31,376,174556,1,0,0:0:0:0:
13,171,174728,6,0,P|41:104|114:112,1,155.999992858887
126,140,174987,2,0,L|106:216,1,77.9999964294435
278,252,175159,2,0,L|298:328,1,77.9999964294435
350,134,175332,2,0,L|370:58,1,77.9999964294435
227,81,175504,6,0,P|154:72|125:139,1,155.999992858887
196,268,175763,2,0,P|268:259|297:326,1,155.999992858887
31,376,176021,6,0,L|69:225,1,155.999992858887
207,5,176366,2,0,L|227:81,1,77.9999964294435
369,58,176538,2,0,L|349:134,1,77.9999964294435
498,199,176711,2,0,L|422:219,1,77.9999964294435
448,364,176883,6,0,L|297:326,1,155.999992858887
69,224,177228,2,0,P|71:182|90:149,1,77.9999964294435
150,210,177400,2,0,P|148:252|129:285,2,77.9999964294435
50,0,177659,6,0,L|88:151,1,155.999992858887
330,208,177918,2,0,L|368:57,1,155.999992858887
330,66,178176,2,0,L|320:103,1,38.9999982147218
291,75,178263,6,0,L|253:226,1,155.999992858887
448,364,178521,2,0,P|419:297|347:305,1,155.999992858887
235,384,178780,6,0,L|215:308,3,77.9999964294435
150,265,179125,2,0,L|169:189,1,77.9999964294435
0,37,179297,5,0,0:0:0:0:
34,20,179383,1,0,0:0:0:0:
72,28,179469,1,0,0:0:0:0:
97,56,179555,1,0,0:0:0:0:
100,95,179642,6,0,L|80:170,3,77.9999964294435
319,103,179987,2,0,L|293:3,2,103.999995239258
346,305,180418,6,0,P|317:238|245:246,1,155.999992858887
53,270,180676,2,0,L|79:169,2,103.999995239258
136,259,181021,6,0,L|174:108,1,155.999992858887
307,153,181280,2,0,L|345:304,1,155.999992858887
474,258,181538,2,0,L|512:107,1,155.999992858887
291,4,181883,6,0,L|271:79,1,77.9999964294435
154,32,182056,2,0,L|173:107,1,77.9999964294435
136,259,182228,2,0,L|116:334,1,77.9999964294435
8,332,182400,6,0,L|46:181,1,155.999992858887
244,246,182745,2,0,P|225:281|225:322,1,77.9999964294435
448,261,182918,6,0,L|297:299,1,155.999992858887
153,180,183263,2,0,P|154:141|172:107,1,77.9999964294435
422,117,183435,6,0,L|271:79,1,155.999992858887
35,281,183780,1,0,0:0:0:0:
172,107,183952,6,0,P|154:141|153:180,1,77.9999964294435
448,261,184211,6,0,P|466:294|467:333,1,77.9999964294435
296,299,184383,2,0,L|316:224,1,77.9999964294435
480,15,184642,2,0,P|488:87|421:116,2,155.999992858887
387,384,185159,1,0,0:0:0:0:
387,384,190159,6,0,L|415:279,1,90.0000034332277
370,274,190418,2,0,L|349:195,1,45.0000017166138
396,57,190676,6,0,P|372:99|257:78,1,180.000006866455
181,274,191194,2,0,P|201:234|241:214,1,90.0000034332277
319,351,191538,2,0,P|298:311|258:291,1,90.0000034332277
21,229,191883,6,0,L|55:359,1,135.000005149841
66,315,192228,2,0,L|77:271,1,45.0000017166138
110,172,192400,2,0,P|89:132|49:112,1,90.0000034332277
240,214,192745,6,0,P|306:213|345:161,2,135.000005149841
305,13,193435,6,0,L|270:143,1,135.000005149841
231,119,193780,2,0,L|100:153,1,135.000005149841
55,145,194125,6,0,L|79:236,1,90.0000034332277
122,239,194383,2,0,L|98:325,1,90.0000034332277
87,369,194642,1,0,0:0:0:0:
207,32,194987,6,0,L|230:118,1,90.0000034332277
445,194,195332,2,0,L|463:124,1,45.0000017166138
449,107,195504,2,0,P|383:108|344:160,2,135.000005149841
206,344,196194,6,0,L|240:213,2,135.000005149841
378,29,197228,5,0,0:0:0:0:
370,62,197314,1,0,0:0:0:0:
361,94,197400,1,0,0:0:0:0:
352,127,197486,1,0,0:0:0:0:
344,159,197573,2,0,L|362:228,2,45.0000017166138
230,118,197832,2,0,L|248:48,2,45.0000017166138
195,147,198090,2,0,P|111:161|95:244,2,180.000006866455
355,202,198952,6,0,L|331:288,2,90.0000034332277
285,115,199469,2,0,L|333:297,1,180.000006866455
329,56,199987,6,0,P|256:44|212:103,1,155.999992858887
431,346,200332,6,0,L|458:241,2,77.9999964294435
355,202,200590,2,0,L|327:97,2,77.9999964294435
331,288,200849,2,0,L|226:260,1,77.9999964294435
44,380,201021,6,0,P|57:344|88:320,2,77.9999964294435
85,178,201280,2,0,P|121:191|145:222,1,77.9999964294435
105,70,201452,2,0,L|144:220,1,155.999992858887
315,352,201711,6,0,L|363:170,1,155.999992858887
393,50,202056,1,0,0:0:0:0:
144,220,202228,6,0,P|188:161|262:173,1,155.999992858887
464,310,202573,1,0,0:0:0:0:
315,352,202745,2,0,L|295:276,1,77.9999964294435
500,113,202918,6,0,L|273:53,1,233.999989288331
240,75,203263,1,0,0:0:0:0:
103,350,203435,2,0,L|64:200,1,155.999992858887
104,210,203694,2,0,L|90:157,1,38.9999982147218
143,219,203780,6,0,L|183:370,1,155.999992858887
295,276,204038,2,0,L|334:125,1,155.999992858887
220,0,204297,2,0,L|239:75,1,77.9999964294435
464,310,204469,6,0,P|450:273|420:250,1,77.9999964294435
384,320,204642,1,0,0:0:0:0:
143,219,204814,2,0,L|103:69,1,155.999992858887
451,77,205159,6,0,P|377:64|333:124,1,155.999992858887
259,266,205418,2,0,P|215:206|142:219,1,155.999992858887
168,353,205676,2,0,L|187:278,1,77.9999964294435
0,148,205849,6,0,L|17:215,3,38.9999982147218
40,158,206021,2,0,L|0:308,1,155.999992858887
126,37,206366,2,0,L|145:112,1,77.9999964294435
259,264,206538,6,0,P|332:252|377:312,1,155.999992858887
417,161,206797,2,0,L|377:311,1,155.999992858887
333,124,207056,2,0,L|312:48,1,77.9999964294435
142,312,207228,6,0,P|186:252|259:264,1,155.999992858887
145,112,207487,2,0,P|101:52|28:64,1,155.999992858887
25,264,207745,2,0,L|175:224,1,155.999992858887
483,164,208004,2,0,L|333:124,1,155.999992858887
303,150,208263,2,0,L|323:225,1,77.9999964294435
469,374,208435,2,0,L|489:298,1,77.9999964294435
392,48,208607,5,0,0:0:0:0:
357,29,208693,1,0,0:0:0:0:
319,26,208779,1,0,0:0:0:0:
282,38,208866,1,0,0:0:0:0:
232,65,208952,1,0,0:0:0:0:
179,69,209038,1,0,0:0:0:0:
127,52,209125,6,0,L|167:202,1,155.999992858887
118,384,209469,2,0,L|146:279,1,77.9999964294435
317,267,209642,2,0,P|279:262|244:278,1,77.9999964294435
450,365,209814,1,0,0:0:0:0:
421,144,209987,6,0,L|449:39,1,77.9999964294435
261,211,210159,2,0,L|337:287,1,77.9999964294435
334,383,210332,1,0,0:0:0:0:
282,38,210504,1,0,0:0:0:0:
296,341,210849,6,0,L|324:236,1,77.9999964294435
205,155,211021,2,0,L|281:231,1,77.9999964294435
411,169,211194,2,0,L|306:197,1,77.9999964294435
40,266,211366,6,0,L|115:246,1,77.9999964294435
390,66,211625,6,0,P|316:54|272:113,2,155.999992858887
420,143,212056,2,0,L|496:164,1,77.9999964294435
409,362,212228,2,0,L|333:382,1,77.9999964294435
243,278,212400,2,0,P|283:209|362:219,1,167.999994873047
118,384,212745,6,0,L|70:204,1,167.999994873047
293,31,213090,2,0,L|271:112,1,83.9999974365235
52,139,213263,6,0,P|92:70|171:80,1,167.999994873047
459,211,213607,6,0,P|449:170|419:142,1,83.9999974365235
361,218,213780,2,0,P|351:258|321:286,1,83.9999974365235
55,314,213952,6,0,L|235:362,1,167.999994873047
263,196,214297,2,0,L|241:277,1,83.9999974365235
52,139,214469,2,0,P|92:70|171:80,1,167.999994873047
193,114,214728,2,0,L|182:154,1,41.9999987182618
211,76,214814,6,0,L|391:28,1,167.999994873047
381,314,215073,2,0,L|262:195,1,167.999994873047
503,48,215332,2,0,L|481:129,1,83.9999974365235
262,195,215504,6,0,P|271:154|301:126,1,83.9999974365235
448,218,215676,2,0,L|496:398,1,167.999994873047
148,317,216021,2,0,P|188:326|216:356,1,83.9999974365235
381,136,216194,6,0,P|302:126|262:195,1,167.999994873047
191,54,216452,2,0,P|222:126|301:126,1,167.999994873047
215,260,216711,2,0,P|263:196|223:127,1,167.999994873047
23,292,217056,6,0,L|45:373,1,83.9999974365235
86,194,217228,2,0,L|42:31,1,167.999994873047
215,260,217573,2,0,L|296:281,2,83.9999974365235
224,127,217832,1,0,0:0:0:0:
242,75,217918,1,0,0:0:0:0:
291,51,218004,1,0,0:0:0:0:
343,68,218090,1,0,0:0:0:0:
364,149,218176,1,0,0:0:0:0:
386,229,218263,6,0,P|446:177|430:96,1,167.999994873047
296,281,218521,2,0,L|133:237,1,167.999994873047
68,130,218780,2,0,L|133:373,1,251.999992309571
96,352,219125,1,0,0:0:0:0:
133,237,219297,1,0,0:0:0:0:
143,196,219383,1,0,0:0:0:0:
154,155,219469,1,0,0:0:0:0:
165,115,219555,1,0,0:0:0:0:
176,75,219642,6,0,L|197:156,2,83.9999974365235
38,39,219900,2,0,P|7:67|0:107,2,83.9999974365235
339,118,220159,2,0,L|295:281,1,167.999994873047
512,128,220504,6,0,L|490:46,1,83.9999974365235
384,274,220676,2,0,L|362:355,1,83.9999974365235
339,118,220849,2,0,L|317:36,1,83.9999974365235
133,236,221021,6,0,L|296:280,1,167.999994873047
90,169,221366,2,0,P|59:197|51:237,1,83.9999974365235
173,384,221538,1,0,0:0:0:0:
173,384,221883,6,0,P|142:355|134:315,1,83.9999974365235
251,117,222056,2,0,L|295:280,1,167.999994873047
479,356,222400,6,0,L|509:241,2,83.9999974365235
328,294,222659,2,0,L|306:212,2,83.9999974365235
391,252,222918,2,0,L|369:170,1,83.9999974365235
143,196,223090,6,0,L|112:81,1,83.9999974365235
294,134,223263,2,0,L|315:52,1,83.9999974365235
252,10,223435,2,0,L|231:92,2,83.9999974365235
1,381,223780,6,0,L|164:337,1,167.999994873047
68,40,224125,2,0,P|37:68|30:108,1,83.9999974365235
274,241,224297,6,0,P|222:181|141:197,1,167.999994873047
459,336,224642,2,0,L|480:254,1,83.9999974365235
415,10,224814,2,0,L|436:92,1,83.9999974365235
142,195,224987,6,0,B|206:81|325:69|325:69|363:112|362:164,1,335.999989746094
231,384,225504,2,0,L|68:340,1,167.999994873047
57,299,225763,2,0,L|-15:279,1,41.9999987182618
45,257,225849,6,0,P|-15:205|1:124,1,167.999994873047
185,32,226107,2,0,L|141:195,1,167.999994873047
297,245,226366,2,0,L|318:326,1,83.9999974365235
362,163,226538,5,0,0:0:0:0:
362,163,226625,2,0,L|318:326,1,167.999994873047
276,323,226883,2,0,P|216:271|232:190,1,167.999994873047
512,0,227228,6,0,L|349:44,1,167.999994873047
148,169,227487,2,0,P|167:131|282:125,1,167.999994873047
459,336,227745,2,0,L|415:173,1,167.999994873047
374,185,228004,2,0,L|354:257,1,41.9999987182618
332,197,228090,6,0,L|288:360,1,167.999994873047
103,53,228435,2,0,L|184:31,1,83.9999974365235
202,281,228607,6,0,L|39:237,1,167.999994873047
148,169,228866,2,0,L|229:147,2,83.9999974365235
288,360,229125,1,0,0:0:0:0:
309,278,229211,1,0,0:0:0:0:
331,197,229297,6,0,P|409:181|462:242,1,167.999994873047
346,74,229556,2,0,L|183:30,1,167.999994873047
39,237,229814,2,0,P|92:176|171:192,1,167.999994873047
200,280,230073,2,0,P|147:340|68:325,1,167.999994873047
331,197,230332,2,0,L|352:115,1,83.9999974365235
437,255,230504,2,0,L|458:336,1,83.9999974365235
406,52,230676,5,0,0:0:0:0:
368,33,230762,1,0,0:0:0:0:
327,36,230848,1,0,0:0:0:0:
292,59,230934,1,0,0:0:0:0:
231,28,231021,1,0,0:0:0:0:
165,33,231107,1,0,0:0:0:0:
109,70,231194,6,0,L|153:233,1,167.999994873047
321,384,231538,6,0,L|342:302,1,83.9999974365235
405,55,231711,2,0,P|386:92|351:115,1,83.9999974365235
327,36,231883,1,0,0:0:0:0:
119,311,232056,6,0,P|84:288|65:251,3,83.9999974365235
231,28,232400,2,0,L|210:110,1,83.9999974365235
394,230,232573,2,0,P|315:214|261:274,1,167.999994873047
321,384,232918,6,0,L|342:302,1,83.9999974365235
512,251,233090,2,0,L|491:169,1,83.9999974365235
235,130,233263,2,0,L|256:48,1,83.9999974365235
373,148,233435,6,0,L|394:230,1,83.9999974365235
80,91,233694,5,0,0:0:0:0:
371,42,233866,1,0,0:0:0:0:
53,191,234038,5,0,0:0:0:0:
131,204,234125,1,0,0:0:0:0:
188,257,234211,2,0,L|166:347,2,83.9999974365235
361,213,234469,2,0,L|313:14,1,167.999994873047
400,376,234814,5,0,0:0:0:0:
400,376,235849,1,0,0:0:0:0:
404,355,235935,1,0,0:0:0:0:
409,335,236021,1,0,0:0:0:0:
414,314,236107,1,0,0:0:0:0:
419,294,236193,5,0,0:0:0:0:
