osu file format v14

[General]
AudioFilename: audio.mp3
AudioLeadIn: 0
PreviewTime: -1
Countdown: 0
SampleSet: Soft
StackLeniency: 0.7
Mode: 3
LetterboxInBreaks: 0
SpecialStyle: 0
WidescreenStoryboard: 1

[Editor]
DistanceSpacing: 2.6
BeatDivisor: 8
GridSize: 4
TimelineZoom: 1.9

[Metadata]
Title:To Live
TitleUnicode:To Live
Artist:xi
ArtistUnicode:xi
Creator:BossMadWolf
Version:HTPLN's For Living
Source:
Tags:diverse system rice tech HTPLN
BeatmapID:2247085
BeatmapSetID:1071331

[Difficulty]
HPDrainRate:8
CircleSize:4
OverallDifficulty:8
ApproachRate:5
SliderMultiplier:1.4
SliderTickRate:1

[Events]
//Background and Video events
0,0,"OeclBiw.png",0,0
//Break Periods
//Storyboard Layer 0 (Background)
//Storyboard Layer 1 (Fail)
//Storyboard Layer 2 (Pass)
//Storyboard Layer 3 (Foreground)
//Storyboard Layer 4 (Overlay)
//Storyboard Sound Samples

[TimingPoints]
1160,416.985197025506,4,2,0,10,1,0
1160,-100.622377622378,4,2,0,10,0,0
12705,454.545454545455,4,2,0,10,1,0
12705,-92.3076923076923,4,2,0,10,0,0
13159,434.782608695652,4,2,0,10,1,0
13159,-96.5034965034966,4,2,0,10,0,0
13593,428.571428571429,4,2,0,10,1,0
13593,-97.9020979020979,4,2,0,10,0,0
14878,422.535211267606,4,2,0,10,1,0
14878,-99.3006993006993,4,2,0,10,0,0
17413,434.782608695652,4,2,0,10,1,0
17413,-96.5034965034966,4,2,0,10,0,0
17847,428.571428571429,4,2,0,10,1,0
17847,-97.9020979020979,4,2,0,10,0,0
18704,422.535211267606,4,2,0,10,1,0
18704,-99.3006993006993,4,2,0,10,0,0
20394,428.571428571429,4,2,0,10,1,0
20394,-97.9020979020979,4,2,0,10,0,0
24679,419.58041958042,4,2,0,10,1,0
24679,-100,4,2,0,10,0,0
25937,413.793103448276,4,2,0,10,1,0
25937,-101.398601398601,4,2,0,10,0,0
27178,428.571428571429,4,2,0,10,1,0
27178,-97.9020979020979,4,2,0,10,0,0
28463,416.666666666667,4,2,0,10,1,0
28463,-100.699300699301,4,2,0,10,0,0
29296,408.163265306122,4,2,0,10,1,0
29296,-102.797202797203,4,2,0,10,0,0
30520,413.793103448276,4,2,0,10,1,0
30520,-101.398601398601,4,2,0,10,0,0
32175,431.654676258993,4,2,0,10,1,0
32175,-97.2027972027973,4,2,0,10,0,0
33038,419.58041958042,4,2,0,10,1,0
33038,-100,4,2,0,10,0,0
33457,419.58041958042,4,2,0,10,1,0
33457,-100,4,2,0,10,0,0
33876,413.793103448276,4,2,0,10,1,0
33876,-101.398601398601,4,2,0,10,0,0
38013,428.571428571429,4,2,0,10,1,0
38013,-97.9020979020979,4,2,0,10,0,0
38441,422.535211267606,4,2,0,10,1,0
38441,-99.3006993006993,4,2,0,10,0,0
39286,413.793103448276,4,2,0,10,1,0
39286,-101.398601398601,4,2,0,10,0,0
41768,419.58041958042,4,2,0,10,1,0
41768,-100,4,2,0,10,0,0
45544,410.958904109589,4,2,0,10,1,0
45544,-102.097902097902,4,2,0,10,0,0
46776,416.666666666667,4,2,0,10,1,0
46776,-100.699300699301,4,2,0,10,0,0
89901,461.538461538462,4,2,0,10,1,0
89901,-90.9090909090909,4,2,0,10,0,0
90362,416.666666666667,4,2,0,10,1,0
90362,-100.699300699301,4,2,0,10,0,0
91195,461.538461538462,4,2,0,10,1,0
91195,-90.9090909090909,4,2,0,10,0,0
91656,419.58041958042,4,2,0,10,1,0
91656,-100,4,2,0,10,0,0
173893,416.666666666667,4,2,0,10,1,0
173893,-100.699300699301,4,2,0,10,0,0
199622,441.176470588235,4,2,0,10,1,0
199622,-95.1048951048953,4,2,0,10,0,0
200063,422.535211267606,4,2,0,10,1,0
200063,-99.3006993006993,4,2,0,10,0,0
200908,416.666666666667,4,2,0,10,1,0
200908,-100.699300699301,4,2,0,10,0,0

[HitObjects]
448,192,1160,5,0,0:0:0:0:
320,192,1160,1,0,0:0:0:0:
64,192,3766,1,0,0:0:0:0:
192,192,3766,1,0,0:0:0:0:
448,192,4600,1,0,0:0:0:0:
320,192,4600,1,0,0:0:0:0:
320,192,7988,1,0,0:0:0:0:
64,192,7988,1,0,0:0:0:0:
448,192,9708,1,0,0:0:0:0:
192,192,9708,1,0,0:0:0:0:
64,192,9760,1,0,0:0:0:0:
64,192,11271,1,0,0:0:0:0:
192,192,11271,1,0,0:0:0:0:
448,192,11376,1,0,0:0:0:0:
320,192,11480,1,0,0:0:0:0:
64,192,11480,1,0,0:0:0:0:
320,192,12705,1,0,0:0:0:0:
64,192,12932,1,0,0:0:0:0:
64,192,13045,1,0,0:0:0:0:
448,192,13159,128,0,13267:0:0:0:0:
192,192,13376,1,0,0:0:0:0:
320,192,13376,1,0,0:0:0:0:
64,192,13485,1,0,0:0:0:0:
448,192,13485,1,0,0:0:0:0:
320,192,13593,1,0,0:0:0:0:
64,192,13700,1,0,0:0:0:0:
448,192,13700,1,0,0:0:0:0:
192,192,13807,1,0,0:0:0:0:
320,192,13807,1,0,0:0:0:0:
64,192,14021,128,0,14235:0:0:0:0:
192,192,14128,1,0,0:0:0:0:
448,192,14235,1,0,0:0:0:0:
320,192,14343,1,0,0:0:0:0:
192,192,14450,1,0,0:0:0:0:
64,192,14450,1,0,0:0:0:0:
448,192,14557,1,0,0:0:0:0:
320,192,14664,1,0,0:0:0:0:
64,192,14664,1,0,0:0:0:0:
448,192,14771,1,0,0:0:0:0:
192,192,14878,1,0,0:0:0:0:
64,192,14878,1,0,0:0:0:0:
448,192,15089,1,0,0:0:0:0:
64,192,15300,1,0,0:0:0:0:
320,192,15406,1,0,0:0:0:0:
192,192,15617,1,0,0:0:0:0:
448,192,15828,1,0,0:0:0:0:
64,192,16039,1,0,0:0:0:0:
320,192,16145,1,0,0:0:0:0:
448,192,16356,1,0,0:0:0:0:
192,192,16568,1,0,0:0:0:0:
64,192,16990,1,0,0:0:0:0:
320,192,17096,1,0,0:0:0:0:
448,192,17413,1,0,0:0:0:0:
192,192,17413,1,0,0:0:0:0:
64,192,17521,1,0,0:0:0:0:
320,192,17739,1,0,0:0:0:0:
192,192,17847,1,0,0:0:0:0:
448,192,18061,1,0,0:0:0:0:
64,192,18275,1,0,0:0:0:0:
320,192,18275,1,0,0:0:0:0:
192,192,18489,1,0,0:0:0:0:
64,192,18704,1,0,0:0:0:0:
448,192,18809,1,0,0:0:0:0:
320,192,19020,1,0,0:0:0:0:
192,192,19232,1,0,0:0:0:0:
448,192,19443,1,0,0:0:0:0:
320,192,19549,1,0,0:0:0:0:
64,192,19549,128,0,19971:0:0:0:0:
192,192,19760,1,0,0:0:0:0:
448,192,19971,128,0,20288:0:0:0:0:
320,192,19971,1,0,0:0:0:0:
64,192,20182,1,0,0:0:0:0:
320,192,20288,128,0,20608:0:0:0:0:
448,192,20394,1,0,0:0:0:0:
64,192,20501,1,0,0:0:0:0:
192,192,20608,128,0,20929:0:0:0:0:
448,192,20715,1,0,0:0:0:0:
320,192,20822,128,0,21465:0:0:0:0:
448,192,20929,128,0,21251:0:0:0:0:
64,192,20929,1,0,0:0:0:0:
192,192,21144,1,0,0:0:0:0:
64,192,21251,128,0,21465:0:0:0:0:
192,192,21465,128,0,21679:0:0:0:0:
448,192,21465,1,0,0:0:0:0:
320,192,21679,1,0,0:0:0:0:
64,192,21679,1,0,0:0:0:0:
192,192,22108,1,0,0:0:0:0:
448,192,22215,1,0,0:0:0:0:
64,192,22429,1,0,0:0:0:0:
320,192,22644,1,0,0:0:0:0:
192,192,22858,1,0,0:0:0:0:
448,192,22965,1,0,0:0:0:0:
320,192,23179,1,0,0:0:0:0:
64,192,23394,1,0,0:0:0:0:
192,192,23394,1,0,0:0:0:0:
448,192,23715,1,0,0:0:0:0:
320,192,23822,1,0,0:0:0:0:
192,192,24036,1,0,0:0:0:0:
64,192,24144,1,0,0:0:0:0:
320,192,24251,1,0,0:0:0:0:
448,192,24358,128,0,24465:0:0:0:0:
192,192,24572,1,0,0:0:0:0:
64,192,24679,128,0,25028:0:0:0:0:
320,192,24888,1,0,0:0:0:0:
448,192,24958,1,0,0:0:0:0:
320,192,25028,1,0,0:0:0:0:
192,192,25098,1,0,0:0:0:0:
448,192,25098,1,0,0:0:0:0:
64,192,25098,1,0,0:0:0:0:
192,192,25308,1,0,0:0:0:0:
64,192,25518,1,0,0:0:0:0:
320,192,25518,1,0,0:0:0:0:
320,192,25727,1,0,0:0:0:0:
448,192,25937,1,0,0:0:0:0:
192,192,25937,1,0,0:0:0:0:
64,192,26143,1,0,0:0:0:0:
448,192,26350,1,0,0:0:0:0:
320,192,26350,1,0,0:0:0:0:
448,192,26454,1,0,0:0:0:0:
320,192,26454,1,0,0:0:0:0:
64,192,26505,1,0,0:0:0:0:
192,192,26557,1,0,0:0:0:0:
320,192,26609,1,0,0:0:0:0:
64,192,26661,1,0,0:0:0:0:
448,192,26764,1,0,0:0:0:0:
192,192,26764,1,0,0:0:0:0:
320,192,26868,1,0,0:0:0:0:
192,192,26868,1,0,0:0:0:0:
64,192,26971,1,0,0:0:0:0:
448,192,27074,1,0,0:0:0:0:
320,192,27074,1,0,0:0:0:0:
192,192,27178,1,0,0:0:0:0:
64,192,27285,1,0,0:0:0:0:
448,192,27285,1,0,0:0:0:0:
64,192,27392,1,0,0:0:0:0:
320,192,27392,1,0,0:0:0:0:
192,192,27499,1,0,0:0:0:0:
448,192,27606,1,0,0:0:0:0:
320,192,27606,1,0,0:0:0:0:
448,192,27713,1,0,0:0:0:0:
192,192,27820,1,0,0:0:0:0:
192,192,27928,1,0,0:0:0:0:
320,192,28035,1,0,0:0:0:0:
64,192,28035,1,0,0:0:0:0:
448,192,28142,1,0,0:0:0:0:
320,192,28249,1,0,0:0:0:0:
192,192,28249,1,0,0:0:0:0:
64,192,28356,1,0,0:0:0:0:
192,192,28463,1,0,0:0:0:0:
320,192,28463,128,0,28671:0:0:0:0:
448,192,28463,128,0,28567:0:0:0:0:
64,192,28567,1,0,0:0:0:0:
448,192,28671,1,0,0:0:0:0:
64,192,28775,1,0,0:0:0:0:
448,192,28879,1,0,0:0:0:0:
192,192,28879,1,0,0:0:0:0:
320,192,28983,1,0,0:0:0:0:
64,192,28983,1,0,0:0:0:0:
192,192,29088,128,0,29296:0:0:0:0:
320,192,29192,128,0,29296:0:0:0:0:
448,192,29296,128,0,29704:0:0:0:0:
64,192,29296,128,0,29500:0:0:0:0:
320,192,29398,1,0,0:0:0:0:
192,192,29500,1,0,0:0:0:0:
64,192,29602,1,0,0:0:0:0:
320,192,29602,1,0,0:0:0:0:
192,192,29704,1,0,0:0:0:0:
320,192,29806,1,0,0:0:0:0:
64,192,29908,128,0,30112:0:0:0:0:
448,192,29908,1,0,0:0:0:0:
192,192,30010,128,0,30112:0:0:0:0:
448,192,30112,128,0,30520:0:0:0:0:
320,192,30112,128,0,30214:0:0:0:0:
64,192,30214,1,0,0:0:0:0:
192,192,30316,1,0,0:0:0:0:
320,192,30316,1,0,0:0:0:0:
64,192,30418,1,0,0:0:0:0:
320,192,30520,1,0,0:0:0:0:
192,192,30623,1,0,0:0:0:0:
64,192,30623,1,0,0:0:0:0:
448,192,30726,1,0,0:0:0:0:
320,192,30830,1,0,0:0:0:0:
192,192,30933,1,0,0:0:0:0:
64,192,30933,128,0,31244:0:0:0:0:
448,192,30933,128,0,31037:0:0:0:0:
320,192,31037,1,0,0:0:0:0:
192,192,31140,1,0,0:0:0:0:
320,192,31244,128,0,31554:0:0:0:0:
448,192,31244,1,0,0:0:0:0:
64,192,31347,1,0,0:0:0:0:
192,192,31451,1,0,0:0:0:0:
448,192,31451,1,0,0:0:0:0:
64,192,31554,128,0,31623:0:0:0:0:
192,192,31623,128,0,31692:0:0:0:0:
320,192,31692,128,0,31761:0:0:0:0:
64,192,31761,128,0,31968:0:0:0:0:
448,192,31761,128,0,32175:0:0:0:0:
192,192,31864,1,0,0:0:0:0:
320,192,31968,1,0,0:0:0:0:
64,192,32071,1,0,0:0:0:0:
192,192,32175,1,0,0:0:0:0:
320,192,32282,1,0,0:0:0:0:
64,192,32282,1,0,0:0:0:0:
448,192,32390,1,0,0:0:0:0:
192,192,32498,1,0,0:0:0:0:
64,192,32606,128,0,33038:0:0:0:0:
448,192,32606,128,0,32714:0:0:0:0:
320,192,32606,128,0,32822:0:0:0:0:
192,192,32714,1,0,0:0:0:0:
448,192,32822,1,0,0:0:0:0:
320,192,32930,1,0,0:0:0:0:
448,192,33038,1,0,0:0:0:0:
64,192,33142,1,0,0:0:0:0:
192,192,33247,1,0,0:0:0:0:
320,192,33247,1,0,0:0:0:0:
448,192,33352,1,0,0:0:0:0:
192,192,33457,128,0,33561:0:0:0:0:
320,192,33457,128,0,33771:0:0:0:0:
64,192,33457,1,0,0:0:0:0:
448,192,33561,1,0,0:0:0:0:
64,192,33666,1,0,0:0:0:0:
192,192,33666,1,0,0:0:0:0:
448,192,33771,1,0,0:0:0:0:
64,192,33876,1,0,0:0:0:0:
320,192,33876,1,0,0:0:0:0:
192,192,33979,1,0,0:0:0:0:
448,192,34082,1,0,0:0:0:0:
448,192,34186,1,0,0:0:0:0:
320,192,34289,1,0,0:0:0:0:
64,192,34289,1,0,0:0:0:0:
192,192,34393,1,0,0:0:0:0:
448,192,34496,1,0,0:0:0:0:
320,192,34548,1,0,0:0:0:0:
64,192,34600,1,0,0:0:0:0:
192,192,34651,1,0,0:0:0:0:
448,192,34703,1,0,0:0:0:0:
320,192,34703,1,0,0:0:0:0:
64,192,34755,1,0,0:0:0:0:
192,192,34807,1,0,0:0:0:0:
448,192,34858,1,0,0:0:0:0:
64,192,34910,1,0,0:0:0:0:
320,192,34910,1,0,0:0:0:0:
192,192,35013,1,0,0:0:0:0:
64,192,35013,1,0,0:0:0:0:
320,192,35117,1,0,0:0:0:0:
192,192,35117,128,0,35324:0:0:0:0:
448,192,35117,128,0,35220:0:0:0:0:
64,192,35220,1,0,0:0:0:0:
320,192,35324,1,0,0:0:0:0:
448,192,35427,1,0,0:0:0:0:
64,192,35531,1,0,0:0:0:0:
320,192,35531,1,0,0:0:0:0:
192,192,35634,1,0,0:0:0:0:
448,192,35634,1,0,0:0:0:0:
320,192,35738,128,0,35944:0:0:0:0:
192,192,35841,128,0,35944:0:0:0:0:
448,192,35944,128,0,36151:0:0:0:0:
64,192,35944,128,0,36358:0:0:0:0:
192,192,36048,1,0,0:0:0:0:
320,192,36151,1,0,0:0:0:0:
448,192,36255,1,0,0:0:0:0:
192,192,36255,1,0,0:0:0:0:
320,192,36358,1,0,0:0:0:0:
192,192,36462,1,0,0:0:0:0:
448,192,36565,128,0,36772:0:0:0:0:
64,192,36565,1,0,0:0:0:0:
320,192,36669,128,0,36772:0:0:0:0:
64,192,36772,128,0,37160:0:0:0:0:
192,192,36772,128,0,36876:0:0:0:0:
448,192,36876,1,0,0:0:0:0:
320,192,36979,1,0,0:0:0:0:
192,192,36979,1,0,0:0:0:0:
448,192,37082,1,0,0:0:0:0:
192,192,37186,1,0,0:0:0:0:
448,192,37289,1,0,0:0:0:0:
320,192,37289,1,0,0:0:0:0:
64,192,37393,1,0,0:0:0:0:
192,192,37496,1,0,0:0:0:0:
320,192,37600,1,0,0:0:0:0:
448,192,37600,128,0,37910:0:0:0:0:
64,192,37600,128,0,37703:0:0:0:0:
192,192,37703,1,0,0:0:0:0:
320,192,37807,1,0,0:0:0:0:
192,192,37910,128,0,38227:0:0:0:0:
64,192,37910,1,0,0:0:0:0:
448,192,38013,1,0,0:0:0:0:
320,192,38120,1,0,0:0:0:0:
64,192,38120,1,0,0:0:0:0:
448,192,38227,128,0,38298:0:0:0:0:
320,192,38298,128,0,38370:0:0:0:0:
192,192,38370,128,0,38441:0:0:0:0:
448,192,38441,128,0,38652:0:0:0:0:
64,192,38441,128,0,38863:0:0:0:0:
320,192,38546,1,0,0:0:0:0:
192,192,38652,1,0,0:0:0:0:
448,192,38757,1,0,0:0:0:0:
320,192,38863,1,0,0:0:0:0:
192,192,38969,1,0,0:0:0:0:
448,192,38969,1,0,0:0:0:0:
64,192,39074,1,0,0:0:0:0:
320,192,39180,1,0,0:0:0:0:
448,192,39286,128,0,39725:0:0:0:0:
64,192,39286,128,0,39389:0:0:0:0:
192,192,39286,128,0,39492:0:0:0:0:
320,192,39389,1,0,0:0:0:0:
64,192,39492,1,0,0:0:0:0:
192,192,39596,1,0,0:0:0:0:
64,192,39699,1,0,0:0:0:0:
448,192,39803,1,0,0:0:0:0:
320,192,39906,1,0,0:0:0:0:
192,192,39906,1,0,0:0:0:0:
64,192,40010,1,0,0:0:0:0:
320,192,40113,128,0,40217:0:0:0:0:
192,192,40113,128,0,40423:0:0:0:0:
448,192,40113,1,0,0:0:0:0:
64,192,40217,1,0,0:0:0:0:
448,192,40320,1,0,0:0:0:0:
320,192,40320,1,0,0:0:0:0:
64,192,40423,1,0,0:0:0:0:
448,192,40527,1,0,0:0:0:0:
192,192,40527,1,0,0:0:0:0:
320,192,40630,1,0,0:0:0:0:
64,192,40734,1,0,0:0:0:0:
64,192,40837,1,0,0:0:0:0:
448,192,40837,1,0,0:0:0:0:
192,192,40941,1,0,0:0:0:0:
448,192,40941,1,0,0:0:0:0:
320,192,41044,1,0,0:0:0:0:
64,192,41148,1,0,0:0:0:0:
320,192,41251,1,0,0:0:0:0:
448,192,41251,1,0,0:0:0:0:
64,192,41354,1,0,0:0:0:0:
192,192,41354,1,0,0:0:0:0:
448,192,41406,1,0,0:0:0:0:
320,192,41458,1,0,0:0:0:0:
64,192,41510,1,0,0:0:0:0:
448,192,41561,1,0,0:0:0:0:
192,192,41561,1,0,0:0:0:0:
320,192,41665,1,0,0:0:0:0:
448,192,41665,1,0,0:0:0:0:
192,192,41768,1,0,0:0:0:0:
320,192,41768,1,0,0:0:0:0:
64,192,41768,128,0,42187:0:0:0:0:
320,192,42187,128,0,42607:0:0:0:0:
448,192,42187,128,0,42607:0:0:0:0:
192,192,42187,1,0,0:0:0:0:
320,192,42816,1,0,0:0:0:0:
64,192,42816,128,0,43236:0:0:0:0:
192,192,42816,128,0,43236:0:0:0:0:
448,192,43026,1,0,0:0:0:0:
448,192,43131,1,0,0:0:0:0:
320,192,43236,1,0,0:0:0:0:
320,192,43341,1,0,0:0:0:0:
192,192,43446,1,0,0:0:0:0:
64,192,43446,1,0,0:0:0:0:
192,192,43656,128,0,43970:0:0:0:0:
320,192,43656,128,0,43865:0:0:0:0:
448,192,43656,128,0,43865:0:0:0:0:
64,192,43970,128,0,44180:0:0:0:0:
448,192,43970,128,0,44075:0:0:0:0:
320,192,43970,128,0,44180:0:0:0:0:
192,192,44075,128,0,44180:0:0:0:0:
448,192,44180,128,0,44285:0:0:0:0:
64,192,44285,128,0,44600:0:0:0:0:
320,192,44285,128,0,44495:0:0:0:0:
192,192,44285,128,0,44495:0:0:0:0:
192,192,44600,128,0,44914:0:0:0:0:
448,192,44600,128,0,44809:0:0:0:0:
320,192,44600,128,0,44705:0:0:0:0:
64,192,44705,128,0,44809:0:0:0:0:
320,192,44809,128,0,44914:0:0:0:0:
448,192,44914,128,0,45019:0:0:0:0:
64,192,44914,128,0,45124:0:0:0:0:
320,192,44984,128,0,45054:0:0:0:0:
192,192,45054,128,0,45124:0:0:0:0:
448,192,45124,128,0,45544:0:0:0:0:
320,192,45334,1,0,0:0:0:0:
64,192,45544,128,0,45954:0:0:0:0:
192,192,45544,128,0,45852:0:0:0:0:
320,192,45544,128,0,45749:0:0:0:0:
192,192,46160,128,0,46365:0:0:0:0:
320,192,46160,128,0,46468:0:0:0:0:
448,192,46160,1,0,0:0:0:0:
64,192,46365,1,0,0:0:0:0:
448,192,46365,1,0,0:0:0:0:
192,192,46434,1,0,0:0:0:0:
448,192,46502,1,0,0:0:0:0:
64,192,46571,1,0,0:0:0:0:
320,192,46571,1,0,0:0:0:0:
192,192,46639,1,0,0:0:0:0:
448,192,46674,1,0,0:0:0:0:
320,192,46708,1,0,0:0:0:0:
64,192,46776,1,0,0:0:0:0:
192,192,46776,1,0,0:0:0:0:
320,192,46845,1,0,0:0:0:0:
448,192,46914,1,0,0:0:0:0:
64,192,46984,1,0,0:0:0:0:
192,192,46984,1,0,0:0:0:0:
320,192,47053,1,0,0:0:0:0:
192,192,47123,1,0,0:0:0:0:
448,192,47192,1,0,0:0:0:0:
320,192,47262,1,0,0:0:0:0:
448,192,47296,1,0,0:0:0:0:
192,192,47331,1,0,0:0:0:0:
64,192,47401,1,0,0:0:0:0:
448,192,47470,1,0,0:0:0:0:
192,192,47539,1,0,0:0:0:0:
320,192,47609,1,0,0:0:0:0:
64,192,47609,1,0,0:0:0:0:
448,192,47609,1,0,0:0:0:0:
192,192,47713,1,0,0:0:0:0:
320,192,47817,1,0,0:0:0:0:
448,192,47921,1,0,0:0:0:0:
192,192,47921,1,0,0:0:0:0:
64,192,48026,128,0,48442:0:0:0:0:
192,192,48095,1,0,0:0:0:0:
320,192,48164,1,0,0:0:0:0:
448,192,48234,1,0,0:0:0:0:
192,192,48338,1,0,0:0:0:0:
320,192,48442,128,0,48859:0:0:0:0:
448,192,48442,1,0,0:0:0:0:
192,192,48859,128,0,49276:0:0:0:0:
64,192,48859,128,0,49276:0:0:0:0:
448,192,48859,1,0,0:0:0:0:
192,192,49484,1,0,0:0:0:0:
448,192,49484,128,0,49901:0:0:0:0:
320,192,49484,128,0,49901:0:0:0:0:
64,192,49692,1,0,0:0:0:0:
64,192,49796,1,0,0:0:0:0:
192,192,49901,1,0,0:0:0:0:
192,192,50005,1,0,0:0:0:0:
320,192,50109,1,0,0:0:0:0:
448,192,50109,1,0,0:0:0:0:
320,192,50317,128,0,50630:0:0:0:0:
192,192,50317,128,0,50526:0:0:0:0:
64,192,50317,128,0,50526:0:0:0:0:
448,192,50630,128,0,50838:0:0:0:0:
64,192,50630,128,0,50734:0:0:0:0:
192,192,50630,128,0,50838:0:0:0:0:
320,192,50734,128,0,50838:0:0:0:0:
64,192,50838,128,0,50942:0:0:0:0:
448,192,50942,128,0,51255:0:0:0:0:
192,192,50942,128,0,51151:0:0:0:0:
320,192,50942,128,0,51151:0:0:0:0:
320,192,51255,128,0,51567:0:0:0:0:
64,192,51255,128,0,51463:0:0:0:0:
192,192,51255,128,0,51359:0:0:0:0:
448,192,51359,128,0,51463:0:0:0:0:
192,192,51463,128,0,51567:0:0:0:0:
64,192,51567,128,0,51671:0:0:0:0:
448,192,51567,128,0,51776:0:0:0:0:
192,192,51637,128,0,51706:0:0:0:0:
320,192,51706,128,0,51776:0:0:0:0:
192,192,51776,1,0,0:0:0:0:
64,192,51776,1,0,0:0:0:0:
448,192,51880,1,0,0:0:0:0:
192,192,51984,1,0,0:0:0:0:
64,192,51984,1,0,0:0:0:0:
320,192,52053,1,0,0:0:0:0:
448,192,52123,1,0,0:0:0:0:
64,192,52192,128,0,52609:0:0:0:0:
192,192,52192,128,0,52505:0:0:0:0:
320,192,52192,128,0,52401:0:0:0:0:
192,192,52817,128,0,53026:0:0:0:0:
320,192,52817,128,0,53130:0:0:0:0:
448,192,52817,128,0,53234:0:0:0:0:
64,192,53026,1,0,0:0:0:0:
64,192,53130,1,0,0:0:0:0:
320,192,53234,1,0,0:0:0:0:
192,192,53234,1,0,0:0:0:0:
320,192,53338,1,0,0:0:0:0:
64,192,53442,128,0,53755:0:0:0:0:
448,192,53442,1,0,0:0:0:0:
192,192,53755,128,0,54067:0:0:0:0:
320,192,53755,1,0,0:0:0:0:
320,192,54067,128,0,54380:0:0:0:0:
64,192,54067,1,0,0:0:0:0:
448,192,54380,128,0,54692:0:0:0:0:
192,192,54380,1,0,0:0:0:0:
64,192,54692,1,0,0:0:0:0:
192,192,54692,1,0,0:0:0:0:
448,192,54762,1,0,0:0:0:0:
320,192,54831,1,0,0:0:0:0:
192,192,54901,1,0,0:0:0:0:
448,192,54970,1,0,0:0:0:0:
320,192,55039,1,0,0:0:0:0:
192,192,55109,1,0,0:0:0:0:
64,192,55109,1,0,0:0:0:0:
448,192,55213,1,0,0:0:0:0:
64,192,55213,1,0,0:0:0:0:
320,192,55317,1,0,0:0:0:0:
192,192,55421,1,0,0:0:0:0:
448,192,55421,1,0,0:0:0:0:
448,192,55526,1,0,0:0:0:0:
64,192,55526,1,0,0:0:0:0:
320,192,55630,1,0,0:0:0:0:
192,192,55734,1,0,0:0:0:0:
64,192,55734,1,0,0:0:0:0:
192,192,55838,1,0,0:0:0:0:
448,192,55838,128,0,56151:0:0:0:0:
320,192,55942,1,0,0:0:0:0:
64,192,56046,1,0,0:0:0:0:
192,192,56151,1,0,0:0:0:0:
320,192,56151,1,0,0:0:0:0:
448,192,56255,1,0,0:0:0:0:
192,192,56359,1,0,0:0:0:0:
64,192,56359,1,0,0:0:0:0:
320,192,56463,1,0,0:0:0:0:
64,192,56463,1,0,0:0:0:0:
448,192,56567,1,0,0:0:0:0:
192,192,56567,1,0,0:0:0:0:
64,192,56671,128,0,57088:0:0:0:0:
448,192,56671,128,0,56984:0:0:0:0:
320,192,56671,1,0,0:0:0:0:
192,192,56776,1,0,0:0:0:0:
320,192,56880,1,0,0:0:0:0:
192,192,56984,1,0,0:0:0:0:
192,192,57088,128,0,57401:0:0:0:0:
448,192,57088,1,0,0:0:0:0:
320,192,57088,1,0,0:0:0:0:
64,192,57192,1,0,0:0:0:0:
448,192,57192,1,0,0:0:0:0:
320,192,57296,128,0,57401:0:0:0:0:
448,192,57401,128,0,57609:0:0:0:0:
64,192,57401,1,0,0:0:0:0:
192,192,57505,1,0,0:0:0:0:
64,192,57609,128,0,57817:0:0:0:0:
320,192,57609,128,0,57713:0:0:0:0:
448,192,57713,1,0,0:0:0:0:
192,192,57817,128,0,58026:0:0:0:0:
320,192,57817,128,0,57921:0:0:0:0:
448,192,57921,128,0,58130:0:0:0:0:
64,192,58026,128,0,58338:0:0:0:0:
320,192,58130,128,0,58338:0:0:0:0:
192,192,58130,128,0,58234:0:0:0:0:
448,192,58234,128,0,58442:0:0:0:0:
192,192,58338,128,0,58442:0:0:0:0:
320,192,58442,1,0,0:0:0:0:
64,192,58442,1,0,0:0:0:0:
448,192,58546,1,0,0:0:0:0:
192,192,58651,1,0,0:0:0:0:
320,192,58651,1,0,0:0:0:0:
320,192,58755,1,0,0:0:0:0:
64,192,58859,128,0,59067:0:0:0:0:
192,192,58963,1,0,0:0:0:0:
320,192,59067,128,0,59484:0:0:0:0:
448,192,59171,1,0,0:0:0:0:
64,192,59276,128,0,59484:0:0:0:0:
192,192,59276,1,0,0:0:0:0:
448,192,59380,1,0,0:0:0:0:
192,192,59484,128,0,59692:0:0:0:0:
320,192,59588,128,0,59692:0:0:0:0:
64,192,59692,128,0,59901:0:0:0:0:
448,192,59692,128,0,59796:0:0:0:0:
320,192,59796,128,0,59901:0:0:0:0:
448,192,59901,128,0,60005:0:0:0:0:
192,192,59901,128,0,60317:0:0:0:0:
64,192,60005,1,0,0:0:0:0:
320,192,60109,1,0,0:0:0:0:
448,192,60109,128,0,60317:0:0:0:0:
320,192,60317,1,0,0:0:0:0:
64,192,60317,1,0,0:0:0:0:
192,192,60421,1,0,0:0:0:0:
64,192,60421,1,0,0:0:0:0:
448,192,60526,1,0,0:0:0:0:
320,192,60526,1,0,0:0:0:0:
448,192,60630,1,0,0:0:0:0:
192,192,60630,1,0,0:0:0:0:
192,192,60734,1,0,0:0:0:0:
320,192,60838,1,0,0:0:0:0:
64,192,60838,1,0,0:0:0:0:
320,192,60942,1,0,0:0:0:0:
448,192,61046,1,0,0:0:0:0:
64,192,61046,1,0,0:0:0:0:
192,192,61203,1,0,0:0:0:0:
320,192,61255,128,0,61463:0:0:0:0:
448,192,61255,128,0,61671:0:0:0:0:
64,192,61255,128,0,61359:0:0:0:0:
192,192,61359,1,0,0:0:0:0:
64,192,61463,1,0,0:0:0:0:
320,192,61567,1,0,0:0:0:0:
192,192,61671,1,0,0:0:0:0:
448,192,61776,1,0,0:0:0:0:
320,192,61776,1,0,0:0:0:0:
64,192,61776,1,0,0:0:0:0:
192,192,61880,1,0,0:0:0:0:
320,192,61880,1,0,0:0:0:0:
448,192,61984,1,0,0:0:0:0:
192,192,62088,1,0,0:0:0:0:
64,192,62088,1,0,0:0:0:0:
320,192,62192,1,0,0:0:0:0:
64,192,62192,1,0,0:0:0:0:
448,192,62296,1,0,0:0:0:0:
192,192,62401,1,0,0:0:0:0:
320,192,62401,1,0,0:0:0:0:
448,192,62505,1,0,0:0:0:0:
192,192,62505,128,0,62921:0:0:0:0:
64,192,62609,1,0,0:0:0:0:
448,192,62713,1,0,0:0:0:0:
320,192,62713,128,0,62921:0:0:0:0:
64,192,62817,1,0,0:0:0:0:
448,192,62921,1,0,0:0:0:0:
320,192,63026,1,0,0:0:0:0:
192,192,63026,1,0,0:0:0:0:
192,192,63130,1,0,0:0:0:0:
448,192,63130,1,0,0:0:0:0:
320,192,63234,1,0,0:0:0:0:
64,192,63234,1,0,0:0:0:0:
64,192,63338,128,0,63651:0:0:0:0:
448,192,63338,128,0,63546:0:0:0:0:
192,192,63442,1,0,0:0:0:0:
320,192,63546,1,0,0:0:0:0:
448,192,63651,128,0,63755:0:0:0:0:
320,192,63755,1,0,0:0:0:0:
64,192,63755,128,0,64067:0:0:0:0:
320,192,63859,1,0,0:0:0:0:
192,192,63859,1,0,0:0:0:0:
448,192,63963,1,0,0:0:0:0:
192,192,64067,128,0,64276:0:0:0:0:
320,192,64171,1,0,0:0:0:0:
448,192,64276,128,0,64380:0:0:0:0:
64,192,64276,128,0,64484:0:0:0:0:
192,192,64380,128,0,64484:0:0:0:0:
448,192,64484,128,0,64588:0:0:0:0:
320,192,64484,128,0,64692:0:0:0:0:
64,192,64588,128,0,64692:0:0:0:0:
448,192,64692,128,0,64901:0:0:0:0:
192,192,64692,128,0,64796:0:0:0:0:
320,192,64796,128,0,65005:0:0:0:0:
192,192,64901,128,0,65109:0:0:0:0:
64,192,65005,128,0,65109:0:0:0:0:
448,192,65109,128,0,65526:0:0:0:0:
320,192,65109,1,0,0:0:0:0:
192,192,65213,1,0,0:0:0:0:
64,192,65317,1,0,0:0:0:0:
320,192,65317,1,0,0:0:0:0:
192,192,65421,1,0,0:0:0:0:
320,192,65526,128,0,65942:0:0:0:0:
64,192,65526,1,0,0:0:0:0:
448,192,65630,1,0,0:0:0:0:
192,192,65734,1,0,0:0:0:0:
448,192,65838,1,0,0:0:0:0:
64,192,65942,128,0,66359:0:0:0:0:
192,192,65942,1,0,0:0:0:0:
320,192,66046,1,0,0:0:0:0:
192,192,66151,1,0,0:0:0:0:
448,192,66255,1,0,0:0:0:0:
192,192,66359,128,0,66776:0:0:0:0:
320,192,66359,1,0,0:0:0:0:
64,192,66463,128,0,66567:0:0:0:0:
320,192,66567,1,0,0:0:0:0:
64,192,66671,1,0,0:0:0:0:
448,192,66671,1,0,0:0:0:0:
320,192,66776,128,0,66984:0:0:0:0:
448,192,66880,128,0,67088:0:0:0:0:
64,192,66984,1,0,0:0:0:0:
192,192,67088,1,0,0:0:0:0:
448,192,67192,1,0,0:0:0:0:
320,192,67192,1,0,0:0:0:0:
192,192,67296,1,0,0:0:0:0:
448,192,67296,128,0,67401:0:0:0:0:
64,192,67401,1,0,0:0:0:0:
448,192,67505,128,0,67609:0:0:0:0:
320,192,67609,1,0,0:0:0:0:
448,192,67713,1,0,0:0:0:0:
192,192,67713,1,0,0:0:0:0:
64,192,67817,1,0,0:0:0:0:
192,192,67869,1,0,0:0:0:0:
320,192,67921,1,0,0:0:0:0:
448,192,67921,128,0,68026:0:0:0:0:
192,192,68026,1,0,0:0:0:0:
64,192,68026,128,0,68234:0:0:0:0:
320,192,68130,1,0,0:0:0:0:
448,192,68130,1,0,0:0:0:0:
192,192,68234,1,0,0:0:0:0:
448,192,68234,1,0,0:0:0:0:
64,192,68338,1,0,0:0:0:0:
320,192,68338,1,0,0:0:0:0:
448,192,68442,1,0,0:0:0:0:
192,192,68442,1,0,0:0:0:0:
64,192,68442,1,0,0:0:0:0:
448,192,68546,1,0,0:0:0:0:
320,192,68546,1,0,0:0:0:0:
192,192,68651,1,0,0:0:0:0:
320,192,68755,1,0,0:0:0:0:
64,192,68755,1,0,0:0:0:0:
64,192,68859,1,0,0:0:0:0:
448,192,68859,1,0,0:0:0:0:
192,192,68963,1,0,0:0:0:0:
320,192,69067,1,0,0:0:0:0:
448,192,69067,1,0,0:0:0:0:
320,192,69171,1,0,0:0:0:0:
64,192,69171,128,0,69484:0:0:0:0:
192,192,69276,1,0,0:0:0:0:
448,192,69380,1,0,0:0:0:0:
320,192,69484,1,0,0:0:0:0:
192,192,69484,1,0,0:0:0:0:
64,192,69588,1,0,0:0:0:0:
320,192,69692,1,0,0:0:0:0:
448,192,69692,1,0,0:0:0:0:
192,192,69796,1,0,0:0:0:0:
448,192,69796,1,0,0:0:0:0:
64,192,69901,1,0,0:0:0:0:
320,192,69901,1,0,0:0:0:0:
448,192,70005,128,0,70421:0:0:0:0:
64,192,70005,128,0,70317:0:0:0:0:
192,192,70005,1,0,0:0:0:0:
320,192,70109,1,0,0:0:0:0:
192,192,70213,1,0,0:0:0:0:
320,192,70317,1,0,0:0:0:0:
64,192,70421,1,0,0:0:0:0:
192,192,70421,128,0,70734:0:0:0:0:
448,192,70526,1,0,0:0:0:0:
320,192,70526,1,0,0:0:0:0:
448,192,70630,128,0,70734:0:0:0:0:
64,192,70734,128,0,70942:0:0:0:0:
320,192,70734,1,0,0:0:0:0:
192,192,70838,1,0,0:0:0:0:
448,192,70942,128,0,71151:0:0:0:0:
320,192,70942,128,0,71046:0:0:0:0:
64,192,71046,1,0,0:0:0:0:
320,192,71151,128,0,71359:0:0:0:0:
192,192,71151,128,0,71255:0:0:0:0:
64,192,71255,128,0,71463:0:0:0:0:
448,192,71359,128,0,71671:0:0:0:0:
192,192,71463,128,0,71671:0:0:0:0:
320,192,71463,128,0,71567:0:0:0:0:
64,192,71567,128,0,71776:0:0:0:0:
320,192,71671,128,0,71776:0:0:0:0:
192,192,71776,1,0,0:0:0:0:
448,192,71776,1,0,0:0:0:0:
64,192,71880,1,0,0:0:0:0:
320,192,71984,1,0,0:0:0:0:
192,192,71984,1,0,0:0:0:0:
192,192,72088,1,0,0:0:0:0:
448,192,72192,128,0,72401:0:0:0:0:
320,192,72296,1,0,0:0:0:0:
192,192,72401,128,0,72817:0:0:0:0:
64,192,72505,1,0,0:0:0:0:
448,192,72609,128,0,72817:0:0:0:0:
320,192,72609,1,0,0:0:0:0:
64,192,72713,1,0,0:0:0:0:
320,192,72817,128,0,73026:0:0:0:0:
192,192,72921,128,0,73026:0:0:0:0:
448,192,73026,128,0,73234:0:0:0:0:
64,192,73026,128,0,73130:0:0:0:0:
192,192,73130,128,0,73234:0:0:0:0:
64,192,73234,128,0,73338:0:0:0:0:
320,192,73234,128,0,73651:0:0:0:0:
448,192,73338,1,0,0:0:0:0:
192,192,73442,1,0,0:0:0:0:
64,192,73442,128,0,73651:0:0:0:0:
192,192,73651,1,0,0:0:0:0:
448,192,73651,1,0,0:0:0:0:
320,192,73755,1,0,0:0:0:0:
448,192,73755,1,0,0:0:0:0:
64,192,73859,1,0,0:0:0:0:
192,192,73859,1,0,0:0:0:0:
64,192,73963,1,0,0:0:0:0:
320,192,73963,1,0,0:0:0:0:
320,192,74067,1,0,0:0:0:0:
192,192,74171,1,0,0:0:0:0:
448,192,74171,1,0,0:0:0:0:
192,192,74276,1,0,0:0:0:0:
64,192,74380,1,0,0:0:0:0:
448,192,74380,1,0,0:0:0:0:
320,192,74536,1,0,0:0:0:0:
192,192,74588,128,0,74796:0:0:0:0:
64,192,74588,128,0,75005:0:0:0:0:
448,192,74588,128,0,74692:0:0:0:0:
320,192,74692,1,0,0:0:0:0:
448,192,74796,1,0,0:0:0:0:
192,192,74901,1,0,0:0:0:0:
320,192,75005,1,0,0:0:0:0:
64,192,75109,1,0,0:0:0:0:
192,192,75109,1,0,0:0:0:0:
448,192,75109,1,0,0:0:0:0:
320,192,75213,1,0,0:0:0:0:
192,192,75213,1,0,0:0:0:0:
64,192,75317,1,0,0:0:0:0:
320,192,75421,1,0,0:0:0:0:
448,192,75421,1,0,0:0:0:0:
192,192,75526,1,0,0:0:0:0:
448,192,75526,1,0,0:0:0:0:
64,192,75630,1,0,0:0:0:0:
320,192,75734,1,0,0:0:0:0:
192,192,75734,1,0,0:0:0:0:
64,192,75838,1,0,0:0:0:0:
320,192,75838,128,0,76255:0:0:0:0:
448,192,75942,1,0,0:0:0:0:
64,192,76046,1,0,0:0:0:0:
192,192,76046,128,0,76255:0:0:0:0:
448,192,76151,1,0,0:0:0:0:
64,192,76255,1,0,0:0:0:0:
192,192,76359,1,0,0:0:0:0:
320,192,76359,1,0,0:0:0:0:
320,192,76463,1,0,0:0:0:0:
64,192,76463,1,0,0:0:0:0:
192,192,76567,1,0,0:0:0:0:
448,192,76567,1,0,0:0:0:0:
448,192,76671,128,0,76984:0:0:0:0:
64,192,76671,128,0,76880:0:0:0:0:
320,192,76776,1,0,0:0:0:0:
192,192,76880,1,0,0:0:0:0:
64,192,76984,1,0,0:0:0:0:
64,192,77088,1,0,0:0:0:0:
320,192,77088,1,0,0:0:0:0:
448,192,77192,1,0,0:0:0:0:
320,192,77192,1,0,0:0:0:0:
448,192,77296,1,0,0:0:0:0:
320,192,77401,1,0,0:0:0:0:
64,192,77401,1,0,0:0:0:0:
192,192,77505,1,0,0:0:0:0:
448,192,77609,1,0,0:0:0:0:
64,192,77609,1,0,0:0:0:0:
320,192,77713,1,0,0:0:0:0:
64,192,77817,128,0,77921:0:0:0:0:
192,192,77817,128,0,78026:0:0:0:0:
448,192,77921,128,0,78026:0:0:0:0:
64,192,78026,128,0,78234:0:0:0:0:
320,192,78026,128,0,78130:0:0:0:0:
192,192,78130,128,0,78338:0:0:0:0:
448,192,78130,1,0,0:0:0:0:
320,192,78234,128,0,78338:0:0:0:0:
64,192,78338,1,0,0:0:0:0:
448,192,78338,1,0,0:0:0:0:
64,192,78442,128,0,78859:0:0:0:0:
448,192,78442,1,0,0:0:0:0:
320,192,78546,1,0,0:0:0:0:
448,192,78651,1,0,0:0:0:0:
192,192,78651,1,0,0:0:0:0:
320,192,78755,1,0,0:0:0:0:
192,192,78859,128,0,79276:0:0:0:0:
448,192,78859,1,0,0:0:0:0:
64,192,78963,1,0,0:0:0:0:
320,192,79067,1,0,0:0:0:0:
64,192,79171,1,0,0:0:0:0:
448,192,79276,128,0,79692:0:0:0:0:
320,192,79276,1,0,0:0:0:0:
192,192,79380,1,0,0:0:0:0:
320,192,79484,1,0,0:0:0:0:
64,192,79588,1,0,0:0:0:0:
320,192,79692,128,0,80005:0:0:0:0:
192,192,79692,1,0,0:0:0:0:
448,192,79796,128,0,79901:0:0:0:0:
192,192,79901,1,0,0:0:0:0:
64,192,80005,1,0,0:0:0:0:
320,192,80109,1,0,0:0:0:0:
192,192,80109,1,0,0:0:0:0:
448,192,80109,1,0,0:0:0:0:
192,192,80526,1,0,0:0:0:0:
320,192,80838,1,0,0:0:0:0:
192,192,80942,1,0,0:0:0:0:
448,192,81046,1,0,0:0:0:0:
64,192,81046,1,0,0:0:0:0:
320,192,81151,1,0,0:0:0:0:
192,192,81203,1,0,0:0:0:0:
64,192,81203,1,0,0:0:0:0:
448,192,81255,1,0,0:0:0:0:
320,192,81359,1,0,0:0:0:0:
192,192,81463,1,0,0:0:0:0:
448,192,81463,1,0,0:0:0:0:
64,192,81567,1,0,0:0:0:0:
320,192,81567,1,0,0:0:0:0:
448,192,81671,1,0,0:0:0:0:
64,192,81671,1,0,0:0:0:0:
192,192,81776,1,0,0:0:0:0:
320,192,81776,1,0,0:0:0:0:
64,192,81984,1,0,0:0:0:0:
448,192,82192,1,0,0:0:0:0:
320,192,82296,1,0,0:0:0:0:
192,192,82505,1,0,0:0:0:0:
448,192,82609,128,0,82921:0:0:0:0:
64,192,82713,1,0,0:0:0:0:
320,192,82921,128,0,83286:0:0:0:0:
192,192,83026,1,0,0:0:0:0:
64,192,83286,128,0,83598:0:0:0:0:
448,192,83286,1,0,0:0:0:0:
192,192,83598,128,0,83859:0:0:0:0:
448,192,83859,1,0,0:0:0:0:
320,192,83963,128,0,84276:0:0:0:0:
64,192,84276,1,0,0:0:0:0:
192,192,84380,128,0,85213:0:0:0:0:
448,192,84380,1,0,0:0:0:0:
320,192,84692,128,0,85005:0:0:0:0:
448,192,85005,128,0,85213:0:0:0:0:
64,192,85213,128,0,86567:0:0:0:0:
320,192,85213,1,0,0:0:0:0:
448,192,85421,1,0,0:0:0:0:
192,192,85630,1,0,0:0:0:0:
320,192,85734,1,0,0:0:0:0:
448,192,85942,1,0,0:0:0:0:
192,192,86046,128,0,86255:0:0:0:0:
320,192,86255,128,0,86463:0:0:0:0:
448,192,86463,128,0,86567:0:0:0:0:
192,192,86567,128,0,86776:0:0:0:0:
320,192,86776,128,0,86984:0:0:0:0:
64,192,86984,128,0,87505:0:0:0:0:
192,192,86984,1,0,0:0:0:0:
192,192,87401,128,0,87609:0:0:0:0:
320,192,87401,1,0,0:0:0:0:
448,192,87505,1,0,0:0:0:0:
320,192,87609,128,0,87713:0:0:0:0:
192,192,87713,128,0,87817:0:0:0:0:
320,192,87817,128,0,87921:0:0:0:0:
448,192,87921,128,0,88026:0:0:0:0:
64,192,87921,1,0,0:0:0:0:
320,192,88026,128,0,88130:0:0:0:0:
448,192,88130,128,0,88234:0:0:0:0:
64,192,88130,1,0,0:0:0:0:
192,192,88234,128,0,88373:0:0:0:0:
320,192,88373,128,0,88512:0:0:0:0:
448,192,88442,1,0,0:0:0:0:
64,192,88512,128,0,88651:0:0:0:0:
192,192,88651,1,0,0:0:0:0:
320,192,88651,1,0,0:0:0:0:
448,192,88859,1,0,0:0:0:0:
64,192,89067,1,0,0:0:0:0:
192,192,89171,1,0,0:0:0:0:
320,192,89276,128,0,89692:0:0:0:0:
448,192,89484,1,0,0:0:0:0:
64,192,89692,128,0,89901:0:0:0:0:
320,192,89796,1,0,0:0:0:0:
192,192,89901,128,0,90016:0:0:0:0:
448,192,89901,1,0,0:0:0:0:
320,192,90016,128,0,90131:0:0:0:0:
448,192,90131,128,0,90247:0:0:0:0:
64,192,90131,1,0,0:0:0:0:
192,192,90247,128,0,90362:0:0:0:0:
64,192,90362,128,0,90987:0:0:0:0:
320,192,90362,1,0,0:0:0:0:
192,192,90778,1,0,0:0:0:0:
448,192,90882,1,0,0:0:0:0:
320,192,90987,128,0,91091:0:0:0:0:
192,192,91091,128,0,91195:0:0:0:0:
448,192,91195,1,0,0:0:0:0:
64,192,91195,1,0,0:0:0:0:
320,192,91310,1,0,0:0:0:0:
192,192,91310,1,0,0:0:0:0:
64,192,91368,1,0,0:0:0:0:
448,192,91425,1,0,0:0:0:0:
192,192,91483,1,0,0:0:0:0:
320,192,91541,1,0,0:0:0:0:
64,192,91598,1,0,0:0:0:0:
448,192,91656,1,0,0:0:0:0:
192,192,91656,1,0,0:0:0:0:
320,192,91708,1,0,0:0:0:0:
64,192,91760,1,0,0:0:0:0:
192,192,91813,1,0,0:0:0:0:
448,192,91865,1,0,0:0:0:0:
320,192,91865,1,0,0:0:0:0:
192,192,91970,1,0,0:0:0:0:
64,192,92075,1,0,0:0:0:0:
320,192,92075,1,0,0:0:0:0:
448,192,92075,1,0,0:0:0:0:
192,192,92495,1,0,0:0:0:0:
320,192,92495,1,0,0:0:0:0:
192,192,92704,1,0,0:0:0:0:
64,192,92914,128,0,93334:0:0:0:0:
448,192,92914,1,0,0:0:0:0:
320,192,92914,1,0,0:0:0:0:
448,192,93124,1,0,0:0:0:0:
320,192,93334,1,0,0:0:0:0:
192,192,93334,1,0,0:0:0:0:
64,192,93439,1,0,0:0:0:0:
320,192,93544,128,0,93753:0:0:0:0:
448,192,93649,128,0,93753:0:0:0:0:
192,192,93753,1,0,0:0:0:0:
64,192,93753,1,0,0:0:0:0:
192,192,93858,1,0,0:0:0:0:
448,192,93963,1,0,0:0:0:0:
64,192,94068,1,0,0:0:0:0:
320,192,94068,1,0,0:0:0:0:
320,192,94278,1,0,0:0:0:0:
64,192,94278,1,0,0:0:0:0:
192,192,94383,1,0,0:0:0:0:
448,192,94593,1,0,0:0:0:0:
320,192,94593,1,0,0:0:0:0:
64,192,94697,1,0,0:0:0:0:
192,192,94802,128,0,94907:0:0:0:0:
320,192,94802,1,0,0:0:0:0:
448,192,94907,1,0,0:0:0:0:
320,192,95012,1,0,0:0:0:0:
64,192,95012,1,0,0:0:0:0:
192,192,95117,1,0,0:0:0:0:
448,192,95222,1,0,0:0:0:0:
64,192,95222,1,0,0:0:0:0:
448,192,95327,1,0,0:0:0:0:
320,192,95327,1,0,0:0:0:0:
320,192,95432,1,0,0:0:0:0:
192,192,95432,128,0,95851:0:0:0:0:
64,192,95432,128,0,95851:0:0:0:0:
448,192,95851,1,0,0:0:0:0:
320,192,95851,1,0,0:0:0:0:
64,192,96061,1,0,0:0:0:0:
192,192,96061,1,0,0:0:0:0:
320,192,96271,1,0,0:0:0:0:
448,192,96376,1,0,0:0:0:0:
192,192,96376,1,0,0:0:0:0:
64,192,96586,1,0,0:0:0:0:
192,192,96690,1,0,0:0:0:0:
320,192,96690,1,0,0:0:0:0:
448,192,96795,1,0,0:0:0:0:
192,192,96900,1,0,0:0:0:0:
64,192,96900,1,0,0:0:0:0:
64,192,97005,128,0,97110:0:0:0:0:
320,192,97005,128,0,97215:0:0:0:0:
448,192,97215,1,0,0:0:0:0:
192,192,97215,1,0,0:0:0:0:
64,192,97320,1,0,0:0:0:0:
320,192,97425,1,0,0:0:0:0:
192,192,97425,1,0,0:0:0:0:
448,192,97530,1,0,0:0:0:0:
320,192,97530,1,0,0:0:0:0:
64,192,97635,1,0,0:0:0:0:
192,192,97739,1,0,0:0:0:0:
448,192,97739,1,0,0:0:0:0:
320,192,97844,1,0,0:0:0:0:
64,192,97844,1,0,0:0:0:0:
448,192,97949,1,0,0:0:0:0:
64,192,97949,1,0,0:0:0:0:
192,192,98054,1,0,0:0:0:0:
448,192,98054,1,0,0:0:0:0:
320,192,98159,1,0,0:0:0:0:
192,192,98264,1,0,0:0:0:0:
64,192,98264,1,0,0:0:0:0:
320,192,98369,1,0,0:0:0:0:
448,192,98369,128,0,98474:0:0:0:0:
192,192,98474,128,0,98579:0:0:0:0:
64,192,98579,128,0,98683:0:0:0:0:
448,192,98683,1,0,0:0:0:0:
320,192,98683,128,0,98893:0:0:0:0:
448,192,98788,1,0,0:0:0:0:
64,192,98893,1,0,0:0:0:0:
192,192,98893,128,0,99103:0:0:0:0:
320,192,99103,128,0,99208:0:0:0:0:
448,192,99208,1,0,0:0:0:0:
64,192,99208,1,0,0:0:0:0:
192,192,99278,1,0,0:0:0:0:
320,192,99348,1,0,0:0:0:0:
448,192,99418,1,0,0:0:0:0:
64,192,99418,1,0,0:0:0:0:
192,192,99488,1,0,0:0:0:0:
320,192,99558,1,0,0:0:0:0:
448,192,99628,1,0,0:0:0:0:
192,192,99697,1,0,0:0:0:0:
64,192,99732,1,0,0:0:0:0:
320,192,99767,1,0,0:0:0:0:
448,192,99837,1,0,0:0:0:0:
192,192,99907,1,0,0:0:0:0:
64,192,99977,1,0,0:0:0:0:
448,192,100047,1,0,0:0:0:0:
320,192,100047,1,0,0:0:0:0:
192,192,100117,1,0,0:0:0:0:
320,192,100187,1,0,0:0:0:0:
64,192,100257,128,0,100397:0:0:0:0:
448,192,100257,1,0,0:0:0:0:
192,192,100327,1,0,0:0:0:0:
320,192,100397,1,0,0:0:0:0:
64,192,100467,1,0,0:0:0:0:
448,192,100537,1,0,0:0:0:0:
192,192,100572,1,0,0:0:0:0:
320,192,100607,1,0,0:0:0:0:
448,192,100676,1,0,0:0:0:0:
192,192,100746,1,0,0:0:0:0:
64,192,100781,1,0,0:0:0:0:
320,192,100816,1,0,0:0:0:0:
448,192,100886,1,0,0:0:0:0:
64,192,100886,1,0,0:0:0:0:
192,192,100956,1,0,0:0:0:0:
320,192,101026,1,0,0:0:0:0:
64,192,101096,1,0,0:0:0:0:
448,192,101166,1,0,0:0:0:0:
320,192,101236,1,0,0:0:0:0:
192,192,101306,1,0,0:0:0:0:
64,192,101306,1,0,0:0:0:0:
448,192,101376,1,0,0:0:0:0:
64,192,101446,1,0,0:0:0:0:
320,192,101516,1,0,0:0:0:0:
192,192,101586,1,0,0:0:0:0:
448,192,101656,1,0,0:0:0:0:
320,192,101725,1,0,0:0:0:0:
64,192,101725,1,0,0:0:0:0:
192,192,101830,1,0,0:0:0:0:
448,192,101935,1,0,0:0:0:0:
320,192,101935,1,0,0:0:0:0:
192,192,102040,1,0,0:0:0:0:
64,192,102040,1,0,0:0:0:0:
448,192,102145,1,0,0:0:0:0:
320,192,102145,1,0,0:0:0:0:
64,192,102145,1,0,0:0:0:0:
448,192,102355,1,0,0:0:0:0:
192,192,102460,1,0,0:0:0:0:
320,192,102460,1,0,0:0:0:0:
64,192,102565,1,0,0:0:0:0:
192,192,102565,1,0,0:0:0:0:
320,192,102669,1,0,0:0:0:0:
448,192,102669,1,0,0:0:0:0:
448,192,102774,1,0,0:0:0:0:
64,192,102879,1,0,0:0:0:0:
320,192,102984,1,0,0:0:0:0:
448,192,102984,1,0,0:0:0:0:
320,192,103089,1,0,0:0:0:0:
192,192,103194,1,0,0:0:0:0:
448,192,103299,1,0,0:0:0:0:
320,192,103299,1,0,0:0:0:0:
448,192,103404,1,0,0:0:0:0:
64,192,103404,1,0,0:0:0:0:
192,192,103509,1,0,0:0:0:0:
320,192,103614,1,0,0:0:0:0:
64,192,103614,1,0,0:0:0:0:
448,192,103718,1,0,0:0:0:0:
192,192,103823,1,0,0:0:0:0:
64,192,103823,1,0,0:0:0:0:
192,192,103928,1,0,0:0:0:0:
448,192,104033,1,0,0:0:0:0:
192,192,104138,1,0,0:0:0:0:
64,192,104138,1,0,0:0:0:0:
64,192,104243,1,0,0:0:0:0:
320,192,104348,1,0,0:0:0:0:
192,192,104453,1,0,0:0:0:0:
448,192,104453,1,0,0:0:0:0:
192,192,104558,1,0,0:0:0:0:
320,192,104662,1,0,0:0:0:0:
448,192,104767,1,0,0:0:0:0:
64,192,104767,128,0,105082:0:0:0:0:
192,192,104872,1,0,0:0:0:0:
320,192,104977,1,0,0:0:0:0:
448,192,105082,1,0,0:0:0:0:
192,192,105082,128,0,105292:0:0:0:0:
64,192,105187,1,0,0:0:0:0:
320,192,105292,1,0,0:0:0:0:
192,192,105397,1,0,0:0:0:0:
320,192,105397,1,0,0:0:0:0:
448,192,105502,1,0,0:0:0:0:
64,192,105502,1,0,0:0:0:0:
320,192,105607,1,0,0:0:0:0:
192,192,105711,1,0,0:0:0:0:
64,192,105816,1,0,0:0:0:0:
448,192,105816,1,0,0:0:0:0:
192,192,105851,1,0,0:0:0:0:
320,192,105921,1,0,0:0:0:0:
448,192,105991,1,0,0:0:0:0:
192,192,106026,1,0,0:0:0:0:
64,192,106061,1,0,0:0:0:0:
320,192,106131,1,0,0:0:0:0:
448,192,106201,1,0,0:0:0:0:
192,192,106271,1,0,0:0:0:0:
320,192,106341,1,0,0:0:0:0:
64,192,106341,128,0,106551:0:0:0:0:
320,192,106446,1,0,0:0:0:0:
448,192,106551,128,0,106760:0:0:0:0:
192,192,106551,1,0,0:0:0:0:
320,192,106656,1,0,0:0:0:0:
64,192,106656,1,0,0:0:0:0:
192,192,106760,1,0,0:0:0:0:
320,192,106865,1,0,0:0:0:0:
448,192,106970,128,0,107180:0:0:0:0:
64,192,106970,128,0,107285:0:0:0:0:
320,192,107180,128,0,107390:0:0:0:0:
192,192,107180,1,0,0:0:0:0:
448,192,107390,1,0,0:0:0:0:
64,192,107390,1,0,0:0:0:0:
192,192,107495,1,0,0:0:0:0:
64,192,107495,1,0,0:0:0:0:
448,192,107600,1,0,0:0:0:0:
320,192,107704,1,0,0:0:0:0:
192,192,107704,1,0,0:0:0:0:
64,192,107809,1,0,0:0:0:0:
448,192,107914,1,0,0:0:0:0:
320,192,107914,1,0,0:0:0:0:
192,192,108019,1,0,0:0:0:0:
64,192,108019,1,0,0:0:0:0:
448,192,108124,1,0,0:0:0:0:
320,192,108124,1,0,0:0:0:0:
64,192,108124,1,0,0:0:0:0:
192,192,108229,1,0,0:0:0:0:
320,192,108334,1,0,0:0:0:0:
64,192,108334,1,0,0:0:0:0:
448,192,108439,1,0,0:0:0:0:
320,192,108544,1,0,0:0:0:0:
192,192,108544,1,0,0:0:0:0:
192,192,108649,1,0,0:0:0:0:
64,192,108649,1,0,0:0:0:0:
448,192,108753,128,0,109068:0:0:0:0:
320,192,108753,128,0,109068:0:0:0:0:
64,192,108963,1,0,0:0:0:0:
192,192,109173,1,0,0:0:0:0:
448,192,109173,1,0,0:0:0:0:
320,192,109383,1,0,0:0:0:0:
64,192,109383,1,0,0:0:0:0:
64,192,109488,1,0,0:0:0:0:
192,192,109593,1,0,0:0:0:0:
320,192,109593,1,0,0:0:0:0:
448,192,109628,1,0,0:0:0:0:
64,192,109697,1,0,0:0:0:0:
192,192,109767,1,0,0:0:0:0:
320,192,109837,1,0,0:0:0:0:
448,192,109907,1,0,0:0:0:0:
192,192,109977,1,0,0:0:0:0:
64,192,109977,1,0,0:0:0:0:
320,192,110047,1,0,0:0:0:0:
64,192,110117,1,0,0:0:0:0:
448,192,110187,1,0,0:0:0:0:
192,192,110257,1,0,0:0:0:0:
320,192,110257,1,0,0:0:0:0:
64,192,110327,1,0,0:0:0:0:
448,192,110397,1,0,0:0:0:0:
320,192,110467,1,0,0:0:0:0:
192,192,110537,1,0,0:0:0:0:
64,192,110537,1,0,0:0:0:0:
320,192,110607,1,0,0:0:0:0:
448,192,110676,1,0,0:0:0:0:
192,192,110746,1,0,0:0:0:0:
64,192,110746,1,0,0:0:0:0:
448,192,110851,1,0,0:0:0:0:
320,192,110851,1,0,0:0:0:0:
192,192,110956,1,0,0:0:0:0:
64,192,111061,1,0,0:0:0:0:
448,192,111166,1,0,0:0:0:0:
320,192,111166,1,0,0:0:0:0:
192,192,111271,1,0,0:0:0:0:
64,192,111376,1,0,0:0:0:0:
320,192,111376,1,0,0:0:0:0:
448,192,111481,1,0,0:0:0:0:
320,192,111586,1,0,0:0:0:0:
192,192,111586,1,0,0:0:0:0:
64,192,111690,1,0,0:0:0:0:
192,192,111690,1,0,0:0:0:0:
320,192,111795,1,0,0:0:0:0:
448,192,111900,1,0,0:0:0:0:
320,192,112005,1,0,0:0:0:0:
64,192,112005,1,0,0:0:0:0:
192,192,112110,1,0,0:0:0:0:
64,192,112110,1,0,0:0:0:0:
448,192,112215,1,0,0:0:0:0:
320,192,112215,1,0,0:0:0:0:
192,192,112320,1,0,0:0:0:0:
192,192,112425,1,0,0:0:0:0:
64,192,112425,1,0,0:0:0:0:
448,192,112530,1,0,0:0:0:0:
320,192,112530,1,0,0:0:0:0:
448,192,112739,1,0,0:0:0:0:
192,192,112739,1,0,0:0:0:0:
320,192,112949,1,0,0:0:0:0:
64,192,112949,1,0,0:0:0:0:
64,192,113054,1,0,0:0:0:0:
192,192,113054,1,0,0:0:0:0:
320,192,113211,1,0,0:0:0:0:
448,192,113211,1,0,0:0:0:0:
192,192,113316,1,0,0:0:0:0:
64,192,113474,128,0,113893:0:0:0:0:
448,192,113474,128,0,113893:0:0:0:0:
320,192,113893,1,0,0:0:0:0:
192,192,113893,1,0,0:0:0:0:
448,192,113963,1,0,0:0:0:0:
320,192,114033,1,0,0:0:0:0:
192,192,114103,1,0,0:0:0:0:
64,192,114103,128,0,114208:0:0:0:0:
448,192,114208,128,0,114313:0:0:0:0:
192,192,114313,128,0,114418:0:0:0:0:
320,192,114313,1,0,0:0:0:0:
64,192,114383,1,0,0:0:0:0:
448,192,114418,1,0,0:0:0:0:
320,192,114523,1,0,0:0:0:0:
192,192,114523,1,0,0:0:0:0:
64,192,114628,1,0,0:0:0:0:
64,192,114732,1,0,0:0:0:0:
320,192,114837,1,0,0:0:0:0:
448,192,114942,1,0,0:0:0:0:
192,192,114942,1,0,0:0:0:0:
64,192,115047,1,0,0:0:0:0:
448,192,115152,1,0,0:0:0:0:
192,192,115152,1,0,0:0:0:0:
320,192,115257,1,0,0:0:0:0:
448,192,115362,1,0,0:0:0:0:
64,192,115362,128,0,115572:0:0:0:0:
192,192,115362,128,0,115572:0:0:0:0:
320,192,115572,1,0,0:0:0:0:
448,192,115781,1,0,0:0:0:0:
64,192,115781,1,0,0:0:0:0:
192,192,115886,1,0,0:0:0:0:
320,192,115991,1,0,0:0:0:0:
64,192,115991,1,0,0:0:0:0:
448,192,116096,128,0,116201:0:0:0:0:
64,192,116201,128,0,116306:0:0:0:0:
320,192,116306,1,0,0:0:0:0:
448,192,116306,128,0,116411:0:0:0:0:
64,192,116411,128,0,116830:0:0:0:0:
320,192,116621,1,0,0:0:0:0:
192,192,116621,128,0,116830:0:0:0:0:
448,192,116725,128,0,116830:0:0:0:0:
320,192,116830,128,0,116935:0:0:0:0:
64,192,116935,1,0,0:0:0:0:
448,192,116935,128,0,117145:0:0:0:0:
320,192,117145,128,0,117355:0:0:0:0:
192,192,117145,1,0,0:0:0:0:
448,192,117250,1,0,0:0:0:0:
64,192,117355,1,0,0:0:0:0:
192,192,117355,128,0,117460:0:0:0:0:
320,192,117460,1,0,0:0:0:0:
448,192,117460,128,0,117565:0:0:0:0:
64,192,117565,128,0,117669:0:0:0:0:
192,192,117669,128,0,117774:0:0:0:0:
320,192,117669,1,0,0:0:0:0:
448,192,117774,1,0,0:0:0:0:
64,192,117774,1,0,0:0:0:0:
320,192,117879,128,0,117984:0:0:0:0:
448,192,117984,128,0,118194:0:0:0:0:
192,192,117984,1,0,0:0:0:0:
64,192,118089,1,0,0:0:0:0:
320,192,118194,1,0,0:0:0:0:
192,192,118194,1,0,0:0:0:0:
448,192,118299,1,0,0:0:0:0:
64,192,118299,1,0,0:0:0:0:
320,192,118404,1,0,0:0:0:0:
192,192,118509,1,0,0:0:0:0:
320,192,118614,1,0,0:0:0:0:
64,192,118718,128,0,118823:0:0:0:0:
448,192,118718,128,0,118928:0:0:0:0:
192,192,118823,128,0,119033:0:0:0:0:
448,192,119033,128,0,119138:0:0:0:0:
320,192,119033,1,0,0:0:0:0:
192,192,119138,1,0,0:0:0:0:
64,192,119138,128,0,119348:0:0:0:0:
320,192,119348,128,0,119662:0:0:0:0:
448,192,119348,1,0,0:0:0:0:
64,192,119558,1,0,0:0:0:0:
192,192,119662,1,0,0:0:0:0:
448,192,119662,1,0,0:0:0:0:
64,192,119697,1,0,0:0:0:0:
320,192,119767,1,0,0:0:0:0:
192,192,119837,1,0,0:0:0:0:
448,192,119837,1,0,0:0:0:0:
64,192,119907,1,0,0:0:0:0:
192,192,119977,1,0,0:0:0:0:
448,192,120047,1,0,0:0:0:0:
320,192,120047,1,0,0:0:0:0:
64,192,120117,1,0,0:0:0:0:
192,192,120187,1,0,0:0:0:0:
448,192,120257,1,0,0:0:0:0:
64,192,120292,1,0,0:0:0:0:
320,192,120292,1,0,0:0:0:0:
192,192,120397,1,0,0:0:0:0:
448,192,120467,1,0,0:0:0:0:
320,192,120467,1,0,0:0:0:0:
64,192,120607,1,0,0:0:0:0:
192,192,120607,1,0,0:0:0:0:
320,192,120711,1,0,0:0:0:0:
448,192,120711,1,0,0:0:0:0:
448,192,120816,1,0,0:0:0:0:
64,192,120816,1,0,0:0:0:0:
192,192,120921,1,0,0:0:0:0:
320,192,121026,1,0,0:0:0:0:
448,192,121026,128,0,121236:0:0:0:0:
192,192,121131,128,0,121341:0:0:0:0:
448,192,121341,1,0,0:0:0:0:
320,192,121376,1,0,0:0:0:0:
192,192,121411,1,0,0:0:0:0:
64,192,121446,1,0,0:0:0:0:
448,192,121481,1,0,0:0:0:0:
320,192,121516,1,0,0:0:0:0:
192,192,121551,1,0,0:0:0:0:
64,192,121586,1,0,0:0:0:0:
448,192,121621,1,0,0:0:0:0:
320,192,121656,1,0,0:0:0:0:
192,192,121690,1,0,0:0:0:0:
64,192,121725,1,0,0:0:0:0:
448,192,121760,1,0,0:0:0:0:
320,192,121865,1,0,0:0:0:0:
192,192,121970,1,0,0:0:0:0:
64,192,121970,1,0,0:0:0:0:
448,192,121970,1,0,0:0:0:0:
320,192,122180,1,0,0:0:0:0:
64,192,122180,1,0,0:0:0:0:
192,192,122285,128,0,122495:0:0:0:0:
448,192,122285,128,0,122390:0:0:0:0:
320,192,122390,1,0,0:0:0:0:
64,192,122495,1,0,0:0:0:0:
448,192,122600,1,0,0:0:0:0:
320,192,122600,1,0,0:0:0:0:
192,192,122809,1,0,0:0:0:0:
64,192,122809,1,0,0:0:0:0:
448,192,123019,1,0,0:0:0:0:
320,192,123019,1,0,0:0:0:0:
64,192,123124,128,0,123334:0:0:0:0:
320,192,123124,128,0,123229:0:0:0:0:
448,192,123334,1,0,0:0:0:0:
192,192,123334,1,0,0:0:0:0:
448,192,123439,128,0,123544:0:0:0:0:
64,192,123439,1,0,0:0:0:0:
320,192,123439,128,0,123649:0:0:0:0:
192,192,123544,1,0,0:0:0:0:
448,192,123649,1,0,0:0:0:0:
64,192,123649,1,0,0:0:0:0:
320,192,123858,1,0,0:0:0:0:
192,192,123963,1,0,0:0:0:0:
64,192,123963,1,0,0:0:0:0:
448,192,124068,1,0,0:0:0:0:
320,192,124173,1,0,0:0:0:0:
192,192,124278,1,0,0:0:0:0:
64,192,124278,1,0,0:0:0:0:
448,192,124383,1,0,0:0:0:0:
192,192,124435,1,0,0:0:0:0:
320,192,124488,1,0,0:0:0:0:
64,192,124488,1,0,0:0:0:0:
64,192,124593,1,0,0:0:0:0:
448,192,124593,128,0,124802:0:0:0:0:
192,192,124802,128,0,125117:0:0:0:0:
320,192,124802,1,0,0:0:0:0:
448,192,125012,1,0,0:0:0:0:
320,192,125117,128,0,125222:0:0:0:0:
64,192,125117,1,0,0:0:0:0:
192,192,125327,128,0,125642:0:0:0:0:
448,192,125327,1,0,0:0:0:0:
64,192,125327,1,0,0:0:0:0:
320,192,125537,1,0,0:0:0:0:
448,192,125746,1,0,0:0:0:0:
320,192,125851,1,0,0:0:0:0:
192,192,125956,1,0,0:0:0:0:
64,192,125956,1,0,0:0:0:0:
448,192,126061,1,0,0:0:0:0:
64,192,126166,128,0,126271:0:0:0:0:
320,192,126166,1,0,0:0:0:0:
192,192,126271,128,0,126376:0:0:0:0:
320,192,126376,128,0,126481:0:0:0:0:
64,192,126376,1,0,0:0:0:0:
448,192,126481,128,0,126690:0:0:0:0:
64,192,126586,1,0,0:0:0:0:
192,192,126586,1,0,0:0:0:0:
320,192,126690,128,0,126795:0:0:0:0:
64,192,126795,128,0,126900:0:0:0:0:
448,192,126795,1,0,0:0:0:0:
192,192,126900,128,0,127005:0:0:0:0:
320,192,127005,128,0,127110:0:0:0:0:
64,192,127110,128,0,127320:0:0:0:0:
448,192,127110,128,0,127215:0:0:0:0:
192,192,127215,128,0,127320:0:0:0:0:
320,192,127215,1,0,0:0:0:0:
448,192,127320,128,0,127425:0:0:0:0:
192,192,127425,1,0,0:0:0:0:
64,192,127425,1,0,0:0:0:0:
64,192,127530,1,0,0:0:0:0:
320,192,127530,128,0,127635:0:0:0:0:
192,192,127635,128,0,127739:0:0:0:0:
64,192,127739,128,0,127949:0:0:0:0:
448,192,127739,128,0,128054:0:0:0:0:
320,192,127949,128,0,128054:0:0:0:0:
64,192,128054,128,0,128159:0:0:0:0:
192,192,128054,1,0,0:0:0:0:
320,192,128264,1,0,0:0:0:0:
448,192,128264,128,0,128369:0:0:0:0:
192,192,128369,1,0,0:0:0:0:
64,192,128474,1,0,0:0:0:0:
320,192,128474,128,0,128579:0:0:0:0:
448,192,128579,1,0,0:0:0:0:
64,192,128683,128,0,128998:0:0:0:0:
320,192,128683,1,0,0:0:0:0:
192,192,128788,1,0,0:0:0:0:
448,192,128893,1,0,0:0:0:0:
320,192,128893,1,0,0:0:0:0:
448,192,128998,128,0,129313:0:0:0:0:
192,192,128998,1,0,0:0:0:0:
192,192,129313,128,0,129942:0:0:0:0:
320,192,129313,1,0,0:0:0:0:
64,192,129418,1,0,0:0:0:0:
448,192,129523,1,0,0:0:0:0:
320,192,129628,1,0,0:0:0:0:
64,192,129732,1,0,0:0:0:0:
448,192,129732,1,0,0:0:0:0:
64,192,129942,128,0,130047:0:0:0:0:
320,192,129942,1,0,0:0:0:0:
192,192,130047,128,0,130152:0:0:0:0:
320,192,130152,128,0,130257:0:0:0:0:
64,192,130257,1,0,0:0:0:0:
448,192,130257,128,0,130362:0:0:0:0:
192,192,130362,128,0,130572:0:0:0:0:
320,192,130467,128,0,130676:0:0:0:0:
448,192,130572,128,0,130781:0:0:0:0:
64,192,130572,128,0,130676:0:0:0:0:
192,192,130676,128,0,130781:0:0:0:0:
64,192,130781,1,0,0:0:0:0:
320,192,130781,128,0,130886:0:0:0:0:
192,192,130886,1,0,0:0:0:0:
448,192,130886,128,0,130991:0:0:0:0:
320,192,130991,128,0,131096:0:0:0:0:
64,192,131096,128,0,131201:0:0:0:0:
192,192,131201,128,0,131306:0:0:0:0:
448,192,131306,1,0,0:0:0:0:
320,192,131306,1,0,0:0:0:0:
192,192,131376,1,0,0:0:0:0:
448,192,131446,1,0,0:0:0:0:
64,192,131446,1,0,0:0:0:0:
320,192,131516,1,0,0:0:0:0:
192,192,131621,1,0,0:0:0:0:
320,192,131673,1,0,0:0:0:0:
64,192,131725,1,0,0:0:0:0:
448,192,131830,1,0,0:0:0:0:
192,192,131830,1,0,0:0:0:0:
448,192,131935,1,0,0:0:0:0:
64,192,131935,1,0,0:0:0:0:
320,192,132040,1,0,0:0:0:0:
64,192,132040,1,0,0:0:0:0:
192,192,132145,1,0,0:0:0:0:
448,192,132250,1,0,0:0:0:0:
64,192,132250,1,0,0:0:0:0:
320,192,132320,1,0,0:0:0:0:
192,192,132390,1,0,0:0:0:0:
64,192,132460,1,0,0:0:0:0:
192,192,132565,1,0,0:0:0:0:
320,192,132669,1,0,0:0:0:0:
448,192,132774,1,0,0:0:0:0:
64,192,132774,128,0,132879:0:0:0:0:
320,192,132984,1,0,0:0:0:0:
192,192,133089,1,0,0:0:0:0:
448,192,133089,1,0,0:0:0:0:
64,192,133089,128,0,133404:0:0:0:0:
320,192,133194,1,0,0:0:0:0:
192,192,133299,1,0,0:0:0:0:
448,192,133404,1,0,0:0:0:0:
64,192,133509,1,0,0:0:0:0:
320,192,133509,1,0,0:0:0:0:
192,192,133614,1,0,0:0:0:0:
448,192,133718,128,0,134033:0:0:0:0:
320,192,133718,1,0,0:0:0:0:
192,192,133893,1,0,0:0:0:0:
64,192,133893,1,0,0:0:0:0:
320,192,133963,1,0,0:0:0:0:
64,192,134033,1,0,0:0:0:0:
448,192,134103,1,0,0:0:0:0:
192,192,134103,1,0,0:0:0:0:
320,192,134173,1,0,0:0:0:0:
192,192,134243,1,0,0:0:0:0:
64,192,134243,1,0,0:0:0:0:
320,192,134348,1,0,0:0:0:0:
448,192,134453,1,0,0:0:0:0:
64,192,134453,1,0,0:0:0:0:
320,192,134558,1,0,0:0:0:0:
192,192,134662,1,0,0:0:0:0:
64,192,134662,1,0,0:0:0:0:
448,192,134767,1,0,0:0:0:0:
320,192,134837,1,0,0:0:0:0:
64,192,134872,1,0,0:0:0:0:
192,192,134907,1,0,0:0:0:0:
448,192,134977,1,0,0:0:0:0:
320,192,135082,1,0,0:0:0:0:
64,192,135082,1,0,0:0:0:0:
192,192,135187,1,0,0:0:0:0:
64,192,135187,1,0,0:0:0:0:
448,192,135292,1,0,0:0:0:0:
320,192,135292,1,0,0:0:0:0:
192,192,135292,1,0,0:0:0:0:
448,192,135502,1,0,0:0:0:0:
192,192,135502,1,0,0:0:0:0:
64,192,135607,128,0,135711:0:0:0:0:
320,192,135607,128,0,135816:0:0:0:0:
192,192,135711,1,0,0:0:0:0:
448,192,135816,1,0,0:0:0:0:
192,192,135921,1,0,0:0:0:0:
64,192,135921,1,0,0:0:0:0:
448,192,136131,1,0,0:0:0:0:
320,192,136131,1,0,0:0:0:0:
192,192,136341,1,0,0:0:0:0:
64,192,136341,1,0,0:0:0:0:
192,192,136446,128,0,136551:0:0:0:0:
448,192,136446,128,0,136656:0:0:0:0:
320,192,136656,1,0,0:0:0:0:
64,192,136656,1,0,0:0:0:0:
192,192,136760,128,0,136970:0:0:0:0:
448,192,136760,1,0,0:0:0:0:
64,192,136760,128,0,136865:0:0:0:0:
320,192,136865,1,0,0:0:0:0:
448,192,136970,1,0,0:0:0:0:
64,192,136970,1,0,0:0:0:0:
192,192,137180,1,0,0:0:0:0:
448,192,137285,1,0,0:0:0:0:
320,192,137285,1,0,0:0:0:0:
64,192,137390,1,0,0:0:0:0:
192,192,137495,1,0,0:0:0:0:
448,192,137600,1,0,0:0:0:0:
320,192,137600,1,0,0:0:0:0:
64,192,137704,1,0,0:0:0:0:
320,192,137757,1,0,0:0:0:0:
448,192,137809,1,0,0:0:0:0:
192,192,137809,1,0,0:0:0:0:
64,192,137914,128,0,138124:0:0:0:0:
448,192,137914,1,0,0:0:0:0:
192,192,138124,1,0,0:0:0:0:
320,192,138124,128,0,138439:0:0:0:0:
64,192,138334,1,0,0:0:0:0:
448,192,138439,1,0,0:0:0:0:
192,192,138439,128,0,138544:0:0:0:0:
448,192,138649,1,0,0:0:0:0:
64,192,138649,1,0,0:0:0:0:
320,192,138649,128,0,138963:0:0:0:0:
192,192,138858,1,0,0:0:0:0:
64,192,139068,1,0,0:0:0:0:
192,192,139173,1,0,0:0:0:0:
320,192,139278,1,0,0:0:0:0:
448,192,139278,1,0,0:0:0:0:
64,192,139383,1,0,0:0:0:0:
448,192,139488,128,0,139593:0:0:0:0:
192,192,139488,1,0,0:0:0:0:
320,192,139593,128,0,139697:0:0:0:0:
192,192,139697,128,0,139802:0:0:0:0:
448,192,139697,1,0,0:0:0:0:
64,192,139802,128,0,140012:0:0:0:0:
320,192,139907,1,0,0:0:0:0:
320,192,140012,1,0,0:0:0:0:
192,192,140012,128,0,140117:0:0:0:0:
448,192,140117,128,0,140222:0:0:0:0:
64,192,140117,1,0,0:0:0:0:
320,192,140222,128,0,140327:0:0:0:0:
192,192,140327,128,0,140432:0:0:0:0:
448,192,140432,128,0,140642:0:0:0:0:
64,192,140432,128,0,140537:0:0:0:0:
320,192,140537,128,0,140642:0:0:0:0:
192,192,140537,1,0,0:0:0:0:
64,192,140642,128,0,140746:0:0:0:0:
320,192,140746,1,0,0:0:0:0:
448,192,140746,1,0,0:0:0:0:
448,192,140851,1,0,0:0:0:0:
192,192,140851,128,0,140956:0:0:0:0:
320,192,140956,128,0,141061:0:0:0:0:
448,192,141061,128,0,141271:0:0:0:0:
64,192,141061,128,0,141376:0:0:0:0:
192,192,141271,128,0,141376:0:0:0:0:
448,192,141376,128,0,141481:0:0:0:0:
320,192,141376,1,0,0:0:0:0:
192,192,141586,1,0,0:0:0:0:
64,192,141586,128,0,141690:0:0:0:0:
320,192,141690,1,0,0:0:0:0:
448,192,141795,1,0,0:0:0:0:
192,192,141795,128,0,141900:0:0:0:0:
64,192,141900,1,0,0:0:0:0:
448,192,142005,128,0,142320:0:0:0:0:
192,192,142005,1,0,0:0:0:0:
320,192,142110,1,0,0:0:0:0:
64,192,142215,1,0,0:0:0:0:
192,192,142215,1,0,0:0:0:0:
64,192,142320,128,0,142635:0:0:0:0:
320,192,142320,1,0,0:0:0:0:
320,192,142635,128,0,143264:0:0:0:0:
192,192,142635,1,0,0:0:0:0:
448,192,142739,1,0,0:0:0:0:
64,192,142844,1,0,0:0:0:0:
192,192,142949,1,0,0:0:0:0:
448,192,143054,1,0,0:0:0:0:
64,192,143054,1,0,0:0:0:0:
448,192,143264,128,0,143369:0:0:0:0:
192,192,143264,1,0,0:0:0:0:
320,192,143369,128,0,143474:0:0:0:0:
192,192,143474,128,0,143579:0:0:0:0:
448,192,143579,1,0,0:0:0:0:
64,192,143579,128,0,143683:0:0:0:0:
320,192,143683,128,0,143893:0:0:0:0:
192,192,143788,128,0,143998:0:0:0:0:
64,192,143893,128,0,144103:0:0:0:0:
448,192,143893,128,0,143998:0:0:0:0:
320,192,143998,128,0,144103:0:0:0:0:
448,192,144103,1,0,0:0:0:0:
192,192,144103,128,0,144208:0:0:0:0:
64,192,144208,128,0,144313:0:0:0:0:
320,192,144208,1,0,0:0:0:0:
192,192,144313,128,0,144418:0:0:0:0:
448,192,144418,128,0,144523:0:0:0:0:
320,192,144523,128,0,144628:0:0:0:0:
64,192,144628,1,0,0:0:0:0:
192,192,144628,1,0,0:0:0:0:
320,192,144697,1,0,0:0:0:0:
64,192,144767,1,0,0:0:0:0:
448,192,144767,1,0,0:0:0:0:
192,192,144837,1,0,0:0:0:0:
320,192,144942,1,0,0:0:0:0:
192,192,144995,1,0,0:0:0:0:
448,192,145047,1,0,0:0:0:0:
64,192,145152,1,0,0:0:0:0:
320,192,145152,1,0,0:0:0:0:
64,192,145257,1,0,0:0:0:0:
448,192,145257,1,0,0:0:0:0:
192,192,145362,1,0,0:0:0:0:
448,192,145362,1,0,0:0:0:0:
64,192,145467,1,0,0:0:0:0:
320,192,145572,1,0,0:0:0:0:
192,192,145572,1,0,0:0:0:0:
448,192,145676,1,0,0:0:0:0:
192,192,145676,1,0,0:0:0:0:
320,192,145781,1,0,0:0:0:0:
64,192,145781,1,0,0:0:0:0:
192,192,145886,1,0,0:0:0:0:
64,192,145886,128,0,146201:0:0:0:0:
448,192,145991,1,0,0:0:0:0:
320,192,146096,1,0,0:0:0:0:
192,192,146201,1,0,0:0:0:0:
448,192,146201,1,0,0:0:0:0:
64,192,146306,1,0,0:0:0:0:
320,192,146411,1,0,0:0:0:0:
192,192,146516,1,0,0:0:0:0:
448,192,146621,1,0,0:0:0:0:
64,192,146621,1,0,0:0:0:0:
192,192,146725,1,0,0:0:0:0:
320,192,146778,1,0,0:0:0:0:
448,192,146830,1,0,0:0:0:0:
64,192,146830,1,0,0:0:0:0:
192,192,146935,1,0,0:0:0:0:
448,192,147040,1,0,0:0:0:0:
320,192,147040,1,0,0:0:0:0:
64,192,147040,1,0,0:0:0:0:
192,192,147145,1,0,0:0:0:0:
448,192,147250,1,0,0:0:0:0:
320,192,147250,1,0,0:0:0:0:
64,192,147355,1,0,0:0:0:0:
448,192,147460,1,0,0:0:0:0:
192,192,147460,1,0,0:0:0:0:
320,192,147565,1,0,0:0:0:0:
448,192,147669,1,0,0:0:0:0:
64,192,147669,1,0,0:0:0:0:
192,192,147774,1,0,0:0:0:0:
320,192,147827,1,0,0:0:0:0:
64,192,147879,1,0,0:0:0:0:
448,192,147879,1,0,0:0:0:0:
192,192,147984,1,0,0:0:0:0:
448,192,148054,1,0,0:0:0:0:
192,192,148124,1,0,0:0:0:0:
320,192,148194,1,0,0:0:0:0:
448,192,148264,1,0,0:0:0:0:
64,192,148264,1,0,0:0:0:0:
320,192,148509,1,0,0:0:0:0:
192,192,148509,1,0,0:0:0:0:
320,192,148614,1,0,0:0:0:0:
192,192,148614,1,0,0:0:0:0:
448,192,148718,1,0,0:0:0:0:
64,192,148718,1,0,0:0:0:0:
320,192,148823,1,0,0:0:0:0:
64,192,148928,1,0,0:0:0:0:
320,192,149033,1,0,0:0:0:0:
448,192,149033,1,0,0:0:0:0:
192,192,149138,1,0,0:0:0:0:
64,192,149243,1,0,0:0:0:0:
448,192,149348,1,0,0:0:0:0:
320,192,149348,1,0,0:0:0:0:
192,192,149453,1,0,0:0:0:0:
64,192,149558,1,0,0:0:0:0:
320,192,149558,1,0,0:0:0:0:
448,192,149662,1,0,0:0:0:0:
64,192,149767,1,0,0:0:0:0:
320,192,149872,1,0,0:0:0:0:
448,192,149977,1,0,0:0:0:0:
64,192,149977,1,0,0:0:0:0:
192,192,150082,1,0,0:0:0:0:
64,192,150187,1,0,0:0:0:0:
320,192,150187,1,0,0:0:0:0:
448,192,150292,1,0,0:0:0:0:
64,192,150397,128,0,152075:0:0:0:0:
192,192,150397,1,0,0:0:0:0:
448,192,150816,1,0,0:0:0:0:
448,192,151236,1,0,0:0:0:0:
448,192,151656,1,0,0:0:0:0:
320,192,152075,1,0,0:0:0:0:
192,192,152075,1,0,0:0:0:0:
448,192,152285,1,0,0:0:0:0:
64,192,152285,1,0,0:0:0:0:
320,192,152355,1,0,0:0:0:0:
192,192,152425,1,0,0:0:0:0:
448,192,152495,1,0,0:0:0:0:
64,192,152495,1,0,0:0:0:0:
320,192,152600,1,0,0:0:0:0:
192,192,152704,1,0,0:0:0:0:
448,192,152704,1,0,0:0:0:0:
64,192,152809,1,0,0:0:0:0:
448,192,152809,1,0,0:0:0:0:
320,192,152914,1,0,0:0:0:0:
192,192,152914,1,0,0:0:0:0:
192,192,153019,1,0,0:0:0:0:
448,192,153124,1,0,0:0:0:0:
448,192,153229,1,0,0:0:0:0:
64,192,153334,1,0,0:0:0:0:
320,192,153439,1,0,0:0:0:0:
192,192,153544,1,0,0:0:0:0:
448,192,153614,1,0,0:0:0:0:
320,192,153683,1,0,0:0:0:0:
192,192,153753,128,0,153963:0:0:0:0:
64,192,153753,128,0,153858:0:0:0:0:
448,192,153753,1,0,0:0:0:0:
320,192,153858,1,0,0:0:0:0:
64,192,153963,1,0,0:0:0:0:
448,192,154068,1,0,0:0:0:0:
64,192,154173,1,0,0:0:0:0:
320,192,154173,1,0,0:0:0:0:
192,192,154278,1,0,0:0:0:0:
448,192,154278,1,0,0:0:0:0:
320,192,154383,128,0,154593:0:0:0:0:
192,192,154488,128,0,154593:0:0:0:0:
64,192,154593,128,0,154986:0:0:0:0:
448,192,154593,128,0,154802:0:0:0:0:
192,192,154697,1,0,0:0:0:0:
320,192,154802,1,0,0:0:0:0:
448,192,154907,1,0,0:0:0:0:
192,192,154907,1,0,0:0:0:0:
320,192,155012,1,0,0:0:0:0:
192,192,155117,1,0,0:0:0:0:
448,192,155222,128,0,155432:0:0:0:0:
64,192,155222,1,0,0:0:0:0:
320,192,155327,128,0,155432:0:0:0:0:
64,192,155432,128,0,155851:0:0:0:0:
192,192,155432,128,0,155537:0:0:0:0:
448,192,155537,1,0,0:0:0:0:
192,192,155642,1,0,0:0:0:0:
320,192,155642,1,0,0:0:0:0:
448,192,155746,1,0,0:0:0:0:
192,192,155851,1,0,0:0:0:0:
448,192,155956,1,0,0:0:0:0:
320,192,155956,1,0,0:0:0:0:
64,192,156061,1,0,0:0:0:0:
192,192,156166,1,0,0:0:0:0:
320,192,156271,1,0,0:0:0:0:
448,192,156271,128,0,156586:0:0:0:0:
64,192,156271,128,0,156376:0:0:0:0:
192,192,156376,1,0,0:0:0:0:
320,192,156481,1,0,0:0:0:0:
192,192,156586,128,0,156900:0:0:0:0:
64,192,156586,1,0,0:0:0:0:
448,192,156690,1,0,0:0:0:0:
320,192,156795,1,0,0:0:0:0:
64,192,156795,1,0,0:0:0:0:
448,192,156900,128,0,156979:0:0:0:0:
320,192,156979,128,0,157040:0:0:0:0:
192,192,157040,128,0,157110:0:0:0:0:
448,192,157110,128,0,157294:0:0:0:0:
64,192,157110,128,0,157503:0:0:0:0:
320,192,157215,1,0,0:0:0:0:
192,192,157320,1,0,0:0:0:0:
448,192,157425,1,0,0:0:0:0:
320,192,157530,1,0,0:0:0:0:
448,192,157635,1,0,0:0:0:0:
192,192,157635,1,0,0:0:0:0:
64,192,157739,1,0,0:0:0:0:
320,192,157844,1,0,0:0:0:0:
448,192,157949,128,0,158369:0:0:0:0:
64,192,157949,128,0,158054:0:0:0:0:
192,192,157949,128,0,158159:0:0:0:0:
320,192,158054,1,0,0:0:0:0:
64,192,158159,1,0,0:0:0:0:
192,192,158264,1,0,0:0:0:0:
64,192,158369,1,0,0:0:0:0:
448,192,158474,1,0,0:0:0:0:
320,192,158579,1,0,0:0:0:0:
192,192,158579,1,0,0:0:0:0:
64,192,158683,1,0,0:0:0:0:
320,192,158788,128,0,158893:0:0:0:0:
192,192,158788,128,0,159103:0:0:0:0:
448,192,158788,1,0,0:0:0:0:
64,192,158893,1,0,0:0:0:0:
448,192,158998,1,0,0:0:0:0:
320,192,158998,1,0,0:0:0:0:
64,192,159103,1,0,0:0:0:0:
448,192,159208,1,0,0:0:0:0:
192,192,159208,1,0,0:0:0:0:
320,192,159313,1,0,0:0:0:0:
64,192,159418,1,0,0:0:0:0:
64,192,159523,1,0,0:0:0:0:
192,192,159628,1,0,0:0:0:0:
448,192,159628,1,0,0:0:0:0:
320,192,159732,1,0,0:0:0:0:
64,192,159837,1,0,0:0:0:0:
192,192,159907,1,0,0:0:0:0:
448,192,159942,1,0,0:0:0:0:
320,192,159995,1,0,0:0:0:0:
64,192,160047,1,0,0:0:0:0:
192,192,160047,1,0,0:0:0:0:
448,192,160100,1,0,0:0:0:0:
320,192,160152,1,0,0:0:0:0:
64,192,160204,1,0,0:0:0:0:
448,192,160257,1,0,0:0:0:0:
192,192,160257,1,0,0:0:0:0:
320,192,160362,1,0,0:0:0:0:
448,192,160362,1,0,0:0:0:0:
192,192,160467,1,0,0:0:0:0:
320,192,160467,128,0,160650:0:0:0:0:
64,192,160467,128,0,160545:0:0:0:0:
448,192,160572,1,0,0:0:0:0:
192,192,160676,1,0,0:0:0:0:
64,192,160781,1,0,0:0:0:0:
448,192,160886,1,0,0:0:0:0:
192,192,160886,1,0,0:0:0:0:
64,192,160991,1,0,0:0:0:0:
192,192,160991,128,0,161201:0:0:0:0:
320,192,161096,128,0,161201:0:0:0:0:
64,192,161201,128,0,161411:0:0:0:0:
448,192,161201,128,0,161647:0:0:0:0:
320,192,161306,1,0,0:0:0:0:
192,192,161411,1,0,0:0:0:0:
64,192,161516,1,0,0:0:0:0:
320,192,161516,1,0,0:0:0:0:
192,192,161621,1,0,0:0:0:0:
320,192,161725,1,0,0:0:0:0:
64,192,161830,128,0,162014:0:0:0:0:
448,192,161830,1,0,0:0:0:0:
192,192,161909,128,0,162014:0:0:0:0:
320,192,162014,128,0,162119:0:0:0:0:
448,192,162014,128,0,162433:0:0:0:0:
64,192,162145,1,0,0:0:0:0:
320,192,162250,1,0,0:0:0:0:
192,192,162250,1,0,0:0:0:0:
64,192,162355,1,0,0:0:0:0:
320,192,162460,1,0,0:0:0:0:
64,192,162565,1,0,0:0:0:0:
192,192,162565,1,0,0:0:0:0:
448,192,162669,1,0,0:0:0:0:
320,192,162774,1,0,0:0:0:0:
64,192,162774,1,0,0:0:0:0:
192,192,162879,1,0,0:0:0:0:
64,192,162879,128,0,163194:0:0:0:0:
448,192,162879,128,0,162984:0:0:0:0:
320,192,162984,1,0,0:0:0:0:
192,192,163089,1,0,0:0:0:0:
320,192,163194,128,0,163509:0:0:0:0:
448,192,163194,1,0,0:0:0:0:
64,192,163299,1,0,0:0:0:0:
192,192,163404,1,0,0:0:0:0:
448,192,163404,1,0,0:0:0:0:
64,192,163509,128,0,163579:0:0:0:0:
192,192,163579,128,0,163640:0:0:0:0:
320,192,163640,128,0,163718:0:0:0:0:
64,192,163718,128,0,163928:0:0:0:0:
448,192,163718,128,0,164138:0:0:0:0:
192,192,163823,1,0,0:0:0:0:
320,192,163928,1,0,0:0:0:0:
64,192,164033,1,0,0:0:0:0:
192,192,164138,1,0,0:0:0:0:
320,192,164243,1,0,0:0:0:0:
64,192,164243,1,0,0:0:0:0:
448,192,164348,1,0,0:0:0:0:
192,192,164453,1,0,0:0:0:0:
64,192,164558,128,0,164977:0:0:0:0:
448,192,164558,128,0,164689:0:0:0:0:
320,192,164558,128,0,164794:0:0:0:0:
192,192,164689,1,0,0:0:0:0:
448,192,164794,1,0,0:0:0:0:
320,192,164899,1,0,0:0:0:0:
448,192,164977,1,0,0:0:0:0:
64,192,165082,1,0,0:0:0:0:
192,192,165187,1,0,0:0:0:0:
320,192,165187,1,0,0:0:0:0:
448,192,165292,1,0,0:0:0:0:
192,192,165397,128,0,165502:0:0:0:0:
320,192,165397,128,0,165711:0:0:0:0:
64,192,165397,1,0,0:0:0:0:
448,192,165502,1,0,0:0:0:0:
64,192,165607,1,0,0:0:0:0:
192,192,165607,1,0,0:0:0:0:
448,192,165711,1,0,0:0:0:0:
64,192,165816,1,0,0:0:0:0:
320,192,165816,1,0,0:0:0:0:
192,192,165921,1,0,0:0:0:0:
448,192,166026,1,0,0:0:0:0:
448,192,166131,1,0,0:0:0:0:
64,192,166131,1,0,0:0:0:0:
320,192,166236,1,0,0:0:0:0:
64,192,166236,1,0,0:0:0:0:
192,192,166341,1,0,0:0:0:0:
448,192,166446,1,0,0:0:0:0:
192,192,166551,1,0,0:0:0:0:
64,192,166551,1,0,0:0:0:0:
448,192,166656,1,0,0:0:0:0:
320,192,166656,1,0,0:0:0:0:
64,192,166725,1,0,0:0:0:0:
448,192,166795,1,0,0:0:0:0:
320,192,166865,1,0,0:0:0:0:
64,192,166935,1,0,0:0:0:0:
192,192,166935,1,0,0:0:0:0:
448,192,167005,1,0,0:0:0:0:
320,192,167075,1,0,0:0:0:0:
192,192,167145,1,0,0:0:0:0:
448,192,167145,1,0,0:0:0:0:
64,192,167285,1,0,0:0:0:0:
448,192,167285,1,0,0:0:0:0:
64,192,167390,1,0,0:0:0:0:
320,192,167390,1,0,0:0:0:0:
192,192,167495,1,0,0:0:0:0:
448,192,167600,1,0,0:0:0:0:
320,192,167600,1,0,0:0:0:0:
448,192,167704,1,0,0:0:0:0:
192,192,167704,1,0,0:0:0:0:
64,192,167809,1,0,0:0:0:0:
320,192,167809,1,0,0:0:0:0:
192,192,167914,1,0,0:0:0:0:
448,192,168019,1,0,0:0:0:0:
320,192,168019,1,0,0:0:0:0:
192,192,168124,1,0,0:0:0:0:
64,192,168124,1,0,0:0:0:0:
448,192,168229,1,0,0:0:0:0:
320,192,168229,1,0,0:0:0:0:
320,192,168439,1,0,0:0:0:0:
64,192,168439,1,0,0:0:0:0:
448,192,168649,1,0,0:0:0:0:
192,192,168649,1,0,0:0:0:0:
320,192,168753,1,0,0:0:0:0:
64,192,168753,1,0,0:0:0:0:
192,192,168823,1,0,0:0:0:0:
320,192,168893,1,0,0:0:0:0:
448,192,168963,1,0,0:0:0:0:
192,192,169033,1,0,0:0:0:0:
64,192,169103,1,0,0:0:0:0:
448,192,169173,1,0,0:0:0:0:
320,192,169173,1,0,0:0:0:0:
64,192,169593,1,0,0:0:0:0:
192,192,169593,1,0,0:0:0:0:
448,192,169593,1,0,0:0:0:0:
320,192,169697,1,0,0:0:0:0:
192,192,169697,1,0,0:0:0:0:
64,192,169802,1,0,0:0:0:0:
320,192,169907,1,0,0:0:0:0:
448,192,169907,1,0,0:0:0:0:
192,192,170012,1,0,0:0:0:0:
448,192,170012,1,0,0:0:0:0:
64,192,170117,1,0,0:0:0:0:
320,192,170222,1,0,0:0:0:0:
192,192,170222,1,0,0:0:0:0:
64,192,170327,1,0,0:0:0:0:
320,192,170327,128,0,170746:0:0:0:0:
448,192,170432,1,0,0:0:0:0:
64,192,170537,1,0,0:0:0:0:
192,192,170537,128,0,170746:0:0:0:0:
448,192,170642,1,0,0:0:0:0:
64,192,170746,1,0,0:0:0:0:
192,192,170851,1,0,0:0:0:0:
320,192,170851,1,0,0:0:0:0:
320,192,170956,1,0,0:0:0:0:
64,192,170956,1,0,0:0:0:0:
192,192,171061,1,0,0:0:0:0:
448,192,171061,1,0,0:0:0:0:
448,192,171166,128,0,171481:0:0:0:0:
64,192,171166,128,0,171376:0:0:0:0:
320,192,171271,1,0,0:0:0:0:
192,192,171376,1,0,0:0:0:0:
64,192,171481,128,0,171559:0:0:0:0:
448,192,171586,128,0,171900:0:0:0:0:
192,192,171586,1,0,0:0:0:0:
192,192,171690,1,0,0:0:0:0:
320,192,171690,1,0,0:0:0:0:
64,192,171795,1,0,0:0:0:0:
320,192,171900,128,0,172110:0:0:0:0:
192,192,172005,1,0,0:0:0:0:
64,192,172110,128,0,172215:0:0:0:0:
448,192,172110,128,0,172320:0:0:0:0:
320,192,172215,128,0,172320:0:0:0:0:
64,192,172320,128,0,172425:0:0:0:0:
192,192,172320,128,0,172530:0:0:0:0:
448,192,172425,128,0,172530:0:0:0:0:
64,192,172530,128,0,172739:0:0:0:0:
320,192,172530,128,0,172635:0:0:0:0:
192,192,172635,128,0,172844:0:0:0:0:
320,192,172739,128,0,172949:0:0:0:0:
448,192,172844,128,0,172949:0:0:0:0:
64,192,172949,128,0,173369:0:0:0:0:
192,192,172949,1,0,0:0:0:0:
320,192,173054,1,0,0:0:0:0:
448,192,173159,1,0,0:0:0:0:
192,192,173159,1,0,0:0:0:0:
320,192,173264,1,0,0:0:0:0:
448,192,173369,1,0,0:0:0:0:
64,192,173474,1,0,0:0:0:0:
320,192,173579,1,0,0:0:0:0:
192,192,173579,128,0,173893:0:0:0:0:
64,192,173683,1,0,0:0:0:0:
448,192,173788,1,0,0:0:0:0:
64,192,173893,1,0,0:0:0:0:
192,192,173997,1,0,0:0:0:0:
448,192,173997,128,0,174205:0:0:0:0:
64,192,174101,1,0,0:0:0:0:
320,192,174205,128,0,174622:0:0:0:0:
192,192,174205,1,0,0:0:0:0:
448,192,174309,128,0,174413:0:0:0:0:
192,192,174413,1,0,0:0:0:0:
448,192,174518,1,0,0:0:0:0:
64,192,174518,1,0,0:0:0:0:
192,192,174622,128,0,174830:0:0:0:0:
64,192,174726,128,0,174934:0:0:0:0:
448,192,174830,1,0,0:0:0:0:
320,192,174830,1,0,0:0:0:0:
448,192,174934,1,0,0:0:0:0:
320,192,174934,1,0,0:0:0:0:
64,192,175038,1,0,0:0:0:0:
192,192,175038,1,0,0:0:0:0:
320,192,175143,1,0,0:0:0:0:
64,192,175143,128,0,175247:0:0:0:0:
448,192,175247,1,0,0:0:0:0:
64,192,175351,128,0,175455:0:0:0:0:
192,192,175455,1,0,0:0:0:0:
64,192,175559,1,0,0:0:0:0:
320,192,175559,1,0,0:0:0:0:
448,192,175663,1,0,0:0:0:0:
320,192,175715,1,0,0:0:0:0:
192,192,175768,1,0,0:0:0:0:
64,192,175768,128,0,175872:0:0:0:0:
320,192,175872,1,0,0:0:0:0:
448,192,175872,128,0,176080:0:0:0:0:
192,192,175976,128,0,176080:0:0:0:0:
320,192,176080,1,0,0:0:0:0:
64,192,176080,1,0,0:0:0:0:
448,192,176184,1,0,0:0:0:0:
192,192,176184,1,0,0:0:0:0:
64,192,176288,1,0,0:0:0:0:
320,192,176288,1,0,0:0:0:0:
448,192,176288,1,0,0:0:0:0:
64,192,176393,1,0,0:0:0:0:
192,192,176393,1,0,0:0:0:0:
320,192,176497,1,0,0:0:0:0:
192,192,176601,1,0,0:0:0:0:
448,192,176601,1,0,0:0:0:0:
448,192,176705,1,0,0:0:0:0:
64,192,176705,1,0,0:0:0:0:
320,192,176809,1,0,0:0:0:0:
192,192,176913,1,0,0:0:0:0:
64,192,176913,1,0,0:0:0:0:
192,192,177018,1,0,0:0:0:0:
448,192,177018,128,0,177330:0:0:0:0:
320,192,177122,1,0,0:0:0:0:
64,192,177226,1,0,0:0:0:0:
192,192,177330,1,0,0:0:0:0:
320,192,177330,1,0,0:0:0:0:
448,192,177434,1,0,0:0:0:0:
192,192,177538,1,0,0:0:0:0:
64,192,177538,1,0,0:0:0:0:
320,192,177643,1,0,0:0:0:0:
64,192,177643,1,0,0:0:0:0:
448,192,177747,1,0,0:0:0:0:
192,192,177747,1,0,0:0:0:0:
64,192,177851,128,0,178268:0:0:0:0:
448,192,177851,128,0,178163:0:0:0:0:
320,192,177851,1,0,0:0:0:0:
192,192,177955,1,0,0:0:0:0:
320,192,178059,1,0,0:0:0:0:
192,192,178163,1,0,0:0:0:0:
192,192,178268,128,0,178580:0:0:0:0:
448,192,178268,1,0,0:0:0:0:
320,192,178268,1,0,0:0:0:0:
64,192,178372,1,0,0:0:0:0:
448,192,178372,1,0,0:0:0:0:
320,192,178476,1,0,0:0:0:0:
448,192,178580,128,0,178788:0:0:0:0:
64,192,178580,1,0,0:0:0:0:
192,192,178684,1,0,0:0:0:0:
64,192,178788,128,0,178997:0:0:0:0:
320,192,178788,128,0,178893:0:0:0:0:
448,192,178893,1,0,0:0:0:0:
192,192,178997,128,0,179205:0:0:0:0:
320,192,178997,128,0,179101:0:0:0:0:
448,192,179101,128,0,179309:0:0:0:0:
64,192,179205,128,0,179518:0:0:0:0:
320,192,179309,128,0,179518:0:0:0:0:
192,192,179309,128,0,179413:0:0:0:0:
448,192,179413,128,0,179622:0:0:0:0:
192,192,179518,128,0,179622:0:0:0:0:
320,192,179622,1,0,0:0:0:0:
64,192,179622,1,0,0:0:0:0:
448,192,179726,1,0,0:0:0:0:
192,192,179830,1,0,0:0:0:0:
320,192,179830,1,0,0:0:0:0:
320,192,179934,1,0,0:0:0:0:
64,192,180038,128,0,180247:0:0:0:0:
192,192,180143,1,0,0:0:0:0:
320,192,180247,128,0,180663:0:0:0:0:
448,192,180351,1,0,0:0:0:0:
64,192,180455,128,0,180663:0:0:0:0:
192,192,180455,1,0,0:0:0:0:
448,192,180559,1,0,0:0:0:0:
192,192,180663,128,0,180872:0:0:0:0:
320,192,180768,128,0,180872:0:0:0:0:
64,192,180872,128,0,181080:0:0:0:0:
448,192,180872,128,0,180976:0:0:0:0:
320,192,180976,128,0,181080:0:0:0:0:
448,192,181080,128,0,181184:0:0:0:0:
192,192,181080,128,0,181497:0:0:0:0:
64,192,181184,1,0,0:0:0:0:
320,192,181288,1,0,0:0:0:0:
448,192,181288,128,0,181497:0:0:0:0:
320,192,181497,1,0,0:0:0:0:
64,192,181497,1,0,0:0:0:0:
192,192,181601,1,0,0:0:0:0:
64,192,181601,1,0,0:0:0:0:
448,192,181705,1,0,0:0:0:0:
320,192,181705,1,0,0:0:0:0:
448,192,181809,1,0,0:0:0:0:
192,192,181809,1,0,0:0:0:0:
192,192,181913,1,0,0:0:0:0:
320,192,182018,1,0,0:0:0:0:
64,192,182018,1,0,0:0:0:0:
320,192,182122,1,0,0:0:0:0:
448,192,182226,1,0,0:0:0:0:
64,192,182226,1,0,0:0:0:0:
320,192,182330,1,0,0:0:0:0:
192,192,182382,1,0,0:0:0:0:
448,192,182434,128,0,182851:0:0:0:0:
64,192,182434,128,0,182538:0:0:0:0:
320,192,182434,1,0,0:0:0:0:
192,192,182538,1,0,0:0:0:0:
64,192,182643,1,0,0:0:0:0:
320,192,182643,1,0,0:0:0:0:
320,192,182747,1,0,0:0:0:0:
192,192,182851,1,0,0:0:0:0:
64,192,182955,1,0,0:0:0:0:
320,192,182955,1,0,0:0:0:0:
448,192,182955,1,0,0:0:0:0:
64,192,183059,1,0,0:0:0:0:
192,192,183059,1,0,0:0:0:0:
320,192,183163,1,0,0:0:0:0:
192,192,183268,1,0,0:0:0:0:
448,192,183268,1,0,0:0:0:0:
448,192,183372,1,0,0:0:0:0:
64,192,183372,1,0,0:0:0:0:
320,192,183476,1,0,0:0:0:0:
192,192,183580,1,0,0:0:0:0:
64,192,183580,1,0,0:0:0:0:
192,192,183684,1,0,0:0:0:0:
448,192,183684,128,0,183997:0:0:0:0:
320,192,183788,1,0,0:0:0:0:
64,192,183893,1,0,0:0:0:0:
192,192,183997,1,0,0:0:0:0:
320,192,183997,1,0,0:0:0:0:
448,192,184101,1,0,0:0:0:0:
192,192,184205,1,0,0:0:0:0:
64,192,184205,1,0,0:0:0:0:
320,192,184309,1,0,0:0:0:0:
64,192,184309,1,0,0:0:0:0:
448,192,184413,1,0,0:0:0:0:
192,192,184413,1,0,0:0:0:0:
64,192,184518,128,0,184934:0:0:0:0:
448,192,184518,128,0,184726:0:0:0:0:
320,192,184518,1,0,0:0:0:0:
192,192,184622,1,0,0:0:0:0:
320,192,184726,1,0,0:0:0:0:
448,192,184830,1,0,0:0:0:0:
192,192,184934,128,0,185247:0:0:0:0:
320,192,184934,1,0,0:0:0:0:
448,192,185038,1,0,0:0:0:0:
64,192,185038,128,0,185143:0:0:0:0:
320,192,185143,128,0,185247:0:0:0:0:
448,192,185247,128,0,185455:0:0:0:0:
64,192,185247,1,0,0:0:0:0:
192,192,185351,1,0,0:0:0:0:
320,192,185455,128,0,185559:0:0:0:0:
64,192,185559,128,0,185768:0:0:0:0:
448,192,185559,1,0,0:0:0:0:
192,192,185698,128,0,185768:0:0:0:0:
320,192,185768,128,0,185837:0:0:0:0:
192,192,185837,128,0,185906:0:0:0:0:
448,192,185872,128,0,185976:0:0:0:0:
64,192,185872,128,0,186184:0:0:0:0:
320,192,185976,128,0,186080:0:0:0:0:
192,192,185976,128,0,186184:0:0:0:0:
448,192,186080,128,0,186288:0:0:0:0:
320,192,186184,128,0,186288:0:0:0:0:
64,192,186288,1,0,0:0:0:0:
192,192,186288,1,0,0:0:0:0:
448,192,186393,1,0,0:0:0:0:
192,192,186497,1,0,0:0:0:0:
320,192,186497,1,0,0:0:0:0:
320,192,186601,1,0,0:0:0:0:
64,192,186705,128,0,186913:0:0:0:0:
192,192,186809,1,0,0:0:0:0:
320,192,186913,128,0,187330:0:0:0:0:
448,192,187018,1,0,0:0:0:0:
64,192,187122,128,0,187330:0:0:0:0:
192,192,187122,1,0,0:0:0:0:
448,192,187226,1,0,0:0:0:0:
192,192,187330,128,0,187538:0:0:0:0:
320,192,187434,128,0,187538:0:0:0:0:
64,192,187538,128,0,187747:0:0:0:0:
448,192,187538,128,0,187643:0:0:0:0:
320,192,187643,128,0,187747:0:0:0:0:
448,192,187747,128,0,187851:0:0:0:0:
192,192,187747,128,0,188163:0:0:0:0:
64,192,187851,1,0,0:0:0:0:
320,192,187955,1,0,0:0:0:0:
448,192,187955,128,0,188163:0:0:0:0:
320,192,188163,1,0,0:0:0:0:
64,192,188163,1,0,0:0:0:0:
192,192,188268,1,0,0:0:0:0:
64,192,188268,1,0,0:0:0:0:
448,192,188372,1,0,0:0:0:0:
320,192,188372,1,0,0:0:0:0:
448,192,188476,1,0,0:0:0:0:
192,192,188476,1,0,0:0:0:0:
192,192,188580,1,0,0:0:0:0:
320,192,188684,1,0,0:0:0:0:
64,192,188684,1,0,0:0:0:0:
320,192,188788,1,0,0:0:0:0:
448,192,188893,1,0,0:0:0:0:
64,192,188893,1,0,0:0:0:0:
192,192,189049,1,0,0:0:0:0:
320,192,189101,128,0,189309:0:0:0:0:
448,192,189101,128,0,189518:0:0:0:0:
64,192,189101,128,0,189205:0:0:0:0:
192,192,189205,1,0,0:0:0:0:
64,192,189309,1,0,0:0:0:0:
320,192,189413,1,0,0:0:0:0:
192,192,189518,1,0,0:0:0:0:
448,192,189622,1,0,0:0:0:0:
320,192,189622,1,0,0:0:0:0:
64,192,189622,1,0,0:0:0:0:
192,192,189726,1,0,0:0:0:0:
320,192,189726,1,0,0:0:0:0:
448,192,189830,1,0,0:0:0:0:
192,192,189934,1,0,0:0:0:0:
64,192,189934,1,0,0:0:0:0:
320,192,190038,1,0,0:0:0:0:
64,192,190038,1,0,0:0:0:0:
448,192,190143,1,0,0:0:0:0:
192,192,190247,1,0,0:0:0:0:
320,192,190247,1,0,0:0:0:0:
448,192,190351,1,0,0:0:0:0:
192,192,190351,128,0,190768:0:0:0:0:
64,192,190455,1,0,0:0:0:0:
448,192,190559,1,0,0:0:0:0:
320,192,190559,128,0,190768:0:0:0:0:
64,192,190663,1,0,0:0:0:0:
448,192,190768,1,0,0:0:0:0:
320,192,190872,1,0,0:0:0:0:
192,192,190872,1,0,0:0:0:0:
192,192,190976,1,0,0:0:0:0:
448,192,190976,1,0,0:0:0:0:
320,192,191080,1,0,0:0:0:0:
64,192,191080,1,0,0:0:0:0:
64,192,191184,128,0,191497:0:0:0:0:
448,192,191184,128,0,191393:0:0:0:0:
192,192,191288,1,0,0:0:0:0:
320,192,191393,1,0,0:0:0:0:
448,192,191497,1,0,0:0:0:0:
448,192,191601,1,0,0:0:0:0:
192,192,191601,1,0,0:0:0:0:
64,192,191705,1,0,0:0:0:0:
192,192,191705,1,0,0:0:0:0:
64,192,191809,1,0,0:0:0:0:
192,192,191913,1,0,0:0:0:0:
448,192,191913,1,0,0:0:0:0:
320,192,192018,1,0,0:0:0:0:
64,192,192122,1,0,0:0:0:0:
448,192,192122,1,0,0:0:0:0:
192,192,192226,1,0,0:0:0:0:
448,192,192330,128,0,192434:0:0:0:0:
320,192,192330,128,0,192538:0:0:0:0:
64,192,192434,128,0,192538:0:0:0:0:
448,192,192538,128,0,192747:0:0:0:0:
192,192,192538,128,0,192643:0:0:0:0:
320,192,192643,128,0,192747:0:0:0:0:
64,192,192643,1,0,0:0:0:0:
192,192,192747,128,0,192851:0:0:0:0:
64,192,192851,128,0,192955:0:0:0:0:
320,192,192851,1,0,0:0:0:0:
448,192,192851,1,0,0:0:0:0:
448,192,192955,128,0,193372:0:0:0:0:
320,192,192955,1,0,0:0:0:0:
192,192,193059,1,0,0:0:0:0:
64,192,193163,1,0,0:0:0:0:
320,192,193163,1,0,0:0:0:0:
192,192,193268,1,0,0:0:0:0:
320,192,193372,128,0,193788:0:0:0:0:
64,192,193372,1,0,0:0:0:0:
448,192,193476,1,0,0:0:0:0:
192,192,193580,1,0,0:0:0:0:
192,192,193754,1,0,0:0:0:0:
64,192,193788,128,0,194205:0:0:0:0:
448,192,193788,1,0,0:0:0:0:
320,192,193893,1,0,0:0:0:0:
192,192,193997,1,0,0:0:0:0:
448,192,194101,1,0,0:0:0:0:
192,192,194205,128,0,194622:0:0:0:0:
320,192,194205,1,0,0:0:0:0:
64,192,194309,128,0,194413:0:0:0:0:
320,192,194413,1,0,0:0:0:0:
64,192,194518,1,0,0:0:0:0:
448,192,194518,1,0,0:0:0:0:
448,192,194622,1,0,0:0:0:0:
320,192,194622,1,0,0:0:0:0:
64,192,194622,1,0,0:0:0:0:
192,192,194726,1,0,0:0:0:0:
192,192,194830,1,0,0:0:0:0:
320,192,195038,1,0,0:0:0:0:
320,192,195143,1,0,0:0:0:0:
192,192,195351,1,0,0:0:0:0:
320,192,195455,1,0,0:0:0:0:
64,192,195559,1,0,0:0:0:0:
448,192,195559,1,0,0:0:0:0:
192,192,195663,1,0,0:0:0:0:
320,192,195715,1,0,0:0:0:0:
448,192,195715,1,0,0:0:0:0:
64,192,195768,1,0,0:0:0:0:
192,192,195872,1,0,0:0:0:0:
320,192,195976,1,0,0:0:0:0:
64,192,195976,1,0,0:0:0:0:
448,192,196080,1,0,0:0:0:0:
192,192,196080,1,0,0:0:0:0:
64,192,196184,1,0,0:0:0:0:
448,192,196184,1,0,0:0:0:0:
320,192,196288,1,0,0:0:0:0:
192,192,196288,1,0,0:0:0:0:
64,192,196601,1,0,0:0:0:0:
320,192,196913,1,0,0:0:0:0:
448,192,197122,1,0,0:0:0:0:
192,192,197226,1,0,0:0:0:0:
64,192,197330,1,0,0:0:0:0:
192,192,197434,1,0,0:0:0:0:
320,192,197538,1,0,0:0:0:0:
448,192,197538,1,0,0:0:0:0:
192,192,197955,1,0,0:0:0:0:
64,192,198163,1,0,0:0:0:0:
320,192,198372,1,0,0:0:0:0:
448,192,198580,1,0,0:0:0:0:
320,192,198788,1,0,0:0:0:0:
192,192,198788,1,0,0:0:0:0:
64,192,199101,1,0,0:0:0:0:
448,192,199413,1,0,0:0:0:0:
320,192,199622,1,0,0:0:0:0:
64,192,199622,1,0,0:0:0:0:
192,192,200063,1,0,0:0:0:0:
320,192,200485,1,0,0:0:0:0:
448,192,200485,1,0,0:0:0:0:
192,192,200908,1,0,0:0:0:0:
64,192,200908,1,0,0:0:0:0:
448,192,201116,1,0,0:0:0:0:
320,192,201220,1,0,0:0:0:0:
448,192,201324,1,0,0:0:0:0:
192,192,201324,1,0,0:0:0:0:
320,192,201637,1,0,0:0:0:0:
64,192,201741,1,0,0:0:0:0:
448,192,201949,1,0,0:0:0:0:
320,192,202158,1,0,0:0:0:0:
192,192,202158,1,0,0:0:0:0:
64,192,202262,1,0,0:0:0:0:
320,192,202366,1,0,0:0:0:0:
192,192,202470,1,0,0:0:0:0:
448,192,202574,1,0,0:0:0:0:
64,192,202678,1,0,0:0:0:0:
192,192,202783,1,0,0:0:0:0:
320,192,202887,1,0,0:0:0:0:
448,192,202991,1,0,0:0:0:0:
64,192,202991,1,0,0:0:0:0:
192,192,203408,1,0,0:0:0:0:
448,192,203824,1,0,0:0:0:0:
320,192,203824,1,0,0:0:0:0:
64,192,204241,1,0,0:0:0:0:
192,192,204345,1,0,0:0:0:0:
320,192,204449,1,0,0:0:0:0:
448,192,204553,1,0,0:0:0:0:
64,192,204658,1,0,0:0:0:0:
192,192,204658,1,0,0:0:0:0:
320,192,204970,1,0,0:0:0:0:
448,192,205283,1,0,0:0:0:0:
320,192,205387,1,0,0:0:0:0:
64,192,205491,1,0,0:0:0:0:
192,192,205491,1,0,0:0:0:0:
448,192,205595,1,0,0:0:0:0:
320,192,205699,1,0,0:0:0:0:
448,192,205803,1,0,0:0:0:0:
192,192,205803,1,0,0:0:0:0:
64,192,205908,1,0,0:0:0:0:
320,192,205908,1,0,0:0:0:0:
192,192,206220,1,0,0:0:0:0:
448,192,206272,1,0,0:0:0:0:
320,192,206324,1,0,0:0:0:0:
192,192,206394,1,0,0:0:0:0:
64,192,206394,1,0,0:0:0:0:
320,192,206845,1,0,0:0:0:0:
192,192,207053,1,0,0:0:0:0:
448,192,207262,1,0,0:0:0:0:
64,192,207262,1,0,0:0:0:0:
192,192,207366,1,0,0:0:0:0:
320,192,207470,1,0,0:0:0:0:
448,192,207574,1,0,0:0:0:0:
64,192,207574,128,0,207678:0:0:0:0:
192,192,207678,128,0,207783:0:0:0:0:
320,192,207783,128,0,207887:0:0:0:0:
448,192,207887,128,0,207991:0:0:0:0:
320,192,207991,1,0,0:0:0:0:
192,192,207991,1,0,0:0:0:0:
192,192,208095,1,0,0:0:0:0:
64,192,208199,1,0,0:0:0:0:
448,192,208303,1,0,0:0:0:0:
320,192,208303,1,0,0:0:0:0:
448,192,208408,1,0,0:0:0:0:
192,192,208512,1,0,0:0:0:0:
320,192,208616,1,0,0:0:0:0:
448,192,208720,1,0,0:0:0:0:
64,192,208720,1,0,0:0:0:0:
192,192,208928,1,0,0:0:0:0:
320,192,209033,1,0,0:0:0:0:
64,192,209033,1,0,0:0:0:0:
448,192,209137,1,0,0:0:0:0:
192,192,209241,1,0,0:0:0:0:
320,192,209241,1,0,0:0:0:0:
64,192,209345,1,0,0:0:0:0:
448,192,209449,1,0,0:0:0:0:
192,192,209553,1,0,0:0:0:0:
64,192,209553,1,0,0:0:0:0:
64,192,209658,1,0,0:0:0:0:
192,192,209658,1,0,0:0:0:0:
448,192,209762,1,0,0:0:0:0:
320,192,209762,1,0,0:0:0:0:
64,192,212314,1,0,0:0:0:0:
448,192,212314,1,0,0:0:0:0:
448,192,213199,1,0,0:0:0:0:
192,192,213199,1,0,0:0:0:0:
320,192,216637,1,0,0:0:0:0:
64,192,216637,1,0,0:0:0:0:
448,192,218303,1,0,0:0:0:0:
192,192,218303,1,0,0:0:0:0:
320,192,219814,1,0,0:0:0:0:
448,192,219866,1,0,0:0:0:0:
320,192,219918,1,0,0:0:0:0:
192,192,219970,1,0,0:0:0:0:
64,192,219970,1,0,0:0:0:0:
