osu file format v14

[General]
AudioFilename: audio.mp3
AudioLeadIn: 0
PreviewTime: 86127
Countdown: 0
SampleSet: Soft
StackLeniency: 0.7
Mode: 3
LetterboxInBreaks: 0
SpecialStyle: 0
WidescreenStoryboard: 1

[Editor]
DistanceSpacing: 0.8
BeatDivisor: 8
GridSize: 16
TimelineZoom: 1.7

[Metadata]
Title:Titania
TitleUnicode:Titania
Artist:xi
ArtistUnicode:xi
Creator:Murumoo
Version:MASTER
Source:オンゲキ
Tags:Lirai DE-CADE DECADE 珠洲島 有栖 ARISU SUZUSHIMA ZMCZ-13027 Ongeki Sound Collection 01 Jump!! Jump!! Jump!! maimai deluxe o.n.g.e.k.i. DX SEGA Video Game instrumental electronic
BeatmapID:2450539
BeatmapSetID:1174746

[Difficulty]
HPDrainRate:8
CircleSize:4
OverallDifficulty:8
ApproachRate:5
SliderMultiplier:1.4
SliderTickRate:1

[Events]
//Background and Video events
0,0,"bg.png",0,0
//Break Periods
//Storyboard Layer 0 (Background)
//Storyboard Layer 1 (Fail)
//Storyboard Layer 2 (Pass)
//Storyboard Layer 3 (Foreground)
//Storyboard Layer 4 (Overlay)
//Storyboard Sound Samples
Sample,32495,0,"finish.wav",50
Sample,32778,0,"finish.wav",50
Sample,41269,0,"finish.wav",50
Sample,74665,0,"finish.wav",50
Sample,94759,0,"finish.wav",50
Sample,95042,0,"finish.wav",50
Sample,103533,0,"finish.wav",50
Sample,121788,0,"finish.wav",50
Sample,121929,0,"finish.wav",50
Sample,122071,0,"finish.wav",50
Sample,122212,0,"finish.wav",50

[TimingPoints]
1222,283.018867924528,4,2,1,30,1,0
12542,-100,4,2,1,60,0,0
24146,-100,4,2,1,60,0,1
41976,-100,4,2,1,60,0,0
42259,-100,4,2,1,30,0,0
52165,-100,4,2,1,40,0,0
60089,-100,4,2,1,50,0,0
66174,-100,4,2,1,40,0,0
70278,-100,4,2,1,50,0,0
86410,-100,4,2,1,30,0,0
87825,-100,4,2,1,50,0,0
88391,-100,4,2,1,60,0,1
104240,-100,4,2,1,60,0,0
123061,-100,4,2,1,25,0,0

[HitObjects]
448,192,372,5,0,0:0:0:0:
192,192,655,1,0,0:0:0:0:
320,192,938,1,0,0:0:0:0:
64,192,1222,1,0,0:0:0:70:drum.wav
448,192,1257,1,0,0:0:0:0:
320,192,1505,1,0,0:0:0:0:
192,192,1646,1,0,0:0:0:0:
64,192,1788,1,0,0:0:0:0:
320,192,1929,1,0,0:0:0:0:
448,192,2071,1,0,0:0:0:0:
192,192,2212,1,0,0:0:0:0:
448,192,2354,1,0,0:0:0:0:
64,192,2389,1,0,0:0:0:0:
64,192,3486,1,0,0:0:0:0:
448,192,3521,1,0,0:0:0:0:
192,192,3769,1,0,0:0:0:0:
320,192,3910,1,0,0:0:0:0:
448,192,4052,1,0,0:0:0:0:
64,192,4193,1,0,0:0:0:0:
320,192,4335,1,0,0:0:0:0:
192,192,4429,1,0,0:0:0:0:
448,192,4523,1,0,0:0:0:0:
320,192,4618,1,0,0:0:0:0:
64,192,4653,1,0,0:0:0:0:
448,192,5042,1,0,0:0:0:0:
192,192,5042,1,0,0:0:0:0:
320,192,5467,1,0,0:0:0:0:
192,192,5467,1,0,0:0:0:0:
64,192,5750,1,0,0:0:0:0:
448,192,5785,1,0,0:0:0:0:
192,192,6033,1,0,0:0:0:0:
320,192,6174,1,0,0:0:0:0:
192,192,6316,1,0,0:0:0:0:
64,192,6457,1,0,0:0:0:0:
448,192,6599,1,0,0:0:0:0:
320,192,6740,1,0,0:0:0:0:
64,192,6882,1,0,0:0:0:0:
192,192,6882,1,0,0:0:0:0:
320,192,6976,1,0,0:0:0:0:
192,192,7071,1,0,0:0:0:0:
64,192,7165,1,0,0:0:0:0:
448,192,7165,1,0,0:0:0:0:
192,192,7259,1,0,0:0:0:0:
320,192,7354,1,0,0:0:0:0:
64,192,7448,1,0,0:0:0:0:
448,192,7448,1,0,0:0:0:0:
320,192,7542,1,0,0:0:0:0:
64,192,7637,1,0,0:0:0:0:
192,192,7731,1,0,0:0:0:0:
448,192,7731,1,0,0:0:0:0:
320,192,7825,1,0,0:0:0:0:
192,192,7920,1,0,0:0:0:0:
64,192,8014,1,0,0:0:0:0:
320,192,8049,1,0,0:0:0:0:
320,192,8580,1,0,0:0:0:0:
192,192,8580,1,0,0:0:0:0:
64,192,9146,1,0,0:0:0:0:
448,192,9146,1,0,0:0:0:0:
192,192,9712,1,0,0:0:0:0:
448,192,9712,128,0,11552:0:0:0:0:
192,192,11552,128,0,12259:0:0:0:0:
320,192,11976,128,0,12259:0:0:0:0:
64,192,12542,1,0,0:0:0:70:drum.wav
192,192,12542,1,0,0:0:0:50:finish.wav
448,192,12542,1,0,0:0:0:0:
64,192,12684,1,0,0:0:0:70:drum.wav
192,192,12684,1,0,0:0:0:50:finish.wav
64,192,12967,1,0,0:0:0:70:drum.wav
320,192,12967,1,0,0:0:0:50:finish.wav
448,192,12967,1,0,0:0:0:0:
320,192,13108,1,0,0:0:0:70:drum.wav
448,192,13108,1,0,0:0:0:50:finish.wav
192,192,13391,1,0,0:0:0:70:drum.wav
320,192,13391,1,0,0:0:0:50:finish.wav
448,192,13391,1,0,0:0:0:0:
64,192,13533,1,0,0:0:0:70:drum.wav
192,192,13533,1,0,0:0:0:50:finish.wav
64,192,13816,1,0,0:0:0:50:snare.wav
448,192,13816,1,0,0:0:0:0:
192,192,13957,1,0,0:0:0:50:LR_Tom Drop.wav
320,192,14028,1,0,0:0:0:50:LR_Tom Drop.wav
64,192,14099,1,0,0:0:0:50:LR_Tom Drop.wav
448,192,14099,1,0,0:0:0:0:
192,192,14240,1,0,0:0:0:50:LR_Tom Drop.wav
64,192,14311,1,0,0:0:0:50:LR_Tom Drop.wav
320,192,14382,1,0,0:0:0:50:LR_Tom Drop.wav
448,192,14382,1,0,0:0:0:0:
192,192,14523,1,0,0:0:0:70:drum.wav
320,192,14594,1,0,0:0:0:70:drum.wav
64,192,14665,1,0,0:0:0:70:drum.wav
192,192,14736,1,0,0:0:0:70:drum.wav
64,192,14806,1,0,0:0:0:70:drum.wav
320,192,14806,1,0,0:0:0:50:finish.wav
448,192,14806,1,0,0:0:0:0:
320,192,14948,1,0,0:0:0:70:drum.wav
448,192,14948,1,0,0:0:0:50:finish.wav
64,192,15231,1,0,0:0:0:70:drum.wav
192,192,15231,1,0,0:0:0:50:finish.wav
448,192,15231,1,0,0:0:0:0:
64,192,15372,1,0,0:0:0:70:drum.wav
192,192,15372,1,0,0:0:0:50:finish.wav
64,192,15655,1,0,0:0:0:70:drum.wav
192,192,15655,1,0,0:0:0:50:finish.wav
320,192,15655,1,0,0:0:0:0:
320,192,15797,1,0,0:0:0:70:drum.wav
448,192,15797,1,0,0:0:0:50:finish.wav
64,192,16080,1,0,0:0:0:50:snare.wav
320,192,16080,1,0,0:0:0:0:
192,192,16221,1,0,0:0:0:50:LR_Tom Drop.wav
320,192,16363,1,0,0:0:0:50:snare.wav
192,192,16434,1,0,0:0:0:0:
64,192,16505,1,0,0:0:0:50:snare.wav
448,192,16505,1,0,0:0:0:0:
320,192,16646,1,0,0:0:0:40:snare2.wav
64,192,16717,1,0,0:0:0:40:snare2.wav
192,192,16788,1,0,0:0:0:70:drum.wav
448,192,16788,1,0,0:0:0:0:
320,192,16858,1,0,0:0:0:70:drum.wav
64,192,16929,1,0,0:0:0:70:drum.wav
192,192,17000,1,0,0:0:0:70:drum.wav
320,192,17071,128,0,17354:0:0:0:70:drum.wav
448,192,17071,128,0,17354:0:0:0:50:finish.wav
64,192,17354,1,0,0:0:0:70:drum.wav
192,192,17424,1,0,0:0:0:0:
448,192,17495,1,0,0:0:0:70:drum.wav
320,192,17566,1,0,0:0:0:0:
64,192,17637,1,0,0:0:0:70:drum.wav
192,192,17637,1,0,0:0:0:0:
320,192,17707,1,0,0:0:0:0:
448,192,17778,1,0,0:0:0:70:drum.wav
192,192,17849,1,0,0:0:0:0:
64,192,17920,1,0,0:0:0:70:drum.wav
320,192,17920,1,0,0:0:0:0:
448,192,17990,1,0,0:0:0:0:
64,192,18061,128,0,18344:0:0:0:70:drum.wav
192,192,18061,128,0,18344:0:0:0:50:finish.wav
320,192,18344,1,0,0:0:0:70:drum.wav
448,192,18344,1,0,0:0:0:0:
64,192,18486,1,0,0:0:0:70:drum.wav
192,192,18486,1,0,0:0:0:0:
448,192,18556,1,0,0:0:0:70:drum.wav
320,192,18627,1,0,0:0:0:70:drum.wav
192,192,18698,1,0,0:0:0:0:
64,192,18769,1,0,0:0:0:70:drum.wav
448,192,18769,1,0,0:0:0:0:
192,192,18910,1,0,0:0:0:70:drum.wav
320,192,18981,1,0,0:0:0:70:drum.wav
64,192,19052,1,0,0:0:0:70:drum.wav
192,192,19052,1,0,0:0:0:0:
448,192,19122,1,0,0:0:0:70:drum.wav
320,192,19193,1,0,0:0:0:70:drum.wav
192,192,19264,1,0,0:0:0:70:drum.wav
64,192,19335,1,0,0:0:0:70:drum.wav
320,192,19335,1,0,0:0:0:50:finish.wav
448,192,19335,1,0,0:0:0:0:
192,192,19476,1,0,0:0:0:70:drum.wav
448,192,19476,1,0,0:0:0:50:finish.wav
320,192,19618,1,0,0:0:0:40:snare2.wav
64,192,19688,1,0,0:0:0:40:snare2.wav
192,192,19759,1,0,0:0:0:40:snare2.wav
320,192,19830,1,0,0:0:0:40:snare2.wav
64,192,19901,1,0,0:0:0:70:drum.wav
192,192,19901,1,0,0:0:0:50:finish.wav
448,192,19901,1,0,0:0:0:0:
64,192,20042,1,0,0:0:0:70:drum.wav
320,192,20042,1,0,0:0:0:50:finish.wav
448,192,20184,1,0,0:0:0:40:snare2.wav
320,192,20255,1,0,0:0:0:40:snare2.wav
192,192,20325,1,0,0:0:0:40:snare2.wav
64,192,20396,1,0,0:0:0:40:snare2.wav
192,192,20467,1,0,0:0:0:70:drum.wav
320,192,20467,1,0,0:0:0:50:finish.wav
448,192,20467,1,0,0:0:0:0:
64,192,20679,1,0,0:0:0:70:drum.wav
320,192,20679,1,0,0:0:0:50:finish.wav
192,192,20679,1,0,0:0:0:0:
64,192,20891,1,0,0:0:0:70:drum.wav
320,192,20891,1,0,0:0:0:50:finish.wav
448,192,20891,1,0,0:0:0:0:
64,192,21104,1,0,0:0:0:70:drum.wav
192,192,21104,1,0,0:0:0:50:finish.wav
448,192,21104,1,0,0:0:0:0:
192,192,21316,1,0,0:0:0:70:drum.wav
320,192,21316,1,0,0:0:0:50:finish.wav
448,192,21316,1,0,0:0:0:0:
64,192,21457,1,0,0:0:0:70:drum.wav
192,192,21457,1,0,0:0:0:50:finish.wav
320,192,21457,1,0,0:0:0:0:
64,192,21599,1,0,0:0:0:70:drum.wav
448,192,21599,128,0,21882:0:0:0:0:
64,192,21882,1,0,0:0:0:0:
192,192,21976,1,0,0:0:0:0:
320,192,22071,1,0,0:0:0:0:
64,192,22165,1,0,0:0:0:0:
448,192,22165,1,0,0:0:0:0:
192,192,22236,1,0,0:0:0:0:
320,192,22306,1,0,0:0:0:0:
448,192,22377,1,0,0:0:0:0:
64,192,22448,1,0,0:0:0:0:
192,192,22448,1,0,0:0:0:0:
320,192,22519,1,0,0:0:0:0:
192,192,22589,1,0,0:0:0:0:
320,192,22660,1,0,0:0:0:0:
64,192,22731,1,0,0:0:0:70:drum.wav
448,192,22731,1,0,0:0:0:50:finish.wav
192,192,22872,1,0,0:0:0:70:drum.wav
320,192,22943,1,0,0:0:0:70:drum.wav
64,192,23014,1,0,0:0:0:70:drum.wav
448,192,23014,1,0,0:0:0:50:finish.wav
320,192,23155,1,0,0:0:0:70:drum.wav
448,192,23226,1,0,0:0:0:70:drum.wav
64,192,23297,1,0,0:0:0:70:drum.wav
192,192,23297,1,0,0:0:0:50:finish.wav
448,192,23438,1,0,0:0:0:70:drum.wav
192,192,23509,1,0,0:0:0:70:drum.wav
64,192,23580,1,0,0:0:0:70:drum.wav
320,192,23580,1,0,0:0:0:50:finish.wav
192,192,23721,1,0,0:0:0:70:drum.wav
320,192,23792,1,0,0:0:0:70:drum.wav
192,192,23863,1,0,0:0:0:70:drum.wav
320,192,23934,1,0,0:0:0:70:drum.wav
64,192,24005,1,0,0:0:0:70:drum.wav
192,192,24075,1,0,0:0:0:70:drum.wav
320,192,24146,1,0,0:0:0:70:drum.wav
448,192,24146,128,0,24288:0:0:0:50:finish.wav
64,192,24146,1,0,0:0:0:0:
192,192,24288,128,0,24429:0:0:0:0:
320,192,24429,128,0,24571:0:0:0:0:
192,192,24571,1,0,0:0:0:70:drum.wav
64,192,24571,128,0,24712:0:0:0:0:
320,192,24712,1,0,0:0:0:50:snare.wav
448,192,24712,128,0,24854:0:0:0:0:
64,192,24854,128,0,25137:0:0:0:70:drum.wav
192,192,24854,1,0,0:0:0:0:
320,192,25137,1,0,0:0:0:70:drum.wav
448,192,25137,1,0,0:0:0:0:
64,192,25278,1,0,0:0:0:50:snare.wav
192,192,25278,1,0,0:0:0:0:
448,192,25349,1,0,0:0:0:0:
320,192,25420,1,0,0:0:0:70:drum.wav
192,192,25490,1,0,0:0:0:0:
64,192,25561,1,0,0:0:0:70:drum.wav
448,192,25561,1,0,0:0:0:0:
64,192,25773,1,0,0:0:0:70:drum.wav
320,192,25773,1,0,0:0:0:0:
192,192,25986,1,0,0:0:0:70:drum.wav
448,192,25986,1,0,0:0:0:0:
64,192,26127,1,0,0:0:0:50:snare.wav
320,192,26127,128,0,26410:0:0:0:0:
448,192,26127,128,0,26410:0:0:0:0:
64,192,26410,1,0,0:0:0:70:drum.wav
192,192,26410,1,0,0:0:0:0:
448,192,26552,1,0,0:0:0:70:drum.wav
320,192,26622,1,0,0:0:0:0:
192,192,26693,1,0,0:0:0:0:
64,192,26764,1,0,0:0:0:0:
320,192,26835,1,0,0:0:0:70:drum.wav
192,192,26905,1,0,0:0:0:0:
448,192,26976,1,0,0:0:0:50:snare.wav
320,192,27047,1,0,0:0:0:0:
64,192,27118,1,0,0:0:0:0:
192,192,27188,1,0,0:0:0:0:
320,192,27259,1,0,0:0:0:70:drum.wav
448,192,27259,128,0,27542:0:0:0:0:
64,192,27542,128,0,27825:0:0:0:50:snare.wav
192,192,27542,1,0,0:0:0:0:
320,192,27684,1,0,0:0:0:70:drum.wav
448,192,27684,1,0,0:0:0:0:
192,192,27825,128,0,28108:0:0:0:0:
320,192,27967,1,0,0:0:0:70:drum.wav
448,192,27967,1,0,0:0:0:0:
64,192,28108,1,0,0:0:0:50:snare.wav
448,192,28108,128,0,28391:0:0:0:0:
64,192,28391,1,0,0:0:0:70:drum.wav
192,192,28391,1,0,0:0:0:50:finish.wav
320,192,28391,1,0,0:0:0:0:
64,192,28533,1,0,0:0:0:70:drum.wav
448,192,28533,1,0,0:0:0:50:finish.wav
192,192,28674,1,0,0:0:0:40:snare2.wav
320,192,28745,1,0,0:0:0:40:snare2.wav
64,192,28816,1,0,0:0:0:40:snare2.wav
192,192,28887,1,0,0:0:0:40:snare2.wav
64,192,28957,1,0,0:0:0:70:drum.wav
320,192,28957,1,0,0:0:0:50:finish.wav
448,192,28957,1,0,0:0:0:0:
192,192,29099,1,0,0:0:0:70:drum.wav
448,192,29099,1,0,0:0:0:50:finish.wav
64,192,29240,1,0,0:0:0:40:snare2.wav
192,192,29311,1,0,0:0:0:40:snare2.wav
320,192,29382,1,0,0:0:0:40:snare2.wav
448,192,29453,1,0,0:0:0:40:snare2.wav
64,192,29523,1,0,0:0:0:70:drum.wav
192,192,29523,1,0,0:0:0:50:finish.wav
320,192,29523,1,0,0:0:0:0:
64,192,29665,1,0,0:0:0:70:drum.wav
448,192,29665,1,0,0:0:0:50:finish.wav
320,192,29806,1,0,0:0:0:70:drum.wav
448,192,29877,1,0,0:0:0:0:
192,192,29948,1,0,0:0:0:70:drum.wav
64,192,30019,1,0,0:0:0:0:
192,192,30089,1,0,0:0:0:70:drum.wav
320,192,30089,1,0,0:0:0:50:finish.wav
448,192,30089,1,0,0:0:0:0:
64,192,30231,1,0,0:0:0:70:drum.wav
448,192,30231,1,0,0:0:0:50:finish.wav
320,192,30372,1,0,0:0:0:70:drum.wav
64,192,30443,1,0,0:0:0:0:
192,192,30514,1,0,0:0:0:70:drum.wav
320,192,30585,1,0,0:0:0:0:
64,192,30655,1,0,0:0:0:70:drum.wav
192,192,30655,1,0,0:0:0:50:finish.wav
448,192,30655,1,0,0:0:0:0:
320,192,30797,1,0,0:0:0:70:drum.wav
192,192,30868,1,0,0:0:0:70:drum.wav
64,192,30938,1,0,0:0:0:70:drum.wav
320,192,30938,1,0,0:0:0:50:finish.wav
448,192,30938,1,0,0:0:0:0:
192,192,31080,1,0,0:0:0:70:drum.wav
64,192,31151,1,0,0:0:0:70:drum.wav
192,192,31221,1,0,0:0:0:70:drum.wav
320,192,31221,1,0,0:0:0:50:finish.wav
448,192,31221,1,0,0:0:0:0:
64,192,31363,1,0,0:0:0:70:drum.wav
320,192,31434,1,0,0:0:0:70:drum.wav
64,192,31505,1,0,0:0:0:70:drum.wav
192,192,31505,1,0,0:0:0:50:finish.wav
448,192,31505,1,0,0:0:0:0:
320,192,31646,1,0,0:0:0:70:drum.wav
192,192,31717,1,0,0:0:0:70:drum.wav
64,192,31788,1,0,0:0:0:70:drum.wav
320,192,31788,1,0,0:0:0:50:finish.wav
448,192,31788,1,0,0:0:0:0:
192,192,31929,1,0,0:0:0:70:drum.wav
448,192,31929,1,0,0:0:0:50:finish.wav
64,192,32071,1,0,0:0:0:70:drum.wav
320,192,32071,1,0,0:0:0:50:finish.wav
64,192,32212,1,0,0:0:0:70:drum.wav
192,192,32212,1,0,0:0:0:50:finish.wav
320,192,32354,1,0,0:0:0:70:drum.wav
448,192,32354,1,0,0:0:0:50:finish.wav
64,192,32424,1,0,0:0:0:70:drum.wav
192,192,32495,1,0,0:0:0:70:drum.wav
320,192,32566,1,0,0:0:0:70:drum.wav
64,192,32637,1,0,0:0:0:70:drum.wav
448,192,32637,1,0,0:0:0:50:finish.wav
192,192,32707,1,0,0:0:0:70:drum.wav
320,192,32778,1,0,0:0:0:70:drum.wav
192,192,32849,1,0,0:0:0:70:drum.wav
320,192,32920,1,0,0:0:0:70:drum.wav
192,192,32990,1,0,0:0:0:70:drum.wav
448,192,33061,1,0,0:0:0:70:drum.wav
320,192,33132,1,0,0:0:0:70:drum.wav
64,192,33203,128,0,33344:0:0:0:70:drum.wav
192,192,33203,1,0,0:0:0:50:finish.wav
448,192,33203,1,0,0:0:0:0:
320,192,33344,128,0,33486:0:0:0:0:
192,192,33486,128,0,33627:0:0:0:0:
448,192,33627,128,0,33769:0:0:0:70:drum.wav
320,192,33627,1,0,0:0:0:0:
64,192,33769,128,0,33910:0:0:0:50:snare.wav
192,192,33769,1,0,0:0:0:0:
320,192,33910,1,0,0:0:0:70:drum.wav
448,192,33910,128,0,34193:0:0:0:0:
64,192,34193,1,0,0:0:0:70:drum.wav
192,192,34193,1,0,0:0:0:0:
320,192,34335,1,0,0:0:0:50:snare.wav
448,192,34335,1,0,0:0:0:0:
64,192,34405,1,0,0:0:0:0:
192,192,34476,1,0,0:0:0:70:drum.wav
320,192,34547,1,0,0:0:0:0:
64,192,34618,1,0,0:0:0:70:drum.wav
448,192,34618,1,0,0:0:0:0:
192,192,34830,1,0,0:0:0:70:drum.wav
448,192,34830,1,0,0:0:0:0:
64,192,35042,1,0,0:0:0:70:drum.wav
320,192,35042,1,0,0:0:0:0:
64,192,35184,128,0,35467:0:0:0:50:snare.wav
192,192,35184,128,0,35467:0:0:0:0:
448,192,35184,1,0,0:0:0:0:
320,192,35467,1,0,0:0:0:70:drum.wav
448,192,35467,1,0,0:0:0:0:
64,192,35608,1,0,0:0:0:70:drum.wav
192,192,35679,1,0,0:0:0:0:
320,192,35750,1,0,0:0:0:0:
448,192,35821,1,0,0:0:0:0:
192,192,35891,1,0,0:0:0:70:drum.wav
320,192,35962,1,0,0:0:0:0:
64,192,36033,1,0,0:0:0:50:snare.wav
192,192,36104,1,0,0:0:0:0:
448,192,36174,1,0,0:0:0:0:
320,192,36245,1,0,0:0:0:0:
64,192,36316,128,0,36599:0:0:0:70:drum.wav
192,192,36316,1,0,0:0:0:0:
320,192,36599,1,0,0:0:0:50:snare.wav
448,192,36599,128,0,36882:0:0:0:0:
64,192,36740,1,0,0:0:0:70:drum.wav
192,192,36740,1,0,0:0:0:0:
320,192,36882,128,0,37165:0:0:0:0:
64,192,37023,1,0,0:0:0:70:drum.wav
192,192,37023,1,0,0:0:0:0:
64,192,37165,128,0,37448:0:0:0:50:snare.wav
448,192,37165,1,0,0:0:0:0:
192,192,37448,1,0,0:0:0:70:drum.wav
320,192,37448,128,0,37637:0:0:0:50:finish.wav
448,192,37448,128,0,37637:0:0:0:0:
320,192,37731,1,0,0:0:0:50:snare.wav
448,192,37731,1,0,0:0:0:0:
64,192,37825,1,0,0:0:0:50:snare.wav
192,192,37825,1,0,0:0:0:0:
320,192,37920,1,0,0:0:0:50:snare.wav
448,192,37920,1,0,0:0:0:0:
64,192,38014,128,0,38203:0:0:0:70:drum.wav
192,192,38014,128,0,38203:0:0:0:0:
64,192,38297,1,0,0:0:0:50:snare.wav
192,192,38297,1,0,0:0:0:0:
320,192,38391,1,0,0:0:0:50:snare.wav
448,192,38391,1,0,0:0:0:0:
64,192,38486,1,0,0:0:0:50:snare.wav
192,192,38486,1,0,0:0:0:0:
64,192,38580,1,0,0:0:0:70:drum.wav
320,192,38580,128,0,38769:0:0:0:50:finish.wav
448,192,38580,128,0,38769:0:0:0:0:
320,192,38863,1,0,0:0:0:70:drum.wav
448,192,38863,1,0,0:0:0:0:
64,192,38957,1,0,0:0:0:70:drum.wav
192,192,38957,1,0,0:0:0:0:
320,192,39052,1,0,0:0:0:70:drum.wav
448,192,39052,1,0,0:0:0:0:
64,192,39146,1,0,0:0:0:70:drum.wav
192,192,39146,1,0,0:0:0:50:finish.wav
448,192,39146,1,0,0:0:0:0:
192,192,39358,1,0,0:0:0:70:drum.wav
320,192,39358,1,0,0:0:0:50:finish.wav
448,192,39358,1,0,0:0:0:0:
64,192,39571,1,0,0:0:0:70:drum.wav
192,192,39571,1,0,0:0:0:50:finish.wav
448,192,39571,1,0,0:0:0:0:
64,192,39712,1,0,0:0:0:70:drum.wav
320,192,39712,1,0,0:0:0:50:finish.wav
448,192,39712,1,0,0:0:0:0:
192,192,39854,1,0,0:0:0:40:snare2.wav
320,192,39924,1,0,0:0:0:40:snare2.wav
64,192,39995,1,0,0:0:0:70:drum.wav
320,192,40066,1,0,0:0:0:0:
64,192,40137,1,0,0:0:0:70:drum.wav
192,192,40137,1,0,0:0:0:50:finish.wav
448,192,40137,1,0,0:0:0:0:
320,192,40278,1,0,0:0:0:40:snare2.wav
192,192,40349,1,0,0:0:0:40:snare2.wav
448,192,40420,1,0,0:0:0:70:drum.wav
192,192,40490,1,0,0:0:0:0:
64,192,40561,1,0,0:0:0:70:drum.wav
320,192,40561,1,0,0:0:0:50:finish.wav
448,192,40561,1,0,0:0:0:0:
192,192,40703,1,0,0:0:0:40:snare2.wav
64,192,40773,1,0,0:0:0:40:snare2.wav
448,192,40844,1,0,0:0:0:40:snare2.wav
320,192,40844,1,0,0:0:0:0:
64,192,40986,1,0,0:0:0:70:drum.wav
192,192,40986,1,0,0:0:0:50:finish.wav
448,192,40986,1,0,0:0:0:0:
64,192,41127,1,0,0:0:0:70:drum.wav
192,192,41127,1,0,0:0:0:50:finish.wav
320,192,41269,1,0,0:0:0:70:drum.wav
192,192,41339,1,0,0:0:0:70:drum.wav
64,192,41410,1,0,0:0:0:70:drum.wav
320,192,41410,1,0,0:0:0:50:finish.wav
448,192,41410,1,0,0:0:0:0:
192,192,41552,1,0,0:0:0:70:drum.wav
64,192,41622,1,0,0:0:0:70:drum.wav
320,192,41622,1,0,0:0:0:50:finish.wav
448,192,41622,1,0,0:0:0:0:
320,192,41764,1,0,0:0:0:70:drum.wav
192,192,41835,1,0,0:0:0:70:drum.wav
448,192,41835,1,0,0:0:0:50:finish.wav
64,192,41905,1,0,0:0:0:70:drum.wav
320,192,41976,1,0,0:0:0:70:drum.wav
448,192,41976,1,0,0:0:0:0:
320,192,42259,1,0,0:0:0:0:
192,192,42330,1,0,0:0:0:0:
320,192,42401,1,0,0:0:0:0:
448,192,42471,1,0,0:0:0:0:
192,192,42542,1,0,0:0:0:0:
320,192,42637,1,0,0:0:0:0:
192,192,42731,1,0,0:0:0:0:
64,192,42825,1,0,0:0:0:0:
320,192,42920,1,0,0:0:0:0:
192,192,43014,1,0,0:0:0:0:
64,192,43108,1,0,0:0:0:0:
448,192,43108,1,0,0:0:0:0:
320,192,43250,1,0,0:0:0:0:
192,192,43297,1,0,0:0:0:0:
64,192,43344,1,0,0:0:0:0:
448,192,43391,1,0,0:0:0:0:
192,192,43533,1,0,0:0:0:0:
448,192,43674,1,0,0:0:0:0:
320,192,43863,1,0,0:0:0:0:
192,192,44063,1,0,0:0:0:0:
64,192,44240,1,0,0:0:0:70:drum.wav
448,192,44240,1,0,0:0:0:0:
192,192,44665,1,0,0:0:0:0:
320,192,45089,1,0,0:0:0:0:
448,192,45372,1,0,0:0:0:0:
64,192,45514,1,0,0:0:0:0:
320,192,45797,1,0,0:0:0:0:
192,192,46080,1,0,0:0:0:0:
64,192,46363,1,0,0:0:0:0:
320,192,46505,1,0,0:0:0:0:
192,192,46752,1,0,0:0:0:0:
448,192,46788,1,0,0:0:0:0:
320,192,47354,1,0,0:0:0:0:
64,192,47495,1,0,0:0:0:0:
192,192,47920,1,0,0:0:0:0:
320,192,48486,1,0,0:0:0:0:
64,192,48733,1,0,0:0:0:0:
448,192,48769,1,0,0:0:0:0:
320,192,49193,1,0,0:0:0:0:
192,192,49229,1,0,0:0:0:0:
448,192,49618,1,0,0:0:0:0:
320,192,49901,1,0,0:0:0:0:
64,192,50042,1,0,0:0:0:0:
448,192,50325,1,0,0:0:0:0:
64,192,50608,1,0,0:0:0:0:
320,192,50891,1,0,0:0:0:0:
64,192,51316,1,0,0:0:0:0:
448,192,51316,1,0,0:0:0:0:
192,192,51599,1,0,0:0:0:0:
320,192,51693,1,0,0:0:0:0:
192,192,51788,1,0,0:0:0:0:
64,192,51882,1,0,0:0:0:0:
448,192,51953,1,0,0:0:0:0:
320,192,52023,1,0,0:0:0:0:
192,192,52094,1,0,0:0:0:0:
320,192,52165,1,0,0:0:0:70:drum.wav
64,192,52306,1,0,0:0:0:50:snare.wav
448,192,52306,1,0,0:0:0:0:
192,192,52448,1,0,0:0:0:0:
64,192,52589,1,0,0:0:0:50:LR_Tom Drop.wav
320,192,52589,1,0,0:0:0:0:
192,192,52731,1,0,0:0:0:0:
320,192,52872,1,0,0:0:0:40:snare2.wav
448,192,52872,1,0,0:0:0:0:
64,192,53014,1,0,0:0:0:70:drum.wav
448,192,53014,1,0,0:0:0:0:
64,192,53297,128,0,54005:0:0:0:70:drum.wav
192,192,53297,1,0,0:0:0:50:finish.wav
448,192,53297,1,0,0:0:0:0:
320,192,53580,1,0,0:0:0:0:
448,192,53721,128,0,54005:0:0:0:0:
320,192,54146,128,0,54429:0:0:0:0:
192,192,54288,128,0,54712:0:0:0:0:
64,192,54429,128,0,54995:0:0:0:70:drum.wav
448,192,54429,128,0,54712:0:0:0:0:
320,192,54712,128,0,55278:0:0:0:0:
192,192,54995,128,0,55561:0:0:0:70:drum.wav
448,192,54995,128,0,55278:0:0:0:0:
64,192,55278,128,0,55561:0:0:0:0:
320,192,55561,1,0,0:0:0:70:drum.wav
448,192,55561,128,0,56269:0:0:0:0:
192,192,55844,1,0,0:0:0:0:
64,192,55986,128,0,56269:0:0:0:0:
192,192,56410,128,0,56693:0:0:0:0:
320,192,56552,128,0,56835:0:0:0:0:
64,192,56693,128,0,56835:0:0:0:70:drum.wav
448,192,56693,128,0,56976:0:0:0:0:
64,192,56976,128,0,57542:0:0:0:0:
192,192,57047,1,0,0:0:0:0:
320,192,57118,128,0,57259:0:0:0:0:
192,192,57259,128,0,57542:0:0:0:70:drum.wav
448,192,57259,128,0,57825:0:0:0:0:
320,192,57542,128,0,57825:0:0:0:0:
64,192,57825,1,0,0:0:0:70:drum.wav
192,192,57825,128,0,58533:0:0:0:0:
448,192,58179,1,0,0:0:0:0:
64,192,58250,128,0,58533:0:0:0:0:
448,192,58674,128,0,58957:0:0:0:0:
320,192,58816,128,0,59099:0:0:0:0:
64,192,58957,128,0,59240:0:0:0:70:drum.wav
192,192,58957,128,0,59523:0:0:0:0:
320,192,59240,128,0,59523:0:0:0:0:
64,192,59523,1,0,0:0:0:70:drum.wav
448,192,59523,1,0,0:0:0:0:
192,192,59618,1,0,0:0:0:50:snare.wav
320,192,59712,1,0,0:0:0:50:snare.wav
64,192,59806,1,0,0:0:0:50:LR_Tom Drop.wav
448,192,59806,1,0,0:0:0:0:
320,192,59901,1,0,0:0:0:50:LR_Tom Drop.wav
192,192,59995,1,0,0:0:0:70:drum.wav
320,192,60089,128,0,60372:0:0:0:70:drum.wav
448,192,60089,128,0,60372:0:0:0:50:finish.wav
64,192,60089,1,0,0:0:0:0:
64,192,60372,1,0,0:0:0:70:drum.wav
192,192,60372,1,0,0:0:0:0:
64,192,60514,1,0,0:0:0:70:drum.wav
320,192,60514,1,0,0:0:0:50:finish.wav
448,192,60514,1,0,0:0:0:0:
64,192,60797,1,0,0:0:0:70:drum.wav
192,192,60797,1,0,0:0:0:50:finish.wav
448,192,60797,1,0,0:0:0:0:
64,192,61080,1,0,0:0:0:70:drum.wav
320,192,61080,1,0,0:0:0:50:finish.wav
448,192,61080,128,0,61788:0:0:0:0:
64,192,61363,1,0,0:0:0:40:snare2.wav
192,192,61363,1,0,0:0:0:0:
64,192,61505,1,0,0:0:0:70:drum.wav
320,192,61505,1,0,0:0:0:0:
192,192,61646,1,0,0:0:0:40:snare2.wav
320,192,61717,1,0,0:0:0:40:snare2.wav
64,192,61788,1,0,0:0:0:70:drum.wav
192,192,61858,1,0,0:0:0:40:snare2.wav
448,192,61929,1,0,0:0:0:40:snare2.wav
320,192,62000,1,0,0:0:0:40:snare2.wav
64,192,62071,1,0,0:0:0:70:drum.wav
192,192,62071,1,0,0:0:0:0:
320,192,62212,1,0,0:0:0:0:
64,192,62354,128,0,62637:0:0:0:70:drum.wav
192,192,62354,128,0,62637:0:0:0:50:finish.wav
448,192,62354,1,0,0:0:0:0:
320,192,62637,1,0,0:0:0:70:drum.wav
448,192,62637,1,0,0:0:0:0:
64,192,62778,1,0,0:0:0:70:drum.wav
192,192,62778,1,0,0:0:0:50:finish.wav
448,192,62778,1,0,0:0:0:0:
64,192,63061,1,0,0:0:0:70:drum.wav
320,192,63061,1,0,0:0:0:50:finish.wav
448,192,63061,1,0,0:0:0:0:
64,192,63344,128,0,63769:0:0:0:70:drum.wav
192,192,63344,1,0,0:0:0:50:finish.wav
448,192,63344,1,0,0:0:0:0:
192,192,63627,1,0,0:0:0:40:snare2.wav
448,192,63627,1,0,0:0:0:0:
448,192,63769,1,0,0:0:0:70:drum.wav
320,192,63769,1,0,0:0:0:0:
192,192,63910,1,0,0:0:0:70:drum.wav
64,192,63910,1,0,0:0:0:0:
320,192,64052,1,0,0:0:0:70:drum.wav
192,192,64052,1,0,0:0:0:0:
448,192,64193,1,0,0:0:0:70:drum.wav
64,192,64193,1,0,0:0:0:0:
320,192,64335,1,0,0:0:0:70:drum.wav
192,192,64335,1,0,0:0:0:0:
448,192,64476,1,0,0:0:0:70:drum.wav
320,192,64547,1,0,0:0:0:70:drum.wav
64,192,64618,1,0,0:0:0:70:drum.wav
192,192,64618,1,0,0:0:0:50:finish.wav
448,192,64688,1,0,0:0:0:0:
320,192,64759,1,0,0:0:0:70:drum.wav
192,192,64830,1,0,0:0:0:70:drum.wav
64,192,64901,1,0,0:0:0:70:drum.wav
448,192,64901,1,0,0:0:0:50:finish.wav
192,192,64971,1,0,0:0:0:0:
320,192,65042,1,0,0:0:0:70:drum.wav
448,192,65113,1,0,0:0:0:70:drum.wav
64,192,65184,1,0,0:0:0:70:drum.wav
192,192,65184,1,0,0:0:0:50:finish.wav
320,192,65255,1,0,0:0:0:70:drum.wav
64,192,65325,1,0,0:0:0:70:drum.wav
448,192,65396,1,0,0:0:0:70:drum.wav
320,192,65467,1,0,0:0:0:70:drum.wav
192,192,65467,1,0,0:0:0:50:finish.wav
64,192,65538,1,0,0:0:0:70:drum.wav
448,192,65608,1,0,0:0:0:70:drum.wav
320,192,65679,1,0,0:0:0:70:drum.wav
64,192,65750,128,0,67448:0:0:0:70:drum.wav
192,192,65750,128,0,66174:0:0:0:50:finish.wav
448,192,65750,1,0,0:0:0:0:
320,192,66174,128,0,66599:0:0:0:0:
448,192,66599,128,0,67023:0:0:0:0:
192,192,67023,128,0,67448:0:0:0:0:
320,192,67448,1,0,0:0:0:0:
448,192,67448,1,0,0:0:0:0:
192,192,67660,1,0,0:0:0:0:
320,192,67660,1,0,0:0:0:0:
64,192,67872,1,0,0:0:0:0:
192,192,67872,1,0,0:0:0:0:
320,192,68014,1,0,0:0:0:0:
448,192,68014,128,0,68438:0:0:0:0:
64,192,68438,1,0,0:0:0:0:
320,192,68438,128,0,68863:0:0:0:0:
192,192,68863,128,0,69288:0:0:0:0:
448,192,68863,1,0,0:0:0:0:
64,192,69288,128,0,69712:0:0:0:0:
320,192,69288,1,0,0:0:0:0:
320,192,69712,1,0,0:0:0:0:
448,192,69712,128,0,69995:0:0:0:0:
64,192,69995,1,0,0:0:0:70:drum.wav
192,192,69995,1,0,0:0:0:0:
320,192,70137,1,0,0:0:0:70:drum.wav
192,192,70207,1,0,0:0:0:70:drum.wav
320,192,70278,128,0,70844:0:0:0:70:drum.wav
448,192,70278,128,0,70844:0:0:0:50:finish.wav
64,192,70278,1,0,0:0:0:0:
64,192,70986,1,0,0:0:0:0:
448,192,70986,1,0,0:0:0:0:
192,192,71127,1,0,0:0:0:0:
320,192,71198,1,0,0:0:0:0:
448,192,71269,1,0,0:0:0:70:drum.wav
192,192,71339,1,0,0:0:0:0:
320,192,71410,128,0,71552:0:0:0:70:drum.wav
448,192,71410,128,0,71552:0:0:0:50:finish.wav
64,192,71410,1,0,0:0:0:0:
64,192,71552,128,0,71693:0:0:0:0:
192,192,71693,128,0,71835:0:0:0:0:
320,192,71835,128,0,71976:0:0:0:0:
64,192,71976,128,0,72118:0:0:0:70:drum.wav
448,192,71976,128,0,72118:0:0:0:50:finish.wav
192,192,71976,1,0,0:0:0:0:
192,192,72118,128,0,72259:0:0:0:0:
320,192,72259,128,0,72401:0:0:0:0:
192,192,72401,128,0,72542:0:0:0:0:
64,192,72542,1,0,0:0:0:70:drum.wav
320,192,72542,1,0,0:0:0:50:finish.wav
448,192,72542,1,0,0:0:0:0:
192,192,72684,1,0,0:0:0:70:drum.wav
320,192,72755,1,0,0:0:0:70:drum.wav
64,192,72825,1,0,0:0:0:70:drum.wav
192,192,72825,1,0,0:0:0:50:finish.wav
448,192,72825,1,0,0:0:0:0:
320,192,72967,1,0,0:0:0:70:drum.wav
192,192,73038,1,0,0:0:0:70:drum.wav
64,192,73108,1,0,0:0:0:70:drum.wav
320,192,73108,1,0,0:0:0:50:finish.wav
448,192,73108,1,0,0:0:0:0:
192,192,73250,1,0,0:0:0:70:drum.wav
64,192,73321,1,0,0:0:0:70:drum.wav
192,192,73391,1,0,0:0:0:70:drum.wav
320,192,73391,1,0,0:0:0:50:finish.wav
448,192,73391,1,0,0:0:0:0:
64,192,73533,1,0,0:0:0:70:drum.wav
320,192,73604,1,0,0:0:0:70:drum.wav
64,192,73674,1,0,0:0:0:70:drum.wav
192,192,73674,1,0,0:0:0:50:finish.wav
448,192,73674,1,0,0:0:0:0:
192,192,73816,1,0,0:0:0:70:drum.wav
320,192,73816,1,0,0:0:0:50:finish.wav
64,192,73957,1,0,0:0:0:70:drum.wav
320,192,73957,1,0,0:0:0:50:finish.wav
448,192,73957,1,0,0:0:0:0:
64,192,74099,1,0,0:0:0:70:drum.wav
192,192,74099,1,0,0:0:0:50:finish.wav
192,192,74240,1,0,0:0:0:70:drum.wav
320,192,74240,1,0,0:0:0:50:finish.wav
448,192,74240,1,0,0:0:0:0:
64,192,74382,1,0,0:0:0:70:drum.wav
448,192,74382,1,0,0:0:0:50:finish.wav
64,192,74523,1,0,0:0:0:70:drum.wav
320,192,74523,1,0,0:0:0:50:finish.wav
192,192,74594,1,0,0:0:0:70:drum.wav
448,192,74665,1,0,0:0:0:70:drum.wav
320,192,74736,1,0,0:0:0:70:drum.wav
64,192,74806,128,0,76505:0:0:0:70:drum.wav
192,192,74806,128,0,75231:0:0:0:50:finish.wav
448,192,74806,1,0,0:0:0:0:
320,192,75231,128,0,75655:0:0:0:0:
192,192,75372,1,0,0:0:0:70:drum.wav
448,192,75372,1,0,0:0:0:0:
192,192,75655,1,0,0:0:0:50:snare.wav
448,192,75655,128,0,76080:0:0:0:50:finish.wav
192,192,75938,1,0,0:0:0:70:drum.wav
320,192,75938,1,0,0:0:0:0:
192,192,76080,128,0,76505:0:0:0:40:LR_Tom Drop.wav
320,192,76505,128,0,76646:0:0:0:50:snare.wav
448,192,76505,128,0,76646:0:0:0:50:finish.wav
64,192,76717,128,0,76858:0:0:0:0:
192,192,76717,128,0,76858:0:0:0:0:
448,192,76929,1,0,0:0:0:70:drum.wav
320,192,77000,1,0,0:0:0:70:drum.wav
64,192,77071,128,0,77495:0:0:0:70:drum.wav
192,192,77071,128,0,77495:0:0:0:50:finish.wav
448,192,77071,1,0,0:0:0:0:
320,192,77495,128,0,77920:0:0:0:0:
64,192,77637,1,0,0:0:0:70:drum.wav
192,192,77637,1,0,0:0:0:0:
64,192,77920,1,0,0:0:0:50:snare.wav
192,192,77920,1,0,0:0:0:50:finish.wav
448,192,77920,128,0,78203:0:0:0:0:
64,192,78203,1,0,0:0:0:70:drum.wav
192,192,78203,1,0,0:0:0:0:
64,192,78344,128,0,78627:0:0:0:40:snare2.wav
320,192,78344,1,0,0:0:0:0:
192,192,78486,1,0,0:0:0:70:drum.wav
448,192,78486,1,0,0:0:0:0:
320,192,78627,1,0,0:0:0:70:drum.wav
64,192,78769,1,0,0:0:0:70:drum.wav
192,192,78769,1,0,0:0:0:50:finish.wav
448,192,78769,128,0,79052:0:0:0:0:
64,192,79052,1,0,0:0:0:70:drum.wav
192,192,79122,1,0,0:0:0:0:
320,192,79193,1,0,0:0:0:70:drum.wav
192,192,79264,1,0,0:0:0:70:drum.wav
64,192,79335,1,0,0:0:0:70:drum.wav
448,192,79335,1,0,0:0:0:0:
192,192,79476,1,0,0:0:0:0:
320,192,79547,1,0,0:0:0:0:
64,192,79618,1,0,0:0:0:0:
192,192,79688,1,0,0:0:0:0:
448,192,79759,1,0,0:0:0:0:
320,192,79830,1,0,0:0:0:0:
64,192,79901,1,0,0:0:0:0:
320,192,80042,1,0,0:0:0:0:
192,192,80113,1,0,0:0:0:0:
448,192,80184,1,0,0:0:0:0:
320,192,80255,1,0,0:0:0:0:
64,192,80325,1,0,0:0:0:0:
192,192,80396,1,0,0:0:0:0:
448,192,80467,1,0,0:0:0:0:
192,192,80608,1,0,0:0:0:0:
320,192,80679,1,0,0:0:0:0:
64,192,80750,1,0,0:0:0:0:
448,192,80821,1,0,0:0:0:0:
192,192,80891,1,0,0:0:0:0:
320,192,80962,1,0,0:0:0:0:
64,192,81033,1,0,0:0:0:0:
192,192,81104,1,0,0:0:0:0:
320,192,81174,1,0,0:0:0:0:
64,192,81245,1,0,0:0:0:0:
448,192,81316,1,0,0:0:0:0:
320,192,81387,1,0,0:0:0:0:
64,192,81457,1,0,0:0:0:70:drum.wav
192,192,81528,1,0,0:0:0:70:drum.wav
64,192,81599,1,0,0:0:0:70:drum.wav
320,192,81599,1,0,0:0:0:50:finish.wav
448,192,81599,1,0,0:0:0:0:
192,192,81740,1,0,0:0:0:70:drum.wav
320,192,81811,1,0,0:0:0:0:
64,192,81882,1,0,0:0:0:70:drum.wav
192,192,81882,1,0,0:0:0:50:finish.wav
448,192,81882,1,0,0:0:0:0:
320,192,82023,1,0,0:0:0:70:drum.wav
448,192,82094,1,0,0:0:0:70:drum.wav
64,192,82165,1,0,0:0:0:70:drum.wav
192,192,82165,1,0,0:0:0:50:finish.wav
320,192,82165,1,0,0:0:0:0:
448,192,82306,1,0,0:0:0:70:drum.wav
320,192,82377,1,0,0:0:0:0:
64,192,82448,1,0,0:0:0:70:drum.wav
192,192,82448,1,0,0:0:0:50:finish.wav
448,192,82448,1,0,0:0:0:0:
320,192,82589,1,0,0:0:0:70:drum.wav
192,192,82660,1,0,0:0:0:70:drum.wav
64,192,82731,1,0,0:0:0:70:drum.wav
448,192,82731,1,0,0:0:0:50:finish.wav
320,192,82802,1,0,0:0:0:70:drum.wav
192,192,82872,1,0,0:0:0:70:drum.wav
448,192,82943,1,0,0:0:0:70:drum.wav
64,192,83014,1,0,0:0:0:70:drum.wav
320,192,83014,1,0,0:0:0:50:finish.wav
192,192,83085,1,0,0:0:0:70:drum.wav
320,192,83155,1,0,0:0:0:70:drum.wav
192,192,83226,1,0,0:0:0:70:drum.wav
320,192,83297,1,0,0:0:0:70:drum.wav
448,192,83297,1,0,0:0:0:50:finish.wav
64,192,83368,1,0,0:0:0:70:drum.wav
192,192,83438,1,0,0:0:0:70:drum.wav
320,192,83509,1,0,0:0:0:70:drum.wav
64,192,83580,1,0,0:0:0:70:drum.wav
448,192,83580,1,0,0:0:0:0:
192,192,83651,1,0,0:0:0:70:drum.wav
320,192,83721,1,0,0:0:0:70:drum.wav
192,192,83792,1,0,0:0:0:70:drum.wav
64,192,83863,1,0,0:0:0:70:drum.wav
448,192,83863,1,0,0:0:0:0:
192,192,83934,1,0,0:0:0:0:
320,192,84005,1,0,0:0:0:0:
448,192,84075,1,0,0:0:0:0:
192,192,84146,1,0,0:0:0:0:
320,192,84217,1,0,0:0:0:0:
64,192,84288,1,0,0:0:0:0:
192,192,84358,1,0,0:0:0:0:
320,192,84429,1,0,0:0:0:0:
192,192,84500,1,0,0:0:0:0:
64,192,84571,1,0,0:0:0:0:
448,192,84641,1,0,0:0:0:0:
320,192,84712,1,0,0:0:0:0:
64,192,84783,1,0,0:0:0:0:
192,192,84854,1,0,0:0:0:0:
320,192,84924,1,0,0:0:0:0:
64,192,84995,1,0,0:0:0:70:drum.wav
192,192,84995,1,0,0:0:0:50:finish.wav
448,192,84995,1,0,0:0:0:0:
320,192,85137,1,0,0:0:0:70:drum.wav
192,192,85207,1,0,0:0:0:70:drum.wav
64,192,85278,1,0,0:0:0:70:drum.wav
320,192,85278,1,0,0:0:0:50:finish.wav
448,192,85278,1,0,0:0:0:0:
192,192,85420,1,0,0:0:0:70:drum.wav
64,192,85490,1,0,0:0:0:70:drum.wav
192,192,85561,1,0,0:0:0:70:drum.wav
320,192,85561,1,0,0:0:0:50:finish.wav
448,192,85561,1,0,0:0:0:0:
64,192,85703,1,0,0:0:0:70:drum.wav
448,192,85773,1,0,0:0:0:70:drum.wav
64,192,85844,1,0,0:0:0:70:drum.wav
192,192,85844,1,0,0:0:0:50:finish.wav
320,192,85844,1,0,0:0:0:0:
448,192,85986,1,0,0:0:0:70:drum.wav
320,192,86056,1,0,0:0:0:70:drum.wav
192,192,86127,1,0,0:0:0:0:
64,192,86410,1,0,0:0:0:0:
448,192,86410,1,0,0:0:0:0:
192,192,86552,1,0,0:0:0:0:
320,192,86693,1,0,0:0:0:0:
448,192,86693,1,0,0:0:0:0:
192,192,86835,1,0,0:0:0:0:
64,192,86976,1,0,0:0:0:0:
320,192,86976,1,0,0:0:0:0:
64,192,87118,128,0,87542:0:0:0:0:
448,192,87118,1,0,0:0:0:0:
320,192,87401,1,0,0:0:0:0:
448,192,87542,1,0,0:0:0:0:
320,192,87613,1,0,0:0:0:0:
192,192,87684,1,0,0:0:0:0:
64,192,87755,1,0,0:0:0:0:
320,192,87825,1,0,0:0:0:70:drum.wav
448,192,87825,1,0,0:0:0:0:
192,192,88038,1,0,0:0:0:70:drum.wav
320,192,88038,1,0,0:0:0:0:
64,192,88250,1,0,0:0:0:70:drum.wav
192,192,88250,1,0,0:0:0:0:
64,192,88391,1,0,0:0:0:50:snare.wav
320,192,88391,128,0,88674:0:0:0:50:finish.wav
448,192,88391,1,0,0:0:0:0:
64,192,88674,1,0,0:0:0:70:drum.wav
192,192,88674,1,0,0:0:0:0:
448,192,88674,1,0,0:0:0:0:
320,192,88816,1,0,0:0:0:70:drum.wav
192,192,88887,1,0,0:0:0:0:
64,192,88957,1,0,0:0:0:0:
448,192,89028,1,0,0:0:0:0:
192,192,89099,1,0,0:0:0:70:drum.wav
320,192,89170,1,0,0:0:0:0:
448,192,89240,1,0,0:0:0:50:snare.wav
64,192,89311,1,0,0:0:0:0:
320,192,89382,1,0,0:0:0:0:
192,192,89453,1,0,0:0:0:0:
64,192,89523,128,0,89806:0:0:0:70:drum.wav
448,192,89523,1,0,0:0:0:0:
320,192,89806,1,0,0:0:0:50:snare.wav
448,192,89806,128,0,90089:0:0:0:0:
64,192,89948,1,0,0:0:0:70:drum.wav
192,192,89948,1,0,0:0:0:0:
320,192,90089,128,0,90372:0:0:0:0:
64,192,90231,1,0,0:0:0:70:drum.wav
192,192,90231,1,0,0:0:0:0:
64,192,90372,128,0,90655:0:0:0:50:snare.wav
448,192,90372,1,0,0:0:0:0:
192,192,90655,1,0,0:0:0:70:drum.wav
320,192,90655,1,0,0:0:0:50:finish.wav
448,192,90655,1,0,0:0:0:0:
64,192,90797,1,0,0:0:0:70:drum.wav
448,192,90797,1,0,0:0:0:50:finish.wav
320,192,90938,1,0,0:0:0:40:snare2.wav
192,192,91009,1,0,0:0:0:40:snare2.wav
448,192,91080,1,0,0:0:0:40:snare2.wav
320,192,91151,1,0,0:0:0:40:snare2.wav
64,192,91221,1,0,0:0:0:70:drum.wav
192,192,91221,1,0,0:0:0:50:finish.wav
448,192,91221,1,0,0:0:0:0:
64,192,91363,1,0,0:0:0:70:drum.wav
320,192,91363,1,0,0:0:0:50:finish.wav
448,192,91505,1,0,0:0:0:40:snare2.wav
320,192,91575,1,0,0:0:0:40:snare2.wav
192,192,91646,1,0,0:0:0:40:snare2.wav
64,192,91717,1,0,0:0:0:40:snare2.wav
192,192,91788,1,0,0:0:0:70:drum.wav
320,192,91788,1,0,0:0:0:50:finish.wav
448,192,91788,1,0,0:0:0:0:
64,192,91929,1,0,0:0:0:70:drum.wav
448,192,91929,1,0,0:0:0:50:finish.wav
192,192,92071,1,0,0:0:0:70:drum.wav
64,192,92141,1,0,0:0:0:0:
320,192,92212,1,0,0:0:0:70:drum.wav
448,192,92283,1,0,0:0:0:0:
64,192,92354,1,0,0:0:0:70:drum.wav
192,192,92354,1,0,0:0:0:50:finish.wav
320,192,92354,1,0,0:0:0:0:
64,192,92495,1,0,0:0:0:70:drum.wav
448,192,92495,1,0,0:0:0:50:finish.wav
192,192,92637,1,0,0:0:0:70:drum.wav
448,192,92707,1,0,0:0:0:0:
320,192,92778,1,0,0:0:0:70:drum.wav
192,192,92849,1,0,0:0:0:0:
64,192,92920,1,0,0:0:0:70:drum.wav
320,192,92920,1,0,0:0:0:50:finish.wav
448,192,92920,1,0,0:0:0:0:
192,192,93061,1,0,0:0:0:70:drum.wav
320,192,93132,1,0,0:0:0:70:drum.wav
64,192,93203,1,0,0:0:0:70:drum.wav
192,192,93203,1,0,0:0:0:50:finish.wav
448,192,93203,1,0,0:0:0:0:
320,192,93344,1,0,0:0:0:70:drum.wav
448,192,93415,1,0,0:0:0:70:drum.wav
64,192,93486,1,0,0:0:0:70:drum.wav
192,192,93486,1,0,0:0:0:50:finish.wav
320,192,93486,1,0,0:0:0:0:
448,192,93627,1,0,0:0:0:70:drum.wav
192,192,93698,1,0,0:0:0:70:drum.wav
64,192,93769,1,0,0:0:0:70:drum.wav
320,192,93769,1,0,0:0:0:50:finish.wav
448,192,93769,1,0,0:0:0:0:
192,192,93910,1,0,0:0:0:70:drum.wav
320,192,93981,1,0,0:0:0:70:drum.wav
64,192,94052,1,0,0:0:0:70:drum.wav
192,192,94052,1,0,0:0:0:50:finish.wav
448,192,94052,1,0,0:0:0:0:
64,192,94193,1,0,0:0:0:70:drum.wav
320,192,94193,1,0,0:0:0:50:finish.wav
192,192,94335,1,0,0:0:0:70:drum.wav
448,192,94335,1,0,0:0:0:50:finish.wav
320,192,94476,1,0,0:0:0:70:drum.wav
448,192,94476,1,0,0:0:0:50:finish.wav
64,192,94618,1,0,0:0:0:70:drum.wav
192,192,94618,1,0,0:0:0:50:finish.wav
448,192,94688,1,0,0:0:0:70:drum.wav
320,192,94759,1,0,0:0:0:70:drum.wav
192,192,94830,1,0,0:0:0:70:drum.wav
64,192,94901,1,0,0:0:0:70:drum.wav
448,192,94901,1,0,0:0:0:50:finish.wav
320,192,94971,1,0,0:0:0:70:drum.wav
192,192,95042,1,0,0:0:0:70:drum.wav
320,192,95113,1,0,0:0:0:70:drum.wav
192,192,95184,1,0,0:0:0:70:drum.wav
320,192,95255,1,0,0:0:0:70:drum.wav
64,192,95325,1,0,0:0:0:70:drum.wav
192,192,95396,1,0,0:0:0:70:drum.wav
320,192,95467,1,0,0:0:0:70:drum.wav
448,192,95467,128,0,95608:0:0:0:50:finish.wav
64,192,95467,1,0,0:0:0:0:
192,192,95608,128,0,95750:0:0:0:0:
320,192,95750,128,0,95891:0:0:0:0:
192,192,95891,1,0,0:0:0:70:drum.wav
64,192,95891,128,0,96033:0:0:0:0:
320,192,96033,1,0,0:0:0:50:snare.wav
448,192,96033,128,0,96174:0:0:0:0:
64,192,96174,128,0,96457:0:0:0:70:drum.wav
192,192,96174,1,0,0:0:0:0:
320,192,96457,1,0,0:0:0:70:drum.wav
448,192,96457,1,0,0:0:0:0:
64,192,96599,1,0,0:0:0:50:snare.wav
192,192,96599,1,0,0:0:0:0:
448,192,96670,1,0,0:0:0:0:
320,192,96740,1,0,0:0:0:70:drum.wav
192,192,96811,1,0,0:0:0:0:
64,192,96882,1,0,0:0:0:70:drum.wav
448,192,96882,1,0,0:0:0:0:
64,192,97094,1,0,0:0:0:70:drum.wav
320,192,97094,1,0,0:0:0:0:
192,192,97306,1,0,0:0:0:70:drum.wav
448,192,97306,1,0,0:0:0:0:
64,192,97448,1,0,0:0:0:50:snare.wav
320,192,97448,128,0,97731:0:0:0:0:
448,192,97448,128,0,97731:0:0:0:0:
64,192,97731,1,0,0:0:0:70:drum.wav
192,192,97731,1,0,0:0:0:0:
448,192,97872,1,0,0:0:0:70:drum.wav
320,192,97943,1,0,0:0:0:0:
192,192,98014,1,0,0:0:0:0:
64,192,98085,1,0,0:0:0:0:
320,192,98155,1,0,0:0:0:70:drum.wav
192,192,98226,1,0,0:0:0:0:
448,192,98297,1,0,0:0:0:50:snare.wav
320,192,98368,1,0,0:0:0:0:
64,192,98438,1,0,0:0:0:0:
192,192,98509,1,0,0:0:0:0:
320,192,98580,1,0,0:0:0:70:drum.wav
448,192,98580,128,0,98863:0:0:0:0:
64,192,98863,128,0,99146:0:0:0:50:snare.wav
192,192,98863,1,0,0:0:0:0:
320,192,99005,1,0,0:0:0:70:drum.wav
448,192,99005,1,0,0:0:0:0:
192,192,99146,128,0,99429:0:0:0:0:
320,192,99288,1,0,0:0:0:70:drum.wav
448,192,99288,1,0,0:0:0:0:
64,192,99429,1,0,0:0:0:50:snare.wav
448,192,99429,128,0,99712:0:0:0:0:
64,192,99712,128,0,99901:0:0:0:70:drum.wav
192,192,99712,128,0,99901:0:0:0:50:finish.wav
320,192,99712,1,0,0:0:0:0:
64,192,99995,1,0,0:0:0:50:snare.wav
192,192,99995,1,0,0:0:0:0:
320,192,100089,1,0,0:0:0:50:snare.wav
448,192,100089,1,0,0:0:0:0:
64,192,100184,1,0,0:0:0:50:snare.wav
192,192,100184,1,0,0:0:0:0:
320,192,100278,128,0,100467:0:0:0:70:drum.wav
448,192,100278,128,0,100467:0:0:0:0:
320,192,100561,1,0,0:0:0:50:snare.wav
448,192,100561,1,0,0:0:0:0:
64,192,100655,1,0,0:0:0:50:snare.wav
192,192,100655,1,0,0:0:0:0:
320,192,100750,1,0,0:0:0:50:snare.wav
448,192,100750,1,0,0:0:0:0:
64,192,100844,128,0,101033:0:0:0:70:drum.wav
192,192,100844,128,0,101033:0:0:0:50:finish.wav
448,192,100844,1,0,0:0:0:0:
64,192,101127,1,0,0:0:0:70:drum.wav
192,192,101127,1,0,0:0:0:0:
320,192,101221,1,0,0:0:0:70:drum.wav
448,192,101221,1,0,0:0:0:0:
64,192,101316,1,0,0:0:0:70:drum.wav
192,192,101316,1,0,0:0:0:0:
64,192,101410,1,0,0:0:0:70:drum.wav
320,192,101410,1,0,0:0:0:50:finish.wav
448,192,101410,1,0,0:0:0:0:
64,192,101622,1,0,0:0:0:70:drum.wav
192,192,101622,1,0,0:0:0:50:finish.wav
320,192,101622,1,0,0:0:0:0:
64,192,101835,1,0,0:0:0:70:drum.wav
320,192,101835,1,0,0:0:0:50:finish.wav
448,192,101835,1,0,0:0:0:0:
64,192,101976,1,0,0:0:0:70:drum.wav
192,192,101976,1,0,0:0:0:50:finish.wav
448,192,101976,1,0,0:0:0:0:
320,192,102118,1,0,0:0:0:40:snare2.wav
192,192,102188,1,0,0:0:0:40:snare2.wav
448,192,102259,1,0,0:0:0:70:drum.wav
192,192,102330,1,0,0:0:0:0:
64,192,102401,1,0,0:0:0:70:drum.wav
320,192,102401,1,0,0:0:0:50:finish.wav
448,192,102401,1,0,0:0:0:0:
192,192,102542,1,0,0:0:0:40:snare2.wav
320,192,102613,1,0,0:0:0:40:snare2.wav
64,192,102684,1,0,0:0:0:70:drum.wav
320,192,102755,1,0,0:0:0:0:
64,192,102825,1,0,0:0:0:70:drum.wav
192,192,102825,1,0,0:0:0:50:finish.wav
448,192,102825,1,0,0:0:0:0:
320,192,102967,1,0,0:0:0:40:snare2.wav
448,192,103038,1,0,0:0:0:40:snare2.wav
64,192,103108,1,0,0:0:0:40:snare2.wav
192,192,103108,1,0,0:0:0:0:
64,192,103250,1,0,0:0:0:70:drum.wav
320,192,103250,1,0,0:0:0:50:finish.wav
448,192,103250,1,0,0:0:0:0:
320,192,103391,1,0,0:0:0:70:drum.wav
448,192,103391,1,0,0:0:0:50:finish.wav
192,192,103533,1,0,0:0:0:70:drum.wav
320,192,103604,1,0,0:0:0:70:drum.wav
64,192,103674,1,0,0:0:0:70:drum.wav
192,192,103674,1,0,0:0:0:50:finish.wav
448,192,103674,1,0,0:0:0:0:
320,192,103816,1,0,0:0:0:70:drum.wav
64,192,103887,1,0,0:0:0:70:drum.wav
192,192,103887,1,0,0:0:0:50:finish.wav
448,192,103887,1,0,0:0:0:0:
192,192,104028,1,0,0:0:0:70:drum.wav
64,192,104099,1,0,0:0:0:70:drum.wav
320,192,104099,1,0,0:0:0:50:finish.wav
448,192,104170,1,0,0:0:0:70:drum.wav
64,192,104240,128,0,105089:0:0:0:70:drum.wav
192,192,104240,1,0,0:0:0:50:finish.wav
320,192,104240,1,0,0:0:0:0:
320,192,104523,1,0,0:0:0:50:snare.wav
448,192,104523,1,0,0:0:0:0:
192,192,104665,1,0,0:0:0:70:drum.wav
448,192,104665,1,0,0:0:0:0:
192,192,104948,1,0,0:0:0:70:drum.wav
320,192,104948,1,0,0:0:0:0:
448,192,105089,128,0,105938:0:0:0:0:
64,192,105231,1,0,0:0:0:50:snare.wav
192,192,105231,1,0,0:0:0:0:
64,192,105514,1,0,0:0:0:70:drum.wav
320,192,105514,1,0,0:0:0:0:
64,192,105655,1,0,0:0:0:50:snare.wav
192,192,105655,1,0,0:0:0:0:
192,192,105797,1,0,0:0:0:70:drum.wav
320,192,105938,128,0,106151:0:0:0:0:
64,192,106080,1,0,0:0:0:70:drum.wav
192,192,106151,128,0,106363:0:0:0:0:
448,192,106221,1,0,0:0:0:50:snare.wav
64,192,106363,128,0,106505:0:0:0:0:
320,192,106505,128,0,106788:0:0:0:70:drum.wav
448,192,106505,1,0,0:0:0:0:
64,192,106788,128,0,107071:0:0:0:50:snare.wav
448,192,106788,1,0,0:0:0:0:
192,192,106929,1,0,0:0:0:70:drum.wav
320,192,106929,1,0,0:0:0:0:
448,192,107071,128,0,107141:0:0:0:0:
320,192,107141,128,0,107212:0:0:0:0:
192,192,107212,128,0,107283:0:0:0:70:drum.wav
64,192,107283,128,0,107354:0:0:0:0:
448,192,107354,128,0,107778:0:0:0:0:
64,192,107495,1,0,0:0:0:50:snare.wav
320,192,107495,128,0,107778:0:0:0:0:
64,192,107778,128,0,107920:0:0:0:70:drum.wav
192,192,107778,1,0,0:0:0:0:
320,192,107920,128,0,108061:0:0:0:50:snare.wav
448,192,107920,1,0,0:0:0:0:
64,192,108061,1,0,0:0:0:70:drum.wav
192,192,108061,128,0,108203:0:0:0:0:
320,192,108203,128,0,108344:0:0:0:0:
448,192,108203,128,0,108344:0:0:0:0:
64,192,108344,1,0,0:0:0:70:drum.wav
192,192,108415,128,0,108556:0:0:0:0:
320,192,108415,128,0,108556:0:0:0:0:
448,192,108486,1,0,0:0:0:50:snare.wav
64,192,108627,128,0,108769:0:0:0:0:
192,192,108627,128,0,108769:0:0:0:0:
320,192,108769,1,0,0:0:0:70:drum.wav
448,192,108769,1,0,0:0:0:0:
192,192,109052,128,0,109618:0:0:0:50:snare.wav
320,192,109052,1,0,0:0:0:0:
448,192,109052,1,0,0:0:0:0:
64,192,109193,1,0,0:0:0:70:drum.wav
448,192,109193,1,0,0:0:0:0:
320,192,109476,1,0,0:0:0:70:drum.wav
448,192,109476,1,0,0:0:0:0:
64,192,109618,128,0,109901:0:0:0:0:
192,192,109759,1,0,0:0:0:50:snare.wav
320,192,109759,1,0,0:0:0:0:
448,192,109901,128,0,110042:0:0:0:0:
192,192,109971,1,0,0:0:0:0:
320,192,110042,128,0,110184:0:0:0:70:drum.wav
64,192,110113,1,0,0:0:0:0:
192,192,110184,128,0,110325:0:0:0:50:snare.wav
448,192,110255,1,0,0:0:0:0:
64,192,110325,128,0,110467:0:0:0:70:drum.wav
320,192,110396,1,0,0:0:0:0:
448,192,110467,128,0,110608:0:0:0:0:
192,192,110538,1,0,0:0:0:0:
320,192,110608,128,0,110750:0:0:0:70:drum.wav
64,192,110679,1,0,0:0:0:0:
192,192,110750,128,0,110891:0:0:0:50:snare.wav
448,192,110750,128,0,111033:0:0:0:0:
64,192,110891,128,0,111033:0:0:0:0:
192,192,111033,1,0,0:0:0:70:drum.wav
320,192,111033,128,0,111316:0:0:0:0:
64,192,111316,1,0,0:0:0:50:snare.wav
192,192,111316,1,0,0:0:0:0:
320,192,111457,1,0,0:0:0:70:drum.wav
448,192,111457,128,0,111740:0:0:0:0:
64,192,111740,1,0,0:0:0:70:drum.wav
192,192,111740,1,0,0:0:0:0:
320,192,111811,1,0,0:0:0:0:
448,192,111882,1,0,0:0:0:0:
64,192,112023,128,0,112306:0:0:0:50:snare.wav
192,192,112023,128,0,112306:0:0:0:0:
320,192,112306,1,0,0:0:0:70:drum.wav
192,192,112377,1,0,0:0:0:70:drum.wav
320,192,112448,1,0,0:0:0:70:drum.wav
192,192,112519,1,0,0:0:0:70:drum.wav
448,192,112589,1,0,0:0:0:70:drum.wav
320,192,112660,1,0,0:0:0:70:drum.wav
64,192,112731,1,0,0:0:0:70:drum.wav
192,192,112731,1,0,0:0:0:50:finish.wav
448,192,112731,1,0,0:0:0:0:
64,192,112943,1,0,0:0:0:70:drum.wav
320,192,112943,1,0,0:0:0:50:finish.wav
448,192,112943,1,0,0:0:0:0:
192,192,113155,1,0,0:0:0:70:drum.wav
320,192,113155,1,0,0:0:0:50:finish.wav
64,192,113297,1,0,0:0:0:70:drum.wav
192,192,113297,1,0,0:0:0:50:finish.wav
448,192,113297,1,0,0:0:0:0:
320,192,113368,1,0,0:0:0:0:
192,192,113438,1,0,0:0:0:0:
448,192,113509,1,0,0:0:0:50:snare.wav
64,192,113580,1,0,0:0:0:0:
192,192,113651,1,0,0:0:0:0:
320,192,113721,1,0,0:0:0:70:drum.wav
64,192,113792,1,0,0:0:0:0:
448,192,113863,1,0,0:0:0:70:drum.wav
320,192,113934,1,0,0:0:0:0:
192,192,114005,1,0,0:0:0:70:drum.wav
64,192,114075,1,0,0:0:0:0:
320,192,114146,1,0,0:0:0:70:drum.wav
192,192,114217,1,0,0:0:0:70:drum.wav
320,192,114288,1,0,0:0:0:0:
192,192,114358,1,0,0:0:0:0:
64,192,114429,1,0,0:0:0:70:drum.wav
448,192,114429,1,0,0:0:0:0:
192,192,114571,1,0,0:0:0:0:
320,192,114641,1,0,0:0:0:70:drum.wav
448,192,114712,1,0,0:0:0:0:
64,192,114783,1,0,0:0:0:0:
320,192,114854,1,0,0:0:0:70:drum.wav
192,192,114924,1,0,0:0:0:70:drum.wav
448,192,114995,1,0,0:0:0:0:
320,192,115066,1,0,0:0:0:0:
192,192,115137,1,0,0:0:0:70:drum.wav
320,192,115207,1,0,0:0:0:0:
64,192,115278,1,0,0:0:0:70:drum.wav
192,192,115349,1,0,0:0:0:70:drum.wav
320,192,115420,1,0,0:0:0:0:
192,192,115490,1,0,0:0:0:70:drum.wav
64,192,115561,1,0,0:0:0:70:drum.wav
320,192,115561,1,0,0:0:0:50:finish.wav
448,192,115561,1,0,0:0:0:0:
192,192,115703,1,0,0:0:0:0:
64,192,115773,1,0,0:0:0:70:drum.wav
320,192,115844,1,0,0:0:0:0:
192,192,115915,1,0,0:0:0:0:
448,192,115986,1,0,0:0:0:70:drum.wav
320,192,116056,1,0,0:0:0:0:
64,192,116127,1,0,0:0:0:70:drum.wav
192,192,116198,1,0,0:0:0:0:
320,192,116269,1,0,0:0:0:70:drum.wav
64,192,116339,1,0,0:0:0:0:
448,192,116410,1,0,0:0:0:70:drum.wav
320,192,116481,1,0,0:0:0:70:drum.wav
192,192,116552,1,0,0:0:0:0:
320,192,116622,1,0,0:0:0:0:
64,192,116693,1,0,0:0:0:70:drum.wav
192,192,116693,1,0,0:0:0:50:finish.wav
448,192,116693,1,0,0:0:0:0:
320,192,116835,1,0,0:0:0:0:
64,192,116905,1,0,0:0:0:70:drum.wav
448,192,116976,1,0,0:0:0:0:
192,192,117047,1,0,0:0:0:0:
320,192,117118,1,0,0:0:0:70:drum.wav
64,192,117188,1,0,0:0:0:70:drum.wav
192,192,117259,1,0,0:0:0:0:
448,192,117330,1,0,0:0:0:0:
320,192,117401,1,0,0:0:0:70:drum.wav
192,192,117471,1,0,0:0:0:0:
448,192,117542,1,0,0:0:0:70:drum.wav
64,192,117613,1,0,0:0:0:70:drum.wav
192,192,117684,1,0,0:0:0:0:
320,192,117755,1,0,0:0:0:70:drum.wav
64,192,117825,1,0,0:0:0:70:drum.wav
448,192,117825,1,0,0:0:0:50:finish.wav
192,192,117896,1,0,0:0:0:70:drum.wav
448,192,118038,1,0,0:0:0:0:
320,192,118038,1,0,0:0:0:0:
64,192,118108,1,0,0:0:0:70:drum.wav
192,192,118250,1,0,0:0:0:0:
320,192,118250,1,0,0:0:0:0:
448,192,118321,1,0,0:0:0:0:
192,192,118462,1,0,0:0:0:0:
64,192,118462,1,0,0:0:0:0:
320,192,118533,1,0,0:0:0:0:
192,192,118674,1,0,0:0:0:0:
448,192,118674,1,0,0:0:0:0:
64,192,118745,1,0,0:0:0:0:
320,192,118887,1,0,0:0:0:0:
448,192,118887,1,0,0:0:0:0:
192,192,118957,1,0,0:0:0:0:
320,192,119099,1,0,0:0:0:0:
64,192,119099,1,0,0:0:0:0:
448,192,119170,1,0,0:0:0:0:
64,192,119311,1,0,0:0:0:0:
192,192,119311,1,0,0:0:0:0:
320,192,119382,1,0,0:0:0:0:
448,192,119523,1,0,0:0:0:0:
192,192,119523,1,0,0:0:0:0:
64,192,119594,1,0,0:0:0:0:
320,192,119736,1,0,0:0:0:0:
448,192,119736,1,0,0:0:0:0:
192,192,119806,1,0,0:0:0:0:
320,192,119948,1,0,0:0:0:0:
64,192,119948,1,0,0:0:0:0:
192,192,120019,1,0,0:0:0:0:
64,192,120089,1,0,0:0:0:70:drum.wav
448,192,120089,1,0,0:0:0:50:finish.wav
320,192,120160,1,0,0:0:0:0:
192,192,120231,1,0,0:0:0:0:
64,192,120302,1,0,0:0:0:70:drum.wav
448,192,120302,1,0,0:0:0:50:finish.wav
320,192,120372,1,0,0:0:0:0:
192,192,120443,1,0,0:0:0:0:
64,192,120514,1,0,0:0:0:70:drum.wav
448,192,120514,1,0,0:0:0:50:finish.wav
192,192,120585,1,0,0:0:0:0:
320,192,120655,1,0,0:0:0:0:
64,192,120726,1,0,0:0:0:0:
192,192,120797,1,0,0:0:0:70:drum.wav
448,192,120797,1,0,0:0:0:50:finish.wav
320,192,120868,1,0,0:0:0:0:
192,192,120938,1,0,0:0:0:0:
64,192,121009,1,0,0:0:0:70:drum.wav
448,192,121009,1,0,0:0:0:50:finish.wav
320,192,121080,1,0,0:0:0:0:
192,192,121151,1,0,0:0:0:0:
64,192,121221,1,0,0:0:0:70:drum.wav
448,192,121221,1,0,0:0:0:50:finish.wav
320,192,121292,1,0,0:0:0:0:
64,192,121363,1,0,0:0:0:70:drum.wav
192,192,121363,1,0,0:0:0:50:finish.wav
448,192,121434,1,0,0:0:0:0:
64,192,121505,1,0,0:0:0:70:drum.wav
320,192,121505,1,0,0:0:0:50:finish.wav
192,192,121575,1,0,0:0:0:0:
320,192,121646,1,0,0:0:0:70:drum.wav
448,192,121646,1,0,0:0:0:50:finish.wav
64,192,121717,1,0,0:0:0:70:drum.wav
448,192,121788,1,0,0:0:0:0:
192,192,121788,1,0,0:0:0:70:drum.wav
320,192,121858,1,0,0:0:0:70:drum.wav
64,192,121929,1,0,0:0:0:0:
192,192,121929,1,0,0:0:0:70:drum.wav
320,192,122000,1,0,0:0:0:70:drum.wav
448,192,122071,1,0,0:0:0:0:
192,192,122071,1,0,0:0:0:70:drum.wav
320,192,122141,1,0,0:0:0:70:drum.wav
192,192,122212,1,0,0:0:0:0:
64,192,122212,1,0,0:0:0:70:drum.wav
320,192,122283,1,0,0:0:0:70:drum.wav
64,192,122637,128,0,126882:0:0:0:70:drum.wav
320,192,122637,1,0,0:0:0:50:finish.wav
448,192,122637,1,0,0:0:0:0:
320,192,122920,1,0,0:0:0:0:
448,192,123061,1,0,0:0:0:0:
192,192,123203,1,0,0:0:0:0:
320,192,123486,1,0,0:0:0:0:
448,192,123627,1,0,0:0:0:0:
192,192,123910,1,0,0:0:0:0:
448,192,124193,1,0,0:0:0:0:
320,192,124335,1,0,0:0:0:0:
192,192,124476,1,0,0:0:0:0:
320,192,124901,1,0,0:0:0:0:
448,192,125184,1,0,0:0:0:0:
192,192,125325,1,0,0:0:0:0:
320,192,125467,1,0,0:0:0:0:
448,192,125608,1,0,0:0:0:0:
192,192,125891,1,0,0:0:0:0:
448,192,126174,1,0,0:0:0:0:
320,192,126457,1,0,0:0:0:0:
192,192,126599,1,0,0:0:0:0:
448,192,126740,1,0,0:0:0:0:
64,192,127165,1,0,0:0:0:0:
320,192,127165,1,0,0:0:0:0:
448,192,127448,1,0,0:0:0:0:
320,192,127589,1,0,0:0:0:0:
192,192,127731,1,0,0:0:0:0:
64,192,127872,1,0,0:0:0:0:
448,192,127872,1,0,0:0:0:0:
64,192,128155,1,0,0:0:0:0:
320,192,128155,1,0,0:0:0:0:
192,192,128438,1,0,0:0:0:0:
448,192,128438,1,0,0:0:0:0:
64,192,128721,1,0,0:0:0:0:
192,192,128863,1,0,0:0:0:0:
320,192,129005,1,0,0:0:0:0:
448,192,129005,1,0,0:0:0:0:
64,192,129429,1,0,0:0:0:0:
192,192,129429,1,0,0:0:0:0:
320,192,129712,1,0,0:0:0:0:
192,192,129854,1,0,0:0:0:0:
320,192,129995,1,0,0:0:0:0:
64,192,130137,1,0,0:0:0:0:
448,192,130137,1,0,0:0:0:0:
64,192,130420,1,0,0:0:0:0:
320,192,130420,1,0,0:0:0:0:
192,192,130703,1,0,0:0:0:0:
320,192,130703,1,0,0:0:0:0:
64,192,130986,1,0,0:0:0:0:
448,192,130986,1,0,0:0:0:0:
192,192,131127,1,0,0:0:0:0:
320,192,131127,1,0,0:0:0:0:
64,192,131269,1,0,0:0:0:0:
448,192,131269,1,0,0:0:0:0:
