osu file format v14

[General]
AudioFilename: audio.mp3
AudioLeadIn: 0
PreviewTime: 86339
Countdown: 0
SampleSet: Soft
StackLeniency: 0.7
Mode: 2
LetterboxInBreaks: 0
WidescreenStoryboard: 1

[Editor]
DistanceSpacing: 1.2
BeatDivisor: 3
GridSize: 32
TimelineZoom: 2.7

[Metadata]
Title:Titania
TitleUnicode:Titania
Artist:xi
ArtistUnicode:xi
Creator:Jemzuu
Version:Salad
Source:オンゲキ
Tags:ajamez afb alienflybot autofanboy spectator rocma 珠洲島 有栖 ARISU SUZUSHIMA ZMCZ-13027 Ongeki Sound Collection 01 Jump!! Jump!! Jump!! maimai deluxe o.n.g.e.k.i. DX SEGA Video Game instrumental electronic
BeatmapID:2671020
BeatmapSetID:1278046

[Difficulty]
HPDrainRate:3
CircleSize:3
OverallDifficulty:7.4
ApproachRate:7.4
SliderMultiplier:1.36
SliderTickRate:1

[Events]
//Background and Video events
0,0,"bg.jpg",0,0
//Break Periods
//Storyboard Layer 0 (Background)
//Storyboard Layer 1 (Fail)
//Storyboard Layer 2 (Pass)
//Storyboard Layer 3 (Foreground)
//Storyboard Layer 4 (Overlay)
//Storyboard Sound Samples

[TimingPoints]
1222,283.018867924528,4,2,1,40,1,0
9854,-100,4,2,1,20,0,0
11269,-100,4,2,1,5,0,0
11552,-100,4,2,1,40,0,0
12542,-100,4,2,1,60,0,0
24146,-100,4,2,1,60,0,1
32920,-100,4,2,1,60,0,0
33203,-100,4,2,1,60,0,1
41976,-100,4,2,1,60,0,0
42259,-100,4,2,1,30,0,0
44240,-125,4,2,1,30,0,0
52165,-100,4,2,1,40,0,0
60089,-100,4,2,1,50,0,0
66316,-100,4,2,1,40,0,0
67165,-100,4,2,1,40,0,0
68580,-100,4,2,1,40,0,0
69429,-100,4,2,1,40,0,0
70278,-100,4,2,1,50,0,0
86410,-100,4,2,1,30,0,0
87825,-100,4,2,1,50,0,0
88391,-100,4,2,1,80,0,1
95184,-100,4,2,1,60,0,0
95467,-100,4,2,1,80,0,1
104240,-100,4,2,1,70,0,0
122495,-100,4,2,1,5,0,0
122637,-100,4,2,1,80,0,1
122707,-100,4,2,1,40,0,0
123769,-100,4,2,1,20,0,0
124618,-100,4,2,1,15,0,0
125750,-100,4,2,1,10,0,0
126882,-100,4,2,1,5,0,0
127165,-100,4,2,1,30,0,0

[Colours]
Combo1 : 17,17,255
Combo2 : 111,183,255
Combo3 : 128,255,255

[HitObjects]
336,157,372,6,0,L|480:169,2,136,2|2|2,0:0|0:0|0:0,0:0:0:0:
75,329,1222,6,0,P|48:262|157:189,1,204,4|0,3:0|0:0,0:0:0:0:
199,169,1787,1,2,0:0:0:0:
224,109,1929,1,0,0:0:0:0:
191,53,2070,1,2,0:0:0:0:
126,46,2212,1,0,0:0:0:0:
213,31,2354,5,2,0:0:0:0:
450,35,3486,2,0,L|457:192,1,136,2|2,0:0|0:0,0:0:0:0:
310,126,4052,2,0,L|308:278,1,136,2|2,0:0|0:0,0:0:0:0:
344,289,4429,1,2,0:0:0:0:
387,301,4523,1,2,0:0:0:0:
432,298,4618,5,2,0:0:0:0:
253,348,5042,1,2,0:0:0:0:
50,341,5467,1,2,0:0:0:0:
307,65,5750,6,0,P|369:81|294:153,1,204,2|2,0:0|0:0,0:0:0:0:
240,184,6316,1,2,0:0:0:0:
310,202,6457,1,0,0:0:0:0:
383,232,6599,1,2,0:0:0:0:
307,259,6740,1,0,0:0:0:0:
228,271,6882,6,0,L|99:218,2,136,2|2|2,0:0|0:0|0:0,0:0:0:0:
374,270,7731,1,2,0:0:0:0:
122,369,8014,6,0,P|81:312|130:120,1,272,2|2,0:0|0:0,0:0:0:0:
488,135,9146,6,0,P|431:94|239:143,1,272,2|2,0:0|0:0,0:0:0:0:
256,192,9995,12,0,12259,0:0:0:0:
268,102,12542,6,0,L|340:96,1,68,4|4,3:2|3:2,0:0:0:0:
473,277,12967,2,0,L|389:288,1,68,4|4,3:2|3:2,0:0:0:0:
155,350,13391,6,0,L|149:270,1,68,4|4,3:2|3:2,0:0:0:0:
294,161,13816,2,0,L|142:138,1,136,8|0,0:0|0:0,0:0:0:0:
92,121,14240,1,8,0:3:0:0:
157,95,14382,1,8,0:3:0:0:
225,86,14523,1,0,3:0:0:0:
469,109,14806,6,0,L|477:199,1,68,4|4,3:2|3:2,0:0:0:0:
334,199,15231,2,0,L|328:277,1,68,4|4,3:2|3:2,0:0:0:0:
77,339,15655,6,0,L|159:336,1,68,4|4,3:2|3:2,0:0:0:0:
284,348,16080,2,0,L|291:197,1,136,8|8,0:0|0:0,0:0:0:0:
223,185,16505,1,8,0:0:0:0:
154,177,16646,2,0,L|148:99,1,68,8|0,0:1|3:0,0:0:0:0:
215,80,16929,1,0,3:0:0:0:
365,104,17071,6,0,L|484:184,1,136,4|0,3:2|3:0,0:0:0:0:
341,269,17637,2,0,L|185:220,1,136,0|0,3:0|3:0,0:0:0:0:
63,264,18061,6,0,L|51:114,1,136,4|0,3:2|3:0,0:0:0:0:
121,104,18486,1,0,3:0:0:0:
265,59,18769,2,0,L|347:60,2,68,0|0|0,3:0|3:0|3:0,0:0:0:0:
20,178,19335,6,0,L|83:220,1,68,4|4,3:2|3:2,0:0:0:0:
142,229,19618,1,8,0:1:0:0:
395,259,19901,6,0,L|440:187,2,68,4|4|0,3:2|3:2|0:0,0:0:0:0:
143,348,20467,6,0,L|24:331,1,102,4|4,3:2|3:2,0:0:0:0:
148,263,20891,2,0,L|273:249,1,102,4|4,3:2|3:2,0:0:0:0:
359,171,21316,2,0,L|283:164,1,68,4|4,3:2|3:2,0:0:0:0:
141,146,21599,6,0,L|36:57,2,136,4|2|2,3:1|0:0|0:0,0:0:0:0:
284,158,22448,1,2,0:0:0:0:
34,298,22731,6,0,L|31:149,1,136,4|4,3:2|3:2,0:0:0:0:
280,96,23297,6,0,L|440:82,1,136,4|4,3:2|3:2,0:0:0:0:
281,131,23863,2,0,L|207:128,1,68,0|0,3:0|3:0,0:0:0:0:
364,200,24146,6,0,L|490:295,1,136,4|0,3:2|0:0,0:0:0:0:
403,318,24571,1,0,3:0:0:0:
260,344,24854,2,0,L|257:194,1,136,0|0,3:0|3:0,0:0:0:0:
326,186,25278,1,8,0:0:0:0:
186,127,25561,2,0,L|65:111,2,102,0|0|0,3:0|3:0|3:0,0:0:0:0:
336,85,26127,5,8,0:0:0:0:
330,233,26410,2,0,L|208:306,1,136,0|0,3:0|0:0,0:0:0:0:
146,319,26835,1,0,3:0:0:0:
79,329,26976,1,8,0:0:0:0:
334,360,27259,6,0,L|333:211,1,136,0|8,3:0|0:0,0:0:0:0:
183,225,27825,2,0,L|176:75,1,136,0|8,0:0|0:0,0:0:0:0:
435,55,28391,5,4,3:2:0:0:
437,131,28533,2,0,L|310:191,1,136,4|8,3:2|0:1,0:0:0:0:
233,197,28957,5,4,3:2:0:0:
231,273,29099,2,0,L|358:333,1,136,4|8,3:2|0:1,0:0:0:0:
205,364,29523,5,4,3:2:0:0:
141,369,29665,2,0,L|19:280,1,136,4|0,3:2|0:0,0:0:0:0:
100,252,30089,5,4,3:2:0:0:
172,230,30231,2,0,L|319:179,1,136,4|0,3:2|0:0,0:0:0:0:
152,139,30655,6,0,L|29:67,2,136,4|4|4,3:2|3:2|3:2,0:0:0:0:
304,152,31505,1,4,3:2:0:0:
52,243,31788,6,0,L|26:173,2,68,4|4|4,3:2|3:2|3:2,0:0:0:0:
198,300,32354,2,0,L|49:345,1,136,4|4,3:2|3:2,0:0:0:0:
129,362,32778,1,4,3:2:0:0:
194,366,32920,1,0,3:0:0:0:
454,349,33203,6,0,P|468:293|412:232,1,136,4|0,3:2|0:0,0:0:0:0:
354,222,33627,1,0,3:0:0:0:
212,116,33910,2,0,L|354:84,1,136,0|0,3:0|3:0,0:0:0:0:
274,66,34335,1,8,0:0:0:0:
131,81,34618,2,0,L|29:116,2,102,0|0|0,3:0|3:0|3:0,0:0:0:0:
281,154,35184,5,8,0:0:0:0:
277,265,35467,2,0,L|124:275,1,136,0|0,3:0|0:0,0:0:0:0:
78,219,35891,1,0,3:0:0:0:
143,273,36033,1,8,0:0:0:0:
390,341,36316,6,0,L|396:189,1,136,0|8,3:0|0:0,0:0:0:0:
255,143,36882,2,0,L|115:108,1,136,0|8,0:0|0:0,0:0:0:0:
389,47,37448,6,0,L|393:200,1,136,4|8,3:2|0:0,0:0:0:0:
349,207,37825,1,8,0:0:0:0:
304,222,37920,1,8,0:0:0:0:
258,232,38014,2,0,L|96:251,1,136,0|8,3:0|0:0,0:0:0:0:
385,343,38580,6,0,L|385:187,1,136,4|0,3:2|3:0,0:0:0:0:
342,191,38957,1,0,3:0:0:0:
297,180,39052,1,0,3:0:0:0:
250,172,39146,2,0,L|135:170,2,102,4|4|4,3:2|3:2|3:2,0:0:0:0:
401,163,39712,6,0,L|486:280,1,136,0|0,3:2|3:0,0:0:0:0:
410,307,40137,2,0,L|279:356,1,136,4|0,3:2|3:0,0:0:0:0:
210,297,40561,2,0,L|365:248,1,136,4|8,3:2|0:1,0:0:0:0:
191,175,40986,6,0,L|39:137,1,136,4|4,3:2|3:2,0:0:0:0:
126,101,41410,1,4,3:2:0:0:
223,75,41622,1,4,3:2:0:0:
323,65,41835,1,4,3:2:0:0:
174,48,41976,5,4,3:1:0:0:
256,192,42259,12,0,43957,0:0:0:0:
249,160,44240,6,0,L|75:137,2,163.2,4|2|2,3:0|0:0|0:0,0:0:0:0:
360,170,45372,2,0,L|365:238,1,54.4,2|2,0:0|0:3,0:0:0:0:
246,266,45797,2,0,L|125:275,2,108.8,2|2|2,0:0|0:0|0:3,0:0:0:0:
448,64,46788,6,0,P|447:115|301:175,1,217.6,2|2,3:2|0:0,0:0:0:0:
255,177,47495,2,0,L|426:222,1,163.2,2|2,0:0|0:0,0:0:0:0:
417,266,48061,1,2,0:3:0:0:
417,307,48486,1,2,0:3:0:0:
272,338,48769,6,0,L|152:307,1,108.8,2|0,0:0|0:0,0:0:0:0:
166,262,49193,2,0,L|332:237,1,163.2,2|2,0:0|0:0,0:0:0:0:
194,180,49901,6,0,L|125:174,1,54.4,2|2,3:2|0:3,0:0:0:0:
21,57,50325,2,0,L|152:48,2,108.8,2|2|2,0:0|0:0|0:0,0:0:0:0:
231,105,51316,2,0,L|241:237,1,108.8,2|2,3:2|0:3,0:0:0:0:
116,255,51882,1,2,0:0:0:0:
366,300,52165,6,0,L|449:294,1,68,2|8,3:2|0:0,0:0:0:0:
297,237,52589,2,0,L|295:92,1,136,8|8,0:3|0:1,0:0:0:0:
363,84,53014,1,8,3:3:0:0:
103,313,53297,6,0,L|28:189,1,136,4|0,3:2|0:0,0:0:0:0:
97,151,53721,2,0,L|229:103,1,136,2|0,0:0|0:0,0:0:0:0:
292,95,54146,2,0,L|299:176,1,68,2|2,0:0|0:0,0:0:0:0:
225,190,54429,6,0,L|85:153,2,136,0|2|0,3:0|0:0|3:0,0:0:0:0:
360,198,55278,1,2,0:0:0:0:
109,344,55561,6,0,L|103:206,1,136,0|2,3:0|0:0,0:0:0:0:
170,175,55986,2,0,L|322:122,1,136,2|0,0:0|0:0,0:0:0:0:
237,99,56410,1,2,0:0:0:0:
171,90,56552,1,8,0:3:0:0:
243,63,56693,6,0,L|386:45,1,136,0|2,3:0|0:0,0:0:0:0:
241,108,57259,2,0,L|238:250,1,136,0|2,3:0|0:0,0:0:0:0:
485,306,57825,6,0,L|409:186,1,136,0|0,3:0|0:0,0:0:0:0:
346,163,58250,2,0,L|197:124,1,136,2|2,0:0|0:0,0:0:0:0:
147,75,58674,2,0,L|222:56,1,68,0|2,0:0|0:0,0:0:0:0:
287,64,58957,6,0,L|290:206,1,136,0|2,3:0|0:0,0:0:0:0:
155,267,59523,2,0,L|96:274,1,45.3333333333333,0|8,3:0|0:0,0:0:0:0:
19,138,59806,2,0,L|74:130,1,45.3333333333333,8|8,0:3|0:3,0:0:0:0:
254,64,60089,6,0,L|400:65,1,136,4|0,3:2|3:0,0:0:0:0:
321,119,60514,2,0,L|172:142,1,136,4|4,3:2|3:2,0:0:0:0:
438,145,61080,6,0,L|444:284,1,136,4|8,3:2|0:1,0:0:0:0:
379,301,61505,1,0,3:0:0:0:
237,331,61788,2,0,L|305:284,1,68,8|8,3:1|0:1,0:0:0:0:
363,289,62071,1,0,3:0:0:0:
106,286,62354,6,0,L|102:147,1,136,4|0,3:2|3:0,0:0:0:0:
171,119,62778,2,0,L|316:102,1,136,4|4,3:2|3:2,0:0:0:0:
37,51,63344,5,4,3:2:0:0:
256,192,63627,12,4,65467,3:2:0:0:
255,76,65750,6,0,P|205:96|281:189,4,204,6|2|2|2|2,3:2|0:0|0:0|0:0|0:0,0:0:0:0:
356,62,67660,1,2,0:0:0:0:
251,73,67872,1,2,0:0:0:0:
321,83,68014,6,0,P|371:103|295:196,4,204,2|2|2|2|2,0:0|0:0|0:0|0:0|0:0,0:0:0:0:
179,73,69995,2,0,L|88:70,1,68,0|0,3:0|3:0,0:0:0:0:
266,34,70278,6,0,P|328:42|347:279,1,340,4|0,3:2|0:0,0:0:0:0:
294,288,71127,1,2,0:0:0:0:
45,324,71410,6,0,L|43:157,1,136,4|2,3:2|0:0,0:0:0:0:
197,96,71976,2,0,L|55:70,1,136,4|2,3:2|0:0,0:0:0:0:
314,37,72542,2,0,L|455:22,1,136,4|4,3:2|3:2,0:0:0:0:
311,142,73108,2,0,L|164:118,1,136,4|4,3:2|3:2,0:0:0:0:
440,88,73674,5,4,3:2:0:0:
476,139,73816,1,4,3:2:0:0:
440,88,73957,1,4,3:2:0:0:
305,280,74240,1,4,3:2:0:0:
240,271,74381,1,4,3:2:0:0:
210,212,74523,1,4,3:2:0:0:
242,155,74664,1,4,3:2:0:0:
397,106,74806,6,0,P|454:127|461:268,1,204,4|2,3:2|0:0,0:0:0:0:
410,279,75372,1,0,3:0:0:0:
174,202,75655,6,0,P|230:149|368:128,2,204,12|2|12,0:0|0:0|0:0,0:0:0:0:
265,260,76717,1,0,0:0:0:0:
369,274,76929,1,0,3:0:0:0:
213,356,77071,6,0,P|129:347|104:240,1,204,4|2,3:2|0:0,0:0:0:0:
173,228,77637,1,0,3:0:0:0:
419,199,77920,6,0,L|288:143,1,136,12|0,0:0|3:0,0:0:0:0:
356,115,78344,1,8,0:1:0:0:
424,112,78486,1,0,3:0:0:0:
274,53,78769,2,0,L|130:62,1,136,4|0,3:2|3:0,0:0:0:0:
205,102,79193,1,0,3:0:0:0:
354,151,79335,5,4,3:0:0:0:
256,192,79618,12,2,81316,0:0:0:0:
251,126,81599,6,0,L|112:106,1,136,4|4,3:2|3:2,0:0:0:0:
185,77,82023,1,0,3:0:0:0:
254,72,82165,2,0,L|399:82,1,136,4|4,3:2|3:2,0:0:0:0:
135,344,82731,6,0,L|128:203,1,136,4|4,3:2|3:2,0:0:0:0:
194,186,83155,1,0,3:0:0:0:
265,173,83297,1,4,3:2:0:0:
200,171,83438,1,0,3:0:0:0:
169,114,83580,1,0,3:0:0:0:
202,59,83721,1,0,3:0:0:0:
352,37,83863,5,4,3:3:0:0:
459,147,84429,2,0,L|477:224,2,68,2|2|2,0:0|0:0|0:0,0:0:0:0:
197,112,84995,6,0,L|277:132,1,68,4|0,3:2|3:0,0:0:0:0:
332,128,85278,1,4,3:2:0:0:
66,231,85561,6,0,L|34:165,2,68,4|0|4,3:2|3:0|3:2,0:0:0:0:
279,282,86410,6,0,L|426:265,1,136,2|2,0:0|0:0,0:0:0:0:
349,240,86835,1,2,0:0:0:0:
281,237,86976,1,2,0:0:0:0:
212,237,87118,2,0,L|72:185,2,136,2|2|0,0:0|0:0|0:0,0:0:0:0:
283,195,87825,6,0,L|401:195,2,102,0|0|0,3:0|3:0|3:0,0:0:0:0:
131,136,88391,5,12,3:2:0:0:
140,62,88674,2,0,L|287:42,1,136,4|0,3:0|0:0,0:0:0:0:
339,41,89099,1,0,3:0:0:0:
408,50,89240,1,8,0:0:0:0:
162,95,89523,6,0,L|165:244,1,136,0|8,3:0|0:0,0:0:0:0:
308,261,90089,2,0,L|450:282,1,136,0|8,0:0|0:0,0:0:0:0:
190,353,90655,5,4,3:2:0:0:
121,353,90797,2,0,L|21:238,1,136,4|8,3:2|0:1,0:0:0:0:
101,213,91221,5,4,3:2:0:0:
174,200,91363,2,0,L|329:206,1,136,4|8,3:2|0:1,0:0:0:0:
459,163,91788,5,4,3:2:0:0:
456,114,91929,2,0,L|313:99,1,136,4|0,3:2|3:0,0:0:0:0:
242,106,92354,5,4,3:2:0:0:
245,57,92495,2,0,L|388:42,1,136,0|0,3:0|3:0,0:0:0:0:
226,202,92920,6,0,L|72:178,2,136,4|4|4,3:2|3:2|3:2,0:0:0:0:
368,213,93769,1,4,3:2:0:0:
113,330,94052,6,0,L|27:314,2,68,4|0|0,3:2|3:0|3:0,0:0:0:0:
255,236,94618,2,0,L|109:218,1,136,4|4,3:2|3:2,0:0:0:0:
52,186,95042,1,0,3:0:0:0:
120,218,95184,1,0,3:0:0:0:
377,100,95467,6,0,L|388:242,1,136,4|0,3:2|0:0,0:0:0:0:
319,258,95891,1,0,3:0:0:0:
248,270,96033,1,8,0:0:0:0:
321,291,96174,6,0,L|454:343,1,136,0|0,3:0|3:0,0:0:0:0:
379,341,96599,1,8,0:0:0:0:
240,347,96882,2,0,L|128:307,2,102,0|0|0,3:0|3:0|3:0,0:0:0:0:
389,302,97448,5,8,0:0:0:0:
372,203,97731,2,0,L|221:197,1,136,0|0,3:0|0:0,0:0:0:0:
172,188,98155,1,0,3:0:0:0:
102,189,98297,1,8,0:0:0:0:
351,48,98580,6,0,L|357:200,1,136,0|8,3:0|0:0,0:0:0:0:
203,206,99146,2,0,L|199:52,1,136,0|8,0:0|0:0,0:0:0:0:
450,64,99712,6,0,L|305:80,1,136,4|8,3:2|0:0,0:0:0:0:
288,113,100089,1,8,0:0:0:0:
303,154,100183,1,8,0:0:0:0:
346,162,100278,2,0,L|492:181,1,136,0|8,3:0|0:0,0:0:0:0:
223,339,100844,6,0,L|225:176,1,136,4|0,3:2|3:0,0:0:0:0:
269,197,101221,1,0,3:0:0:0:
314,192,101315,1,0,3:0:0:0:
359,187,101410,2,0,L|478:186,2,102,4|4|4,3:2|3:2|3:2,0:0:0:0:
203,110,101976,6,0,L|56:77,1,136,4|0,3:2|3:0,0:0:0:0:
145,53,102401,2,0,L|284:45,1,136,4|0,3:2|3:0,0:0:0:0:
356,67,102825,2,0,L|367:216,1,136,4|8,3:2|0:1,0:0:0:0:
212,247,103250,6,0,L|74:267,1,136,4|4,3:2|3:2,0:0:0:0:
146,312,103674,1,4,3:2:0:0:
242,333,103887,1,4,3:2:0:0:
344,347,104099,1,4,3:2:0:0:
190,278,104240,6,0,L|43:267,1,136,4|8,3:2|0:0,0:0:0:0:
55,268,104665,1,0,3:0:0:0:
197,231,104948,1,0,3:0:0:0:
267,230,105089,6,0,P|306:153|205:82,1,204,2|0,0:0|3:0,0:0:0:0:
163,85,105655,1,8,0:0:0:0:
300,62,105938,2,0,L|416:103,2,102,0|0|0,0:0|0:0|0:0,0:0:0:0:
230,65,106505,6,0,L|77:86,1,136,0|8,3:0|0:0,0:0:0:0:
90,135,106929,1,0,3:0:0:0:
226,186,107212,1,0,3:0:0:0:
290,202,107354,1,0,0:0:0:0:
358,209,107495,6,0,L|364:362,1,136,10|0,0:0|3:0,0:0:0:0:
294,356,107920,1,8,0:0:0:0:
154,278,108203,2,0,L|48:249,2,102,2|2|2,0:0|0:0|0:0,0:0:0:0:
223,280,108769,1,0,3:0:0:0:
477,256,109052,6,0,P|486:193|371:114,1,204,8|0,0:0|3:0,0:0:0:0:
318,105,109618,1,2,0:0:0:0:
178,169,109901,1,0,0:0:0:0:
246,197,110042,2,0,L|395:247,2,136,0|0|0,3:0|3:0|3:0,0:0:0:0:
180,197,110750,1,10,0:0:0:0:
114,203,110891,1,2,0:0:0:0:
45,211,111033,6,0,L|39:62,1,136,0|8,3:0|0:0,0:0:0:0:
108,58,111457,2,0,L|255:80,1,136,0|0,3:0|3:0,0:0:0:0:
177,117,111882,1,0,0:0:0:0:
109,127,112023,1,8,0:0:0:0:
366,143,112306,6,0,L|476:258,1,136,0|0,3:0|3:0,0:0:0:0:
392,277,112731,1,4,3:2:0:0:
289,304,112943,1,4,3:2:0:0:
184,320,113155,1,4,3:2:0:0:
338,198,113297,6,0,L|478:161,1,136,4|0,3:2|0:0,0:0:0:0:
398,125,113721,2,0,L|241:89,1,136,0|0,3:0|3:0,0:0:0:0:
192,82,114146,1,0,3:0:0:0:
335,38,114429,6,0,L|343:201,1,136,0|0,3:0|0:0,0:0:0:0:
273,198,114854,1,0,3:0:0:0:
204,206,114995,2,0,L|121:203,2,68,0|0|0,0:0|3:0|3:0,0:0:0:0:
457,145,115561,6,0,L|464:286,1,136,4|0,3:2|0:0,0:0:0:0:
394,304,115986,2,0,L|244:272,1,136,0|0,3:0|3:0,0:0:0:0:
192,268,116410,1,0,0:0:0:0:
451,224,116693,6,0,L|453:75,1,136,4|0,3:2|0:0,0:0:0:0:
384,77,117118,1,0,3:0:0:0:
315,68,117259,2,0,L|194:65,2,102,0|0|0,0:0|0:0|0:0,0:0:0:0:
168,167,117825,6,0,L|41:237,1,136,4|0,3:2|3:0,0:0:0:0:
120,268,118250,2,0,L|232:302,2,102,0|0|0,0:0|0:0|3:0,0:0:0:0:
225,191,118887,1,0,0:0:0:0:
333,177,119099,1,0,3:0:0:0:
139,150,119311,2,0,L|133:26,1,102,2|0,0:0|3:0,0:0:0:0:
243,35,119736,2,0,L|344:43,1,102,0|0,3:0|3:0,0:0:0:0:
194,151,120089,6,0,L|88:157,2,102,4|4|4,3:2|3:2|3:2,0:0:0:0:
448,291,120797,2,0,L|459:174,2,102,4|4|4,3:2|3:2|3:2,0:0:0:0:
380,318,121363,1,0,3:0:0:0:
310,328,121505,1,4,3:2:0:0:
55,349,121788,5,4,3:2:0:0:
28,288,121929,1,4,3:2:0:0:
55,229,122071,1,4,3:2:0:0:
119,211,122212,1,4,3:2:0:0:
485,141,122637,5,4,3:3:0:0:
256,192,122920,12,0,126882,0:0:0:0:
254,193,127165,5,2,0:0:0:0:
251,95,127448,1,2,0:0:0:0:
197,53,127589,1,0,0:0:0:0:
132,34,127731,1,0,0:0:0:0:
65,40,127872,5,2,0:0:0:0:
193,122,128155,1,0,0:0:0:0:
336,166,128438,1,2,0:0:0:0:
192,234,128721,6,0,L|106:226,2,68,2|0|2,0:0|0:0|0:0,0:0:0:0:
399,195,129429,2,0,L|401:340,1,136,2|2,0:0|0:0,0:0:0:0:
332,348,129854,1,0,0:0:0:0:
263,348,129995,1,0,0:0:0:0:
332,348,130137,2,0,L|468:292,2,136,2|0|2,0:0|0:0|0:0,0:0:0:0:
81,306,130986,6,0,L|65:222,2,68,2|0|2,0:0|0:0|0:0,0:0:0:0:
