osu file format v14

[General]
AudioFilename: xi - Time files.mp3
AudioLeadIn: 0
PreviewTime: 72070
Countdown: 0
SampleSet: Normal
StackLeniency: 0.7
Mode: 0
LetterboxInBreaks: 1
WidescreenStoryboard: 1

[Editor]
DistanceSpacing: 5.1
BeatDivisor: 16
GridSize: 4
TimelineZoom: 1.9

[Metadata]
Title:Time files
TitleUnicode:Time files
Artist:xi
ArtistUnicode:xi
Creator:cheesiest
Version:g2
Source:BMS
Tags:bof2009 happy
BeatmapID:3114753
BeatmapSetID:587738

[Difficulty]
HPDrainRate:6
CircleSize:4.3
OverallDifficulty:9
ApproachRate:9.6
SliderMultiplier:2.2
SliderTickRate:1

[Events]
//Background and Video events
0,0,"BG.jpg",0,0
//Break Periods
//Storyboard Layer 0 (Background)
//Storyboard Layer 1 (Fail)
//Storyboard Layer 2 (Pass)
//Storyboard Layer 3 (Foreground)
//Storyboard Layer 4 (Overlay)
//Storyboard Sound Samples

[TimingPoints]
2620,300,4,1,1,75,1,0
21670,-86.8055555555555,4,1,1,75,0,0
21820,-100,4,1,1,75,0,0
30970,-86.8055555555555,4,1,1,75,0,0
31420,-100,4,1,1,75,0,0
40045,-95.4927425515661,4,1,1,75,0,0
41320,-100,4,1,1,75,0,0
43420,-95.4927425515661,4,1,1,75,0,0
44020,-100,4,1,1,75,0,0
45820,-95.4927425515661,4,1,1,75,0,0
48220,-100,4,1,1,75,0,0
49420,-95.4927425515661,4,1,1,75,0,0
50020,-86.6400970369087,4,1,1,75,0,0
50320,-84.7457627118644,4,1,1,75,0,0
50620,-95.4927425515661,4,1,1,75,0,0
56620,-92.1658986175115,4,1,1,75,0,0
58420,-95.4927425515661,4,1,1,75,0,0
65020,-92.4214417744917,4,1,1,75,0,0
66220,-95.4927425515661,4,1,1,75,0,0
67120,-90.9504320145521,4,1,1,75,0,0
69520,-95.4927425515661,4,1,1,75,0,0
72220,-95.4929658551372,4,1,1,75,0,0
73120,-100,4,1,1,75,0,0
73420,-95.4929658551372,4,1,1,75,0,0
74020,-95.4929658551372,4,1,1,75,0,0
75520,-100,4,1,1,75,0,0

[Colours]
Combo1 : 40,255,255
Combo2 : 0,128,255

[HitObjects]
241,247,11170,5,0,0:0:0:0:
348,222,11320,1,0,0:0:0:0:
273,142,11470,1,0,0:0:0:0:
316,327,11620,1,0,0:0:0:0:
134,272,11770,1,0,0:0:0:0:
209,352,11920,1,0,0:0:0:0:
166,167,12070,1,0,0:0:0:0:
316,327,12220,5,0,0:0:0:0:
348,222,12370,1,0,0:2:0:0:
344,204,12420,1,0,2:0:0:0:
340,186,12470,1,0,2:0:0:0:
335,168,12520,2,0,L|309:53,1,110
157,5,12820,1,0,0:0:0:0:
170,48,12895,1,0,0:0:0:0:
166,93,12970,1,0,0:0:0:0:
145,134,13045,1,0,0:0:0:0:
110,164,13120,2,0,L|136:279,1,110
363,309,13420,6,0,P|390:307|420:296,1,55,0|0,0:0|2:0,0:0:0:0:
187,260,13570,2,0,P|160:262|129:273,1,55,0|0,0:0|2:0,0:0:0:0:
276,360,13720,2,0,B|297:317|276:282|276:282|254:246|275:203,1,165,0|0,0:0|2:0,0:0:0:0:
365,137,14020,2,0,P|372:83|353:30,1,110
136,5,14320,1,0,0:0:0:0:
263,94,14470,1,0,0:0:0:0:
46,130,14620,5,0,0:0:0:0:
173,219,14770,1,0,0:0:0:0:
165,240,14820,1,0,2:0:0:0:
157,261,14870,1,0,2:0:0:0:
149,282,14920,2,0,P|142:336|161:389,1,110
403,298,15220,1,0,0:0:0:0:
419,254,15295,1,0,0:0:0:0:
416,208,15370,1,0,0:0:0:0:
397,167,15445,1,0,0:0:0:0:
365,137,15520,2,0,L|482:123,1,110
312,8,15820,6,0,L|318:66,1,55,0|0,0:0|2:0,0:0:0:0:
193,62,15970,2,0,L|200:8,1,55,0|0,0:0|2:0,0:0:0:0:
256,165,16120,2,0,B|277:208|256:243|256:243|234:279|255:322,1,165,0|0,0:0|2:0,0:0:0:0:
147,350,16420,2,0,L|29:336,1,110,0|0,0:0|2:0,0:0:0:0:
192,205,16720,1,0,0:0:0:0:
38,181,16870,1,0,0:0:0:0:
136,59,17020,5,0,0:0:0:0:
103,270,17170,1,0,0:0:0:0:
117,296,17220,1,0,2:0:0:0:
132,323,17270,1,0,2:0:0:0:
147,350,17320,2,0,L|265:364,1,110
358,191,17620,1,0,0:0:0:0:
314,207,17695,1,0,0:0:0:0:
268,204,17770,1,0,0:0:0:0:
227,185,17845,1,0,0:0:0:0:
197,153,17920,2,0,L|213:269,1,110
298,85,18220,6,0,L|289:26,1,55,0|0,0:0|2:0,0:0:0:0:
358,191,18370,2,0,L|400:226,1,55,0|0,0:0|2:0,0:0:0:0:
401,10,18520,2,0,B|412:91|412:91|475:145,1,165,0|0,0:0|2:0,0:0:0:0:
507,253,18820,2,0,P|486:295|430:331,1,110
248,184,19120,1,0,0:0:0:0:
401,226,19270,1,0,0:0:0:0:
290,31,19420,5,0,0:0:0:0:
303,281,19570,1,0,0:0:0:0:
299,300,19620,1,0,0:0:0:0:
295,319,19670,1,0,0:0:0:0:
291,338,19720,2,0,L|172:368,1,110
11,264,20020,1,0,0:0:0:0:
0,221,20095,1,0,0:0:0:0:
2,176,20170,1,0,0:0:0:0:
23,135,20245,1,0,0:0:0:0:
58,105,20320,1,0,0:0:0:0:
91,144,20395,1,0,0:0:0:0:
137,168,20470,1,0,0:0:0:0:
188,172,20545,1,0,0:0:0:0:
237,157,20620,5,0,0:0:0:0:
246,94,20695,1,0,0:0:0:0:
255,31,20770,1,0,0:0:0:0:
383,206,20920,1,0,0:0:0:0:
375,141,20995,1,0,0:0:0:0:
367,78,21070,1,0,0:0:0:0:
512,124,21219,1,0,0:0:0:0:
487,63,21294,1,0,0:0:0:0:
463,4,21370,1,0,0:0:0:0:
425,54,21445,1,0,0:0:0:0:
367,78,21520,1,0,0:0:0:0:
305,70,21595,1,0,0:0:0:0:
255,31,21670,2,0,L|178:19,1,63.3599987625
91,94,21820,5,0,0:0:0:0:
227,204,21969,1,0,0:0:0:0:
221,235,22020,1,0,0:0:0:0:
215,266,22070,1,0,0:0:0:0:
209,297,22120,2,0,L|84:316,1,110
3,103,22420,1,0,0:0:0:0:
46,90,22495,1,0,0:0:0:0:
91,94,22570,1,0,0:0:0:0:
132,115,22645,1,0,0:0:0:0:
162,150,22720,2,0,L|287:131,1,110
418,242,23020,6,0,L|460:207,1,55,0|0,0:0|2:0,0:0:0:0:
280,188,23170,2,0,L|271:134,1,55,0|0,0:0|2:0,0:0:0:0:
335,39,23320,2,0,P|397:92|477:93,1,165,0|0,0:0|2:0,0:0:0:0:
369,163,23620,1,0,0:0:0:0:
395,330,23770,1,0,0:0:0:0:
236,268,23920,2,0,B|184:249|184:249|131:260|131:260|79:241,1,165
20,148,24220,5,0,0:0:0:0:
196,16,24370,1,0,0:0:0:0:
205,45,24420,1,0,0:0:0:0:
214,74,24470,1,0,0:0:0:0:
222,102,24520,2,0,L|330:127,1,110
384,326,24820,1,0,0:0:0:0:
397,282,24895,1,0,0:0:0:0:
411,239,24970,1,0,0:0:0:0:
424,195,25045,1,0,0:0:0:0:
438,152,25120,2,0,P|435:91|405:46,1,110
157,163,25420,5,0,0:0:0:0:
178,200,25520,1,0,0:0:0:0:
192,160,25620,1,0,0:0:0:0:
220,80,25720,5,0,0:0:0:0:
167,83,25820,1,0,0:0:0:0:
115,89,25920,1,0,0:0:0:0:
73,15,26020,6,0,L|-24:24,2,73.3333333333333
248,0,26320,2,0,L|345:-7,2,73.3333333333333
167,83,26620,5,0,0:0:0:0:
286,232,26770,1,0,0:0:0:0:
282,202,26820,1,0,0:0:0:0:
278,171,26870,1,0,0:0:0:0:
274,140,26920,2,0,L|383:126,1,110
457,371,27220,1,0,0:0:0:0:
414,384,27295,1,0,0:0:0:0:
369,380,27370,1,0,0:0:0:0:
328,359,27445,1,0,0:0:0:0:
298,324,27520,2,0,L|189:338,1,110
60,165,27820,6,0,L|67:110,1,55,0|0,0:0|2:0,0:0:0:0:
182,284,27970,2,0,L|189:338,1,55,0|0,0:0|2:0,0:0:0:0:
48,254,28120,2,0,B|101:244|101:244|141:204|141:204|195:195,1,165
301,228,28420,2,0,B|274:179|274:179|281:124,1,110
406,260,28720,1,0,0:0:0:0:
365,53,28870,1,0,0:0:0:0:
490,187,29020,5,0,0:0:0:0:
281,125,29170,1,0,0:0:0:0:
265,100,29220,1,0,0:0:0:0:
256,73,29270,1,0,0:0:0:0:
254,42,29320,2,0,L|133:27,1,110,0|0,0:0|2:0,0:0:0:0:
119,251,29620,1,0,0:0:0:0:
164,245,29695,1,0,0:0:0:0:
210,239,29770,1,0,0:0:0:0:
255,233,29845,1,0,0:0:0:0:
301,228,29920,2,0,L|364:220,1,55
420,60,30070,2,0,L|357:51,1,55
161,153,30220,5,0,0:0:0:0:
153,91,30295,1,0,0:0:0:0:
145,29,30370,1,0,0:0:0:0:
317,104,30520,1,0,0:0:0:0:
309,166,30595,1,0,0:0:0:0:
301,228,30670,1,0,0:0:0:0:
473,303,30820,1,0,0:0:0:0:
465,241,30895,1,0,0:0:0:0:
457,179,30970,2,0,L|465:116,1,63.3599987625
309,41,31120,2,0,L|317:108,1,63.3599987625
170,216,31270,2,0,L|161:148,1,63.3599987625
22,78,31420,5,0,0:0:0:0:
42,118,31495,1,0,0:0:0:0:
46,163,31570,1,0,0:0:0:0:
32,207,31645,1,0,0:0:0:0:
3,242,31720,1,0,0:0:0:0:
47,252,31795,1,0,0:0:0:0:
91,263,31870,1,0,0:0:0:0:
131,239,31945,1,0,0:0:0:0:
170,216,32020,2,0,L|237:207,1,55
301,240,32170,2,0,L|368:231,1,55
420,180,32320,1,0,0:0:0:0:
423,201,32395,1,0,0:0:0:0:
426,222,32470,1,0,0:0:0:0:
429,243,32545,1,0,0:0:0:0:
432,264,32620,6,0,L|441:330,3,55
289,158,32920,2,0,L|296:103,3,55
269,335,33220,1,0,0:0:0:0:
282,297,33295,1,0,0:0:0:0:
261,263,33370,1,0,0:0:0:0:
222,257,33445,1,0,0:0:0:0:
193,284,33520,1,0,0:0:0:0:
149,324,33595,1,0,0:0:0:0:
91,315,33670,1,0,0:0:0:0:
59,264,33745,1,0,0:0:0:0:
80,207,33820,6,0,L|76:150,1,55
18,52,33970,2,0,L|72:54,1,55
159,101,34120,1,0,0:0:0:0:
208,111,34195,1,0,0:0:0:0:
256,97,34270,1,0,0:0:0:0:
292,62,34345,1,0,0:0:0:0:
340,48,34420,1,0,0:0:0:0:
389,58,34495,1,0,0:0:0:0:
428,89,34570,1,0,0:0:0:0:
450,134,34645,1,0,0:0:0:0:
448,184,34720,2,0,L|452:241,3,55
360,328,35020,6,0,L|285:333,1,73.3333333333333
191,374,35220,1,0,0:0:0:0:
145,225,35320,5,0,0:0:0:0:
204,269,35420,1,0,0:0:0:0:
213,196,35520,1,0,0:0:0:0:
87,125,35620,6,0,L|14:130,2,73.3333333333333
183,84,35920,1,0,0:0:0:0:
431,291,36220,5,0,0:0:0:0:
401,325,36295,1,0,0:0:0:0:
360,345,36370,1,0,0:0:0:0:
315,345,36445,1,0,0:0:0:0:
273,325,36520,1,0,0:0:0:0:
244,291,36595,1,0,0:0:0:0:
232,247,36670,1,0,0:0:0:0:
240,202,36745,1,0,0:0:0:0:
267,165,36820,2,0,L|321:161,1,55
424,203,36970,2,0,L|420:148,1,55
379,49,37120,1,0,0:0:0:0:
351,50,37195,1,0,0:0:0:0:
324,52,37270,1,0,0:0:0:0:
296,54,37345,1,0,0:0:0:0:
269,56,37420,6,0,L|214:59,3,55
421,148,37720,2,0,L|475:151,3,55
329,300,38020,1,0,0:0:0:0:
313,337,38095,1,0,0:0:0:0:
277,354,38170,1,0,0:0:0:0:
238,341,38245,1,0,0:0:0:0:
219,307,38320,1,0,0:0:0:0:
194,254,38395,1,0,0:0:0:0:
141,229,38470,1,0,0:0:0:0:
85,246,38545,1,0,0:0:0:0:
54,295,38620,6,0,L|57:349,1,55
12,183,38770,2,0,L|15:128,1,55
64,20,38920,1,0,0:0:0:0:
88,64,38995,1,0,0:0:0:0:
129,93,39070,1,0,0:0:0:0:
179,98,39145,1,0,0:0:0:0:
220,127,39220,1,0,0:0:0:0:
244,171,39295,1,0,0:0:0:0:
246,221,39370,1,0,0:0:0:0:
224,266,39445,1,0,0:0:0:0:
183,295,39520,2,0,L|121:299,1,55
290,324,39670,2,0,L|352:320,1,55
422,71,39970,5,0,0:0:0:0:
273,24,40120,1,0,0:0:0:0:
295,222,40270,1,0,0:0:0:0:
163,138,40420,1,0,0:0:0:0:
450,229,40570,1,0,0:0:0:0:
197,272,40720,2,0,P|250:322|345:320,1,172.787996572504,0|0,0:0|2:0,0:0:0:0:
376,148,41020,6,0,P|314:114|246:123,1,115.191997715003,0|0,0:0|2:0,0:0:0:0:
82,211,41320,2,0,L|58:104,1,110,0|0,0:0|2:0,0:0:0:0:
295,222,41620,1,0,0:0:0:0:
156,294,41770,1,0,0:0:0:0:
156,294,41845,1,0,0:0:0:0:
163,138,41995,1,0,0:0:0:0:
163,138,42070,1,0,0:0:0:0:
368,303,42220,6,0,L|261:327,1,110,0|0,0:0|2:0,0:0:0:0:
481,181,42520,2,0,L|376:148,1,110,0|0,0:0|2:0,0:0:0:0:
442,384,42820,1,0,0:0:0:0:
295,222,42969,1,0,0:0:0:0:
456,73,43120,1,0,0:0:0:0:
368,303,43269,1,0,0:0:0:0:
138,215,43420,6,0,P|113:163|114:106,1,115.191997715003,0|0,0:0|2:0,0:0:0:0:
476,278,43720,2,0,P|472:335|442:384,1,115.191997715003,0|0,0:0|2:0,0:0:0:0:
31,239,44020,2,0,L|138:215,1,110,0|0,0:0|2:0,0:0:0:0:
199,271,44245,2,0,L|306:247,1,110,0|0,0:0|2:0,0:0:0:0:
368,303,44470,1,0,0:0:0:0:
297,144,44620,5,0,0:0:0:0:
138,215,44770,1,0,0:0:0:0:
85,227,44845,1,0,0:0:0:0:
32,239,44920,1,0,0:0:0:0:
191,111,45070,1,0,0:0:0:0:
244,127,45145,1,0,0:0:0:0:
297,144,45220,2,0,L|401:176,1,110,0|0,0:0|2:0,0:0:0:0:
463,119,45445,1,0,0:0:0:0:
278,63,45595,1,0,0:0:0:0:
278,63,45670,1,0,0:0:0:0:
323,251,45820,6,0,P|323:304|290:355,1,115.191997715003,0|0,0:0|2:0,0:0:0:0:
297,144,46120,2,0,P|323:98|377:69,1,115.191997715003,0|0,0:0|2:0,0:0:0:0:
216,275,46420,1,0,0:0:0:0:
402,177,46570,1,0,0:0:0:0:
290,355,46720,1,0,0:0:0:0:
298,144,46870,1,0,0:0:0:0:
398,369,47020,5,0,0:0:0:0:
397,331,47095,1,0,0:0:0:0:
383,295,47170,1,0,0:0:0:0:
357,267,47245,1,0,0:0:0:0:
323,251,47320,1,0,0:0:0:0:
285,254,47395,1,0,0:0:0:0:
248,242,47470,1,0,0:0:0:0:
219,219,47545,1,0,0:0:0:0:
197,187,47620,1,0,0:0:0:0:
189,150,47695,1,0,0:0:0:0:
194,112,47770,1,0,0:0:0:0:
210,77,47845,1,0,0:0:0:0:
239,51,47920,1,0,0:0:0:0:
273,37,47995,1,0,0:0:0:0:
311,35,48070,1,0,0:0:0:0:
348,46,48145,1,0,0:0:0:0:
378,70,48220,6,0,L|485:45,1,110,0|0,0:0|2:0,0:0:0:0:
194,112,48520,2,0,L|87:136,1,110,0|0,0:0|2:0,0:0:0:0:
322,251,48820,1,0,0:0:0:0:
273,37,48970,1,0,0:0:0:0:
273,37,49045,1,0,0:0:0:0:
219,219,49195,1,0,0:0:0:0:
219,219,49270,1,0,0:0:0:0:
401,177,49420,6,0,P|430:255|394:332,1,172.787996572504,0|0,0:0|2:0,0:0:0:0:
217,275,49720,2,0,P|231:191|299:143,1,172.787996572504,0|0,0:0|2:0,0:0:0:0:
377,68,50020,2,0,L|324:250,1,190.442996626216,0|0,0:0|2:0,0:0:0:0:
288,357,50320,2,0,B|231:364|199:328|199:328|167:292|110:299,1,194.699993166962,0|0,0:0|2:0,0:0:0:0:
13,209,50620,6,0,P|0:151|17:100,1,115.191997715003,0|0,0:0|2:0,0:0:0:0:
296,278,50920,2,0,P|252:318|199:328,1,115.191997715003,0|0,0:0|2:0,0:0:0:0:
110,159,51220,1,0,0:0:0:0:
301,167,51370,1,0,0:0:0:0:
301,167,51445,2,0,P|263:124|209:107,1,115.191997715003,0|0,0:0|2:0,0:0:0:0:
116,49,51670,1,0,0:0:0:0:
301,167,51820,5,0,0:0:0:0:
266,16,51970,1,0,0:0:0:0:
110,159,52120,1,0,0:0:0:0:
216,273,52270,1,0,0:0:0:0:
116,49,52420,1,0,0:0:0:0:
301,167,52570,1,0,0:0:0:0:
13,209,52720,1,0,0:0:0:0:
208,108,52870,1,0,0:0:0:0:
393,226,53020,6,0,P|448:214|490:174,1,115.191997715003,0|0,0:0|2:0,0:0:0:0:
208,107,53320,2,0,P|192:162|204:217,1,115.191997715003,0|0,0:0|2:0,0:0:0:0:
388,337,53620,1,0,0:0:0:0:
398,115,53770,1,0,0:0:0:0:
398,115,53845,2,0,P|384:59|346:17,1,115.191997715003,0|0,0:0|2:0,0:0:0:0:
266,16,54070,1,0,0:0:0:0:
296,278,54220,5,0,0:0:0:0:
54,172,54370,1,0,0:0:0:0:
66,226,54445,1,0,0:0:0:0:
105,265,54520,1,0,0:0:0:0:
266,16,54670,1,0,0:0:0:0:
213,0,54745,1,0,0:0:0:0:
159,13,54820,1,0,0:0:0:0:
245,184,54970,1,0,0:0:0:0:
245,184,55045,1,0,0:0:0:0:
60,62,55195,1,0,0:0:0:0:
60,62,55270,1,0,0:0:0:0:
239,294,55420,6,0,P|294:282|336:242,1,115.191997715003,0|0,0:0|2:0,0:0:0:0:
346,17,55720,2,0,P|328:70|342:127,1,115.191997715003,0|0,0:0|3:0,3:0:0:0:
425,300,56020,1,0,0:0:0:0:
245,184,56170,1,0,0:0:0:0:
436,85,56320,1,0,0:0:0:0:
329,358,56470,1,0,0:0:0:0:
146,128,56620,5,0,0:0:0:0:
174,93,56695,1,0,0:0:0:0:
213,73,56770,1,0,0:0:0:0:
258,70,56845,1,0,0:0:0:0:
300,85,56920,1,0,0:0:0:0:
333,114,56995,1,0,0:0:0:0:
351,155,57070,1,0,0:0:0:0:
352,199,57145,1,0,0:0:0:0:
336,241,57220,1,0,0:0:0:0:
303,210,57294,1,0,0:0:0:0:
285,170,57369,1,0,0:0:0:0:
284,125,57444,1,0,0:0:0:0:
300,85,57519,1,0,0:0:0:0:
332,52,57594,1,0,0:0:0:0:
374,36,57669,1,0,0:0:0:0:
418,38,57744,1,0,0:0:0:0:
459,55,57820,6,0,P|499:99|512:157,1,119.349996676426,0|0,0:0|2:0,0:0:0:0:
146,242,58120,2,0,P|130:185|145:128,1,119.349996676426,0|0,0:0|2:0,0:0:0:0:
428,168,58420,2,0,P|440:225|423:282,1,115.191997715003,0|0,0:0|2:0,0:0:0:0:
267,313,58644,2,0,P|229:267|219:209,1,115.191997715003,0|0,0:0|2:0,0:0:0:0:
305,85,58870,1,0,0:0:0:0:
357,354,59020,6,0,L|320:166,1,172.787996572504,0|0,0:0|2:0,0:0:0:0:
389,68,59320,2,0,L|220:101,1,172.787996572504,0|0,0:0|2:0,0:0:0:0:
116,13,59620,1,0,0:0:0:0:
91,64,59695,1,0,0:0:0:0:
86,115,59770,1,0,0:0:0:0:
102,166,59845,1,0,0:0:0:0:
135,205,59920,2,0,L|153:299,3,57.5959988575013
50,308,60220,6,0,L|24:177,1,115.191997715003,0|0,0:0|2:0,0:0:0:0:
255,46,60520,2,0,L|232:158,1,115.191997715003,0|0,0:0|2:0,0:0:0:0:
254,271,60820,1,0,0:0:0:0:
28,195,60970,1,0,0:0:0:0:
232,159,61120,1,0,0:0:0:0:
50,308,61270,1,0,0:0:0:0:
50,308,61570,6,0,L|24:177,1,115.191997715003,0|0,0:0|2:0,0:0:0:0:
254,271,61870,2,0,L|228:140,1,115.191997715003,0|0,0:0|2:0,0:0:0:0:
458,234,62170,2,0,L|432:103,1,115.191997715003,0|0,0:0|2:0,0:0:0:0:
255,46,62470,1,0,0:0:0:0:
435,121,62620,6,0,L|458:234,1,115.191997715003,0|0,0:0|2:0,0:0:0:0:
217,380,62919,2,0,L|254:270,1,115.191997715003,0|0,0:0|2:0,0:0:0:0:
232,158,63220,1,0,0:0:0:0:
458,234,63370,1,0,0:0:0:0:
254,270,63520,1,0,0:0:0:0:
436,121,63670,1,0,0:0:0:0:
435,121,63970,6,0,L|458:234,1,115.191997715003,0|0,0:0|2:0,0:0:0:0:
231,158,64270,2,0,L|254:271,1,115.191997715003,0|0,0:0|2:0,0:0:0:0:
27,195,64570,2,0,L|50:308,1,115.191997715003,0|0,0:0|2:0,0:0:0:0:
216,380,64870,1,0,0:0:0:0:
273,368,64945,1,0,0:0:0:0:
330,356,65020,6,0,P|368:271|341:195,1,178.530003187257,0|0,0:0|2:0,0:0:0:0:
231,158,65320,1,0,0:0:0:0:
416,282,65470,1,0,0:0:0:0:
416,282,65545,1,0,0:0:0:0:
416,282,65620,1,0,0:0:0:0:
216,380,65770,1,0,0:0:0:0:
216,380,65845,1,0,0:0:0:0:
217,380,65920,2,0,P|153:321|147:235,1,178.530003187257,0|0,0:0|2:0,0:0:0:0:
124,122,66220,6,0,L|69:103,2,57.5959988575013,0|0|0,0:0|2:0|0:0,0:0:0:0:
254,271,66520,2,0,L|265:327,2,57.5959988575013,0|0|0,0:0|2:0|0:0,0:0:0:0:
319,84,66820,2,0,L|362:46,1,57.5959988575013,0|0,0:0|2:0,0:0:0:0:
393,215,66970,2,0,L|339:197,1,57.5959988575013,0|0,0:0|2:0,0:0:0:0:
231,158,67120,1,0,0:0:0:0:
214,133,67195,1,0,0:0:0:0:
204,104,67270,1,0,0:0:0:0:
202,74,67345,1,0,0:0:0:0:
209,45,67420,5,0,0:0:0:0:
319,84,67570,1,0,0:0:0:0:
339,197,67720,2,0,P|299:252|252:272,1,120.945000253753,0|0,0:0|2:2,2:0:0:0:
194,265,67945,1,0,0:0:0:0:
231,158,68095,1,0,0:0:0:0:
231,158,68170,1,0,0:0:0:0:
97,69,68320,1,0,0:0:0:0:
114,93,68395,1,0,0:0:0:0:
124,122,68470,1,0,0:0:0:0:
125,152,68545,1,0,0:0:0:0:
119,181,68620,5,0,0:0:0:0:
254,272,68770,1,0,0:0:0:0:
233,237,68845,1,0,0:0:0:0:
225,198,68920,1,0,0:0:0:0:
231,158,68995,1,0,0:0:0:0:
251,123,69070,1,0,0:0:0:0:
282,98,69145,1,0,0:0:0:0:
320,84,69220,1,0,0:0:0:0:
142,293,69370,1,0,0:0:0:0:
89,319,69445,1,0,0:0:0:0:
29,316,69520,2,0,L|-28:312,1,57.5959988575013
254,272,69670,2,0,L|311:268,1,57.5959988575013
428,120,69820,5,0,0:0:0:0:
397,94,69895,1,0,0:0:0:0:
359,81,69970,1,0,0:0:0:0:
318,83,70045,1,0,0:0:0:0:
282,101,70120,1,0,0:0:0:0:
251,116,70195,1,0,0:0:0:0:
216,118,70270,1,0,0:0:0:0:
183,106,70345,1,0,0:0:0:0:
156,84,70420,1,0,0:0:0:0:
153,112,70495,1,0,0:0:0:0:
150,140,70570,1,0,0:0:0:0:
147,168,70645,1,0,0:0:0:0:
144,196,70720,1,0,0:0:0:0:
141,218,70795,1,0,0:0:0:0:
139,240,70870,1,0,0:0:0:0:
136,263,70945,1,0,0:0:0:0:
134,285,71020,5,0,0:0:0:0:
147,296,71095,1,0,0:0:0:0:
163,301,71170,1,0,0:0:0:0:
181,300,71245,1,0,0:0:0:0:
196,293,71320,1,0,0:0:0:0:
207,289,71395,1,0,0:0:0:0:
218,288,71470,1,0,0:0:0:0:
229,292,71545,1,0,0:0:0:0:
238,299,71620,1,0,0:0:0:0:
246,309,71920,1,0,0:0:0:0:
356,346,72220,5,0,0:0:0:0:
444,270,72370,1,0,0:2:0:0:
445,251,72420,1,0,0:2:0:0:
446,232,72470,1,0,0:2:0:0:
447,212,72520,2,0,P|434:156|396:114,1,115.191730820886
192,37,72820,1,0,0:0:0:0:
195,83,72895,1,0,0:0:0:0:
216,125,72970,1,0,0:0:0:0:
253,154,73045,1,0,0:0:0:0:
298,166,73120,2,0,L|293:275,1,110
72,310,73420,6,0,P|43:305|17:293,1,57.5958654104429,0|0,0:0|2:0,0:0:0:0:
238,259,73570,2,0,P|266:263|292:275,1,57.5958654104429,0|0,0:0|2:0,0:0:0:0:
154,364,73720,2,0,B|133:321|155:285|155:285|176:250|155:207,1,165,0|0,0:0|2:0,0:0:0:0:
62,147,74020,2,0,P|50:75|67:38,1,115.191730820886
285,8,74320,1,0,0:0:0:0:
158,97,74470,1,0,0:0:0:0:
299,163,74620,5,0,0:0:0:0:
189,6,74770,1,0,0:0:0:0:
178,36,74820,1,0,0:0:0:0:
168,66,74870,1,0,0:0:0:0:
159,96,74920,2,0,P|122:133|62:147,1,115.191730820886
121,349,75220,1,0,0:0:0:0:
133,298,75295,1,0,0:0:0:0:
169,260,75370,1,0,0:0:0:0:
218,244,75445,1,0,0:0:0:0:
269,253,75520,2,0,P|324:241|365:201,1,115.191730820886
