osu file format v14

[General]
AudioFilename: audio.mp3
AudioLeadIn: 0
PreviewTime: 94306
Countdown: 0
SampleSet: Normal
StackLeniency: 0.7
Mode: 3
LetterboxInBreaks: 0
SpecialStyle: 0
WidescreenStoryboard: 0

[Editor]
Bookmarks: 39652,57474,94306,103811
DistanceSpacing: 1.2
BeatDivisor: 4
GridSize: 4
TimelineZoom: 1

[Metadata]
Title:Time To Air -Fly High Remix-
TitleUnicode:Time To Air -Fly High Remix-
Artist:xi
ArtistUnicode:xi
Creator:Crusts
Version:EXHAUST
Source:SOUND VOLTEX III GRAVITY WARS
Tags:
BeatmapID:1045755
BeatmapSetID:490661

[Difficulty]
HPDrainRate:9
CircleSize:4
OverallDifficulty:8
ApproachRate:5
SliderMultiplier:1.4
SliderTickRate:1

[Events]
//Background and Video events
0,0,"oopo.jpg",0,0
//Break Periods
//Storyboard Layer 0 (Background)
//Storyboard Layer 1 (Fail)
//Storyboard Layer 2 (Pass)
//Storyboard Layer 3 (Foreground)
//Storyboard Sound Samples

[TimingPoints]
1633,297.029702970297,4,1,0,25,1,0
80048,-153.846153846153,4,1,0,25,0,0
81236,-133.333333333333,4,1,0,25,0,0
83316,-62.5,4,1,0,25,0,0
83613,-250,4,1,0,25,0,0
83910,-166.666666666667,4,1,0,25,0,0
84058,-125,4,1,0,25,0,0
85989,-117.647058823529,4,1,0,25,0,0
87177,-111.111111111111,4,1,0,25,0,0
88365,-105.263157894737,4,1,0,25,0,0
89553,-100,4,1,0,25,0,0
94306,-100,4,1,0,25,0,1
103811,-100,4,1,0,25,0,0

[HitObjects]
448,192,1335,128,0,1633:0:0:0:0:
192,192,1633,5,0,0:0:0:0:
64,192,1633,1,0,0:0:0:0:
320,192,1633,1,0,0:0:0:0:
320,192,1855,1,0,0:0:0:0:
448,192,1855,1,0,0:0:0:0:
64,192,1855,1,0,0:0:0:0:
192,192,2078,1,0,0:0:0:0:
64,192,2078,1,0,0:0:0:0:
448,192,2078,1,0,0:0:0:0:
192,192,2301,1,0,0:0:0:0:
448,192,2301,1,0,0:0:0:0:
320,192,2301,1,0,0:0:0:0:
64,192,2524,1,0,0:0:0:0:
448,192,2524,1,0,0:0:0:0:
320,192,2524,1,0,0:0:0:0:
320,192,2672,1,0,0:0:0:0:
448,192,2672,1,0,0:0:0:0:
64,192,2746,1,0,0:0:0:0:
192,192,2746,1,0,0:0:0:0:
320,192,2821,1,0,0:0:0:0:
448,192,2821,1,0,0:0:0:0:
64,192,2821,1,0,0:0:0:0:
192,192,3043,1,0,0:0:0:0:
320,192,3043,1,0,0:0:0:0:
448,192,3043,1,0,0:0:0:0:
192,192,3266,1,0,0:0:0:0:
64,192,3266,1,0,0:0:0:0:
448,192,3266,1,0,0:0:0:0:
320,192,3415,1,0,0:0:0:0:
448,192,3415,1,0,0:0:0:0:
192,192,3489,1,0,0:0:0:0:
64,192,3489,1,0,0:0:0:0:
192,192,3637,1,0,0:0:0:0:
64,192,3637,1,0,0:0:0:0:
320,192,3712,1,0,0:0:0:0:
448,192,3712,1,0,0:0:0:0:
64,192,3712,1,0,0:0:0:0:
192,192,3860,1,0,0:0:0:0:
64,192,3860,1,0,0:0:0:0:
320,192,3934,1,0,0:0:0:0:
448,192,3934,1,0,0:0:0:0:
192,192,4009,1,0,0:0:0:0:
64,192,4009,1,0,0:0:0:0:
448,192,4009,1,0,0:0:0:0:
192,192,4232,1,0,0:0:0:0:
64,192,4232,1,0,0:0:0:0:
448,192,4232,1,0,0:0:0:0:
448,192,4454,1,0,0:0:0:0:
320,192,4454,1,0,0:0:0:0:
192,192,4454,1,0,0:0:0:0:
64,192,4677,1,0,0:0:0:0:
192,192,4677,1,0,0:0:0:0:
448,192,4677,1,0,0:0:0:0:
448,192,4900,1,0,0:0:0:0:
320,192,4900,1,0,0:0:0:0:
64,192,4900,1,0,0:0:0:0:
192,192,5048,1,0,0:0:0:0:
64,192,5048,1,0,0:0:0:0:
320,192,5123,1,0,0:0:0:0:
448,192,5123,1,0,0:0:0:0:
192,192,5197,1,0,0:0:0:0:
64,192,5197,1,0,0:0:0:0:
448,192,5197,1,0,0:0:0:0:
320,192,5420,1,0,0:0:0:0:
448,192,5420,1,0,0:0:0:0:
192,192,5420,1,0,0:0:0:0:
192,192,5642,1,0,0:0:0:0:
64,192,5642,1,0,0:0:0:0:
448,192,5642,1,0,0:0:0:0:
448,192,5791,1,0,0:0:0:0:
320,192,5791,1,0,0:0:0:0:
192,192,5865,1,0,0:0:0:0:
64,192,5865,1,0,0:0:0:0:
448,192,5865,1,0,0:0:0:0:
192,192,6088,1,0,0:0:0:0:
320,192,6088,1,0,0:0:0:0:
448,192,6088,1,0,0:0:0:0:
320,192,6385,1,0,0:0:0:0:
448,192,6385,1,0,0:0:0:0:
64,192,6385,1,0,0:0:0:0:
192,192,6533,1,0,0:0:0:0:
320,192,6533,1,0,0:0:0:0:
448,192,6682,1,0,0:0:0:0:
320,192,6682,1,0,0:0:0:0:
192,192,6831,1,0,0:0:0:0:
64,192,6831,1,0,0:0:0:0:
320,192,6979,1,0,0:0:0:0:
448,192,6979,1,0,0:0:0:0:
192,192,7128,1,0,0:0:0:0:
64,192,7128,1,0,0:0:0:0:
192,192,7276,1,0,0:0:0:0:
320,192,7276,1,0,0:0:0:0:
320,192,7425,1,0,0:0:0:0:
448,192,7425,1,0,0:0:0:0:
192,192,7573,1,0,0:0:0:0:
64,192,7573,1,0,0:0:0:0:
448,192,7647,1,0,0:0:0:0:
320,192,7722,1,0,0:0:0:0:
192,192,7796,1,0,0:0:0:0:
64,192,7796,1,0,0:0:0:0:
448,192,7796,1,0,0:0:0:0:
320,192,7870,1,0,0:0:0:0:
192,192,7944,1,0,0:0:0:0:
320,192,8019,1,0,0:0:0:0:
64,192,8019,1,0,0:0:0:0:
448,192,8019,1,0,0:0:0:0:
192,192,8093,1,0,0:0:0:0:
320,192,8167,1,0,0:0:0:0:
448,192,8241,1,0,0:0:0:0:
192,192,8241,1,0,0:0:0:0:
64,192,8241,1,0,0:0:0:0:
320,192,8316,1,0,0:0:0:0:
448,192,8390,1,0,0:0:0:0:
320,192,8464,1,0,0:0:0:0:
192,192,8464,1,0,0:0:0:0:
64,192,8464,1,0,0:0:0:0:
448,192,8538,1,0,0:0:0:0:
320,192,8613,1,0,0:0:0:0:
192,192,8613,1,0,0:0:0:0:
64,192,8687,1,0,0:0:0:0:
448,192,8761,1,0,0:0:0:0:
320,192,8761,128,0,9949:0:0:0:0:
64,192,9058,1,0,0:0:0:0:
192,192,9133,1,0,0:0:0:0:
448,192,9207,1,0,0:0:0:0:
192,192,9281,1,0,0:0:0:0:
64,192,9355,1,0,0:0:0:0:
192,192,9430,1,0,0:0:0:0:
448,192,9504,1,0,0:0:0:0:
192,192,9578,1,0,0:0:0:0:
64,192,9652,1,0,0:0:0:0:
192,192,9727,1,0,0:0:0:0:
448,192,9801,1,0,0:0:0:0:
192,192,9875,1,0,0:0:0:0:
64,192,9949,1,0,0:0:0:0:
448,192,9949,1,0,0:0:0:0:
320,192,10024,1,0,0:0:0:0:
192,192,10098,1,0,0:0:0:0:
64,192,10172,1,0,0:0:0:0:
448,192,10246,1,0,0:0:0:0:
192,192,10246,1,0,0:0:0:0:
320,192,10321,1,0,0:0:0:0:
192,192,10395,1,0,0:0:0:0:
64,192,10469,1,0,0:0:0:0:
448,192,10543,1,0,0:0:0:0:
320,192,10618,1,0,0:0:0:0:
64,192,10692,1,0,0:0:0:0:
192,192,10766,1,0,0:0:0:0:
448,192,10840,1,0,0:0:0:0:
64,192,10840,1,0,0:0:0:0:
320,192,10840,1,0,0:0:0:0:
64,192,11137,1,0,0:0:0:0:
192,192,11137,1,0,0:0:0:0:
320,192,11137,1,0,0:0:0:0:
448,192,11286,128,0,11360:0:0:0:0:
192,192,11286,1,0,0:0:0:0:
448,192,11434,128,0,11509:0:0:0:0:
64,192,11434,1,0,0:0:0:0:
448,192,11583,128,0,11657:0:0:0:0:
192,192,11583,1,0,0:0:0:0:
320,192,11732,128,0,11880:0:0:0:0:
64,192,11732,1,0,0:0:0:0:
64,192,12029,128,0,12177:0:0:0:0:
192,192,12029,1,0,0:0:0:0:
448,192,12177,128,0,12474:0:0:0:0:
64,192,12474,128,0,12548:0:0:0:0:
320,192,12474,1,0,0:0:0:0:
64,192,12623,128,0,12697:0:0:0:0:
448,192,12623,1,0,0:0:0:0:
64,192,12771,128,0,12845:0:0:0:0:
320,192,12771,1,0,0:0:0:0:
320,192,12920,128,0,12994:0:0:0:0:
192,192,12920,1,0,0:0:0:0:
320,192,13068,128,0,13142:0:0:0:0:
64,192,13068,1,0,0:0:0:0:
320,192,13217,128,0,13514:0:0:0:0:
192,192,13217,1,0,0:0:0:0:
192,192,13514,128,0,13588:0:0:0:0:
64,192,13514,1,0,0:0:0:0:
192,192,13662,128,0,13736:0:0:0:0:
448,192,13662,1,0,0:0:0:0:
192,192,13811,128,0,13885:0:0:0:0:
320,192,13811,1,0,0:0:0:0:
192,192,13959,128,0,14033:0:0:0:0:
448,192,13959,1,0,0:0:0:0:
448,192,14108,128,0,14405:0:0:0:0:
192,192,14405,128,0,14553:0:0:0:0:
64,192,14405,1,0,0:0:0:0:
320,192,14553,128,0,14850:0:0:0:0:
448,192,14553,1,0,0:0:0:0:
448,192,14850,128,0,14925:0:0:0:0:
64,192,14850,1,0,0:0:0:0:
448,192,14999,128,0,15073:0:0:0:0:
192,192,14999,1,0,0:0:0:0:
448,192,15147,128,0,15222:0:0:0:0:
64,192,15147,1,0,0:0:0:0:
192,192,15296,128,0,15370:0:0:0:0:
320,192,15296,1,0,0:0:0:0:
192,192,15444,128,0,15519:0:0:0:0:
448,192,15444,1,0,0:0:0:0:
192,192,15593,128,0,15890:0:0:0:0:
320,192,15593,1,0,0:0:0:0:
448,192,15890,128,0,15964:0:0:0:0:
320,192,15890,1,0,0:0:0:0:
448,192,16038,128,0,16113:0:0:0:0:
64,192,16038,1,0,0:0:0:0:
448,192,16187,128,0,16261:0:0:0:0:
192,192,16187,1,0,0:0:0:0:
448,192,16335,128,0,16410:0:0:0:0:
64,192,16335,1,0,0:0:0:0:
448,192,16484,128,0,16633:0:0:0:0:
192,192,16484,1,0,0:0:0:0:
320,192,16781,128,0,16930:0:0:0:0:
64,192,16781,1,0,0:0:0:0:
192,192,16930,128,0,17078:0:0:0:0:
448,192,16930,1,0,0:0:0:0:
448,192,17078,1,0,0:0:0:0:
320,192,17078,1,0,0:0:0:0:
64,192,17227,1,0,0:0:0:0:
192,192,17375,1,0,0:0:0:0:
448,192,17375,1,0,0:0:0:0:
320,192,17524,1,0,0:0:0:0:
448,192,17524,1,0,0:0:0:0:
64,192,17672,1,0,0:0:0:0:
192,192,17672,1,0,0:0:0:0:
320,192,17821,1,0,0:0:0:0:
448,192,17821,1,0,0:0:0:0:
192,192,17969,1,0,0:0:0:0:
448,192,17969,1,0,0:0:0:0:
320,192,18118,1,0,0:0:0:0:
64,192,18118,1,0,0:0:0:0:
192,192,18266,1,0,0:0:0:0:
320,192,18266,1,0,0:0:0:0:
448,192,18415,1,0,0:0:0:0:
320,192,18415,1,0,0:0:0:0:
192,192,18563,1,0,0:0:0:0:
64,192,18563,1,0,0:0:0:0:
320,192,18712,1,0,0:0:0:0:
192,192,18712,1,0,0:0:0:0:
448,192,18860,1,0,0:0:0:0:
64,192,18860,1,0,0:0:0:0:
192,192,18934,1,0,0:0:0:0:
320,192,19009,1,0,0:0:0:0:
448,192,19083,1,0,0:0:0:0:
64,192,19157,1,0,0:0:0:0:
320,192,19157,1,0,0:0:0:0:
192,192,19232,1,0,0:0:0:0:
320,192,19306,1,0,0:0:0:0:
448,192,19380,1,0,0:0:0:0:
64,192,19454,1,0,0:0:0:0:
192,192,19529,1,0,0:0:0:0:
320,192,19603,1,0,0:0:0:0:
448,192,19677,1,0,0:0:0:0:
320,192,19751,1,0,0:0:0:0:
192,192,19826,1,0,0:0:0:0:
64,192,19900,1,0,0:0:0:0:
192,192,19974,1,0,0:0:0:0:
64,192,20048,1,0,0:0:0:0:
320,192,20048,1,0,0:0:0:0:
192,192,20098,1,0,0:0:0:0:
320,192,20147,1,0,0:0:0:0:
448,192,20197,1,0,0:0:0:0:
64,192,20246,1,0,0:0:0:0:
192,192,20296,1,0,0:0:0:0:
320,192,20345,1,0,0:0:0:0:
448,192,20345,1,0,0:0:0:0:
192,192,20420,1,0,0:0:0:0:
64,192,20420,1,0,0:0:0:0:
320,192,20494,1,0,0:0:0:0:
448,192,20494,1,0,0:0:0:0:
192,192,20568,1,0,0:0:0:0:
64,192,20568,1,0,0:0:0:0:
448,192,20642,1,0,0:0:0:0:
320,192,20642,1,0,0:0:0:0:
64,192,20642,1,0,0:0:0:0:
192,192,20791,1,0,0:0:0:0:
320,192,20791,1,0,0:0:0:0:
192,192,20939,1,0,0:0:0:0:
64,192,20939,1,0,0:0:0:0:
448,192,21088,1,0,0:0:0:0:
320,192,21088,1,0,0:0:0:0:
192,192,21236,1,0,0:0:0:0:
448,192,21236,1,0,0:0:0:0:
64,192,21385,1,0,0:0:0:0:
320,192,21385,1,0,0:0:0:0:
192,192,21533,1,0,0:0:0:0:
64,192,21533,1,0,0:0:0:0:
320,192,21682,1,0,0:0:0:0:
448,192,21682,1,0,0:0:0:0:
192,192,21831,1,0,0:0:0:0:
448,192,21831,1,0,0:0:0:0:
64,192,21979,1,0,0:0:0:0:
192,192,21979,1,0,0:0:0:0:
320,192,22128,1,0,0:0:0:0:
448,192,22128,1,0,0:0:0:0:
64,192,22276,1,0,0:0:0:0:
192,192,22276,1,0,0:0:0:0:
192,192,22425,1,0,0:0:0:0:
320,192,22425,1,0,0:0:0:0:
448,192,22573,1,0,0:0:0:0:
64,192,22573,1,0,0:0:0:0:
192,192,22722,1,0,0:0:0:0:
448,192,22722,1,0,0:0:0:0:
64,192,22870,1,0,0:0:0:0:
192,192,22870,1,0,0:0:0:0:
448,192,23019,1,0,0:0:0:0:
320,192,23019,1,0,0:0:0:0:
64,192,23167,1,0,0:0:0:0:
192,192,23167,1,0,0:0:0:0:
320,192,23316,1,0,0:0:0:0:
448,192,23316,1,0,0:0:0:0:
192,192,23464,1,0,0:0:0:0:
320,192,23464,1,0,0:0:0:0:
448,192,23613,1,0,0:0:0:0:
192,192,23613,1,0,0:0:0:0:
320,192,23687,1,0,0:0:0:0:
192,192,23761,1,0,0:0:0:0:
64,192,23835,1,0,0:0:0:0:
448,192,23910,1,0,0:0:0:0:
192,192,23910,1,0,0:0:0:0:
320,192,23984,1,0,0:0:0:0:
192,192,24058,1,0,0:0:0:0:
64,192,24132,1,0,0:0:0:0:
320,192,24207,1,0,0:0:0:0:
448,192,24207,1,0,0:0:0:0:
192,192,24355,1,0,0:0:0:0:
64,192,24355,1,0,0:0:0:0:
320,192,24504,1,0,0:0:0:0:
448,192,24504,1,0,0:0:0:0:
64,192,24504,1,0,0:0:0:0:
320,192,24652,1,0,0:0:0:0:
64,192,24727,1,0,0:0:0:0:
192,192,24727,1,0,0:0:0:0:
448,192,24801,1,0,0:0:0:0:
320,192,24801,1,0,0:0:0:0:
320,192,24949,1,0,0:0:0:0:
192,192,24949,1,0,0:0:0:0:
448,192,25098,1,0,0:0:0:0:
320,192,25098,1,0,0:0:0:0:
64,192,25098,1,0,0:0:0:0:
192,192,25395,1,0,0:0:0:0:
64,192,25395,1,0,0:0:0:0:
448,192,25395,1,0,0:0:0:0:
320,192,25543,1,0,0:0:0:0:
192,192,25543,1,0,0:0:0:0:
64,192,25692,1,0,0:0:0:0:
192,192,25692,1,0,0:0:0:0:
448,192,25840,1,0,0:0:0:0:
320,192,25840,1,0,0:0:0:0:
64,192,25989,1,0,0:0:0:0:
192,192,25989,1,0,0:0:0:0:
192,192,26137,1,0,0:0:0:0:
448,192,26137,1,0,0:0:0:0:
320,192,26286,1,0,0:0:0:0:
64,192,26286,1,0,0:0:0:0:
192,192,26434,1,0,0:0:0:0:
64,192,26434,1,0,0:0:0:0:
320,192,26583,1,0,0:0:0:0:
448,192,26583,1,0,0:0:0:0:
64,192,26732,1,0,0:0:0:0:
448,192,26732,1,0,0:0:0:0:
320,192,26880,1,0,0:0:0:0:
192,192,26880,1,0,0:0:0:0:
64,192,27029,1,0,0:0:0:0:
192,192,27029,1,0,0:0:0:0:
448,192,27177,1,0,0:0:0:0:
320,192,27177,1,0,0:0:0:0:
192,192,27326,1,0,0:0:0:0:
64,192,27326,1,0,0:0:0:0:
320,192,27474,1,0,0:0:0:0:
64,192,27474,1,0,0:0:0:0:
192,192,27623,1,0,0:0:0:0:
448,192,27623,1,0,0:0:0:0:
320,192,27771,1,0,0:0:0:0:
448,192,27771,1,0,0:0:0:0:
64,192,27771,1,0,0:0:0:0:
192,192,27920,1,0,0:0:0:0:
64,192,27920,1,0,0:0:0:0:
320,192,28068,1,0,0:0:0:0:
192,192,28068,1,0,0:0:0:0:
448,192,28217,1,0,0:0:0:0:
64,192,28217,1,0,0:0:0:0:
64,192,28365,1,0,0:0:0:0:
320,192,28365,1,0,0:0:0:0:
192,192,28439,1,0,0:0:0:0:
320,192,28514,1,0,0:0:0:0:
448,192,28588,1,0,0:0:0:0:
320,192,28662,1,0,0:0:0:0:
64,192,28662,1,0,0:0:0:0:
192,192,28736,1,0,0:0:0:0:
320,192,28811,1,0,0:0:0:0:
448,192,28885,1,0,0:0:0:0:
64,192,28959,1,0,0:0:0:0:
192,192,28959,1,0,0:0:0:0:
320,192,29033,1,0,0:0:0:0:
448,192,29108,1,0,0:0:0:0:
192,192,29108,1,0,0:0:0:0:
64,192,29256,1,0,0:0:0:0:
192,192,29256,1,0,0:0:0:0:
192,192,29553,1,0,0:0:0:0:
64,192,29553,1,0,0:0:0:0:
320,192,29702,1,0,0:0:0:0:
448,192,29702,1,0,0:0:0:0:
64,192,29850,1,0,0:0:0:0:
192,192,29850,1,0,0:0:0:0:
192,192,30147,1,0,0:0:0:0:
448,192,30147,128,0,32524:0:0:0:0:
64,192,30147,128,0,30296:0:0:0:0:
192,192,30296,128,0,30444:0:0:0:0:
320,192,30444,128,0,30593:0:0:0:0:
64,192,30593,128,0,30741:0:0:0:0:
192,192,30741,128,0,30890:0:0:0:0:
320,192,31038,128,0,31187:0:0:0:0:
64,192,31187,128,0,31335:0:0:0:0:
64,192,31484,128,0,31632:0:0:0:0:
320,192,31632,128,0,31781:0:0:0:0:
192,192,31781,128,0,31930:0:0:0:0:
64,192,31930,128,0,32078:0:0:0:0:
320,192,32078,128,0,32227:0:0:0:0:
192,192,32227,128,0,32524:0:0:0:0:
64,192,32524,128,0,34900:0:0:0:0:
320,192,32524,128,0,32672:0:0:0:0:
448,192,32672,128,0,32821:0:0:0:0:
192,192,32821,128,0,32969:0:0:0:0:
320,192,32969,128,0,33118:0:0:0:0:
448,192,33118,128,0,33266:0:0:0:0:
192,192,33415,128,0,33563:0:0:0:0:
320,192,33563,128,0,33712:0:0:0:0:
448,192,33860,128,0,34009:0:0:0:0:
320,192,34009,128,0,34157:0:0:0:0:
192,192,34157,128,0,34306:0:0:0:0:
448,192,34306,128,0,34454:0:0:0:0:
320,192,34454,128,0,34603:0:0:0:0:
192,192,34603,128,0,34751:0:0:0:0:
320,192,34751,128,0,34900:0:0:0:0:
448,192,34900,1,0,0:0:0:0:
64,192,34974,1,0,0:0:0:0:
320,192,35048,1,0,0:0:0:0:
192,192,35123,1,0,0:0:0:0:
448,192,35197,1,0,0:0:0:0:
64,192,35271,1,0,0:0:0:0:
320,192,35345,1,0,0:0:0:0:
192,192,35420,1,0,0:0:0:0:
448,192,35494,1,0,0:0:0:0:
64,192,35568,1,0,0:0:0:0:
320,192,35642,1,0,0:0:0:0:
192,192,35717,1,0,0:0:0:0:
448,192,35791,1,0,0:0:0:0:
64,192,35865,1,0,0:0:0:0:
320,192,35939,1,0,0:0:0:0:
192,192,36014,1,0,0:0:0:0:
448,192,36088,1,0,0:0:0:0:
64,192,36162,1,0,0:0:0:0:
320,192,36236,1,0,0:0:0:0:
192,192,36311,1,0,0:0:0:0:
448,192,36385,1,0,0:0:0:0:
64,192,36459,1,0,0:0:0:0:
320,192,36533,1,0,0:0:0:0:
192,192,36608,1,0,0:0:0:0:
448,192,36682,1,0,0:0:0:0:
64,192,36756,1,0,0:0:0:0:
320,192,36831,1,0,0:0:0:0:
192,192,36905,1,0,0:0:0:0:
448,192,36979,1,0,0:0:0:0:
64,192,37053,1,0,0:0:0:0:
320,192,37128,1,0,0:0:0:0:
192,192,37202,1,0,0:0:0:0:
448,192,37276,1,0,0:0:0:0:
64,192,37350,1,0,0:0:0:0:
320,192,37425,1,0,0:0:0:0:
192,192,37499,1,0,0:0:0:0:
448,192,37573,1,0,0:0:0:0:
64,192,37647,1,0,0:0:0:0:
320,192,37722,1,0,0:0:0:0:
192,192,37796,1,0,0:0:0:0:
448,192,37870,1,0,0:0:0:0:
64,192,37944,1,0,0:0:0:0:
320,192,38019,1,0,0:0:0:0:
192,192,38093,1,0,0:0:0:0:
448,192,38167,1,0,0:0:0:0:
64,192,38241,1,0,0:0:0:0:
320,192,38316,1,0,0:0:0:0:
192,192,38390,1,0,0:0:0:0:
448,192,38464,1,0,0:0:0:0:
320,192,38687,128,0,38910:0:0:0:0:
64,192,38910,128,0,39355:0:0:0:0:
192,192,39355,1,0,0:0:0:0:
320,192,39355,1,0,0:0:0:0:
448,192,39355,1,0,0:0:0:0:
320,192,39652,1,0,0:0:0:0:
448,192,39652,1,0,0:0:0:0:
192,192,39801,1,0,0:0:0:0:
64,192,39801,1,0,0:0:0:0:
320,192,39949,1,0,0:0:0:0:
192,192,39949,1,0,0:0:0:0:
448,192,40098,1,0,0:0:0:0:
320,192,40098,1,0,0:0:0:0:
192,192,40246,1,0,0:0:0:0:
448,192,40246,1,0,0:0:0:0:
320,192,40395,1,0,0:0:0:0:
64,192,40395,1,0,0:0:0:0:
192,192,40543,1,0,0:0:0:0:
320,192,40543,1,0,0:0:0:0:
448,192,40692,1,0,0:0:0:0:
192,192,40692,1,0,0:0:0:0:
320,192,40840,1,0,0:0:0:0:
64,192,40840,1,0,0:0:0:0:
448,192,40989,1,0,0:0:0:0:
64,192,40989,1,0,0:0:0:0:
192,192,41137,1,0,0:0:0:0:
320,192,41137,1,0,0:0:0:0:
320,192,41286,1,0,0:0:0:0:
448,192,41286,1,0,0:0:0:0:
192,192,41434,1,0,0:0:0:0:
64,192,41434,1,0,0:0:0:0:
448,192,41732,1,0,0:0:0:0:
320,192,41732,1,0,0:0:0:0:
192,192,41880,1,0,0:0:0:0:
64,192,41880,1,0,0:0:0:0:
320,192,42029,1,0,0:0:0:0:
64,192,42029,1,0,0:0:0:0:
192,192,42177,1,0,0:0:0:0:
448,192,42177,1,0,0:0:0:0:
64,192,42326,1,0,0:0:0:0:
320,192,42326,1,0,0:0:0:0:
192,192,42474,1,0,0:0:0:0:
64,192,42474,1,0,0:0:0:0:
192,192,42623,1,0,0:0:0:0:
448,192,42623,1,0,0:0:0:0:
448,192,42771,1,0,0:0:0:0:
320,192,42771,1,0,0:0:0:0:
192,192,42920,1,0,0:0:0:0:
64,192,42920,1,0,0:0:0:0:
448,192,43068,1,0,0:0:0:0:
192,192,43068,1,0,0:0:0:0:
320,192,43217,1,0,0:0:0:0:
64,192,43217,1,0,0:0:0:0:
192,192,43365,1,0,0:0:0:0:
320,192,43365,1,0,0:0:0:0:
64,192,43514,1,0,0:0:0:0:
448,192,43514,1,0,0:0:0:0:
192,192,43662,1,0,0:0:0:0:
320,192,43662,1,0,0:0:0:0:
320,192,43811,1,0,0:0:0:0:
448,192,43811,1,0,0:0:0:0:
192,192,44033,1,0,0:0:0:0:
448,192,44033,1,0,0:0:0:0:
64,192,44108,1,0,0:0:0:0:
320,192,44108,1,0,0:0:0:0:
192,192,44256,1,0,0:0:0:0:
448,192,44256,1,0,0:0:0:0:
320,192,44405,1,0,0:0:0:0:
192,192,44405,1,0,0:0:0:0:
64,192,44405,1,0,0:0:0:0:
448,192,44553,1,0,0:0:0:0:
320,192,44553,1,0,0:0:0:0:
64,192,44702,1,0,0:0:0:0:
192,192,44702,1,0,0:0:0:0:
320,192,44850,1,0,0:0:0:0:
64,192,44850,1,0,0:0:0:0:
448,192,44999,1,0,0:0:0:0:
192,192,44999,1,0,0:0:0:0:
320,192,45147,1,0,0:0:0:0:
192,192,45147,1,0,0:0:0:0:
64,192,45296,1,0,0:0:0:0:
448,192,45296,1,0,0:0:0:0:
320,192,45444,1,0,0:0:0:0:
192,192,45444,1,0,0:0:0:0:
64,192,45593,1,0,0:0:0:0:
448,192,45593,1,0,0:0:0:0:
192,192,45741,1,0,0:0:0:0:
320,192,45741,1,0,0:0:0:0:
64,192,45890,1,0,0:0:0:0:
192,192,45890,1,0,0:0:0:0:
448,192,46038,1,0,0:0:0:0:
320,192,46038,1,0,0:0:0:0:
448,192,46187,1,0,0:0:0:0:
64,192,46187,1,0,0:0:0:0:
320,192,46484,1,0,0:0:0:0:
448,192,46484,1,0,0:0:0:0:
192,192,46633,1,0,0:0:0:0:
64,192,46633,1,0,0:0:0:0:
320,192,46781,1,0,0:0:0:0:
448,192,46781,1,0,0:0:0:0:
192,192,46930,1,0,0:0:0:0:
448,192,46930,1,0,0:0:0:0:
64,192,47078,1,0,0:0:0:0:
320,192,47078,1,0,0:0:0:0:
64,192,47227,1,0,0:0:0:0:
192,192,47227,1,0,0:0:0:0:
320,192,47375,1,0,0:0:0:0:
448,192,47375,1,0,0:0:0:0:
192,192,47524,1,0,0:0:0:0:
448,192,47524,1,0,0:0:0:0:
64,192,47672,1,0,0:0:0:0:
192,192,47672,1,0,0:0:0:0:
320,192,47821,1,0,0:0:0:0:
64,192,47821,1,0,0:0:0:0:
320,192,47969,1,0,0:0:0:0:
448,192,47969,1,0,0:0:0:0:
192,192,48118,1,0,0:0:0:0:
448,192,48118,1,0,0:0:0:0:
320,192,48266,1,0,0:0:0:0:
64,192,48266,1,0,0:0:0:0:
64,192,48415,1,0,0:0:0:0:
192,192,48415,1,0,0:0:0:0:
320,192,48563,1,0,0:0:0:0:
448,192,48563,1,0,0:0:0:0:
192,192,48712,1,0,0:0:0:0:
64,192,48712,1,0,0:0:0:0:
320,192,48786,1,0,0:0:0:0:
448,192,48786,1,0,0:0:0:0:
192,192,48860,1,0,0:0:0:0:
64,192,48860,1,0,0:0:0:0:
320,192,48934,1,0,0:0:0:0:
448,192,48934,1,0,0:0:0:0:
192,192,49009,1,0,0:0:0:0:
64,192,49009,1,0,0:0:0:0:
320,192,49083,1,0,0:0:0:0:
448,192,49083,1,0,0:0:0:0:
192,192,49157,1,0,0:0:0:0:
64,192,49157,1,0,0:0:0:0:
448,192,49157,1,0,0:0:0:0:
320,192,49306,1,0,0:0:0:0:
192,192,49306,1,0,0:0:0:0:
64,192,49454,1,0,0:0:0:0:
448,192,49454,1,0,0:0:0:0:
320,192,49603,1,0,0:0:0:0:
448,192,49603,1,0,0:0:0:0:
320,192,49751,1,0,0:0:0:0:
64,192,49751,1,0,0:0:0:0:
192,192,49900,1,0,0:0:0:0:
448,192,49900,1,0,0:0:0:0:
320,192,50048,1,0,0:0:0:0:
448,192,50048,1,0,0:0:0:0:
192,192,50197,1,0,0:0:0:0:
320,192,50197,1,0,0:0:0:0:
192,192,50345,1,0,0:0:0:0:
64,192,50345,1,0,0:0:0:0:
448,192,50494,1,0,0:0:0:0:
320,192,50494,1,0,0:0:0:0:
64,192,50642,1,0,0:0:0:0:
320,192,50642,1,0,0:0:0:0:
192,192,50791,1,0,0:0:0:0:
64,192,50791,1,0,0:0:0:0:
320,192,50939,1,0,0:0:0:0:
448,192,50939,1,0,0:0:0:0:
320,192,51236,1,0,0:0:0:0:
64,192,51236,1,0,0:0:0:0:
192,192,51385,1,0,0:0:0:0:
64,192,51385,1,0,0:0:0:0:
320,192,51533,1,0,0:0:0:0:
448,192,51533,1,0,0:0:0:0:
192,192,51682,1,0,0:0:0:0:
320,192,51682,1,0,0:0:0:0:
64,192,51831,1,0,0:0:0:0:
192,192,51831,1,0,0:0:0:0:
448,192,51979,1,0,0:0:0:0:
64,192,51979,1,0,0:0:0:0:
192,192,52128,1,0,0:0:0:0:
448,192,52128,1,0,0:0:0:0:
320,192,52276,1,0,0:0:0:0:
64,192,52276,1,0,0:0:0:0:
448,192,52425,1,0,0:0:0:0:
320,192,52425,1,0,0:0:0:0:
64,192,52573,1,0,0:0:0:0:
192,192,52573,1,0,0:0:0:0:
320,192,52722,1,0,0:0:0:0:
192,192,52722,1,0,0:0:0:0:
448,192,52870,1,0,0:0:0:0:
64,192,52870,1,0,0:0:0:0:
320,192,53019,1,0,0:0:0:0:
192,192,53019,1,0,0:0:0:0:
64,192,53167,1,0,0:0:0:0:
192,192,53167,1,0,0:0:0:0:
320,192,53316,1,0,0:0:0:0:
448,192,53316,1,0,0:0:0:0:
320,192,53464,1,0,0:0:0:0:
448,192,53464,1,0,0:0:0:0:
64,192,53538,1,0,0:0:0:0:
192,192,53538,1,0,0:0:0:0:
320,192,53613,1,0,0:0:0:0:
448,192,53613,1,0,0:0:0:0:
64,192,53761,1,0,0:0:0:0:
192,192,53761,1,0,0:0:0:0:
320,192,53910,1,0,0:0:0:0:
448,192,53910,1,0,0:0:0:0:
64,192,53910,1,0,0:0:0:0:
192,192,54058,1,0,0:0:0:0:
64,192,54058,1,0,0:0:0:0:
448,192,54207,1,0,0:0:0:0:
320,192,54207,1,0,0:0:0:0:
192,192,54355,1,0,0:0:0:0:
448,192,54355,1,0,0:0:0:0:
320,192,54504,1,0,0:0:0:0:
64,192,54504,1,0,0:0:0:0:
64,192,54652,1,0,0:0:0:0:
192,192,54652,1,0,0:0:0:0:
320,192,54801,1,0,0:0:0:0:
448,192,54801,1,0,0:0:0:0:
320,192,54949,1,0,0:0:0:0:
448,192,54949,1,0,0:0:0:0:
64,192,55098,1,0,0:0:0:0:
192,192,55098,1,0,0:0:0:0:
448,192,55098,1,0,0:0:0:0:
192,192,55246,1,0,0:0:0:0:
320,192,55246,1,0,0:0:0:0:
64,192,55395,1,0,0:0:0:0:
448,192,55395,1,0,0:0:0:0:
192,192,55543,1,0,0:0:0:0:
64,192,55543,1,0,0:0:0:0:
448,192,55692,1,0,0:0:0:0:
320,192,55692,1,0,0:0:0:0:
64,192,55989,1,0,0:0:0:0:
192,192,55989,1,0,0:0:0:0:
448,192,56137,1,0,0:0:0:0:
320,192,56137,1,0,0:0:0:0:
192,192,56286,1,0,0:0:0:0:
64,192,56286,1,0,0:0:0:0:
448,192,56286,1,0,0:0:0:0:
320,192,56434,1,0,0:0:0:0:
192,192,56434,1,0,0:0:0:0:
320,192,56583,1,0,0:0:0:0:
448,192,56583,1,0,0:0:0:0:
64,192,56583,1,0,0:0:0:0:
192,192,56732,1,0,0:0:0:0:
64,192,56732,1,0,0:0:0:0:
320,192,56880,1,0,0:0:0:0:
192,192,56880,1,0,0:0:0:0:
448,192,56880,1,0,0:0:0:0:
320,192,57029,1,0,0:0:0:0:
448,192,57029,1,0,0:0:0:0:
64,192,57177,1,0,0:0:0:0:
192,192,57177,1,0,0:0:0:0:
320,192,57326,1,0,0:0:0:0:
192,192,57326,1,0,0:0:0:0:
448,192,57474,1,0,0:0:0:0:
320,192,57548,1,0,0:0:0:0:
192,192,57623,1,0,0:0:0:0:
64,192,57697,1,0,0:0:0:0:
448,192,57771,1,0,0:0:0:0:
192,192,57771,1,0,0:0:0:0:
320,192,57845,1,0,0:0:0:0:
192,192,57920,1,0,0:0:0:0:
64,192,57994,1,0,0:0:0:0:
192,192,58068,1,0,0:0:0:0:
448,192,58068,1,0,0:0:0:0:
320,192,58142,1,0,0:0:0:0:
192,192,58217,1,0,0:0:0:0:
64,192,58291,1,0,0:0:0:0:
192,192,58365,1,0,0:0:0:0:
320,192,58365,1,0,0:0:0:0:
448,192,58365,1,0,0:0:0:0:
448,192,58662,1,0,0:0:0:0:
320,192,58662,1,0,0:0:0:0:
64,192,58811,1,0,0:0:0:0:
192,192,58959,1,0,0:0:0:0:
320,192,59108,1,0,0:0:0:0:
192,192,59405,1,0,0:0:0:0:
320,192,59553,1,0,0:0:0:0:
448,192,59702,1,0,0:0:0:0:
192,192,59850,1,0,0:0:0:0:
64,192,59850,1,0,0:0:0:0:
448,192,60147,1,0,0:0:0:0:
320,192,60147,1,0,0:0:0:0:
64,192,60444,1,0,0:0:0:0:
320,192,60593,1,0,0:0:0:0:
448,192,60741,1,0,0:0:0:0:
192,192,60890,1,0,0:0:0:0:
64,192,61038,1,0,0:0:0:0:
448,192,61187,1,0,0:0:0:0:
192,192,61335,1,0,0:0:0:0:
320,192,61484,1,0,0:0:0:0:
448,192,61633,1,0,0:0:0:0:
64,192,61781,1,0,0:0:0:0:
320,192,61930,1,0,0:0:0:0:
192,192,62078,1,0,0:0:0:0:
448,192,62227,1,0,0:0:0:0:
192,192,62524,128,0,63415:0:0:0:0:
320,192,62672,1,0,0:0:0:0:
448,192,62821,1,0,0:0:0:0:
64,192,62969,1,0,0:0:0:0:
448,192,63118,1,0,0:0:0:0:
320,192,63266,1,0,0:0:0:0:
64,192,63415,1,0,0:0:0:0:
448,192,63415,1,0,0:0:0:0:
320,192,63563,1,0,0:0:0:0:
192,192,63712,1,0,0:0:0:0:
64,192,63712,1,0,0:0:0:0:
448,192,63860,1,0,0:0:0:0:
192,192,64009,1,0,0:0:0:0:
64,192,64009,1,0,0:0:0:0:
320,192,64157,1,0,0:0:0:0:
192,192,64306,1,0,0:0:0:0:
64,192,64306,1,0,0:0:0:0:
448,192,64454,1,0,0:0:0:0:
192,192,64603,1,0,0:0:0:0:
64,192,64603,1,0,0:0:0:0:
64,192,64751,1,0,0:0:0:0:
320,192,64900,1,0,0:0:0:0:
448,192,64900,1,0,0:0:0:0:
192,192,65048,1,0,0:0:0:0:
320,192,65197,1,0,0:0:0:0:
448,192,65197,1,0,0:0:0:0:
64,192,65345,1,0,0:0:0:0:
320,192,65494,1,0,0:0:0:0:
448,192,65494,1,0,0:0:0:0:
192,192,65642,1,0,0:0:0:0:
320,192,65791,1,0,0:0:0:0:
448,192,65791,1,0,0:0:0:0:
448,192,65939,1,0,0:0:0:0:
320,192,65939,1,0,0:0:0:0:
192,192,66088,1,0,0:0:0:0:
64,192,66088,1,0,0:0:0:0:
320,192,66236,1,0,0:0:0:0:
448,192,66236,1,0,0:0:0:0:
192,192,66385,1,0,0:0:0:0:
64,192,66385,1,0,0:0:0:0:
448,192,66533,1,0,0:0:0:0:
320,192,66533,1,0,0:0:0:0:
192,192,66682,1,0,0:0:0:0:
64,192,66682,1,0,0:0:0:0:
320,192,66831,1,0,0:0:0:0:
448,192,66831,1,0,0:0:0:0:
64,192,66979,1,0,0:0:0:0:
448,192,66979,1,0,0:0:0:0:
192,192,67053,1,0,0:0:0:0:
320,192,67128,1,0,0:0:0:0:
448,192,67202,1,0,0:0:0:0:
320,192,67276,1,0,0:0:0:0:
64,192,67276,1,0,0:0:0:0:
192,192,67350,1,0,0:0:0:0:
320,192,67425,1,0,0:0:0:0:
448,192,67499,1,0,0:0:0:0:
64,192,67573,1,0,0:0:0:0:
320,192,67573,1,0,0:0:0:0:
192,192,67647,1,0,0:0:0:0:
320,192,67722,1,0,0:0:0:0:
448,192,67796,1,0,0:0:0:0:
192,192,67870,1,0,0:0:0:0:
64,192,67870,1,0,0:0:0:0:
320,192,67870,1,0,0:0:0:0:
448,192,68167,1,0,0:0:0:0:
320,192,68167,1,0,0:0:0:0:
192,192,68167,1,0,0:0:0:0:
64,192,68167,1,0,0:0:0:0:
448,192,68613,1,0,0:0:0:0:
64,192,68761,1,0,0:0:0:0:
192,192,68860,1,0,0:0:0:0:
320,192,68959,1,0,0:0:0:0:
448,192,69058,1,0,0:0:0:0:
192,192,69207,1,0,0:0:0:0:
320,192,69355,1,0,0:0:0:0:
448,192,69355,1,0,0:0:0:0:
64,192,69430,1,0,0:0:0:0:
192,192,69504,1,0,0:0:0:0:
320,192,69578,1,0,0:0:0:0:
448,192,69652,1,0,0:0:0:0:
64,192,69751,1,0,0:0:0:0:
192,192,69850,1,0,0:0:0:0:
448,192,69949,1,0,0:0:0:0:
320,192,69949,1,0,0:0:0:0:
64,192,70024,1,0,0:0:0:0:
192,192,70098,1,0,0:0:0:0:
320,192,70172,1,0,0:0:0:0:
448,192,70246,1,0,0:0:0:0:
64,192,70321,1,0,0:0:0:0:
192,192,70395,1,0,0:0:0:0:
320,192,70469,1,0,0:0:0:0:
64,192,70543,1,0,0:0:0:0:
192,192,70543,1,0,0:0:0:0:
448,192,70543,1,0,0:0:0:0:
320,192,70642,1,0,0:0:0:0:
448,192,70741,1,0,0:0:0:0:
192,192,70741,1,0,0:0:0:0:
320,192,70840,1,0,0:0:0:0:
192,192,70939,1,0,0:0:0:0:
64,192,70939,1,0,0:0:0:0:
448,192,71038,1,0,0:0:0:0:
320,192,71137,1,0,0:0:0:0:
192,192,71137,1,0,0:0:0:0:
64,192,71236,1,0,0:0:0:0:
192,192,71335,1,0,0:0:0:0:
320,192,71335,1,0,0:0:0:0:
448,192,71434,1,0,0:0:0:0:
64,192,71533,1,0,0:0:0:0:
192,192,71633,1,0,0:0:0:0:
448,192,71732,1,0,0:0:0:0:
64,192,71732,1,0,0:0:0:0:
192,192,71831,1,0,0:0:0:0:
320,192,71930,1,0,0:0:0:0:
448,192,71930,1,0,0:0:0:0:
64,192,72029,1,0,0:0:0:0:
320,192,72128,1,0,0:0:0:0:
448,192,72128,1,0,0:0:0:0:
192,192,72227,1,0,0:0:0:0:
320,192,72326,1,0,0:0:0:0:
64,192,72326,1,0,0:0:0:0:
192,192,72425,1,0,0:0:0:0:
320,192,72524,1,0,0:0:0:0:
448,192,72524,1,0,0:0:0:0:
64,192,72623,1,0,0:0:0:0:
448,192,72722,1,0,0:0:0:0:
192,192,72821,1,0,0:0:0:0:
320,192,72920,1,0,0:0:0:0:
448,192,72920,1,0,0:0:0:0:
192,192,73019,1,0,0:0:0:0:
320,192,73118,1,0,0:0:0:0:
64,192,73118,1,0,0:0:0:0:
448,192,73217,1,0,0:0:0:0:
192,192,73316,1,0,0:0:0:0:
64,192,73316,1,0,0:0:0:0:
320,192,73415,1,0,0:0:0:0:
64,192,73514,1,0,0:0:0:0:
448,192,73514,1,0,0:0:0:0:
320,192,73613,1,0,0:0:0:0:
64,192,73712,1,0,0:0:0:0:
192,192,73712,1,0,0:0:0:0:
320,192,73811,1,0,0:0:0:0:
448,192,73910,1,0,0:0:0:0:
192,192,73910,1,0,0:0:0:0:
320,192,74009,1,0,0:0:0:0:
64,192,74108,1,0,0:0:0:0:
448,192,74108,1,0,0:0:0:0:
192,192,74207,1,0,0:0:0:0:
320,192,74306,1,0,0:0:0:0:
448,192,74306,1,0,0:0:0:0:
64,192,74405,1,0,0:0:0:0:
448,192,74504,1,0,0:0:0:0:
192,192,74504,1,0,0:0:0:0:
64,192,74603,1,0,0:0:0:0:
192,192,74702,1,0,0:0:0:0:
320,192,74702,1,0,0:0:0:0:
448,192,74801,1,0,0:0:0:0:
64,192,74900,1,0,0:0:0:0:
320,192,74999,1,0,0:0:0:0:
448,192,74999,1,0,0:0:0:0:
192,192,74999,1,0,0:0:0:0:
64,192,75098,1,0,0:0:0:0:
448,192,75197,1,0,0:0:0:0:
192,192,75296,1,0,0:0:0:0:
64,192,75296,1,0,0:0:0:0:
320,192,75395,1,0,0:0:0:0:
448,192,75395,1,0,0:0:0:0:
192,192,75494,1,0,0:0:0:0:
64,192,75494,1,0,0:0:0:0:
320,192,75593,1,0,0:0:0:0:
448,192,75593,1,0,0:0:0:0:
192,192,75692,1,0,0:0:0:0:
64,192,75692,1,0,0:0:0:0:
320,192,75791,1,0,0:0:0:0:
448,192,75791,1,0,0:0:0:0:
192,192,75890,1,0,0:0:0:0:
64,192,75890,1,0,0:0:0:0:
448,192,75989,1,0,0:0:0:0:
320,192,75989,1,0,0:0:0:0:
192,192,76088,1,0,0:0:0:0:
64,192,76088,1,0,0:0:0:0:
320,192,76187,1,0,0:0:0:0:
64,192,76187,1,0,0:0:0:0:
448,192,76187,1,0,0:0:0:0:
448,192,76484,1,0,0:0:0:0:
64,192,76484,1,0,0:0:0:0:
192,192,76583,1,0,0:0:0:0:
320,192,76583,1,0,0:0:0:0:
448,192,76682,1,0,0:0:0:0:
64,192,76682,1,0,0:0:0:0:
320,192,76781,1,0,0:0:0:0:
192,192,76781,1,0,0:0:0:0:
448,192,76880,1,0,0:0:0:0:
64,192,76880,1,0,0:0:0:0:
320,192,76979,1,0,0:0:0:0:
192,192,76979,1,0,0:0:0:0:
64,192,77078,1,0,0:0:0:0:
448,192,77078,1,0,0:0:0:0:
192,192,77177,1,0,0:0:0:0:
320,192,77177,1,0,0:0:0:0:
64,192,77276,1,0,0:0:0:0:
448,192,77276,1,0,0:0:0:0:
320,192,77375,1,0,0:0:0:0:
64,192,77474,1,0,0:0:0:0:
192,192,77573,1,0,0:0:0:0:
320,192,77672,1,0,0:0:0:0:
448,192,77672,1,0,0:0:0:0:
192,192,77771,1,0,0:0:0:0:
64,192,77771,1,0,0:0:0:0:
320,192,77870,1,0,0:0:0:0:
448,192,77870,1,0,0:0:0:0:
64,192,77969,1,0,0:0:0:0:
192,192,77969,1,0,0:0:0:0:
320,192,78068,1,0,0:0:0:0:
448,192,78068,1,0,0:0:0:0:
64,192,78167,1,0,0:0:0:0:
192,192,78167,1,0,0:0:0:0:
320,192,78266,1,0,0:0:0:0:
448,192,78266,1,0,0:0:0:0:
64,192,78365,1,0,0:0:0:0:
192,192,78365,1,0,0:0:0:0:
448,192,78464,1,0,0:0:0:0:
320,192,78464,1,0,0:0:0:0:
64,192,78563,1,0,0:0:0:0:
192,192,78563,1,0,0:0:0:0:
448,192,78662,1,0,0:0:0:0:
320,192,78662,1,0,0:0:0:0:
192,192,78761,1,0,0:0:0:0:
64,192,78761,1,0,0:0:0:0:
448,192,78860,1,0,0:0:0:0:
64,192,78860,1,0,0:0:0:0:
320,192,78959,1,0,0:0:0:0:
192,192,78959,1,0,0:0:0:0:
448,192,79058,1,0,0:0:0:0:
64,192,79058,1,0,0:0:0:0:
192,192,79157,1,0,0:0:0:0:
320,192,79157,1,0,0:0:0:0:
448,192,79256,1,0,0:0:0:0:
64,192,79256,1,0,0:0:0:0:
320,192,79355,1,0,0:0:0:0:
448,192,79355,1,0,0:0:0:0:
64,192,79454,1,0,0:0:0:0:
192,192,79504,1,0,0:0:0:0:
64,192,79603,1,0,0:0:0:0:
192,192,79702,1,0,0:0:0:0:
320,192,79751,1,0,0:0:0:0:
448,192,79751,1,0,0:0:0:0:
64,192,79751,1,0,0:0:0:0:
192,192,79850,1,0,0:0:0:0:
64,192,79850,1,0,0:0:0:0:
320,192,79949,1,0,0:0:0:0:
448,192,79949,1,0,0:0:0:0:
192,192,80048,1,0,0:0:0:0:
448,192,80048,1,0,0:0:0:0:
64,192,80048,128,0,84207:0:0:0:0:
448,192,83316,128,0,84207:0:0:0:0:
192,192,84355,1,0,0:0:0:0:
320,192,84504,1,0,0:0:0:0:
448,192,84652,1,0,0:0:0:0:
64,192,84801,1,0,0:0:0:0:
192,192,84949,1,0,0:0:0:0:
320,192,85098,1,0,0:0:0:0:
448,192,85246,1,0,0:0:0:0:
192,192,85395,1,0,0:0:0:0:
448,192,85543,1,0,0:0:0:0:
320,192,85692,1,0,0:0:0:0:
64,192,85840,1,0,0:0:0:0:
192,192,85915,1,0,0:0:0:0:
320,192,85989,1,0,0:0:0:0:
448,192,86137,1,0,0:0:0:0:
192,192,86286,1,0,0:0:0:0:
320,192,86434,1,0,0:0:0:0:
64,192,86583,1,0,0:0:0:0:
448,192,86732,1,0,0:0:0:0:
320,192,86880,1,0,0:0:0:0:
192,192,87029,1,0,0:0:0:0:
64,192,87177,1,0,0:0:0:0:
448,192,87326,1,0,0:0:0:0:
192,192,87474,1,0,0:0:0:0:
320,192,87623,1,0,0:0:0:0:
448,192,87771,1,0,0:0:0:0:
320,192,87845,1,0,0:0:0:0:
192,192,87920,1,0,0:0:0:0:
64,192,88068,1,0,0:0:0:0:
320,192,88068,1,0,0:0:0:0:
192,192,88142,1,0,0:0:0:0:
320,192,88217,1,0,0:0:0:0:
448,192,88291,1,0,0:0:0:0:
192,192,88365,1,0,0:0:0:0:
320,192,88514,1,0,0:0:0:0:
448,192,88662,1,0,0:0:0:0:
64,192,88811,1,0,0:0:0:0:
320,192,88959,1,0,0:0:0:0:
192,192,89108,1,0,0:0:0:0:
448,192,89256,1,0,0:0:0:0:
320,192,89405,1,0,0:0:0:0:
192,192,89553,1,0,0:0:0:0:
64,192,89553,1,0,0:0:0:0:
192,192,89999,1,0,0:0:0:0:
64,192,89999,1,0,0:0:0:0:
320,192,90147,1,0,0:0:0:0:
448,192,90147,1,0,0:0:0:0:
192,192,90593,1,0,0:0:0:0:
64,192,90593,1,0,0:0:0:0:
448,192,90890,1,0,0:0:0:0:
64,192,90890,1,0,0:0:0:0:
320,192,91335,1,0,0:0:0:0:
192,192,91335,1,0,0:0:0:0:
448,192,91930,1,0,0:0:0:0:
320,192,91930,1,0,0:0:0:0:
64,192,92375,1,0,0:0:0:0:
448,192,92375,1,0,0:0:0:0:
320,192,92524,1,0,0:0:0:0:
192,192,92524,1,0,0:0:0:0:
64,192,92969,1,0,0:0:0:0:
192,192,92969,1,0,0:0:0:0:
320,192,93266,1,0,0:0:0:0:
448,192,93266,1,0,0:0:0:0:
448,192,93563,1,0,0:0:0:0:
192,192,93563,1,0,0:0:0:0:
320,192,93637,1,0,0:0:0:0:
64,192,93637,1,0,0:0:0:0:
192,192,93712,1,0,0:0:0:0:
448,192,93712,1,0,0:0:0:0:
320,192,93712,1,0,0:0:0:0:
64,192,93860,1,0,0:0:0:0:
320,192,93860,1,0,0:0:0:0:
192,192,93934,1,0,0:0:0:0:
448,192,93934,1,0,0:0:0:0:
320,192,94009,1,0,0:0:0:0:
192,192,94009,1,0,0:0:0:0:
64,192,94009,1,0,0:0:0:0:
64,192,94306,1,0,0:0:0:0:
192,192,94306,1,0,0:0:0:0:
448,192,94306,1,0,0:0:0:0:
320,192,94306,1,0,0:0:0:0:
320,192,94454,1,0,0:0:0:0:
448,192,94454,1,0,0:0:0:0:
320,192,94603,1,0,0:0:0:0:
192,192,94603,1,0,0:0:0:0:
64,192,94751,1,0,0:0:0:0:
448,192,94751,1,0,0:0:0:0:
448,192,94900,1,0,0:0:0:0:
320,192,94900,1,0,0:0:0:0:
192,192,95048,1,0,0:0:0:0:
64,192,95048,1,0,0:0:0:0:
320,192,95197,1,0,0:0:0:0:
192,192,95197,1,0,0:0:0:0:
448,192,95345,1,0,0:0:0:0:
320,192,95345,1,0,0:0:0:0:
64,192,95494,1,0,0:0:0:0:
192,192,95494,1,0,0:0:0:0:
320,192,95642,1,0,0:0:0:0:
448,192,95642,1,0,0:0:0:0:
320,192,95791,1,0,0:0:0:0:
192,192,95791,1,0,0:0:0:0:
448,192,95939,1,0,0:0:0:0:
64,192,95939,1,0,0:0:0:0:
320,192,96088,1,0,0:0:0:0:
192,192,96088,1,0,0:0:0:0:
320,192,96236,1,0,0:0:0:0:
448,192,96236,1,0,0:0:0:0:
192,192,96385,1,0,0:0:0:0:
64,192,96385,1,0,0:0:0:0:
192,192,96533,1,0,0:0:0:0:
320,192,96533,1,0,0:0:0:0:
448,192,96682,1,0,0:0:0:0:
64,192,96682,1,0,0:0:0:0:
448,192,96831,1,0,0:0:0:0:
320,192,96831,1,0,0:0:0:0:
320,192,96979,1,0,0:0:0:0:
192,192,96979,1,0,0:0:0:0:
64,192,97128,1,0,0:0:0:0:
192,192,97128,1,0,0:0:0:0:
448,192,97276,1,0,0:0:0:0:
320,192,97276,1,0,0:0:0:0:
192,192,97350,1,0,0:0:0:0:
64,192,97425,1,0,0:0:0:0:
192,192,97499,1,0,0:0:0:0:
320,192,97573,1,0,0:0:0:0:
448,192,97573,1,0,0:0:0:0:
192,192,97647,1,0,0:0:0:0:
64,192,97722,1,0,0:0:0:0:
192,192,97796,1,0,0:0:0:0:
320,192,97870,1,0,0:0:0:0:
448,192,97870,1,0,0:0:0:0:
192,192,98019,1,0,0:0:0:0:
64,192,98019,1,0,0:0:0:0:
320,192,98167,1,0,0:0:0:0:
192,192,98167,1,0,0:0:0:0:
448,192,98316,1,0,0:0:0:0:
64,192,98316,1,0,0:0:0:0:
320,192,98464,1,0,0:0:0:0:
192,192,98464,1,0,0:0:0:0:
448,192,98613,1,0,0:0:0:0:
192,192,98613,1,0,0:0:0:0:
64,192,98687,1,0,0:0:0:0:
320,192,98687,1,0,0:0:0:0:
192,192,98761,1,0,0:0:0:0:
448,192,98761,1,0,0:0:0:0:
320,192,98910,1,0,0:0:0:0:
192,192,98910,1,0,0:0:0:0:
64,192,98910,1,0,0:0:0:0:
448,192,99058,1,0,0:0:0:0:
320,192,99058,1,0,0:0:0:0:
192,192,99058,1,0,0:0:0:0:
192,192,99207,1,0,0:0:0:0:
64,192,99207,1,0,0:0:0:0:
320,192,99355,1,0,0:0:0:0:
192,192,99355,1,0,0:0:0:0:
448,192,99504,1,0,0:0:0:0:
64,192,99504,1,0,0:0:0:0:
192,192,99652,1,0,0:0:0:0:
320,192,99652,1,0,0:0:0:0:
448,192,99801,1,0,0:0:0:0:
320,192,99801,1,0,0:0:0:0:
192,192,99949,1,0,0:0:0:0:
64,192,99949,1,0,0:0:0:0:
320,192,100098,1,0,0:0:0:0:
192,192,100098,1,0,0:0:0:0:
448,192,100098,1,0,0:0:0:0:
64,192,100246,1,0,0:0:0:0:
448,192,100246,1,0,0:0:0:0:
320,192,100395,1,0,0:0:0:0:
192,192,100395,1,0,0:0:0:0:
64,192,100543,1,0,0:0:0:0:
192,192,100543,1,0,0:0:0:0:
448,192,100692,1,0,0:0:0:0:
320,192,100692,1,0,0:0:0:0:
64,192,100840,1,0,0:0:0:0:
320,192,100840,1,0,0:0:0:0:
192,192,100989,1,0,0:0:0:0:
448,192,100989,1,0,0:0:0:0:
320,192,101137,1,0,0:0:0:0:
448,192,101137,1,0,0:0:0:0:
192,192,101286,1,0,0:0:0:0:
64,192,101286,1,0,0:0:0:0:
320,192,101434,1,0,0:0:0:0:
448,192,101434,1,0,0:0:0:0:
192,192,101434,1,0,0:0:0:0:
64,192,101583,1,0,0:0:0:0:
448,192,101583,1,0,0:0:0:0:
192,192,101732,1,0,0:0:0:0:
320,192,101732,1,0,0:0:0:0:
192,192,101880,1,0,0:0:0:0:
64,192,101880,1,0,0:0:0:0:
64,192,102029,1,0,0:0:0:0:
448,192,102029,1,0,0:0:0:0:
320,192,102029,1,0,0:0:0:0:
192,192,102103,1,0,0:0:0:0:
320,192,102177,1,0,0:0:0:0:
448,192,102251,1,0,0:0:0:0:
320,192,102326,1,0,0:0:0:0:
64,192,102326,1,0,0:0:0:0:
192,192,102326,1,0,0:0:0:0:
448,192,102400,1,0,0:0:0:0:
320,192,102474,1,0,0:0:0:0:
192,192,102548,1,0,0:0:0:0:
64,192,102623,1,0,0:0:0:0:
448,192,102623,1,0,0:0:0:0:
320,192,102771,1,0,0:0:0:0:
192,192,102771,1,0,0:0:0:0:
192,192,102920,1,0,0:0:0:0:
64,192,102920,1,0,0:0:0:0:
448,192,103068,1,0,0:0:0:0:
320,192,103068,1,0,0:0:0:0:
192,192,103217,1,0,0:0:0:0:
64,192,103217,1,0,0:0:0:0:
448,192,103217,1,0,0:0:0:0:
320,192,103365,1,0,0:0:0:0:
448,192,103365,1,0,0:0:0:0:
192,192,103439,1,0,0:0:0:0:
64,192,103439,1,0,0:0:0:0:
320,192,103514,1,0,0:0:0:0:
448,192,103514,1,0,0:0:0:0:
192,192,103588,1,0,0:0:0:0:
64,192,103588,1,0,0:0:0:0:
320,192,103662,1,0,0:0:0:0:
448,192,103662,1,0,0:0:0:0:
192,192,103736,1,0,0:0:0:0:
64,192,103736,1,0,0:0:0:0:
320,192,103811,1,0,0:0:0:0:
64,192,103811,1,0,0:0:0:0:
448,192,103811,128,0,104108:0:0:0:0:
192,192,104108,1,0,0:0:0:0:
192,192,104405,128,0,104553:0:0:0:0:
320,192,104405,1,0,0:0:0:0:
448,192,104702,128,0,104850:0:0:0:0:
64,192,104702,1,0,0:0:0:0:
320,192,104850,128,0,104999:0:0:0:0:
192,192,104850,1,0,0:0:0:0:
64,192,104999,128,0,108563:0:0:0:0:
192,192,105147,128,0,105593:0:0:0:0:
448,192,105147,1,0,0:0:0:0:
448,192,105593,128,0,106038:0:0:0:0:
320,192,105593,1,0,0:0:0:0:
320,192,106187,128,0,106633:0:0:0:0:
192,192,106187,1,0,0:0:0:0:
448,192,106781,128,0,107078:0:0:0:0:
192,192,106781,1,0,0:0:0:0:
192,192,107078,128,0,107227:0:0:0:0:
320,192,107078,1,0,0:0:0:0:
320,192,107227,128,0,107375:0:0:0:0:
448,192,107227,1,0,0:0:0:0:
320,192,107524,128,0,107969:0:0:0:0:
192,192,107524,1,0,0:0:0:0:
448,192,107969,128,0,108563:0:0:0:0:
192,192,107969,1,0,0:0:0:0:
192,192,108563,1,0,0:0:0:0:
320,192,108637,1,0,0:0:0:0:
448,192,108712,1,0,0:0:0:0:
64,192,108786,1,0,0:0:0:0:
192,192,108860,1,0,0:0:0:0:
320,192,108934,1,0,0:0:0:0:
448,192,109009,1,0,0:0:0:0:
64,192,109083,1,0,0:0:0:0:
192,192,109157,1,0,0:0:0:0:
320,192,109232,1,0,0:0:0:0:
448,192,109306,1,0,0:0:0:0:
320,192,109380,1,0,0:0:0:0:
64,192,109454,1,0,0:0:0:0:
192,192,109454,1,0,0:0:0:0:
448,192,109454,1,0,0:0:0:0:
320,192,109603,1,0,0:0:0:0:
192,192,109677,1,0,0:0:0:0:
64,192,109751,1,0,0:0:0:0:
448,192,109751,1,0,0:0:0:0:
320,192,109826,1,0,0:0:0:0:
192,192,109900,1,0,0:0:0:0:
64,192,109974,1,0,0:0:0:0:
448,192,110048,1,0,0:0:0:0:
320,192,110123,1,0,0:0:0:0:
192,192,110197,1,0,0:0:0:0:
64,192,110271,1,0,0:0:0:0:
448,192,110345,1,0,0:0:0:0:
320,192,110420,1,0,0:0:0:0:
192,192,110494,1,0,0:0:0:0:
64,192,110568,1,0,0:0:0:0:
448,192,110642,1,0,0:0:0:0:
320,192,110642,1,0,0:0:0:0:
192,192,110642,1,0,0:0:0:0:
448,192,110939,1,0,0:0:0:0:
64,192,110939,1,0,0:0:0:0:
320,192,111014,1,0,0:0:0:0:
192,192,111088,1,0,0:0:0:0:
64,192,111162,1,0,0:0:0:0:
448,192,111236,1,0,0:0:0:0:
320,192,111311,1,0,0:0:0:0:
64,192,111385,1,0,0:0:0:0:
192,192,111459,1,0,0:0:0:0:
320,192,111533,1,0,0:0:0:0:
448,192,111533,1,0,0:0:0:0:
64,192,111608,1,0,0:0:0:0:
192,192,111682,1,0,0:0:0:0:
320,192,111756,1,0,0:0:0:0:
448,192,111831,128,0,111979:0:0:0:0:
64,192,111979,128,0,112128:0:0:0:0:
448,192,112128,1,0,0:0:0:0:
320,192,112165,1,0,0:0:0:0:
192,192,112202,1,0,0:0:0:0:
64,192,112239,1,0,0:0:0:0:
448,192,112276,1,0,0:0:0:0:
320,192,112313,1,0,0:0:0:0:
192,192,112350,1,0,0:0:0:0:
64,192,112387,1,0,0:0:0:0:
448,192,112425,1,0,0:0:0:0:
320,192,112499,1,0,0:0:0:0:
192,192,112573,1,0,0:0:0:0:
64,192,112647,1,0,0:0:0:0:
448,192,112722,1,0,0:0:0:0:
320,192,112796,1,0,0:0:0:0:
192,192,112870,1,0,0:0:0:0:
64,192,112944,1,0,0:0:0:0:
320,192,113019,1,0,0:0:0:0:
448,192,113019,1,0,0:0:0:0:
192,192,113019,1,0,0:0:0:0:
320,192,113316,1,0,0:0:0:0:
448,192,113316,1,0,0:0:0:0:
64,192,113316,1,0,0:0:0:0:
64,192,113464,1,0,0:0:0:0:
320,192,113464,1,0,0:0:0:0:
448,192,113464,1,0,0:0:0:0:
64,192,113613,1,0,0:0:0:0:
320,192,113613,1,0,0:0:0:0:
448,192,113613,1,0,0:0:0:0:
64,192,113761,1,0,0:0:0:0:
320,192,113761,1,0,0:0:0:0:
192,192,113761,1,0,0:0:0:0:
64,192,113910,1,0,0:0:0:0:
192,192,113910,1,0,0:0:0:0:
448,192,113910,1,0,0:0:0:0:
448,192,114207,1,0,0:0:0:0:
64,192,114207,1,0,0:0:0:0:
192,192,114207,1,0,0:0:0:0:
64,192,114355,1,0,0:0:0:0:
192,192,114355,1,0,0:0:0:0:
448,192,114355,1,0,0:0:0:0:
320,192,114652,1,0,0:0:0:0:
448,192,114652,1,0,0:0:0:0:
64,192,114652,1,0,0:0:0:0:
64,192,114801,1,0,0:0:0:0:
320,192,114801,1,0,0:0:0:0:
448,192,114801,1,0,0:0:0:0:
64,192,114949,1,0,0:0:0:0:
320,192,114949,1,0,0:0:0:0:
448,192,114949,1,0,0:0:0:0:
192,192,115098,1,0,0:0:0:0:
64,192,115098,1,0,0:0:0:0:
320,192,115172,1,0,0:0:0:0:
448,192,115172,1,0,0:0:0:0:
192,192,115246,1,0,0:0:0:0:
64,192,115246,1,0,0:0:0:0:
320,192,115321,1,0,0:0:0:0:
448,192,115321,1,0,0:0:0:0:
192,192,115395,1,0,0:0:0:0:
64,192,115395,1,0,0:0:0:0:
320,192,115469,1,0,0:0:0:0:
448,192,115469,1,0,0:0:0:0:
192,192,115543,1,0,0:0:0:0:
64,192,115543,1,0,0:0:0:0:
448,192,115543,1,0,0:0:0:0:
