osu file format v14

[General]
AudioFilename: audio.mp3
AudioLeadIn: 0
PreviewTime: 317554
Countdown: 0
SampleSet: Soft
StackLeniency: 0.5
Mode: 0
LetterboxInBreaks: 0
EpilepsyWarning: 1
WidescreenStoryboard: 1

[Editor]
Bookmarks: 11983,17316,18649,19982,21316,22649,24982,25149,25316,30316,30482,30649,35649,35816,35982,40649,40982,41149,41316,43982,46628,49258,52545,53860,55175,55504,55833,56162,56491,56819,57148,59778,63066,64381,65696,66025,66354,66682,67011,67340,67669,67833,68326,68491,68984,69148,69641,69806,69970,70299,70463,70956,71121,71614,71778,72271,72600,72929,75579,78173,79470,80768,82065,83362,84011,84335,84497,84578,84660,84984,85308,85633,85957,87254,88551,89849,91146,92281,93741,94389,95038,95362,95687,96335,96984,97633,98281,98930,99578,100227,100876,101524,102173,102822,103470,104119,104768,105416,105741,106065,106389,106470,106551,106714,107362,108011,108660,109308,109957,110606,111254,111903,112389,112876,113200,113524,113849,114173,114497,114984,115146,115795,116119,116443,116768,117092,127470,130714,132660,135254,135416,135741,135903,136227,136389,136714,136876,137200,137524,137849,138006,138322,138480,138796,138954,140375,140533,140849,141006,141322,141480,142270,142585,142901,147796,149217,150480,151585,152375,152849,153638,156796,157006,157217,157427,158059,158217,158533,158691,159006,159164,159480,159638,159954,160585,160743,161059,161217,161533,161691,162480,162717,162954,163112,167533,167743,167954,168164,170059,170691,171954,172375,172822,173217,175743,175901,176217,176375,176691,176849,177164,177322,177641,178259,180720,183028,183489,184259,185643,186259,186566,186720,187489,188105,190566,193028,195335,197951,198259,203182,205335,208105,213028,215182,215489,216412,216720,217028,217654,220054,221254,221854,222454,223354,223504,224854,226054,226654,227254,228154,228304,228454,232054,234454,234529,234604,234679,234754,234829,234904,234979,235054,235129,235204,235279,235354,235429,235504,235579,235654,235954,236254,236554,236854,239254,240454,240754,241054,241354,241654,242254,242854,243154,243454,244054,245254,246454,248854,250054,251254,252454,252754,253054,253354,253654,253804,253954,254104,254254,254404,254554,254704,254854,254929,255004,255079,255154,255229,255304,255379,255454,255529,255604,255679,255754,255829,255904,255979,256054,265654,266104,266554,267004,267454,267904,268354,268804,269254,269704,270454,271654,272254,272854,273154,273754,274204,274354,274504,274654,278704,279154,279454,279604,280054,281254,281704,282004,282454,282604,282754,282904,283054,283204,283354,283504,283804,283954,284854,285454,286654,286954,287254,287854,289054,289354,289504,289654,290254,291454,291754,292054,292654,294154,294454,295054,296254,296554,296854,297454,298654,298954,299104,299254,299854,300454,301054,301204,301354,301504,301654,302254,302854,303154,303454,304054,305254,305854,306454,307654,308254,308854,310054,319654,319749,319844,319939,320511,320606,320701,320796,321939,322034,322130,322225,322796,322892,322987,323082,323939,324225,324796,325368,325939,326511,327082,327654,328225,328796,329368,329939,330511,331082,331654,332225,332796,333368,334511,335654,336796,337939,339082,340225,341368,342511,343654,344796,345939,347082,348225,349368,349939,350511,351082,351654,352676,352813,353017,353222,353426,353631,353835,354381,354858,355063,355199,355472,355676,355881,356017,356290,358199,358472,358744,358949,359358,359563,359835,360108,360381,360926,361335,361744,362017,362290,362563,363517,363926,364199,364472,364608,365154,365563,365972,366108,366381,366654,366790,366926,367199,367472,367744,368017,368290,368563,368835,369108,370199,370744,371290,372381,372926,373472,374017,374426,374563,374767,374972,375108,375381,375654,376199,376744,377017,377290,377563,377835,378654,379199,380017,380290,380699,381108,381381,381654,381926,382199,383290,384381,384926,385472,386017,386563,387108,387654,388744,392396,392526,392917,394744,394874,395004,395265,395396,395526,396048,396309,396570,396765,396961,397091,398135,399178,400222,401004,401135,401265,402048,402178,402309,402570,402700,402830,403091,403222,403352,403613,403874,404135,404396,404657,404917,405178,405439,405700,405961,406222,406483,406744,407004,407265,407526,407591,407657,407722,407787,407852,407917,407983,408048,408113,408178,408244,408309,408374,408439,408504,408570,410657,410722,410787,410852,410917,410983,411048,411113,411178,411244,411309,411374,411439,411504,411570,411635,411700,411765,411830,411896,411961,412026,412091,412157,412222,412287,412352,412417,412483,412548,412613,412678,412744
DistanceSpacing: 0.2
BeatDivisor: 4
GridSize: 8
TimelineZoom: 3.199999

[Metadata]
Title:Songs Compilation
TitleUnicode:Songs Compilation
Artist:xi
ArtistUnicode:xi
Creator:Hokichi
Version:FINAL DIMENSION
Source:
Tags:parousia anima akasha happy end of the world halcyon ascension to heaven wish upon the twin stars blue zenith over top over_the_top freedom dive glorious crown sakiz saki coppertine glasand hoki stream sound voltex maimai Pink BMS II 2 infinite infection- 3 III GRAVITY WARS Deemo bubblun bubb mune hollow delta munrika instrumental
BeatmapID:1937075
BeatmapSetID:927425

[Difficulty]
HPDrainRate:5
CircleSize:4.5
OverallDifficulty:9.5
ApproachRate:9.7
SliderMultiplier:1.8
SliderTickRate:1

[Events]
//Background and Video events
0,0,"bg.png",0,0
//Break Periods
2,117292,126870
2,275254,277700
2,315054,319100
//Storyboard Layer 0 (Background)
//Storyboard Layer 1 (Fail)
//Storyboard Layer 2 (Pass)
//Storyboard Layer 3 (Foreground)
//Storyboard Layer 4 (Overlay)
//Storyboard Sound Samples

[TimingPoints]
1317,666.666666666667,4,2,0,30,1,0
5816,-100,4,2,0,5,0,0
5983,-100,4,2,0,30,0,0
11983,333.333333333333,4,2,0,50,1,0
25316,-142.857142857143,4,2,0,50,0,0
37232,-142.857142857143,4,2,0,5,0,0
37316,-142.857142857143,4,2,0,50,0,0
46628,328.767123287671,4,2,0,50,1,0
67669,-100,4,2,0,50,0,1
72929,-100,4,2,0,50,0,0
75579,324.324324324324,4,2,0,50,1,0
96335,-83.3333333333333,4,2,0,50,0,1
117092,-83.3333333333333,4,2,0,50,0,0
127470,-166.666666666667,4,2,0,50,0,0
137849,315.789473684211,4,2,0,50,1,0
137849,-125,4,2,0,50,0,0
142901,-100,4,2,0,50,0,0
173217,-200,4,2,0,50,0,0
177641,307.692307692308,4,2,0,50,1,0
178259,307.692307692308,4,2,0,50,1,0
197951,-166.666666666667,4,2,0,50,0,0
198259,-100,4,2,0,50,0,0
207797,-166.666666666667,4,2,0,50,0,0
208105,-100,4,2,0,50,0,0
217654,300,4,2,0,50,1,0
260704,-100,4,2,0,5,0,0
260854,-166.666666666667,4,2,0,50,0,0
264454,-125,4,2,0,50,0,0
265654,-100,4,2,0,50,0,0
274654,-200,4,2,0,50,0,0
274954,-200,4,2,0,5,0,0
278254,-100,4,2,0,50,0,0
284854,-83.3333333333333,4,2,0,50,0,0
304054,-200,4,2,0,50,0,0
314854,-200,4,2,0,5,0,0
319654,285.714285714286,4,2,0,50,1,0
351654,272.727272727273,4,2,0,50,1,0
388744,260.869565217391,4,2,0,50,1,0
397091,-100,4,2,0,50,0,1
408570,-100,4,2,0,50,0,0

[Colours]
Combo1 : 128,255,255
Combo2 : 64,159,255
Combo3 : 255,255,128
Combo4 : 0,213,106
Combo5 : 210,128,255
Combo6 : 251,226,87
SliderBorder : 128,255,255
SliderTrackOverride : 0,40,40

[HitObjects]
202,104,1316,5,6,3:2:0:0:
182,274,1983,1,2,0:0:0:0:
336,201,2650,1,2,0:0:0:0:
143,181,3316,1,2,0:0:0:0:
281,282,3983,6,0,B|260:231|306:191|348:196|386:234|398:267|353:285|324:281|322:336|377:387|391:374|434:375|469:346|483:310|473:277|426:271|421:253|417:189|455:144,1,495,2|2,0:0|0:0,0:0:0:0:
508,217,5983,1,2,0:0:0:0:
448,153,6316,1,2,0:0:0:0:
387,89,6650,6,0,P|341:148|224:122,1,180,4|0,0:0|0:0,0:0:0:0:
300,69,7650,1,2,0:0:0:0:
167,159,7983,2,0,L|176:254,1,90,2|2,0:0|0:0,0:0:0:0:
303,66,8650,2,0,P|237:66|206:82,1,90,2|2,0:0|0:0,0:0:0:0:
308,243,9316,6,0,B|297:202|308:162|308:162|297:122|297:122|308:82|297:42,1,180,4|2,0:0|0:0,0:0:0:0:
262,321,10649,2,0,P|331:330|374:301,1,90,4|8,3:0|0:0,0:0:0:0:
392,161,11316,1,4,3:0:0:0:
371,152,11399,1,4,3:0:0:0:
349,148,11482,1,4,3:0:0:0:
326,150,11566,1,4,3:0:0:0:
305,161,11650,5,8,3:0:0:0:
278,181,11733,1,8,3:0:0:0:
245,188,11816,1,8,3:0:0:0:
212,182,11900,1,8,3:0:0:0:
185,162,11983,6,0,L|177:68,1,90,4|0,0:0|0:0,0:0:0:0:
126,269,12316,1,8,0:0:0:0:
276,146,12483,1,0,0:0:0:0:
276,146,12566,1,0,0:0:0:0:
276,146,12649,2,0,L|379:144,1,90,4|8,3:0|3:0,0:0:0:0:
243,290,12983,1,8,0:0:0:0:
228,272,13066,1,2,0:0:0:0:
219,251,13149,1,2,0:0:0:0:
216,229,13233,1,2,0:0:0:0:
218,206,13316,6,0,P|226:151|225:140,1,45,4|0,3:0|0:0,0:0:0:0:
191,78,13482,1,8,0:0:0:0:
191,78,13816,1,4,3:0:0:0:
139,205,13982,2,0,L|135:144,1,45,8|0,0:0|0:0,0:0:0:0:
82,274,14149,1,2,0:0:0:0:
100,286,14232,1,2,0:0:0:0:
121,293,14315,1,2,0:0:0:0:
144,294,14399,1,2,0:0:0:0:
165,289,14482,1,2,0:0:0:0:
349,208,14649,5,0,0:0:0:0:
290,137,14816,1,0,0:0:0:0:
314,288,14982,1,4,3:0:0:0:
437,201,15149,1,2,0:0:0:0:
450,183,15232,1,2,0:0:0:0:
455,161,15315,1,10,2:0:0:0:
449,140,15399,1,2,0:0:0:0:
434,123,15482,5,2,0:0:0:0:
414,115,15565,1,2,0:0:0:0:
392,118,15649,1,10,0:0:0:0:
373,130,15732,1,2,0:0:0:0:
362,149,15816,2,0,L|363:209,1,45
325,295,15982,6,0,P|279:277|243:276,1,45,4|0,3:0|0:0,0:0:0:0:
194,322,16149,1,8,0:0:0:0:
194,322,16482,1,4,3:0:0:0:
89,271,16649,1,8,0:0:0:0:
136,168,16816,2,0,L|140:123,1,45,0|2,0:0|0:0,0:0:0:0:
222,62,16982,2,0,L|226:106,1,45,8|2,3:0|0:0,0:0:0:0:
226,224,17149,1,4,3:0:0:0:
252,227,17232,1,4,3:0:0:0:
278,230,17316,6,0,P|324:219|377:225,1,90,4|4,3:2|3:0,0:0:0:0:
455,254,17566,1,4,3:0:0:0:
455,254,17649,2,0,L|448:139,1,90,8|0,3:0|0:0,0:0:0:0:
371,132,17899,1,8,3:0:0:0:
371,132,17982,2,0,L|364:247,1,90,8|10,3:0|3:1,0:0:0:0:
312,301,18232,1,4,3:0:0:0:
312,301,18316,2,0,L|254:301,2,45,0|8|8,0:0|3:0|3:0,0:0:0:0:
125,195,18649,6,0,P|169:184|228:195,1,90,4|4,0:0|3:0,0:0:0:0:
294,133,18899,1,4,3:0:0:0:
294,133,18982,2,0,L|391:148,1,90,8|8,3:0|3:0,0:0:0:0:
424,68,19232,1,8,3:0:0:0:
424,68,19315,6,0,L|417:22,1,45,10|0,3:1|3:0,0:0:0:0:
489,161,19482,2,0,L|482:205,1,45,8|0,3:0|3:0,0:0:0:0:
419,284,19649,1,4,3:0:0:0:
398,293,19732,1,4,3:0:0:0:
376,297,19815,1,8,3:0:0:0:
354,293,19898,1,8,3:0:0:0:
334,283,19982,6,0,L|330:208,1,45,4|0,3:0|0:0,0:0:0:0:
265,95,20149,2,0,L|261:170,1,45,4|0,3:0|0:0,0:0:0:0:
216,321,20316,2,0,L|212:246,1,45,4|0,3:0|0:0,0:0:0:0:
147,133,20483,2,0,L|143:208,1,45,4|0,3:0|0:0,0:0:0:0:
317,224,20649,6,0,P|288:217|245:230,1,45,4|0,3:0|0:0,0:0:0:0:
197,85,20816,2,0,P|226:92|269:79,1,45,8|0,3:0|0:0,0:0:0:0:
127,34,20982,2,0,L|132:-6,7,22.5,4|4|4|4|6|6|6|4,3:0|3:0|3:0|3:0|3:1|3:1|3:1|3:0,0:0:0:0:
106,65,21316,6,0,L|121:162,1,90,4|4,0:0|0:3,0:0:0:0:
174,254,21566,1,4,3:0:0:0:
174,254,21649,2,0,P|225:238|250:238,1,45,8|0,0:0|0:0,0:0:0:0:
303,261,21816,1,4,3:0:0:0:
303,261,21899,1,4,3:0:0:0:
303,261,21982,5,8,3:0:0:0:
338,263,22065,1,8,3:0:0:0:
371,246,22148,1,4,3:0:0:0:
391,217,22231,1,4,3:0:0:0:
394,181,22315,5,8,3:0:0:0:
378,148,22398,1,4,3:0:0:0:
348,127,22481,1,8,3:0:0:0:
312,124,22565,1,4,3:0:0:0:
290,136,22649,5,4,3:0:0:0:
263,140,22732,1,4,3:0:0:0:
236,135,22815,1,4,3:0:0:0:
212,123,22898,1,4,3:0:0:0:
194,107,22982,1,8,0:0:0:0:
211,140,23065,1,4,3:0:0:0:
216,176,23148,1,8,3:0:0:0:
211,211,23232,1,4,3:0:0:0:
187,238,23316,5,4,3:0:0:0:
133,253,23399,1,4,3:0:0:0:
82,233,23482,1,4,3:0:0:0:
54,185,23565,1,4,3:0:0:0:
61,130,23649,1,8,0:0:0:0:
99,91,23732,1,4,3:0:0:0:
154,84,23815,1,8,3:1:0:0:
202,112,23899,1,4,3:0:0:0:
223,163,23982,5,8,3:0:0:0:
238,225,24065,1,4,3:0:0:0:
301,235,24148,1,8,3:0:0:0:
335,181,24231,1,4,3:0:0:0:
298,129,24316,5,4,3:0:0:0:
309,81,24399,1,4,3:0:0:0:
352,56,24482,1,4,3:0:0:0:
399,71,24565,1,4,3:0:0:0:
419,116,24649,5,4,3:0:0:0:
393,137,24732,1,4,3:0:0:0:
378,167,24815,1,4,3:0:0:0:
379,200,24898,1,4,3:0:0:0:
394,230,24982,6,0,L|334:222,1,45,6|0,3:1|0:0,0:0:0:0:
259,84,25149,2,0,L|214:90,1,45,4|0,0:0|0:0,0:0:0:0:
134,194,25316,6,0,P|182:197|215:270,1,125.999996154785,4|8,0:0|0:0,0:0:0:0:
107,301,25816,1,4,3:0:0:0:
46,178,25982,2,0,L|41:218,3,31.4999990386963,4|4|4|4,3:0|3:0|3:0|3:0,0:0:0:0:
97,108,26316,2,0,P|45:92|26:94,2,41.9999987182618,8|8|8,3:0|3:0|3:0,0:0:0:0:
177,154,26649,6,0,L|258:145,1,62.9999980773926,4|0,3:0|0:0,0:0:0:0:
326,68,26899,2,0,L|263:61,1,62.9999980773926,4|0,3:0|0:0,0:0:0:0:
176,28,27149,2,0,P|170:53|173:81,1,31.4999990386963,8|0,3:0|0:0,0:0:0:0:
177,154,27316,2,0,L|180:182,5,20.9999993591309,6|0|0|0|0|0,1:2|0:0|0:0|0:0|0:0|0:0,0:0:0:0:
249,257,27649,1,8,3:0:0:0:
249,233,27732,1,8,3:0:0:0:
250,209,27815,1,4,3:0:0:0:
251,186,27898,1,4,3:0:0:0:
252,162,27982,6,0,L|280:158,8,15.7499995193482,8|0|0|0|0|0|0|0|0,0:3|0:0|0:0|0:0|0:0|0:0|0:0|0:0|0:0,0:0:0:0:
157,114,28482,2,0,P|152:141|155:149,2,20.9999993591309,2|2|2,0:0|0:0|0:0,0:0:0:0:
183,89,28649,2,0,L|258:81,1,62.9999980773926,4|8,3:0|0:0,0:0:0:0:
286,208,28982,2,0,P|276:162|280:151,2,41.9999987182618,8|8|8,3:0|3:0|3:0,0:0:0:0:
353,293,29316,6,0,L|399:300,1,31.4999990386963,4|0,3:0|0:0,0:0:0:0:
411,193,29482,2,0,L|266:210,1,125.999996154785,8|8,0:0|3:0,0:0:0:0:
215,361,29982,2,0,L|184:358,1,31.4999990386963,4|0,3:0|0:0,0:0:0:0:
273,314,30149,1,8,0:0:0:0:
256,128,30316,1,8,3:0:0:0:
347,294,30482,1,8,3:0:0:0:
157,290,30649,6,0,P|124:255|59:249,1,94.499997116089,4|0,0:0|0:0,0:0:0:0:
12,306,30982,2,0,L|24:373,1,62.9999980773926,4|8,3:0|0:0,0:0:0:0:
50,169,31316,2,0,L|51:117,2,41.9999987182618,4|4|4,3:0|3:0|3:0,0:0:0:0:
133,169,31649,2,0,L|134:117,2,41.9999987182618,8|8|8,3:0|3:0|3:0,0:0:0:0:
201,257,31982,6,0,P|248:268|281:262,1,62.9999980773926,4|0,3:0|0:0,0:0:0:0:
308,178,32232,2,0,P|331:157|360:145,1,62.9999980773926,4|0,3:0|0:0,0:0:0:0:
407,229,32482,2,0,L|366:225,1,31.4999990386963,8|0,3:0|0:0,0:0:0:0:
360,145,32649,1,2,0:0:0:0:
375,142,32732,1,2,0:0:0:0:
390,139,32815,1,2,0:0:0:0:
406,136,32899,1,2,0:0:0:0:
421,133,32982,2,0,L|416:92,1,31.4999990386963,8|0,3:0|0:0,0:0:0:0:
489,225,33149,2,0,L|492:193,1,31.4999990386963,4|0,3:0|0:0,0:0:0:0:
421,133,33316,5,4,3:0:0:0:
397,130,33399,1,4,3:0:0:0:
374,127,33482,1,4,3:0:0:0:
350,124,33566,1,4,3:0:0:0:
326,122,33649,2,0,L|331:97,11,15.7499995193482,4|0|0|0|0|0|0|0|4|0|0|0,3:0|0:0|0:0|0:0|0:0|0:0|0:0|0:0|0:0|0:0|0:0|0:0,0:0:0:0:
305,155,34149,2,0,L|310:198,1,31.4999990386963,4|0,3:0|0:0,0:0:0:0:
382,281,34316,5,8,3:0:0:0:
383,265,34399,1,4,3:0:0:0:
385,249,34482,1,8,3:0:0:0:
387,234,34566,1,4,3:0:0:0:
389,218,34649,6,0,L|446:207,1,31.4999990386963,4|0,3:0|0:0,0:0:0:0:
333,133,34816,2,0,P|281:127|254:133,1,62.9999980773926,12|4,0:0|3:0,0:0:0:0:
177,255,35149,2,0,L|175:219,1,31.4999990386963,8|0,3:0|0:0,0:0:0:0:
135,151,35316,2,0,L|141:124,6,15.7499995193482,10|2|2|2|2|2|2,0:0|0:0|0:0|0:0|0:0|0:0|0:0,0:0:0:0:
85,249,35649,2,0,P|65:252|40:249,1,31.4999990386963,4|0,3:0|0:0,0:0:0:0:
39,96,35816,2,0,P|59:93|84:96,1,31.4999990386963,4|0,3:0|0:0,0:0:0:0:
207,179,35982,6,0,L|134:181,1,62.9999980773926,4|0,0:0|0:0,0:0:0:0:
328,107,36316,1,8,3:0:0:0:
328,107,36399,1,4,3:0:0:0:
328,107,36482,2,0,L|322:69,1,31.4999990386963,4|0,3:0|0:0,0:0:0:0:
427,179,36649,1,8,3:0:0:0:
427,179,36732,1,4,3:0:0:0:
427,179,36815,2,0,L|433:141,1,31.4999990386963,4|4,3:0|3:0,0:0:0:0:
303,210,36982,2,0,B|237:226|237:226|274:240,1,94.499997116089,8|0,0:0|0:0,0:0:0:0:
321,188,37316,6,0,P|321:139|304:107,1,62.9999980773926,4|0,3:0|0:0,0:0:0:0:
167,217,37649,2,0,L|166:269,2,41.9999987182618,4|4|4,3:0|3:0|3:0,0:0:0:0:
117,138,37982,1,8,3:0:0:0:
138,128,38065,1,8,3:0:0:0:
161,124,38148,1,4,0:3:0:0:
185,126,38232,1,4,0:3:0:0:
207,134,38316,2,0,P|251:163|284:162,1,62.9999980773926,4|4,0:0|3:0,0:0:0:0:
336,109,38565,1,4,3:0:0:0:
336,109,38649,6,0,L|339:85,3,15.7499995193482,4|0|0|0,3:0|0:0|0:0|0:0,0:0:0:0:
356,134,38816,2,0,L|359:211,1,62.9999980773926,12|0,0:0|0:0,0:0:0:0:
306,297,39149,1,4,3:0:0:0:
151,210,39316,2,0,P|201:196|239:198,1,62.9999980773926,12|0,0:0|0:0,0:0:0:0:
38,295,39649,1,0,0:0:0:0:
15,273,39732,1,0,0:0:0:0:
43,257,39816,1,0,0:0:0:0:
20,235,39899,1,0,0:0:0:0:
43,213,39982,6,0,P|66:176|68:141,1,62.9999980773926,4|0,0:0|0:0,0:0:0:0:
151,290,40316,2,0,L|90:288,2,41.9999987182618,4|4|4,3:0|3:0|3:0,0:0:0:0:
221,217,40649,2,0,P|229:199|234:178,3,31.4999990386963,8|8|8|8,3:0|3:0|3:0|3:0,0:0:0:0:
160,120,40982,2,0,L|199:112,1,31.4999990386963,4|0,3:0|0:0,0:0:0:0:
293,68,41149,2,0,L|332:76,1,31.4999990386963,4|0,3:0|0:0,0:0:0:0:
331,208,41316,6,0,P|322:164|330:130,1,62.9999980773926,4|0,0:0|0:0,0:0:0:0:
430,242,41649,2,0,L|391:250,3,31.4999990386963,4|8|4|4,0:0|3:0|3:0|3:0,0:0:0:0:
338,322,41982,2,0,L|299:314,3,31.4999990386963,4|8|0|0,0:0|3:0|0:0|0:0,0:0:0:0:
226,224,42316,1,4,0:0:0:0:
233,238,42399,1,8,3:0:0:0:
236,253,42482,1,4,3:0:0:0:
234,269,42566,1,4,3:0:0:0:
229,283,42649,6,0,L|147:288,1,62.9999980773926,4|0,3:0|0:0,0:0:0:0:
105,182,42899,2,0,L|187:187,1,62.9999980773926,4|0,3:0|0:0,0:0:0:0:
271,130,43149,2,0,P|243:124|221:124,1,31.4999990386963,8|0,3:0|0:0,0:0:0:0:
319,217,43316,2,0,L|436:206,2,94.499997116089,4|2|2,0:0|0:0|0:0,0:0:0:0:
152,78,43982,5,4,0:0:0:0:
152,78,44982,2,0,L|150:41,2,31.4999990386963,2|2|2,0:0|0:0|0:0,0:0:0:0:
206,189,45316,6,0,P|268:153|210:213,1,251.999992309571,4|0,0:0|0:0,0:0:0:0:
211,215,46628,6,0,L|154:208,3,45,4|8|4|4,0:0|3:0|3:0|3:0,0:0:0:0:
319,159,46956,2,0,L|376:151,3,45,4|8|4|4,3:0|3:0|3:0|3:0,0:0:0:0:
207,102,47285,1,8,3:0:0:0:
188,115,47367,1,8,3:0:0:0:
167,122,47449,1,4,3:0:0:0:
144,123,47531,1,4,3:0:0:0:
123,117,47614,5,8,3:0:0:0:
101,112,47696,1,8,3:0:0:0:
78,112,47778,1,4,3:0:0:0:
57,120,47860,1,4,3:0:0:0:
39,132,47943,6,0,L|31:72,3,45,8|8|4|4,3:0|3:0|3:0|3:0,0:0:0:0:
86,233,48271,2,0,L|94:173,3,45,8|8|4|4,3:0|3:0|3:0|3:0,0:0:0:0:
29,314,48600,2,0,L|21:254,3,45,8|8|4|4,3:0|3:0|3:0|3:0,0:0:0:0:
112,352,48929,1,8,3:0:0:0:
156,347,49011,1,8,3:0:0:0:
201,342,49093,1,4,3:0:0:0:
246,337,49175,1,4,3:0:0:0:
290,332,49258,6,0,P|278:278|290:244,1,90,4|0,0:0|0:0,0:0:0:0:
127,236,49586,2,0,P|178:237|205:229,3,45,8|8|4|4,3:0|3:0|3:0|3:0,0:0:0:0:
112,124,49915,2,0,P|85:167|79:195,3,45,8|8|4|4,3:0|3:0|3:0|3:0,0:0:0:0:
241,174,50244,1,8,3:0:0:0:
232,153,50326,1,8,3:0:0:0:
222,133,50408,1,4,3:0:0:0:
208,115,50490,1,4,3:0:0:0:
193,98,50573,6,0,P|205:49|221:31,3,45,8|8|4|4,3:0|3:0|3:0|3:0,0:0:0:0:
310,30,50901,2,0,P|317:51|318:73,3,45,8|8|4|4,3:0|3:0|3:0|3:0,0:0:0:0:
391,166,51230,2,0,L|441:158,3,45,8|8|4|4,3:0|3:0|3:0|3:0,0:0:0:0:
332,265,51559,2,0,L|282:257,3,45,8|8|4|4,3:0|3:0|3:0|3:0,0:0:0:0:
156,153,51888,5,8,3:0:0:0:
191,171,51970,1,8,3:0:0:0:
208,206,52052,1,4,3:0:0:0:
202,244,52134,1,4,3:0:0:0:
172,265,52217,5,8,3:0:0:0:
146,235,52298,1,8,3:0:0:0:
109,226,52381,1,4,3:0:0:0:
73,240,52463,1,4,3:0:0:0:
51,269,52545,2,0,P|53:193|42:168,1,90,4|4,0:0|3:0,0:0:0:0:
175,272,52874,2,0,L|179:320,3,45,12|2|2|2,0:0|0:0|0:0|0:0,0:0:0:0:
192,196,53203,5,8,3:0:0:0:
233,180,53285,1,8,3:0:0:0:
276,190,53367,1,4,3:0:0:0:
305,224,53449,1,4,3:0:0:0:
309,268,53532,5,8,3:0:0:0:
267,251,53614,1,8,3:0:0:0:
243,214,53696,1,4,3:0:0:0:
245,169,53778,1,4,3:0:0:0:
272,134,53860,2,0,P|297:73|286:32,1,90,4|4,0:0|3:0,0:0:0:0:
81,228,54189,2,0,L|84:164,3,45,12|2|2|2,0:0|0:0|0:0|0:0,0:0:0:0:
126,304,54518,5,8,3:0:0:0:
155,301,54600,1,8,3:0:0:0:
185,298,54682,1,4,3:0:0:0:
215,295,54764,1,4,3:0:0:0:
238,268,54847,5,8,3:0:0:0:
267,271,54929,1,8,3:0:0:0:
297,274,55011,1,4,3:0:0:0:
327,277,55093,1,4,3:0:0:0:
367,251,55175,6,0,L|364:306,3,45,4|8|4|4,0:0|3:0|3:0|3:0,0:0:0:0:
417,149,55504,2,0,L|414:94,3,45,4|8|4|4,0:0|3:0|3:0|3:0,0:0:0:0:
288,168,55833,5,8,3:0:0:0:
266,161,55915,1,8,3:0:0:0:
243,160,55997,1,4,3:0:0:0:
222,165,56079,1,4,3:0:0:0:
201,173,56161,5,8,3:0:0:0:
180,182,56243,1,8,3:0:0:0:
158,185,56326,1,4,3:0:0:0:
135,182,56408,1,4,3:0:0:0:
114,176,56491,6,0,P|119:113|114:92,3,45,4|4|4|4,3:0|3:0|3:0|3:0,0:0:0:0:
41,260,56819,2,0,P|42:282|47:304,3,45,4|4|4|4,3:0|3:0|3:0|3:0,0:0:0:0:
45,144,57148,6,0,L|-16:135,3,45,4|8|0|0,0:0|3:0|3:0|3:0,0:0:0:0:
145,84,57477,2,0,P|195:84|218:79,1,45,12|0,3:0|0:0,0:0:0:0:
198,231,57641,2,0,P|148:231|125:236,1,45,12|0,3:0|0:0,0:0:0:0:
275,162,57806,2,0,L|270:96,3,45,12|0|0|0,3:0|3:0|3:0|3:0,0:0:0:0:
354,262,58134,2,0,P|356:278|349:328,3,45,12|0|0|0,3:0|3:0|3:0|3:0,0:0:0:0:
222,240,58463,6,0,L|266:244,1,45,8|0,3:0|3:0,0:0:0:0:
397,157,58627,2,0,L|352:161,1,45,8|0,3:0|3:0,0:0:0:0:
216,244,58792,6,0,L|260:248,1,45,8|0,3:0|3:0,0:0:0:0:
402,152,58956,2,0,L|357:156,1,45,8|0,3:0|3:0,0:0:0:0:
211,249,59121,6,0,L|255:253,1,45,8|0,3:0|3:0,0:0:0:0:
408,147,59285,2,0,L|363:151,1,45,8|0,3:0|3:0,0:0:0:0:
175,95,59449,5,4,3:0:0:0:
205,81,59531,1,4,3:0:0:0:
239,81,59613,1,4,3:0:0:0:
270,93,59695,1,4,3:0:0:0:
295,116,59778,6,0,L|287:59,3,45,4|4|0|0,0:0|3:0|0:0|0:0,0:0:0:0:
386,208,60107,2,0,P|419:207|445:213,1,45,12|0,3:0|3:0,0:0:0:0:
310,157,60271,2,0,P|300:136|294:114,1,45,12|0,3:0|3:0,0:0:0:0:
309,252,60436,2,0,L|301:320,3,45,4|0|0|0,3:0|3:0|3:0|3:0,0:0:0:0:
203,155,60764,2,0,L|211:223,3,45,4|0|0|0,3:0|3:0|3:0|3:0,0:0:0:0:
344,289,61094,6,0,P|331:280|290:269,1,45,4|0,3:0|3:0,0:0:0:0:
418,237,61258,2,0,P|439:230|458:218,1,45,4|0,3:0|3:0,0:0:0:0:
339,294,61422,6,0,P|326:285|285:274,1,45,4|0,3:0|3:0,0:0:0:0:
423,232,61587,2,0,P|444:225|463:213,1,45,4|0,3:0|3:0,0:0:0:0:
334,299,61751,6,0,P|321:290|280:279,1,45,4|0,3:0|3:0,0:0:0:0:
428,227,61916,2,0,P|449:220|468:208,1,45,4|0,3:0|3:0,0:0:0:0:
344,170,62080,2,0,L|325:68,1,90,4|4,3:0|3:0,0:0:0:0:
162,200,62408,5,8,3:0:0:0:
149,231,62490,1,8,3:0:0:0:
150,264,62572,1,4,3:0:0:0:
165,294,62654,1,4,3:0:0:0:
190,316,62736,1,8,3:0:0:0:
222,326,62818,1,8,3:0:0:0:
256,322,62901,1,4,3:0:0:0:
285,305,62983,1,4,3:0:0:0:
305,279,63066,6,0,L|301:222,1,45,4|0,3:0|3:0,0:0:0:0:
383,101,63230,2,0,L|378:158,1,45,4|0,3:0|3:0,0:0:0:0:
376,283,63395,2,0,L|380:225,1,45,12|0,0:0|3:0,0:0:0:0:
296,102,63559,2,0,L|300:159,1,45,12|0,3:0|3:0,0:0:0:0:
376,283,63723,5,8,3:0:0:0:
342,283,63805,1,8,3:0:0:0:
308,283,63887,1,4,3:0:0:0:
274,284,63969,1,4,3:0:0:0:
241,284,64051,1,8,3:0:0:0:
207,285,64133,1,8,3:0:0:0:
173,285,64216,1,4,3:0:0:0:
139,286,64298,1,4,3:0:0:0:
106,286,64381,6,0,P|111:224|106:210,1,45,4|0,3:0|3:0,0:0:0:0:
40,137,64545,2,0,P|35:199|40:213,1,45,4|0,3:0|3:0,0:0:0:0:
122,273,64710,2,0,P|127:211|122:197,1,45,12|0,0:0|3:0,0:0:0:0:
56,124,64874,2,0,P|51:186|56:200,1,45,12|0,0:0|3:0,0:0:0:0:
147,131,65038,5,8,3:0:0:0:
180,133,65120,1,8,3:0:0:0:
209,116,65202,1,4,3:0:0:0:
225,87,65284,1,4,3:0:0:0:
222,54,65366,1,8,3:0:0:0:
202,27,65448,1,8,3:0:0:0:
171,16,65531,1,4,3:0:0:0:
138,23,65613,1,4,3:0:0:0:
115,46,65696,6,0,L|41:40,1,45,4|0,3:0|3:0,0:0:0:0:
13,180,65860,2,0,L|87:174,1,45,4|0,3:0|3:0,0:0:0:0:
191,134,66025,2,0,L|117:128,1,45,12|0,0:0|0:0,0:0:0:0:
89,268,66189,2,0,L|163:262,1,45,12|0,3:0|3:0,0:0:0:0:
230,214,66354,5,8,3:0:0:0:
248,201,66436,1,8,3:0:0:0:
269,193,66518,1,4,3:0:0:0:
291,191,66600,1,4,3:0:0:0:
313,194,66682,1,8,3:0:0:0:
334,203,66764,1,8,3:0:0:0:
352,216,66847,1,4,3:0:0:0:
366,234,66929,1,4,3:0:0:0:
374,255,67011,6,0,L|365:175,1,45,4|0,3:0|3:0,0:0:0:0:
311,70,67175,2,0,L|302:150,1,45,4|0,3:0|3:0,0:0:0:0:
245,196,67340,2,0,L|325:187,1,45,4|0,3:0|3:0,0:0:0:0:
430,133,67504,2,0,L|350:124,1,45,4|0,3:0|3:0,0:0:0:0:
231,42,67669,6,0,P|235:75|225:99,1,45,4|0,0:0|0:0,0:0:0:0:
146,217,67833,2,0,P|142:184|152:160,1,45,4|0,3:0|0:0,0:0:0:0:
303,272,67997,1,8,3:0:0:0:
280,271,68079,1,8,3:0:0:0:
258,270,68161,1,4,3:0:0:0:
235,269,68243,1,4,3:0:0:0:
213,268,68326,6,0,L|220:325,1,45,4|0,0:0|0:0,0:0:0:0:
145,173,68491,2,0,L|152:116,1,45,4|0,3:0|0:0,0:0:0:0:
285,69,68655,1,8,3:0:0:0:
265,79,68737,1,8,3:0:0:0:
243,83,68819,1,4,3:0:0:0:
220,81,68901,1,4,3:0:0:0:
200,71,68984,6,0,L|150:60,1,45,4|0,0:0|0:0,0:0:0:0:
24,162,69148,2,0,L|74:151,1,45,4|0,3:0|0:0,0:0:0:0:
212,220,69312,1,8,3:0:0:0:
190,225,69394,1,8,3:0:0:0:
167,224,69476,1,4,3:0:0:0:
146,217,69558,1,4,3:0:0:0:
129,203,69641,6,0,L|140:120,1,45,4|0,0:0|0:0,0:0:0:0:
197,301,69806,2,0,P|181:304|141:270,1,45,4|0,3:0|0:0,0:0:0:0:
266,187,69970,2,0,L|380:173,1,90,4|4,0:0|3:0,0:0:0:0:
169,73,70299,6,0,P|164:99|168:134,1,45,4|0,0:0|0:0,0:0:0:0:
266,187,70463,2,0,P|246:175|225:167,1,45,4|0,3:0|0:0,0:0:0:0:
66,206,70627,1,8,3:0:0:0:
88,203,70709,1,8,3:0:0:0:
110,200,70791,1,4,3:0:0:0:
133,198,70873,1,4,3:0:0:0:
155,195,70956,6,0,L|146:248,1,45,4|0,0:0|0:0,0:0:0:0:
245,93,71121,2,0,L|236:40,1,45,6|0,3:1|0:0,0:0:0:0:
332,179,71285,1,10,3:1:0:0:
336,201,71367,1,8,3:0:0:0:
337,223,71449,1,4,3:0:0:0:
334,245,71531,1,4,3:0:0:0:
328,267,71614,6,0,L|394:256,1,45,4|0,0:0|0:0,0:0:0:0:
457,339,71778,2,0,L|391:328,1,45,4|0,3:0|0:0,0:0:0:0:
501,188,71943,1,8,3:0:0:0:
510,208,72025,1,8,3:0:0:0:
512,230,72107,1,4,3:0:0:0:
512,252,72189,1,4,3:0:0:0:
510,275,72271,6,0,L|488:253,8,22.5,4|0|0|0|6|0|0|0|6,0:0|0:0|0:0|0:0|3:1|0:0|0:0|0:0|0:1,0:0:0:0:
287,151,72929,5,4,3:0:0:0:
184,277,73258,2,0,L|174:176,1,90,2|2,0:0|0:0,0:0:0:0:
239,70,73586,1,2,0:0:0:0:
259,59,73668,1,2,0:0:0:0:
280,55,73750,1,2,0:0:0:0:
303,56,73832,1,2,0:0:0:0:
324,63,73914,5,2,0:0:0:0:
345,70,73997,1,2,0:0:0:0:
367,71,74079,1,2,0:0:0:0:
389,66,74161,1,2,0:0:0:0:
409,56,74244,6,0,L|415:96,5,30,6|2|2|2|2|2,0:0|0:0|0:0|0:0|0:0|0:0,0:0:0:0:
369,148,74573,2,0,L|363:188,5,30,2|2|2|2|2|2,0:0|0:0|0:0|0:0|0:0|0:0,0:0:0:0:
399,251,74901,2,0,L|436:247,15,22.5,2|2|2|2|2|2|2|2|2|2|2|2|2|2|2|2,0:0|0:0|0:0|0:0|0:0|0:0|0:0|0:0|0:0|0:0|0:0|0:0|0:0|0:0|0:0|0:0,0:0:0:0:
336,305,75579,6,0,P|295:285|240:289,1,90,4|4,0:0|3:0,0:0:0:0:
179,333,75822,1,4,3:0:0:0:
179,333,75903,1,8,0:0:0:0:
124,162,76065,1,8,3:0:0:0:
314,171,76227,1,4,3:0:0:0:
314,171,76308,1,4,3:0:0:0:
314,171,76389,2,0,L|388:158,1,45,8|8,0:0|3:0,0:0:0:0:
206,240,76551,1,4,3:0:0:0:
206,240,76632,1,4,3:0:0:0:
206,240,76713,2,0,L|280:253,1,45,8|8,0:0|3:0,0:0:0:0:
120,201,76876,6,0,P|114:264|124:288,1,90,8|4,3:0|3:0,0:0:0:0:
243,168,77119,1,0,0:0:0:0:
243,168,77200,2,0,L|190:160,1,45,8|0,3:0|0:0,0:0:0:0:
287,307,77362,1,4,3:0:0:0:
360,179,77524,2,0,L|348:83,1,90,8|4,3:0|3:0,0:0:0:0:
277,33,77768,2,0,P|252:39|221:40,1,45,8|0,3:0|0:0,0:0:0:0:
141,106,77930,1,8,3:0:0:0:
147,136,78011,1,4,3:0:0:0:
153,165,78092,1,4,3:0:0:0:
160,195,78173,6,0,P|241:184|277:202,1,90,12|4,3:0|3:0,0:0:0:0:
219,319,78416,1,0,0:0:0:0:
219,319,78497,2,0,L|211:275,1,45,8|0,3:0|0:0,0:0:0:0:
350,122,78660,1,4,3:0:0:0:
152,176,78822,1,8,3:0:0:0:
119,185,78903,1,8,3:0:0:0:
87,176,78984,1,4,3:0:0:0:
64,152,79065,1,4,3:0:0:0:
55,120,79146,5,8,3:0:0:0:
65,88,79227,1,8,3:0:0:0:
89,65,79308,1,4,3:0:0:0:
122,58,79389,1,4,3:0:0:0:
153,68,79470,6,0,P|196:103|266:102,1,90,8|4,3:0|3:0,0:0:0:0:
307,68,79714,1,0,0:0:0:0:
307,68,79795,2,0,L|307:12,1,45,8|0,3:0|0:0,0:0:0:0:
421,175,79957,1,4,3:0:0:0:
304,272,80119,1,8,3:0:0:0:
275,254,80200,1,8,3:0:0:0:
242,248,80281,1,4,3:0:0:0:
209,254,80362,1,4,3:0:0:0:
180,271,80443,5,8,3:0:0:0:
151,288,80525,1,8,3:0:0:0:
118,294,80606,1,4,3:0:0:0:
85,288,80687,1,4,3:0:0:0:
56,270,80768,6,0,L|59:198,1,45,4|0,0:0|0:0,0:0:0:0:
190,170,80930,1,4,3:0:0:0:
167,144,81011,1,4,3:0:0:0:
159,111,81092,1,8,3:0:0:0:
169,80,81173,2,0,L|240:79,1,45
309,129,81335,1,0,0:0:0:0:
335,137,81416,5,8,3:0:0:0:
357,161,81497,1,8,3:0:0:0:
364,193,81578,1,4,3:0:0:0:
355,224,81660,1,4,3:0:0:0:
331,248,81741,1,8,3:0:0:0:
298,246,81822,1,8,3:0:0:0:
264,243,81903,1,4,3:0:0:0:
231,240,81984,1,4,3:0:0:0:
197,237,82065,5,12,3:0:0:0:
214,208,82146,1,8,3:0:0:0:
215,175,82227,1,4,3:0:0:0:
201,145,82308,1,4,3:0:0:0:
174,124,82389,1,8,3:0:0:0:
142,118,82470,1,8,3:0:0:0:
110,128,82551,1,4,3:0:0:0:
86,151,82632,1,4,3:0:0:0:
75,183,82714,5,8,3:0:0:0:
107,177,82795,1,8,3:0:0:0:
135,157,82876,1,4,3:0:0:0:
150,128,82957,1,4,3:0:0:0:
150,95,83038,1,8,3:0:0:0:
2,217,83200,1,4,3:0:0:0:
4,237,83281,1,4,3:0:0:0:
6,257,83362,6,0,P|58:249|129:256,1,90,4|4,0:0|3:0,0:0:0:0:
176,164,83606,2,0,L|175:218,1,45,8|0,3:0|0:0,0:0:0:0:
132,346,83849,1,4,3:0:0:0:
95,143,84011,1,12,0:0:0:0:
230,295,84173,1,4,3:0:0:0:
248,290,84254,1,4,3:0:0:0:
266,285,84335,1,4,0:0:0:0:
391,182,84497,1,4,3:0:0:0:
373,177,84578,1,4,3:0:0:0:
355,172,84660,5,4,0:0:0:0:
373,131,84741,1,8,3:0:0:0:
411,108,84822,1,4,3:0:0:0:
455,110,84903,1,4,3:0:0:0:
491,137,84984,5,8,3:0:0:0:
505,178,85065,1,8,3:0:0:0:
494,221,85146,1,4,3:0:0:0:
461,250,85227,1,4,3:0:0:0:
417,256,85308,5,8,3:0:0:0:
373,251,85389,1,8,3:0:0:0:
338,278,85470,1,4,3:0:0:0:
331,321,85551,1,4,3:0:0:0:
356,357,85633,5,8,3:0:0:0:
360,312,85714,1,8,3:0:0:0:
338,278,85795,1,4,3:0:0:0:
299,254,85876,1,4,3:0:0:0:
255,261,85957,6,0,L|156:265,1,90,4|4,0:0|3:0,0:0:0:0:
86,203,86200,2,0,P|81:182|81:159,1,45
90,360,86443,1,4,3:0:0:0:
181,166,86606,1,4,3:0:0:0:
225,165,86687,1,4,3:0:0:0:
259,137,86768,1,8,3:0:0:0:
267,94,86849,1,8,3:0:0:0:
247,54,86930,5,4,3:0:0:0:
225,92,87011,1,4,3:0:0:0:
232,136,87092,1,8,3:0:0:0:
265,165,87173,1,8,3:0:0:0:
309,167,87254,6,0,P|367:151|436:168,1,90,8|4,3:0|3:0,0:0:0:0:
466,81,87497,2,0,L|469:144,1,45,8|0,3:0|0:0,0:0:0:0:
430,268,87741,1,4,3:0:0:0:
304,303,87903,5,8,3:0:0:0:
259,295,87984,1,8,3:0:0:0:
233,260,88065,1,4,3:0:0:0:
240,216,88146,1,4,3:0:0:0:
274,193,88227,5,8,3:0:0:0:
309,167,88308,1,8,3:0:0:0:
316,123,88389,1,4,3:0:0:0:
289,87,88470,1,4,3:0:0:0:
246,81,88551,6,0,P|189:93|134:60,1,90,8|4,3:0|3:0,0:0:0:0:
56,23,88795,2,0,L|101:26,1,45
79,200,89038,1,4,3:0:0:0:
220,148,89200,1,8,3:0:0:0:
253,144,89281,1,8,3:0:0:0:
287,140,89362,1,4,3:0:0:0:
320,136,89443,1,4,3:0:0:0:
345,111,89524,5,8,3:0:0:0:
378,114,89605,1,8,3:0:0:0:
412,118,89686,1,4,3:0:0:0:
445,122,89767,1,4,3:0:0:0:
486,106,89849,6,0,P|473:169|495:209,1,90,8|4,3:0|3:0,0:0:0:0:
417,267,90092,2,0,L|467:262,1,45,8|0,3:0|0:0,0:0:0:0:
308,344,90335,1,4,3:0:0:0:
193,259,90497,2,0,L|198:198,1,45,8|0,3:0|0:0,0:0:0:0:
276,99,90660,2,0,L|281:160,1,45,8|0,3:0|0:0,0:0:0:0:
207,33,90822,1,4,3:0:0:0:
245,10,90903,1,4,3:0:0:0:
290,6,90984,1,4,3:0:0:0:
332,21,91065,1,4,3:0:0:0:
364,52,91146,6,0,L|423:47,1,45,4|0,3:0|0:0,0:0:0:0:
480,187,91308,2,0,L|421:181,1,45,4|0,3:0|3:0,0:0:0:0:
279,143,91470,2,0,L|337:137,1,45,4|0,3:0|3:0,0:0:0:0:
394,277,91632,2,0,L|335:271,1,45,4|0,3:0|3:0,0:0:0:0:
279,143,91795,6,0,P|286:91|277:70,1,45,4|0,3:0|3:0,0:0:0:0:
182,224,91957,2,0,P|187:245|200:264,1,45,4|0,3:0|3:0,0:0:0:0:
345,225,92119,1,2,1:0:0:0:
324,216,92200,1,8,3:0:0:0:
302,211,92281,1,2,1:0:0:0:
279,210,92362,1,4,3:0:0:0:
257,213,92444,5,4,0:0:0:0:
260,179,92525,1,4,3:0:0:0:
263,145,92606,2,0,L|332:138,1,45,4|0,3:0|0:0,0:0:0:0:
159,208,92768,2,0,L|90:200,1,45,0|0,3:0|0:0,0:0:0:0:
196,78,92930,2,0,L|191:123,1,45,4|0,3:0|0:0,0:0:0:0:
259,271,93092,2,0,L|254:227,1,45,4|0,3:0|0:0,0:0:0:0:
196,78,93254,1,4,3:0:0:0:
196,78,93335,1,4,3:0:0:0:
196,78,93416,5,2,1:0:0:0:
227,65,93497,1,8,3:0:0:0:
260,68,93578,1,4,3:0:0:0:
288,86,93659,1,4,3:0:0:0:
305,115,93741,1,8,3:0:0:0:
314,158,93822,1,8,3:0:0:0:
341,194,93903,1,4,3:0:0:0:
380,215,93984,1,4,3:0:0:0:
425,218,94065,5,8,3:0:0:0:
464,197,94146,1,8,3:0:0:0:
490,161,94227,1,4,3:0:0:0:
495,117,94308,1,4,3:0:0:0:
478,75,94389,1,8,3:0:0:0:
449,40,94470,1,8,3:0:0:0:
408,24,94551,1,4,3:0:0:0:
364,31,94632,1,4,3:0:0:0:
331,53,94714,5,8,3:0:0:0:
301,78,94795,1,8,3:0:0:0:
267,95,94876,1,4,3:0:0:0:
228,101,94957,1,4,3:0:0:0:
190,96,95038,1,8,3:0:0:0:
153,85,95119,1,8,3:0:0:0:
115,94,95200,1,4,3:0:0:0:
86,118,95281,1,4,3:0:0:0:
72,153,95362,5,8,3:0:0:0:
74,191,95443,1,8,3:0:0:0:
94,224,95524,1,4,3:0:0:0:
127,243,95605,1,4,3:0:0:0:
162,241,95687,2,0,L|200:228,6,22.5
225,173,96011,5,6,3:1:0:0:
276,175,96092,1,4,3:0:0:0:
321,178,96173,1,4,3:0:0:0:
366,181,96254,1,4,3:0:0:0:
411,184,96335,6,0,P|386:107|416:45,1,107.999996704102,4|4,0:0|3:0,0:0:0:0:
485,43,96578,1,4,3:0:0:0:
485,43,96660,1,8,3:0:0:0:
483,256,96822,1,4,3:0:0:0:
281,128,96984,2,0,L|134:107,1,107.999996704102,8|4,3:0|3:0,0:0:0:0:
96,48,97227,1,4,3:0:0:0:
96,48,97308,1,8,3:0:0:0:
114,244,97470,1,4,3:0:0:0:
281,128,97633,6,0,P|249:198|276:262,1,107.999996704102,8|4,3:0|3:0,0:0:0:0:
346,201,97876,1,4,3:0:0:0:
346,201,97957,1,8,3:0:0:0:
176,88,98119,1,0,0:0:0:0:
113,280,98281,2,0,L|117:157,1,107.999996704102,8|4,3:0|3:0,0:0:0:0:
176,88,98524,1,4,3:0:0:0:
176,88,98606,1,8,3:0:0:0:
218,307,98768,1,4,3:0:0:0:
385,200,98930,6,0,P|317:186|266:209,1,107.999996704102,8|0,3:0|0:0,0:0:0:0:
176,88,99173,2,0,P|244:102|295:79,1,107.999996704102,8|0,3:0|0:0,0:0:0:0:
365,27,99416,2,0,L|445:19,1,53.9999983520508,4|0,3:0|0:0,0:0:0:0:
470,119,99578,2,0,L|362:107,1,107.999996704102,8|0,3:0|0:0,0:0:0:0:
282,197,99822,2,0,L|174:209,1,107.999996704102,8|0,3:0|0:0,0:0:0:0:
92,138,100065,2,0,P|90:109|92:77,1,53.9999983520508,4|0,3:0|0:0,0:0:0:0:
174,208,100227,6,0,P|146:268|106:296,1,107.999996704102,8|0,3:0|0:0,0:0:0:0:
11,282,100470,2,0,P|76:275|121:296,1,107.999996704102,8|0,3:0|0:0,0:0:0:0:
238,363,100714,2,0,L|184:355,1,53.9999983520508,4|0,3:0|0:0,0:0:0:0:
174,208,100876,1,8,3:0:0:0:
54,356,101038,1,8,3:0:0:0:
251,262,101200,1,6,3:1:0:0:
291,258,101281,1,4,3:0:0:0:
331,254,101362,1,4,3:0:0:0:
371,250,101443,1,4,3:0:0:0:
412,246,101524,6,0,B|397:186|397:186|412:138,1,107.999996704102,8|4,3:0|3:0,0:0:0:0:
488,72,101768,1,4,3:0:0:0:
488,72,101849,1,8,3:0:0:0:
492,255,102011,1,4,3:0:0:0:
390,74,102173,2,0,P|305:66|259:71,1,107.999996704102,8|4,3:0|3:0,0:0:0:0:
212,159,102416,1,4,3:0:0:0:
212,159,102497,1,8,3:0:0:0:
183,13,102660,1,4,3:0:0:0:
346,164,102822,6,0,P|363:220|344:272,1,107.999996704102,4|0,0:0|0:0,0:0:0:0:
188,266,103065,2,0,P|227:223|282:213,1,107.999996704102,8|0,3:0|0:0,0:0:0:0:
281,352,103308,2,0,L|268:295,1,53.9999983520508,4|0,3:0|0:0,0:0:0:0:
201,146,103470,1,8,3:0:0:0:
274,212,103633,1,8,3:0:0:0:
107,293,103795,2,0,L|-15:277,1,107.999996704102,14|0,0:1|0:0,0:0:0:0:
235,145,104119,6,0,P|299:171|357:164,1,107.999996704102,4|4,0:0|3:0,0:0:0:0:
315,44,104443,1,8,3:0:0:0:
166,188,104606,1,4,3:0:0:0:
177,227,104687,1,4,3:0:0:0:
188,266,104768,1,8,3:0:0:0:
322,333,104930,1,8,3:0:0:0:
300,163,105092,1,4,3:0:0:0:
218,338,105254,1,4,3:0:0:0:
385,208,105416,5,8,3:0:0:0:
395,169,105497,1,8,3:0:0:0:
389,129,105578,1,0,3:0:0:0:
367,95,105659,1,0,3:0:0:0:
333,73,105740,1,8,3:0:0:0:
294,67,105821,1,8,3:0:0:0:
255,78,105902,1,0,3:0:0:0:
224,104,105983,1,0,3:0:0:0:
206,140,106065,5,8,3:0:0:0:
180,194,106146,1,8,3:0:0:0:
127,221,106227,1,0,3:0:0:0:
68,211,106308,1,0,3:0:0:0:
27,168,106389,1,10,3:1:0:0:
20,109,106470,1,8,3:0:0:0:
49,57,106551,1,2,3:1:0:0:
104,34,106632,1,0,3:0:0:0:
162,47,106714,6,0,P|215:80|288:64,1,107.999996704102,4|4,0:0|3:0,0:0:0:0:
352,44,106957,1,4,3:0:0:0:
352,44,107038,1,8,3:0:0:0:
354,244,107200,1,4,3:0:0:0:
156,158,107362,2,0,L|274:153,1,107.999996704102,8|4,3:0|3:0,0:0:0:0:
366,117,107606,1,4,3:0:0:0:
366,117,107687,1,8,3:0:0:0:
348,319,107849,1,4,3:0:0:0:
263,153,108011,6,0,B|278:206|278:206|260:277,1,107.999996704102,8|4,3:0|3:0,0:0:0:0:
177,311,108254,1,4,3:0:0:0:
177,311,108335,1,8,3:0:0:0:
187,120,108497,1,4,3:0:0:0:
263,336,108660,2,0,L|374:319,1,107.999996704102,8|4,3:0|3:0,0:0:0:0:
446,218,108903,1,4,3:0:0:0:
446,218,108984,1,8,3:0:0:0:
468,344,109146,1,4,3:0:0:0:
328,220,109308,6,0,P|310:138|342:90,1,107.999996704102,4|0,0:0|0:0,0:0:0:0:
193,29,109551,2,0,P|211:111|179:159,1,107.999996704102,8|0,3:0|0:0,0:0:0:0:
63,98,109795,2,0,L|155:85,1,53.9999983520508,4|0,3:0|0:0,0:0:0:0:
211,223,109957,2,0,L|101:209,1,107.999996704102,8|0,3:0|0:0,0:0:0:0:
0,308,110200,2,0,P|57:297|109:321,1,107.999996704102,8|0,3:0|0:0,0:0:0:0:
201,349,110443,2,0,L|299:331,1,53.9999983520508,4|0,3:0|0:0,0:0:0:0:
295,179,110606,6,0,P|287:241|326:285,1,107.999996704102,8|0,3:0|0:0,0:0:0:0:
366,136,110849,2,0,P|316:98|258:109,1,107.999996704102,8|0,3:0|0:0,0:0:0:0:
368,215,111092,2,0,L|455:218,1,53.9999983520508,4|0,3:0|0:0,0:0:0:0:
488,141,111254,1,8,3:0:0:0:
431,311,111416,1,4,3:0:0:0:
388,317,111497,1,4,3:0:0:0:
345,323,111578,1,10,3:1:0:0:
419,197,111741,1,4,3:0:0:0:
226,107,111903,5,8,3:0:0:0:
200,98,111984,1,8,3:0:0:0:
174,105,112065,1,4,3:0:0:0:
156,124,112146,1,4,3:0:0:0:
150,150,112227,1,10,3:0:0:0:
158,175,112308,1,8,3:0:0:0:
179,192,112389,1,6,3:1:0:0:
205,195,112470,1,4,3:0:0:0:
230,184,112551,5,8,3:0:0:0:
260,171,112632,1,8,3:0:0:0:
294,173,112713,1,6,3:0:0:0:
322,191,112794,1,4,3:0:0:0:
338,220,112875,1,10,3:1:0:0:
340,254,112956,1,8,3:0:0:0:
326,284,113037,1,4,3:0:0:0:
299,304,113118,1,4,3:0:0:0:
266,309,113200,5,10,3:0:0:0:
247,274,113281,1,8,3:0:0:0:
244,234,113362,1,4,3:0:0:0:
257,196,113443,1,4,3:0:0:0:
284,166,113524,1,10,3:0:0:0:
321,149,113605,1,8,3:0:0:0:
361,149,113686,1,4,3:0:0:0:
398,164,113767,1,4,3:0:0:0:
426,193,113849,5,10,3:0:0:0:
393,204,113930,1,8,3:0:0:0:
357,199,114011,1,4,3:0:0:0:
328,179,114092,1,4,3:0:0:0:
310,148,114173,1,10,3:0:0:0:
308,113,114254,1,8,3:0:0:0:
321,80,114335,1,4,3:0:0:0:
348,56,114416,1,4,3:0:0:0:
382,47,114497,5,8,3:0:0:0:
417,54,114578,1,4,3:0:0:0:
456,91,114659,1,8,3:0:0:0:
463,143,114740,1,4,3:0:0:0:
438,190,114822,1,10,3:1:0:0:
412,236,114903,1,4,3:0:0:0:
420,288,114984,1,8,3:0:0:0:
458,325,115065,1,4,3:0:0:0:
493,332,115146,5,8,3:0:0:0:
475,255,115227,1,4,3:0:0:0:
405,218,115308,1,10,3:1:0:0:
332,245,115389,1,4,3:0:0:0:
304,318,115470,1,10,3:1:0:0:
228,343,115551,1,4,3:0:0:0:
156,311,115632,1,10,3:0:0:0:
123,239,115713,1,4,3:0:0:0:
147,163,115795,6,0,L|263:157,1,107.999996704102,8|4,3:0|3:0,0:0:0:0:
315,89,116038,1,4,3:0:0:0:
315,89,116119,2,0,L|430:95,1,107.999996704102,8|4,3:0|3:0,0:0:0:0:
459,178,116362,1,4,3:0:0:0:
459,178,116443,2,0,P|435:246|454:286,1,107.999996704102,8|4,3:0|3:0,0:0:0:0:
390,342,116687,1,4,3:0:0:0:
390,342,116768,2,0,L|321:337,1,53.9999983520508,10|0,3:1|0:0,0:0:0:0:
207,222,116930,2,0,L|276:217,1,53.9999983520508,8|0,3:0|0:0,0:0:0:0:
198,331,117092,5,4,0:0:0:0:
304,222,127470,6,0,L|297:334,1,107.999996704102,2|0,0:0|0:0,0:0:0:0:
145,157,128119,2,0,P|206:134|283:144,1,107.999996704102,2|0,0:0|0:0,0:0:0:0:
83,231,128768,2,0,P|49:189|51:117,2,107.999996704102,2|2|0,0:0|0:0|0:0,0:0:0:0:
171,285,129578,1,0,3:0:0:0:
250,211,129741,2,0,L|325:206,1,53.9999983520508,8|0,3:0|3:0,0:0:0:0:
244,86,130065,6,0,B|193:74|193:74|121:90,1,107.999996704102,4|0,0:0|0:0,0:0:0:0:
139,262,130714,2,0,B|190:274|190:274|262:258,1,107.999996704102,4|0,0:0|0:0,0:0:0:0:
306,107,131362,1,4,3:0:0:0:
321,304,131687,1,4,3:0:0:0:
170,136,132011,2,0,L|173:94,2,35.9999989013672,8|8|8,3:0|3:0|3:0,0:0:0:0:
65,239,132335,2,0,L|62:197,2,35.9999989013672,8|8|8,3:0|3:0|3:0,0:0:0:0:
226,276,132660,6,0,P|283:229|216:261,1,215.999993408203,4|0,0:0|0:0,0:0:0:0:
226,276,134281,1,4,3:0:0:0:
274,133,134606,2,0,P|301:127|318:126,2,35.9999989013672,8|8|8,3:0|3:0|3:0,0:0:0:0:
154,189,134930,2,0,P|127:183|110:182,2,35.9999989013672,8|8|8,3:0|3:0|3:0,0:0:0:0:
252,328,135254,5,0,3:0:0:0:
200,106,135416,1,8,3:0:0:0:
200,106,135741,5,4,3:0:0:0:
441,303,135903,1,8,3:0:0:0:
441,303,136227,5,4,3:0:0:0:
171,269,136389,1,8,3:0:0:0:
171,269,136714,5,4,3:0:0:0:
403,108,136876,1,8,3:0:0:0:
188,106,137200,6,0,L|181:167,2,35.9999989013672,8|8|8,3:0|3:0|3:0,0:0:0:0:
312,196,137524,2,0,L|319:257,2,35.9999989013672,8|8|8,3:0|3:0|3:0,0:0:0:0:
283,82,137849,5,4,3:0:0:0:
246,297,138006,1,8,3:0:0:0:
246,297,138322,5,4,3:0:0:0:
174,87,138480,1,8,3:0:0:0:
174,87,138796,5,4,3:0:0:0:
328,251,138953,1,8,3:0:0:0:
276,101,139112,6,0,P|263:141|279:197,1,72,4|8,3:0|3:0,0:0:0:0:
346,146,139427,1,8,0:0:0:0:
346,146,139743,5,8,3:0:0:0:
323,144,139821,1,4,3:0:0:0:
301,143,139900,1,8,3:0:0:0:
278,142,139979,1,4,3:0:0:0:
256,140,140058,1,4,0:0:0:0:
300,240,140217,1,4,3:0:0:0:
290,35,140375,5,8,3:0:0:0:
220,278,140533,1,4,3:0:0:0:
220,278,140849,5,8,3:0:0:0:
98,57,141007,1,4,3:0:0:0:
98,57,141322,5,8,3:0:0:0:
341,128,141480,1,4,3:0:0:0:
200,144,141638,6,0,L|104:135,1,72,4|8,3:0|3:0,0:0:0:0:
262,285,141954,2,0,L|359:273,1,72,4|8,3:0|3:0,0:0:0:0:
197,153,142270,2,0,P|186:199|201:234,1,72,4|8,3:0|3:0,0:0:0:0:
274,110,142585,1,4,3:0:0:0:
262,91,142663,1,4,3:0:0:0:
245,76,142742,1,4,3:0:0:0:
224,67,142821,1,4,3:0:0:0:
202,65,142901,6,0,P|137:86|85:75,1,90,4|0,0:0|0:0,0:0:0:0:
6,206,143217,2,0,L|123:219,1,90,4|8,3:0|3:0,0:0:0:0:
246,201,143533,1,8,3:0:0:0:
270,178,143611,1,8,3:0:0:0:
303,172,143690,1,4,3:0:0:0:
333,185,143769,1,4,3:0:0:0:
351,213,143848,5,8,3:0:0:0:
351,246,143927,1,8,3:0:0:0:
333,274,144006,1,4,3:0:0:0:
302,287,144085,1,4,3:0:0:0:
269,281,144164,6,0,P|231:265|205:263,1,45,8|0,3:0|3:0,0:0:0:0:
139,293,144322,1,4,3:0:0:0:
94,299,144400,1,4,3:0:0:0:
53,281,144479,1,8,3:0:0:0:
28,245,144558,1,8,3:0:0:0:
26,200,144637,1,4,3:0:0:0:
49,162,144716,1,4,3:0:0:0:
88,142,144796,2,0,L|87:89,2,45,2|2|2,0:0|0:0|0:0,0:0:0:0:
228,254,145112,1,4,3:0:0:0:
193,64,145270,6,0,P|176:126|194:174,1,90,4|0,0:0|0:0,0:0:0:0:
344,284,145585,1,8,3:0:0:0:
351,247,145663,1,8,3:0:0:0:
336,213,145742,1,6,3:0:0:0:
305,193,145821,1,4,3:0:0:0:
268,195,145900,1,8,3:0:0:0:
238,218,145979,1,8,3:0:0:0:
228,254,146059,5,6,3:0:0:0:
195,284,146137,1,4,3:0:0:0:
152,294,146216,1,10,3:0:0:0:
109,282,146295,1,8,3:0:0:0:
78,249,146374,1,6,3:0:0:0:
68,206,146453,1,4,3:0:0:0:
80,163,146532,1,8,3:0:0:0:
111,132,146611,1,8,3:0:0:0:
154,121,146691,5,4,3:0:0:0:
127,156,146769,1,4,3:0:0:0:
85,170,146848,1,4,3:0:0:0:
43,158,146927,1,4,3:0:0:0:
14,124,147006,1,10,3:0:0:0:
10,80,147085,1,8,3:0:0:0:
31,41,147164,1,8,3:0:0:0:
70,20,147243,1,8,3:0:0:0:
114,25,147322,5,10,3:0:0:0:
153,46,147400,1,8,3:0:0:0:
171,87,147480,1,10,3:0:0:0:
177,131,147558,1,8,3:0:0:0:
205,165,147637,1,6,3:0:0:0:
247,180,147716,1,4,3:0:0:0:
290,170,147797,6,0,P|338:140|408:144,1,90,4|4,0:0|3:0,0:0:0:0:
318,264,148112,1,8,3:0:0:0:
253,102,148270,2,0,L|261:4,1,90,4|0,3:0|0:0,0:0:0:0:
133,121,148585,1,8,3:0:0:0:
135,154,148663,1,8,3:0:0:0:
138,188,148742,1,4,3:0:0:0:
141,221,148821,1,4,3:0:0:0:
143,255,148901,5,8,3:0:0:0:
182,235,148979,1,8,3:0:0:0:
227,236,149058,1,4,3:0:0:0:
265,259,149137,1,4,3:0:0:0:
288,297,149217,6,0,L|382:290,1,90,8|4,3:0|3:0,0:0:0:0:
476,148,149533,1,8,3:0:0:0:
480,103,149611,1,8,3:0:0:0:
457,65,149690,1,4,3:0:0:0:
417,47,149769,1,4,3:0:0:0:
373,56,149849,5,8,3:0:0:0:
343,89,149927,1,8,3:0:0:0:
338,132,150006,1,4,3:0:0:0:
359,171,150085,1,4,3:0:0:0:
399,191,150164,5,8,3:0:0:0:
426,211,150242,1,8,3:0:0:0:
442,240,150321,1,4,3:0:0:0:
445,274,150400,1,4,3:0:0:0:
434,305,150480,6,0,L|321:291,1,90,4|4,0:0|3:0,0:0:0:0:
164,217,150796,1,8,3:0:0:0:
149,194,150874,1,8,3:0:0:0:
146,167,150953,1,4,3:0:0:0:
156,143,151032,1,4,3:0:0:0:
176,125,151111,5,8,3:0:0:0:
202,119,151190,1,8,3:0:0:0:
228,125,151269,1,4,3:0:0:0:
248,143,151348,1,4,3:0:0:0:
258,167,151427,1,8,3:0:0:0:
256,194,151506,1,8,3:0:0:0:
239,217,151585,6,0,P|224:268|328:324,1,180,4|0,0:0|0:0,0:0:0:0:
375,173,152059,2,0,L|366:233,3,45,4|4|4|4,3:0|3:0|3:0|3:0,0:0:0:0:
319,89,152375,2,0,P|392:77|476:169,1,180,4|0,0:0|0:0,0:0:0:0:
242,197,152849,6,0,L|40:180,1,180,4|0,0:0|0:0,0:0:0:0:
285,50,153322,2,0,P|298:104|292:142,1,90,4|8,3:0|3:0,0:0:0:0:
241,282,153638,2,0,B|228:235|228:235|248:177,1,90,4|8,3:0|3:0,0:0:0:0:
199,118,153875,1,4,3:0:0:0:
199,118,153954,6,0,L|135:111,1,45,4|0,3:0|0:0,0:0:0:0:
79,223,154112,2,0,L|143:216,1,45,4|0,3:0|0:0,0:0:0:0:
79,65,154270,2,0,P|70:123|75:143,1,45,4|0,3:0|0:0,0:0:0:0:
229,194,154427,6,0,L|295:182,1,45,8|0,3:0|3:0,0:0:0:0:
282,64,154585,2,0,L|259:127,1,45,8|0,3:0|3:0,0:0:0:0:
368,174,154743,2,0,L|324:122,1,45,8|0,3:0|3:0,0:0:0:0:
337,254,154901,6,0,P|390:260|415:251,1,45,4|0,3:0|3:0,0:0:0:0:
251,271,155059,2,0,P|219:313|214:340,1,45,4|0,3:0|3:0,0:0:0:0:
279,188,155217,2,0,P|257:139|237:121,1,45,4|0,3:0|3:0,0:0:0:0:
143,210,155375,2,0,L|208:215,1,45,4|0,3:0|3:0,0:0:0:0:
261,145,155533,5,8,3:0:0:0:
284,121,155612,1,8,3:0:0:0:
291,89,155691,1,4,3:0:0:0:
282,57,155770,1,4,3:0:0:0:
258,34,155849,1,8,3:0:0:0:
225,26,155928,1,8,3:0:0:0:
193,36,156007,1,4,3:0:0:0:
170,60,156086,1,4,3:0:0:0:
163,93,156164,5,8,3:0:0:0:
158,131,156242,1,8,3:0:0:0:
133,160,156321,1,4,3:0:0:0:
95,170,156400,1,4,3:0:0:0:
59,158,156479,1,8,3:0:0:0:
35,127,156558,1,8,3:0:0:0:
34,88,156637,1,4,3:0:0:0:
54,55,156716,1,4,3:0:0:0:
89,39,156796,6,0,L|164:34,1,60,4|0,0:0|0:0,0:0:0:0:
129,220,157006,2,0,L|95:170,1,60,4|0,0:0|0:0,0:0:0:0:
265,96,157217,2,0,L|232:163,1,60,8|0,3:0|0:0,0:0:0:0:
254,338,157427,2,0,P|230:274|252:217,1,90,4|0,0:0|0:0,0:0:0:0:
447,279,157743,1,4,3:0:0:0:
413,279,157821,1,4,3:0:0:0:
379,279,157900,1,4,3:0:0:0:
345,279,157979,1,4,3:0:0:0:
312,279,158058,5,8,3:0:0:0:
431,68,158217,1,12,3:0:0:0:
430,68,158533,5,8,3:0:0:0:
231,215,158691,1,12,3:0:0:0:
231,215,159006,5,8,3:0:0:0:
505,184,159164,1,12,3:0:0:0:
505,184,159480,5,8,3:0:0:0:
241,100,159638,1,12,3:0:0:0:
241,100,159954,5,4,3:0:0:0:
272,88,160032,1,4,3:0:0:0:
305,89,160111,1,4,3:0:0:0:
336,103,160190,1,4,3:0:0:0:
359,127,160269,1,4,0:0:0:0:
359,127,160585,5,8,3:0:0:0:
190,328,160743,1,12,3:0:0:0:
190,328,161059,5,8,3:0:0:0:
224,71,161217,1,12,3:0:0:0:
224,71,161533,5,8,3:0:0:0:
295,330,161691,1,12,3:0:0:0:
174,165,161849,6,0,P|103:155|39:166,1,90,4|8,3:0|3:0,0:0:0:0:
263,149,162164,2,0,P|303:129|339:102,1,90,4|8,3:0|3:0,0:0:0:0:
223,330,162480,6,0,L|212:236,1,60,8|0,3:0|0:0,0:0:0:0:
346,287,162691,2,0,P|320:355|300:374,1,60,8|0,3:0|0:0,0:0:0:0:
259,185,162901,2,0,L|340:194,1,60,4|0,3:0|0:0,0:0:0:0:
374,57,163112,6,0,P|394:113|446:147,1,90,4|0,0:0|0:0,0:0:0:0:
259,185,163427,2,0,L|360:194,1,90,4|0,3:0|0:0,0:0:0:0:
206,253,163743,1,8,3:0:0:0:
184,227,163821,1,8,3:0:0:0:
174,195,163900,1,4,3:0:0:0:
177,161,163979,1,4,3:0:0:0:
192,131,164058,1,8,3:0:0:0:
217,109,164137,1,8,3:0:0:0:
249,99,164217,2,0,P|290:95|321:99,1,45,4|0,3:0|3:0,0:0:0:0:
364,166,164375,5,8,3:0:0:0:
392,182,164453,1,8,3:0:0:0:
426,182,164532,1,4,3:0:0:0:
454,164,164611,1,4,3:0:0:0:
468,134,164690,1,8,3:0:0:0:
464,100,164769,1,8,3:0:0:0:
444,74,164848,1,4,3:0:0:0:
413,62,164927,1,4,0:0:0:0:
380,68,165006,2,0,L|381:17,2,45,2|2|2,0:0|0:0|0:0,0:0:0:0:
364,166,165322,1,4,3:0:0:0:
181,125,165480,6,0,P|248:91|292:104,1,90,4|0,0:0|0:0,0:0:0:0:
111,206,165796,1,8,3:0:0:0:
79,207,165874,1,8,3:0:0:0:
48,197,165953,1,4,3:0:0:0:
23,177,166032,1,4,3:0:0:0:
7,150,166111,1,0,0:0:0:0:
1,118,166190,1,8,3:0:0:0:
6,87,166269,1,4,3:0:0:0:
22,59,166348,5,6,3:0:0:0:
47,39,166427,1,8,3:0:0:0:
77,29,166506,1,8,3:0:0:0:
109,30,166585,1,4,3:0:0:0:
139,42,166664,1,4,3:0:0:0:
162,64,166743,1,8,3:0:0:0:
177,92,166822,1,8,3:0:0:0:
180,124,166901,5,6,3:0:0:0:
171,151,166979,1,4,3:0:0:0:
175,178,167058,1,8,3:0:0:0:
191,201,167137,1,8,3:0:0:0:
216,214,167216,1,4,3:0:0:0:
244,214,167295,1,4,3:0:0:0:
269,202,167374,1,8,3:0:0:0:
286,180,167453,1,8,3:0:0:0:
291,153,167533,6,0,L|282:90,1,60,4|0,3:0|0:0,0:0:0:0:
140,218,167743,2,0,L|199:241,1,60,4|0,3:0|0:0,0:0:0:0:
159,54,167954,2,0,L|108:93,1,60,4|0,3:0|0:0,0:0:0:0:
291,153,168164,6,0,P|371:130|454:188,1,180,4|0,0:0|0:0,0:0:0:0:
352,310,168638,1,4,3:0:0:0:
352,310,168717,1,4,3:0:0:0:
352,310,168796,2,0,L|230:303,1,90,8|8,3:0|0:0,0:0:0:0:
104,200,169112,1,8,3:0:0:0:
124,189,169190,1,8,3:0:0:0:
145,184,169269,1,4,3:0:0:0:
168,184,169348,1,4,3:0:0:0:
191,191,169427,5,8,3:0:0:0:
215,209,169505,1,8,3:0:0:0:
244,218,169584,1,8,3:0:0:0:
275,218,169663,1,8,3:0:0:0:
304,208,169742,1,4,3:0:0:0:
328,189,169821,1,4,3:0:0:0:
345,163,169900,1,4,3:0:0:0:
353,133,169979,1,4,3:0:0:0:
350,102,170059,5,8,3:0:0:0:
338,74,170137,1,8,3:0:0:0:
317,51,170216,1,4,3:0:0:0:
291,36,170295,1,4,3:0:0:0:
260,31,170374,1,8,3:0:0:0:
230,35,170453,1,8,3:0:0:0:
202,49,170532,1,4,3:0:0:0:
181,71,170611,1,4,3:0:0:0:
168,99,170691,6,0,L|154:33,3,45,4|8|4|4,0:0|3:0|3:0|3:0,0:0:0:0:
77,166,171006,2,0,L|91:100,3,45,8|8|4|4,3:0|3:0|3:0|3:0,0:0:0:0:
141,244,171322,1,8,3:0:0:0:
166,222,171400,1,8,3:0:0:0:
199,216,171479,1,4,3:0:0:0:
230,229,171558,1,4,3:0:0:0:
250,255,171637,1,8,3:0:0:0:
253,289,171716,1,8,3:0:0:0:
238,319,171795,1,4,3:0:0:0:
210,337,171874,1,4,3:0:0:0:
177,338,171954,6,0,L|102:329,4,45,4|4|4|4|4,0:0|3:0|3:0|3:0|3:0,0:0:0:0:
277,190,172375,6,0,P|278:213|274:258,3,60,4|4|4|4,0:0|3:0|3:0|3:0,0:0:0:0:
186,98,172822,6,0,L|70:89,2,90,4|4|4,0:0|3:0|3:0,0:0:0:0:
276,115,173217,6,0,B|334:121|373:81|373:81|298:189|418:137|418:137|374:168|368:226,1,360,2|0,0:0|0:0,0:0:0:0:
191,138,174796,2,0,L|148:129,2,30,4|4|4,3:0|3:0|3:0,0:0:0:0:
264,115,175112,2,0,L|293:82,2,30,4|4|4,3:0|3:0|3:0,0:0:0:0:
247,189,175427,2,0,L|260:230,2,30,4|4|4,3:0|3:0|3:0,0:0:0:0:
193,52,175743,5,4,3:0:0:0:
180,288,175901,1,8,3:0:0:0:
180,288,176217,5,4,3:0:0:0:
296,84,176375,1,8,3:0:0:0:
296,84,176691,5,4,3:0:0:0:
50,226,176849,1,8,3:0:0:0:
50,226,177164,5,4,3:0:0:0:
324,220,177322,1,8,3:0:0:0:
179,66,177641,6,0,L|173:135,1,45,8|0,3:0|0:0,0:0:0:0:
205,218,177794,1,4,3:0:0:0:
226,215,177871,1,4,3:0:0:0:
247,212,177948,1,8,3:0:0:0:
274,177,178024,1,8,3:0:0:0:
315,159,178101,1,4,3:0:0:0:
359,162,178178,1,4,3:0:0:0:
397,186,178259,6,0,L|388:110,1,45,4|0,0:0|0:0,0:0:0:0:
331,257,178412,2,0,L|336:301,1,45,4|0,3:0|0:0,0:0:0:0:
242,188,178566,2,0,L|236:143,1,45,8|0,3:0|0:0,0:0:0:0:
152,231,178720,6,0,P|175:275|106:335,1,135,4|0,3:0|0:0,0:0:0:0:
68,152,179028,2,0,B|85:167|85:195|85:195|113:145|184:157,1,135,4|0,3:0|0:0,0:0:0:0:
255,118,179335,6,0,L|343:124,1,45,8|0,3:0|0:0,0:0:0:0:
392,183,179489,1,8,3:0:0:0:
190,255,179643,6,0,L|196:167,1,45,8|0,3:0|0:0,0:0:0:0:
255,118,179797,1,8,3:0:0:0:
327,320,179951,6,0,L|239:314,1,45,8|0,3:0|0:0,0:0:0:0:
190,255,180105,1,8,3:0:0:0:
392,183,180259,6,0,L|386:271,1,45,2|0,1:0|0:0,0:0:0:0:
327,320,180412,1,8,0:0:0:0:
297,304,180488,1,8,3:0:0:0:
264,296,180565,1,4,3:0:0:0:
230,297,180642,1,4,3:0:0:0:
198,307,180720,6,0,L|206:240,1,45,4|0,3:0|0:0,0:0:0:0:
141,153,180874,2,0,L|195:193,1,45,4|0,3:0|0:0,0:0:0:0:
302,180,181028,2,0,L|239:206,1,45,8|0,3:0|0:0,0:0:0:0:
64,271,181182,6,0,B|46:235|71:196|71:196|33:174|35:117,1,135,4|0,3:0|0:0,0:0:0:0:
129,238,181489,2,0,P|135:298|59:341,1,135,4|0,3:0|0:0,0:0:0:0:
113,135,181797,6,0,L|170:119,1,45,8|0,3:0|0:0,0:0:0:0:
216,47,181951,1,8,3:0:0:0:
366,213,182105,6,0,L|309:197,1,45,8|0,3:0|0:0,0:0:0:0:
263,125,182259,1,8,3:0:0:0:
99,288,182412,6,0,L|156:272,1,45,8|0,3:0|0:0,0:0:0:0:
202,200,182566,1,8,3:0:0:0:
352,366,182720,6,0,L|295:350,1,45,8|0,3:0|0:0,0:0:0:0:
249,278,182874,1,8,0:0:0:0:
383,192,183028,1,4,3:0:0:0:
183,308,183182,5,8,3:0:0:0:
150,313,183258,1,4,3:0:0:0:
117,305,183335,1,8,3:0:0:0:
91,283,183412,1,4,3:0:0:0:
77,253,183489,1,4,0:0:0:0:
276,113,183643,5,4,3:0:0:0:
274,142,183720,1,4,3:0:0:0:
272,171,183797,1,8,3:0:0:0:
311,312,183951,1,8,3:0:0:0:
189,140,184105,1,4,3:0:0:0:
370,230,184259,6,0,P|421:222|454:199,1,90,4|0,3:0|0:0,0:0:0:0:
372,99,184566,1,4,3:0:0:0:
429,291,184719,1,8,3:0:0:0:
282,166,184874,2,0,P|244:142|199:136,1,90,4|0,3:0|0:0,0:0:0:0:
225,325,185182,1,4,3:0:0:0:
282,166,185335,1,8,0:0:0:0:
381,286,185489,1,4,3:0:0:0:
188,163,185643,5,4,3:0:0:0:
177,138,185719,1,4,3:0:0:0:
177,111,185796,1,4,3:0:0:0:
190,88,185873,1,4,3:0:0:0:
211,71,185950,1,8,3:0:0:0:
237,66,186027,1,8,3:0:0:0:
263,73,186104,1,4,3:0:0:0:
284,90,186181,1,4,3:0:0:0:
294,115,186258,5,8,3:0:0:0:
293,142,186335,1,8,3:0:0:0:
281,165,186412,2,0,L|227:161,1,45,4|0,3:0|3:0,0:0:0:0:
131,255,186566,2,0,L|185:250,1,45,4|0,3:0|3:0,0:0:0:0:
291,329,186720,2,0,L|236:324,1,45,4|0,3:0|3:0,0:0:0:0:
131,255,186874,5,8,3:0:0:0:
152,236,186950,1,8,3:0:0:0:
163,211,187027,1,8,3:0:0:0:
163,183,187104,1,8,3:0:0:0:
151,158,187181,1,4,3:0:0:0:
129,141,187258,1,4,3:0:0:0:
102,134,187335,2,0,L|50:132,1,45,4|0,3:0|3:0,0:0:0:0:
181,64,187489,5,8,3:0:0:0:
212,51,187565,1,8,3:0:0:0:
245,51,187642,1,4,3:0:0:0:
277,62,187719,1,4,3:0:0:0:
303,83,187796,1,8,3:0:0:0:
320,112,187873,1,8,3:0:0:0:
326,145,187950,1,4,3:0:0:0:
320,178,188027,1,4,3:0:0:0:
302,207,188105,6,0,L|230:211,1,45,4|0,3:0|0:0,0:0:0:0:
163,280,188259,2,0,L|195:215,1,45,4|0,3:0|0:0,0:0:0:0:
170,124,188412,2,0,L|209:184,1,45,8|0,3:0|0:0,0:0:0:0:
248,285,188566,6,0,P|310:257|384:278,1,135,8|0,3:0|0:0,0:0:0:0:
417,68,188874,2,0,B|393:133|393:133|424:217,1,135,8|0,3:0|0:0,0:0:0:0:
322,337,189182,6,0,P|299:352|257:358,1,45,8|0,3:0|0:0,0:0:0:0:
158,311,189335,1,8,3:0:0:0:
348,173,189489,6,0,P|363:196|369:238,1,45,8|0,3:0|0:0,0:0:0:0:
322,337,189642,1,8,3:0:0:0:
184,147,189797,6,0,P|207:132|254:126,1,45,8|0,3:0|0:0,0:0:0:0:
348,173,189950,1,8,3:0:0:0:
158,311,190105,6,0,P|143:288|137:236,1,45,2|0,1:0|0:0,0:0:0:0:
184,147,190259,1,8,0:0:0:0:
195,104,190335,1,8,3:0:0:0:
175,65,190412,1,4,3:0:0:0:
134,48,190489,1,4,3:0:0:0:
93,63,190566,6,0,L|25:53,1,45,4|0,3:0|0:0,0:0:0:0:
0,192,190720,2,0,L|68:182,1,45,4|0,3:0|0:0,0:0:0:0:
110,300,190874,2,0,L|42:290,1,45,8|0,3:0|0:0,0:0:0:0:
174,202,191028,6,0,P|271:175|296:194,1,135,8|0,3:0|0:0,0:0:0:0:
256,322,191335,2,0,B|214:329|214:329|243:229,1,135,8|0,3:0|0:0,0:0:0:0:
361,245,191643,6,0,P|375:214|372:185,1,45,12|0,3:0|0:0,0:0:0:0:
333,106,191797,1,12,3:0:0:0:
255,225,191951,6,0,P|286:213|305:191,1,45,12|0,3:0|0:0,0:0:0:0:
333,106,192105,1,12,3:0:0:0:
194,134,192259,6,0,P|224:148|253:145,1,45,12|0,3:0|0:0,0:0:0:0:
333,106,192413,1,12,3:0:0:0:
214,28,192567,6,0,P|225:59|247:78,1,45,12|0,3:0|0:0,0:0:0:0:
333,106,192721,1,12,0:0:0:0:
195,163,192874,1,4,3:0:0:0:
172,160,192951,1,4,3:0:0:0:
151,156,193028,6,0,L|155:109,1,45,8|0,3:0|0:0,0:0:0:0:
69,161,193182,2,0,L|83:267,1,90,4|8,3:0|3:0,0:0:0:0:
238,313,193489,1,4,3:0:0:0:
238,313,193566,2,0,P|302:294|331:297,1,90,8|0,3:0|0:0,0:0:0:0:
357,178,193797,2,0,P|353:233|357:244,1,45,4|0,3:0|0:0,0:0:0:0:
466,178,193951,2,0,P|420:147|408:144,1,45,4|0,3:0|0:0,0:0:0:0:
411,272,194105,2,0,P|460:247|468:239,1,45,8|0,3:0|0:0,0:0:0:0:
367,100,194259,6,0,L|243:88,1,90,4|0,3:0|0:0,0:0:0:0:
88,200,194566,1,8,3:0:0:0:
274,236,194720,1,8,3:0:0:0:
274,236,194797,2,0,P|331:219|372:231,1,90,8|0,3:0|0:0,0:0:0:0:
438,294,195028,2,0,L|386:286,1,45,4|0,3:0|0:0,0:0:0:0:
298,325,195182,2,0,L|330:283,1,45,4|0,3:0|0:0,0:0:0:0:
343,183,195335,2,0,L|362:232,1,45,4|0,3:0|0:0,0:0:0:0:
277,124,195489,6,0,P|322:98|381:105,1,90,4|8,3:0|3:0,0:0:0:0:
469,186,195797,1,4,3:0:0:0:
274,260,195951,1,4,3:0:0:0:
246,271,196027,1,4,3:0:0:0:
217,265,196104,1,8,3:0:0:0:
195,245,196181,1,8,3:0:0:0:
188,217,196258,1,4,3:0:0:0:
197,188,196335,1,4,3:0:0:0:
220,170,196412,2,0,L|217:140,6,22.5,10|2|2|2|2|2|2,0:0|0:0|0:0|0:0|0:0|0:0|0:0,0:0:0:0:
283,225,196720,5,8,3:0:0:0:
321,244,196796,1,8,3:0:0:0:
362,229,196873,1,4,3:0:0:0:
382,189,196950,1,4,3:0:0:0:
366,148,197028,5,8,3:0:0:0:
365,115,197104,1,8,3:0:0:0:
388,91,197181,1,4,3:0:0:0:
420,89,197258,1,4,3:0:0:0:
446,110,197335,5,8,3:0:0:0:
460,126,197411,1,8,3:0:0:0:
468,147,197488,1,4,3:0:0:0:
468,169,197565,1,4,3:0:0:0:
459,190,197643,5,8,3:0:0:0:
453,199,197719,1,8,3:0:0:0:
448,209,197796,1,4,3:0:0:0:
444,220,197873,1,4,3:0:0:0:
441,231,197951,6,0,L|356:225,1,80.9999975280763,0|0,3:0|0:0,0:0:0:0:
274,180,198259,6,0,P|338:169|342:251,1,135,4|0,0:0|0:0,0:0:0:0:
244,320,198566,1,4,3:0:0:0:
104,290,198720,1,4,3:0:0:0:
134,150,198874,1,8,0:0:0:0:
274,180,199028,6,0,P|312:226|410:207,1,135,4|0,3:0|0:0,0:0:0:0:
334,117,199335,2,0,B|310:90|263:87|263:87|286:74|342:71,1,135,4|0,3:0|0:0,0:0:0:0:
274,180,199643,2,0,L|210:173,1,45,4|4,3:0|3:0,0:0:0:0:
171,94,199797,1,8,3:0:0:0:
213,278,199951,1,8,3:0:0:0:
287,104,200105,1,12,0:0:0:0:
125,201,200258,1,4,3:0:0:0:
313,218,200412,6,0,B|402:206|402:206|359:250,1,135,4|0,3:0|0:0,0:0:0:0:
240,262,200720,2,0,P|228:218|295:134,1,135,4|0,0:0|0:0,0:0:0:0:
399,86,201028,1,4,3:0:0:0:
337,269,201182,1,4,3:0:0:0:
301,80,201335,1,8,0:0:0:0:
415,239,201489,6,0,P|477:213|501:212,1,90,4|8,3:0|3:0,0:0:0:0:
299,327,201797,2,0,L|232:320,1,45,4|0,3:0|0:0,0:0:0:0:
174,255,201951,1,8,0:0:0:0:
162,358,202105,1,4,3:0:0:0:
272,224,202259,1,8,3:0:0:0:
283,198,202335,1,8,3:0:0:0:
286,170,202412,1,4,3:0:0:0:
279,143,202489,1,4,3:0:0:0:
264,120,202566,5,8,3:0:0:0:
241,103,202643,1,8,3:0:0:0:
215,94,202720,1,4,3:0:0:0:
187,95,202797,1,4,3:0:0:0:
160,112,202874,6,0,P|113:135|54:129,1,90,4|0,3:0|3:0,0:0:0:0:
91,306,203182,2,0,L|142:301,1,45,6|0,0:1|0:0,0:0:0:0:
211,178,203335,2,0,L|262:183,1,45,10|0,3:1|0:0,0:0:0:0:
374,137,203489,2,0,P|336:120|306:119,1,45,6|0,3:1|0:0,0:0:0:0:
335,246,203643,6,0,P|368:221|384:196,1,45,4|0,3:0|0:0,0:0:0:0:
255,182,203797,2,0,L|211:178,1,45,4|0,3:0|0:0,0:0:0:0:
71,106,203951,2,0,L|115:101,1,45,4|0,3:0|0:0,0:0:0:0:
215,49,204105,5,8,3:0:0:0:
244,34,204181,1,8,3:0:0:0:
278,36,204258,1,4,3:0:0:0:
305,55,204335,1,4,3:0:0:0:
320,85,204412,1,8,3:0:0:0:
317,118,204489,1,8,3:0:0:0:
298,145,204566,1,4,3:0:0:0:
267,159,204643,1,4,3:0:0:0:
234,156,204720,5,8,3:0:0:0:
201,152,204796,1,8,3:0:0:0:
171,166,204873,1,4,3:0:0:0:
151,192,204950,1,4,3:0:0:0:
148,226,205027,1,8,3:0:0:0:
161,256,205104,1,8,3:0:0:0:
189,275,205181,1,4,3:0:0:0:
222,278,205258,1,4,3:0:0:0:
252,263,205335,5,4,3:0:0:0:
414,158,205489,1,0,3:0:0:0:
425,351,205643,2,0,P|372:362|305:349,1,90,4|8,0:0|3:0,0:0:0:0:
182,164,205951,5,4,3:0:0:0:
354,251,206105,1,4,3:0:0:0:
190,356,206259,1,4,3:0:0:0:
174,326,206335,1,4,3:0:0:0:
150,303,206412,1,4,3:0:0:0:
119,289,206489,1,4,3:0:0:0:
86,285,206566,6,0,L|73:192,1,90,8|4,3:0|3:0,0:0:0:0:
135,117,206797,1,4,3:0:0:0:
135,117,206874,2,0,L|75:106,1,45,4|0,3:0|0:0,0:0:0:0:
196,224,207028,2,0,L|256:213,1,45,4|0,3:0|0:0,0:0:0:0:
301,136,207182,5,8,3:0:0:0:
307,103,207258,1,8,3:0:0:0:
329,78,207335,1,4,3:0:0:0:
361,67,207412,1,4,3:0:0:0:
393,74,207489,1,8,3:0:0:0:
418,96,207566,1,8,3:0:0:0:
429,128,207643,1,4,3:0:0:0:
422,160,207720,1,4,3:0:0:0:
400,185,207797,6,0,P|374:233|382:272,1,80.9999975280763,4|0,3:0|0:0,0:0:0:0:
497,277,208105,6,0,B|535:249|535:249|417:238,1,135,4|0,0:0|0:0,0:0:0:0:
420,345,208412,1,4,3:0:0:0:
344,267,208566,1,4,3:0:0:0:
447,240,208720,1,8,0:0:0:0:
334,344,208874,6,0,L|230:326,1,90,4|8,3:0|3:0,0:0:0:0:
161,195,209182,2,0,L|265:177,1,90,4|8,3:0|3:0,0:0:0:0:
349,257,209489,1,4,3:0:0:0:
328,112,209643,1,8,3:0:0:0:
259,269,209797,1,4,3:0:0:0:
161,195,209951,2,0,P|145:135|192:66,1,135,12|0,0:0|0:0,0:0:0:0:
328,112,210259,6,0,L|229:114,1,90,4|0,3:0|0:0,0:0:0:0:
94,90,210566,2,0,P|163:70|187:78,1,90,4|0,0:0|0:0,0:0:0:0:
273,223,210874,1,4,3:0:0:0:
148,141,211028,1,4,3:0:0:0:
323,110,211182,1,8,0:0:0:0:
198,192,211335,6,0,P|187:249|194:281,1,90,4|8,3:0|3:0,0:0:0:0:
327,154,211643,2,0,L|321:99,1,45,4|0,3:0|0:0,0:0:0:0:
235,50,211797,1,8,0:0:0:0:
333,234,211951,1,4,3:0:0:0:
168,164,212105,5,8,3:0:0:0:
134,160,212181,1,8,3:0:0:0:
100,156,212258,1,4,3:0:0:0:
67,153,212335,1,4,3:0:0:0:
33,149,212412,1,8,3:0:0:0:
59,170,212488,1,8,3:0:0:0:
72,201,212565,1,4,3:0:0:0:
68,235,212642,1,4,3:0:0:0:
49,262,212720,6,0,P|36:322|50:351,1,90,4|0,3:0|0:0,0:0:0:0:
161,136,213028,2,0,L|172:180,1,45,10|0,3:1|0:0,0:0:0:0:
293,257,213182,2,0,L|250:245,1,45,10|0,3:1|0:0,0:0:0:0:
121,310,213335,2,0,L|154:280,1,45,10|0,3:1|0:0,0:0:0:0:
238,178,213489,6,0,P|263:164|285:145,1,45,4|0,3:0|3:0,0:0:0:0:
217,303,213643,2,0,P|215:331|220:359,1,45,4|0,3:0|3:0,0:0:0:0:
119,221,213797,2,0,P|94:206|67:196,1,45,4|0,3:0|3:0,0:0:0:0:
271,250,213951,5,8,3:0:0:0:
301,262,214027,1,8,3:0:0:0:
334,256,214104,1,4,3:0:0:0:
358,233,214181,1,4,3:0:0:0:
365,200,214258,1,8,3:0:0:0:
354,169,214335,1,8,3:0:0:0:
327,149,214412,1,4,3:0:0:0:
294,147,214489,1,4,3:0:0:0:
265,163,214566,5,8,3:0:0:0:
235,178,214642,1,8,3:0:0:0:
202,174,214719,1,4,3:0:0:0:
175,155,214796,1,4,3:0:0:0:
162,124,214873,1,8,3:0:0:0:
166,91,214950,1,8,3:0:0:0:
186,65,215027,1,4,3:0:0:0:
217,53,215104,1,4,3:0:0:0:
250,58,215182,6,0,P|290:69|319:69,1,45,4|0,3:0|0:0,0:0:0:0:
372,155,215335,2,0,P|332:165|303:165,1,45,4|0,3:0|0:0,0:0:0:0:
171,250,215489,2,0,P|257:222|279:226,1,90,4|4,0:0|3:0,0:0:0:0:
338,318,215797,1,8,3:0:0:0:
372,155,215951,2,0,L|366:117,3,22.5,4|4|4|4,3:0|3:0|3:0|3:0,0:0:0:0:
394,186,216105,2,0,P|423:178|441:176,1,45,4|0,3:0|0:0,0:0:0:0:
297,231,216259,2,0,P|274:227|253:221,1,45,4|0,3:0|0:0,0:0:0:0:
257,112,216412,5,8,3:0:0:0:
218,89,216488,1,8,3:0:0:0:
174,92,216565,1,4,3:0:0:0:
139,119,216642,1,4,3:0:0:0:
124,161,216719,1,10,3:0:0:0:
135,204,216796,1,8,3:0:0:0:
168,233,216874,1,4,3:0:0:0:
212,240,216950,1,4,3:0:0:0:
252,221,217027,5,8,3:0:0:0:
306,182,217104,1,8,3:0:0:0:
372,185,217181,1,4,3:0:0:0:
421,229,217258,1,4,3:0:0:0:
432,294,217335,1,10,3:0:0:0:
399,352,217412,1,8,3:0:0:0:
337,376,217489,1,4,3:0:0:0:
274,356,217566,1,4,3:0:0:0:
238,300,217654,6,0,L|247:219,3,45,4|8|8|8,0:0|3:0|3:0|3:0,0:0:0:0:
160,101,217954,2,0,L|164:145,3,45,8|8|8|8,3:0|3:0|3:0|3:0,0:0:0:0:
102,236,218254,2,0,L|183:245,3,45,8|8|8|8,3:0|3:0|3:0|3:0,0:0:0:0:
301,158,218554,2,0,L|256:162,3,45,8|8|8|8,3:0|3:0|3:0|3:0,0:0:0:0:
362,217,218854,5,8,3:0:0:0:
405,208,218929,1,8,3:0:0:0:
436,177,219004,1,8,3:0:0:0:
442,133,219079,1,8,3:0:0:0:
421,94,219154,1,6,3:0:0:0:
381,74,219229,1,4,3:0:0:0:
338,82,219304,1,4,3:0:0:0:
307,113,219379,1,4,3:0:0:0:
300,157,219454,5,8,3:0:0:0:
299,201,219529,1,8,3:0:0:0:
275,239,219604,1,10,3:0:0:0:
234,256,219679,1,8,3:0:0:0:
191,250,219754,1,6,3:0:0:0:
157,221,219829,1,4,3:0:0:0:
145,178,219904,1,4,3:0:0:0:
158,135,219979,1,4,3:0:0:0:
191,106,220054,5,10,3:0:0:0:
188,61,220129,1,8,3:0:0:0:
162,25,220204,1,4,3:0:0:0:
120,10,220279,1,4,3:0:0:0:
77,19,220354,1,10,3:0:0:0:
46,50,220429,1,8,3:0:0:0:
36,93,220504,1,4,3:0:0:0:
52,135,220579,1,4,3:0:0:0:
88,161,220654,5,10,3:0:0:0:
123,188,220729,1,8,3:0:0:0:
138,230,220804,1,6,3:0:0:0:
129,273,220879,1,4,3:0:0:0:
97,304,220954,1,10,3:0:0:0:
65,274,221029,1,8,3:0:0:0:
54,231,221104,1,4,3:0:0:0:
66,188,221179,1,4,3:0:0:0:
96,207,221254,5,10,3:0:0:0:
139,216,221329,1,8,3:0:0:0:
182,202,221404,1,4,3:0:0:0:
211,168,221479,1,4,3:0:0:0:
218,125,221554,1,10,3:0:0:0:
213,81,221629,1,8,3:0:0:0:
233,41,221704,1,4,3:0:0:0:
271,19,221779,1,4,3:0:0:0:
316,23,221854,5,10,3:0:0:0:
350,50,221929,1,8,3:0:0:0:
364,93,222004,1,6,3:0:0:0:
352,135,222079,1,4,3:0:0:0:
318,164,222154,2,0,L|376:152,3,45,2|2|2|2,0:0|0:0|0:0|0:0,0:0:0:0:
181,245,222454,5,8,3:0:0:0:
156,208,222529,1,8,3:0:0:0:
152,163,222604,1,8,3:0:0:0:
172,124,222679,1,8,3:0:0:0:
209,99,222754,1,6,3:0:0:0:
254,97,222829,1,4,3:0:0:0:
293,117,222904,1,4,3:0:0:0:
317,154,222979,1,4,3:0:0:0:
319,195,223054,5,10,3:0:0:0:
335,236,223129,1,8,3:0:0:0:
371,261,223204,1,4,3:0:0:0:
415,260,223279,1,6,3:0:0:0:
451,234,223354,1,8,3:0:0:0:
466,193,223429,1,8,3:0:0:0:
454,150,223504,1,6,3:0:0:0:
419,122,223579,1,4,3:0:0:0:
379,113,223654,5,8,3:0:0:0:
354,149,223729,1,8,3:0:0:0:
312,162,223804,1,10,3:0:0:0:
271,146,223879,1,8,3:0:0:0:
250,107,223954,1,6,3:0:0:0:
257,63,224029,1,4,3:0:0:0:
291,35,224104,1,4,3:0:0:0:
335,33,224179,1,4,3:0:0:0:
367,56,224254,5,10,3:0:0:0:
345,94,224329,1,8,3:0:0:0:
306,116,224404,1,4,3:0:0:0:
261,113,224479,1,6,3:0:0:0:
225,87,224554,2,0,L|227:32,3,45,2|2|2|2,0:0|0:0|3:0|0:0,0:0:0:0:
177,205,224854,5,8,3:0:0:0:
143,161,224929,1,8,3:0:0:0:
142,105,225004,1,4,3:0:0:0:
173,60,225079,1,4,3:0:0:0:
226,42,225154,1,10,3:0:0:0:
279,59,225229,1,8,3:0:0:0:
311,104,225304,1,4,3:0:0:0:
311,159,225379,1,4,3:0:0:0:
278,204,225454,5,8,3:0:0:0:
270,258,225529,1,8,3:0:0:0:
295,308,225604,1,4,3:0:0:0:
344,333,225679,1,4,3:0:0:0:
399,326,225754,1,10,3:0:0:0:
440,288,225829,1,8,3:0:0:0:
451,234,225904,1,4,3:0:0:0:
429,183,225979,1,4,3:0:0:0:
382,154,226054,5,8,3:0:0:0:
345,130,226129,1,8,3:0:0:0:
327,90,226204,1,8,3:0:0:0:
335,46,226279,1,8,3:0:0:0:
366,14,226354,1,6,3:0:0:0:
409,4,226429,1,4,3:0:0:0:
450,20,226504,1,4,3:0:0:0:
476,56,226579,1,4,3:0:0:0:
477,101,226654,5,8,3:0:0:0:
458,141,226729,1,8,3:0:0:0:
420,162,226804,1,8,3:0:0:0:
376,158,226879,1,8,3:0:0:0:
342,128,226954,2,0,L|345:68,3,45,2|2|2|2,0:0|0:0|0:0|0:0,0:0:0:0:
270,256,227254,5,10,3:0:0:0:
233,281,227329,1,8,3:0:0:0:
189,283,227404,1,10,3:0:0:0:
151,260,227479,1,8,3:0:0:0:
131,221,227554,1,10,3:0:0:0:
137,177,227629,1,8,3:0:0:0:
165,143,227704,1,4,3:0:0:0:
208,130,227779,1,4,3:0:0:0:
250,142,227854,5,10,3:0:0:0:
285,170,227929,1,8,3:0:0:0:
329,175,228004,1,10,3:0:0:0:
368,154,228079,1,8,3:0:0:0:
389,115,228154,1,6,3:1:0:0:
385,70,228229,1,4,3:0:0:0:
357,36,228304,1,8,3:0:0:0:
315,22,228379,1,8,3:0:0:0:
272,35,228454,5,6,3:0:0:0:
234,58,228529,1,4,3:0:0:0:
190,65,228604,1,8,3:0:0:0:
146,56,228679,1,8,3:0:0:0:
109,32,228754,1,6,3:0:0:0:
69,52,228829,1,4,3:0:0:0:
44,89,228904,1,8,3:0:0:0:
41,133,228979,1,8,3:0:0:0:
59,174,229054,5,10,3:0:0:0:
77,214,229129,1,8,3:0:0:0:
73,258,229204,1,6,3:0:0:0:
49,295,229279,1,4,3:0:0:0:
9,316,229354,1,10,3:1:0:0:
0,272,229429,1,4,3:0:0:0:
14,229,229504,1,8,3:0:0:0:
45,198,229579,1,4,3:0:0:0:
88,186,229654,5,10,3:0:0:0:
132,180,229729,1,8,3:0:0:0:
166,151,229804,1,8,3:0:0:0:
178,109,229879,1,8,3:0:0:0:
166,66,229954,1,6,3:0:0:0:
132,38,230029,1,4,3:0:0:0:
87,33,230104,1,4,3:0:0:0:
48,53,230179,1,4,3:0:0:0:
23,89,230254,5,10,3:0:0:0:
23,134,230329,1,8,3:0:0:0:
47,171,230404,1,10,3:0:0:0:
87,189,230479,1,8,3:0:0:0:
131,181,230554,1,6,3:0:0:0:
170,161,230629,1,4,3:0:0:0:
214,166,230704,1,4,3:0:0:0:
248,195,230779,1,4,3:0:0:0:
259,238,230854,5,10,3:0:0:0:
244,280,230929,1,8,3:0:0:0:
209,306,231004,1,8,3:0:0:0:
164,308,231079,1,8,3:0:0:0:
127,284,231154,1,6,3:0:0:0:
105,245,231229,1,4,3:0:0:0:
110,201,231304,1,4,3:0:0:0:
139,168,231379,1,4,3:0:0:0:
172,147,231454,6,0,L|125:139,3,45,10|8|10|8,3:0|3:0|3:0|3:0,0:0:0:0:
239,226,231754,2,0,L|286:217,3,45,6|4|4|4,3:0|3:0|3:0|3:0,0:0:0:0:
355,295,232054,5,10,3:0:0:0:
379,257,232129,1,8,3:0:0:0:
386,213,232204,1,8,3:0:0:0:
374,170,232279,1,8,3:0:0:0:
345,136,232354,1,6,3:0:0:0:
305,116,232429,1,4,3:0:0:0:
260,115,232504,1,4,3:0:0:0:
219,133,232579,1,4,3:0:0:0:
189,166,232654,5,8,3:0:0:0:
158,197,232729,1,8,3:0:0:0:
114,206,232804,1,6,3:0:0:0:
73,190,232879,1,4,3:0:0:0:
48,154,232954,1,10,3:0:0:0:
46,109,233029,1,8,3:0:0:0:
70,72,233104,1,4,3:0:0:0:
110,53,233179,1,4,3:0:0:0:
154,59,233254,5,10,3:0:0:0:
190,85,233329,1,8,3:0:0:0:
205,126,233404,1,8,3:0:0:0:
193,169,233479,1,8,3:0:0:0:
159,197,233554,1,6,3:0:0:0:
122,221,233629,1,4,3:0:0:0:
102,261,233704,1,4,3:0:0:0:
107,305,233779,1,4,3:0:0:0:
135,340,233854,5,10,3:0:0:0:
176,355,233929,1,8,3:0:0:0:
220,346,234004,1,6,3:0:0:0:
252,315,234079,1,4,3:0:0:0:
263,272,234154,2,0,L|218:258,3,45,2|2|2|2,0:0|0:0|0:0|0:0,0:0:0:0:
363,230,234454,5,10,3:0:0:0:
398,203,234529,1,8,3:0:0:0:
412,161,234604,1,8,3:0:0:0:
400,118,234679,1,8,3:0:0:0:
367,89,234754,1,6,3:0:0:0:
323,84,234829,1,4,3:0:0:0:
283,104,234904,1,4,3:0:0:0:
262,143,234979,1,4,3:0:0:0:
267,187,235054,5,10,3:0:0:0:
277,230,235129,1,8,3:0:0:0:
263,272,235204,1,8,3:0:0:0:
229,301,235279,1,10,3:0:0:0:
185,307,235354,1,6,3:0:0:0:
144,290,235429,1,4,3:0:0:0:
118,254,235504,1,4,3:0:0:0:
115,210,235579,1,4,3:0:0:0:
136,170,235654,6,0,L|65:158,3,45,10|8|8|8,3:0|3:0|3:0|3:0,0:0:0:0:
260,152,235954,2,0,L|331:140,3,45,6|4|4|4,3:0|3:0|3:0|3:0,0:0:0:0:
198,52,236254,6,0,L|191:97,3,45,10|8|8|10,3:0|3:0|3:0|3:0,0:0:0:0:
216,265,236554,2,0,L|209:221,3,45,6|4|4|4,3:0|3:0|3:0|3:0,0:0:0:0:
255,350,236854,5,12,3:0:0:0:
298,355,236929,1,8,3:0:0:0:
338,335,237004,1,8,3:0:0:0:
358,296,237079,1,8,3:0:0:0:
353,252,237154,1,6,3:0:0:0:
323,219,237229,1,4,3:0:0:0:
280,210,237304,1,4,3:0:0:0:
239,227,237379,1,4,3:0:0:0:
215,264,237454,5,10,3:0:0:0:
192,302,237529,1,8,3:0:0:0:
152,322,237604,1,8,3:0:0:0:
108,318,237679,1,10,3:0:0:0:
72,292,237754,1,6,3:0:0:0:
55,251,237829,1,4,3:0:0:0:
61,207,237904,1,4,3:0:0:0:
90,173,237979,1,4,3:0:0:0:
132,159,238054,5,10,3:0:0:0:
176,155,238129,1,8,3:0:0:0:
209,125,238204,1,8,3:0:0:0:
216,81,238279,1,8,3:0:0:0:
196,42,238354,1,10,3:0:0:0:
156,24,238429,1,8,3:0:0:0:
113,33,238504,1,4,3:0:0:0:
84,67,238579,1,4,3:0:0:0:
82,111,238654,5,10,3:0:0:0:
100,151,238729,1,8,3:0:0:0:
140,169,238804,1,8,3:0:0:0:
182,157,238879,1,10,3:0:0:0:
206,120,238954,1,6,3:0:0:0:
229,83,239029,1,4,3:0:0:0:
271,69,239104,1,4,3:0:0:0:
311,87,239179,1,6,3:0:0:0:
330,127,239254,5,6,3:0:0:0:
340,170,239329,1,4,3:0:0:0:
373,199,239404,1,4,3:0:0:0:
417,204,239479,1,4,3:0:0:0:
456,182,239554,1,10,3:0:0:0:
474,142,239629,1,8,3:0:0:0:
466,98,239704,1,8,3:0:0:0:
434,68,239779,1,8,3:0:0:0:
390,61,239854,5,6,3:0:0:0:
352,85,239929,1,4,3:0:0:0:
334,125,240004,1,6,3:0:0:0:
342,169,240079,1,4,3:0:0:0:
373,200,240154,1,10,3:0:0:0:
404,231,240229,1,8,3:0:0:0:
412,275,240304,1,8,3:0:0:0:
393,315,240379,1,8,3:0:0:0:
356,338,240454,6,0,L|419:349,3,45,6|4|4|4,3:0|3:0|3:0|3:0,0:0:0:0:
254,269,240754,2,0,L|191:280,3,45,10|8|8|8,3:0|3:0|3:0|3:0,0:0:0:0:
398,236,241054,2,0,L|457:258,3,45,6|4|6|4,3:0|3:0|3:0|3:0,0:0:0:0:
311,148,241354,2,0,L|247:146,3,45,10|8|8|8,3:0|3:0|3:0|3:0,0:0:0:0:
406,179,241654,5,6,3:0:0:0:
439,149,241729,1,4,3:0:0:0:
450,106,241804,1,4,3:0:0:0:
435,65,241879,1,4,3:0:0:0:
399,39,241954,1,10,3:0:0:0:
354,38,242029,1,8,3:0:0:0:
317,62,242104,1,8,3:0:0:0:
300,103,242179,1,8,3:0:0:0:
310,147,242254,5,4,3:0:0:0:
326,188,242329,1,4,3:0:0:0:
318,232,242404,1,10,3:0:0:0:
288,265,242479,1,8,3:0:0:0:
245,277,242554,1,6,3:1:0:0:
203,265,242629,1,4,3:0:0:0:
173,232,242704,1,8,3:0:0:0:
165,188,242779,1,8,3:0:0:0:
181,147,242854,5,6,3:0:0:0:
214,116,242929,1,4,3:0:0:0:
257,107,243004,1,4,3:0:0:0:
299,122,243079,1,4,3:0:0:0:
327,157,243154,1,10,3:0:0:0:
336,200,243229,1,8,3:0:0:0:
366,232,243304,1,4,3:0:0:0:
409,243,243379,1,4,3:0:0:0:
451,228,243454,5,10,3:0:0:0:
479,194,243529,1,8,3:0:0:0:
484,150,243604,1,6,3:0:0:0:
464,110,243679,1,4,3:0:0:0:
426,87,243754,2,0,L|482:73,3,45,2|2|2|2,1:0|0:0|0:0|0:0,0:0:0:0:
334,98,244054,5,6,3:0:0:0:
294,78,244129,1,6,3:0:0:0:
250,85,244204,1,6,3:0:0:0:
218,116,244279,1,6,3:0:0:0:
209,159,244354,1,8,3:0:0:0:
226,200,244429,1,8,3:0:0:0:
263,224,244504,1,10,3:0:0:0:
307,222,244579,1,8,3:0:0:0:
343,196,244654,5,6,3:0:0:0:
376,166,244729,1,6,3:0:0:0:
420,159,244804,1,6,3:0:0:0:
460,178,244879,1,6,3:0:0:0:
483,215,244954,1,8,3:0:0:0:
482,260,245029,1,8,3:0:0:0:
456,296,245104,1,10,3:0:0:0:
415,312,245179,1,8,3:0:0:0:
371,302,245254,5,6,3:0:0:0:
332,281,245329,1,6,3:0:0:0:
288,275,245404,1,6,3:0:0:0:
245,287,245479,1,6,3:0:0:0:
209,314,245554,1,8,3:0:0:0:
250,332,245629,1,8,3:0:0:0:
294,325,245704,1,10,3:0:0:0:
326,294,245779,1,8,3:0:0:0:
335,251,245854,5,6,3:0:0:0:
319,210,245929,1,6,3:0:0:0:
283,184,246004,1,10,3:0:0:0:
239,183,246079,1,10,3:0:0:0:
201,207,246154,2,0,L|131:200,3,45,2|2|2|2,0:0|0:0|1:0|0:0,0:0:0:0:
58,143,246454,5,10,3:0:0:0:
61,98,246529,1,10,3:0:0:0:
89,63,246604,1,8,3:0:0:0:
131,49,246679,1,10,3:0:0:0:
174,61,246754,1,10,3:0:0:0:
204,93,246829,1,8,3:0:0:0:
210,137,246904,1,6,3:0:0:0:
192,178,246979,1,4,3:0:0:0:
155,201,247054,5,8,3:0:0:0:
126,236,247129,1,8,3:0:0:0:
119,280,247204,1,8,3:0:0:0:
135,321,247279,1,8,3:0:0:0:
170,348,247354,1,8,3:0:0:0:
214,354,247429,1,8,3:0:0:0:
255,337,247504,1,6,3:0:0:0:
282,301,247579,1,4,3:0:0:0:
286,257,247654,5,10,3:0:0:0:
271,215,247729,1,8,3:0:0:0:
280,172,247804,1,10,3:0:0:0:
310,139,247879,1,8,3:0:0:0:
352,127,247954,1,6,3:0:0:0:
395,139,248029,1,4,3:0:0:0:
425,171,248104,1,6,3:0:0:0:
434,215,248179,1,4,3:0:0:0:
419,257,248254,5,10,3:0:0:0:
391,291,248329,1,8,3:0:0:0:
349,305,248404,1,10,3:1:0:0:
306,293,248479,1,8,3:0:0:0:
276,260,248554,2,0,L|291:217,3,45,2|2|2|2,1:0|0:0|0:0|0:0,0:0:0:0:
179,206,248854,5,10,3:0:0:0:
163,164,248929,1,8,3:0:0:0:
172,121,249004,1,8,3:0:0:0:
204,90,249079,1,8,3:0:0:0:
248,82,249154,1,6,3:0:0:0:
289,99,249229,1,4,3:0:0:0:
313,136,249304,1,4,3:0:0:0:
313,180,249379,1,4,3:0:0:0:
289,217,249454,5,10,3:0:0:0:
265,254,249529,1,8,3:0:0:0:
264,299,249604,1,8,3:0:0:0:
288,336,249679,1,10,3:0:0:0:
328,355,249754,1,6,3:0:0:0:
372,350,249829,1,4,3:0:0:0:
406,321,249904,1,4,3:0:0:0:
419,279,249979,1,4,3:0:0:0:
407,236,250054,5,10,3:0:0:0:
375,206,250129,1,8,3:0:0:0:
332,197,250204,1,8,3:0:0:0:
290,214,250279,1,8,3:0:0:0:
265,250,250354,1,6,3:0:0:0:
239,286,250429,1,4,3:0:0:0:
198,302,250504,1,4,3:0:0:0:
154,294,250579,1,4,3:0:0:0:
122,263,250654,5,10,3:0:0:0:
104,222,250729,1,8,3:0:0:0:
108,178,250804,1,8,3:0:0:0:
135,142,250879,1,10,3:0:0:0:
176,125,250954,2,0,L|166:70,1,45,6|0,3:0|3:0,0:0:0:0:
298,169,251104,2,0,L|288:224,1,45,4|0,3:0|3:0,0:0:0:0:
309,78,251254,5,10,3:0:0:0:
348,58,251329,1,8,3:0:0:0:
392,65,251404,1,8,3:0:0:0:
424,96,251479,1,8,3:0:0:0:
432,140,251554,1,10,3:0:0:0:
413,180,251629,1,8,3:0:0:0:
374,202,251704,1,4,3:0:0:0:
330,197,251779,1,4,3:0:0:0:
297,168,251854,5,10,3:0:0:0:
261,143,251929,1,8,3:0:0:0:
217,141,252004,1,10,3:0:0:0:
179,164,252079,1,8,3:0:0:0:
160,204,252154,1,10,3:1:0:0:
166,248,252229,1,8,3:0:0:0:
196,281,252304,1,4,3:0:0:0:
239,292,252379,1,4,3:0:0:0:
281,277,252454,6,0,L|341:270,3,45,10|8|8|8,3:0|3:0|3:0|3:0,0:0:0:0:
442,171,252754,2,0,L|382:163,3,45,6|4|4|4,3:0|3:0|3:0|3:0,0:0:0:0:
249,179,253054,2,0,P|270:173|291:164,3,45,10|8|8|10,3:1|3:0|3:0|3:1,0:0:0:0:
366,57,253354,2,0,P|387:66|409:71,3,45,4|4|6|4,3:0|3:0|3:1|3:0,0:0:0:0:
258,53,253654,6,0,L|179:48,1,45,4|0,3:0|3:0,0:0:0:0:
254,208,253804,2,0,L|333:203,1,45,4|0,3:0|3:0,0:0:0:0:
239,72,253954,6,0,L|160:67,1,45,4|0,3:0|3:0,0:0:0:0:
235,227,254104,2,0,L|314:222,1,45,4|0,3:0|3:0,0:0:0:0:
227,91,254254,6,0,L|148:86,1,45,4|0,3:0|3:0,0:0:0:0:
223,246,254404,2,0,L|302:241,1,45,4|0,3:0|3:0,0:0:0:0:
208,110,254554,6,0,L|129:105,1,45,4|0,3:0|3:0,0:0:0:0:
204,265,254704,2,0,L|283:260,1,45,4|0,3:0|3:0,0:0:0:0:
292,339,254854,5,10,3:1:0:0:
353,370,254929,1,8,3:0:0:0:
422,359,255004,1,4,3:0:0:0:
471,310,255079,1,6,3:0:0:0:
482,240,255154,1,10,3:1:0:0:
450,178,255229,1,8,3:0:0:0:
387,148,255304,1,6,3:0:0:0:
318,161,255379,1,4,3:0:0:0:
263,206,255454,5,10,3:1:0:0:
203,246,255529,1,8,3:0:0:0:
131,249,255604,1,6,3:1:0:0:
69,210,255679,1,4,3:0:0:0:
39,144,255754,1,10,3:1:0:0:
51,72,255829,1,8,3:0:0:0:
101,18,255904,1,6,3:0:0:0:
172,2,255979,1,4,3:0:0:0:
240,27,256054,5,4,0:0:0:0:
256,192,256129,12,0,260704,0:0:0:0:
143,103,260854,5,2,0:0:0:0:
85,286,261154,2,0,P|62:246|60:183,2,107.999996704102,2|2|0,0:0|0:0|0:0,0:0:0:0:
193,338,262054,1,2,0:0:0:0:
297,285,262354,1,2,0:0:0:0:
391,339,262654,1,2,0:0:0:0:
495,286,262954,2,0,L|497:222,1,53.9999983520508,4|4,3:0|3:0,0:0:0:0:
483,125,263254,1,4,3:0:0:0:
300,185,263554,2,0,P|394:189|435:173,2,107.999996704102,2|2|0,0:0|0:0|0:0,0:0:0:0:
163,114,264454,6,0,L|159:51,3,36,2|2|2|2,0:0|0:0|0:0|0:0,0:0:0:0:
78,220,264754,2,0,L|74:283,3,36,2|2|2|2,0:0|0:0|0:0|0:0,0:0:0:0:
159,315,265054,5,2,0:0:0:0:
175,321,265129,1,2,0:0:0:0:
193,324,265204,1,2,0:0:0:0:
211,323,265279,1,2,0:0:0:0:
228,318,265354,1,2,0:0:0:0:
249,301,265429,1,2,0:0:0:0:
274,292,265504,1,2,0:0:0:0:
301,291,265579,1,2,0:0:0:0:
327,298,265654,6,0,P|391:275|448:280,1,90,4|4,0:0|3:0,0:0:0:0:
460,178,265879,2,0,L|454:112,1,45,8|0,3:0|0:0,0:0:0:0:
271,60,266104,1,8,3:0:0:0:
304,56,266179,1,4,3:0:0:0:
338,52,266254,1,8,3:0:0:0:
371,48,266329,1,4,3:0:0:0:
405,44,266404,1,8,3:0:0:0:
137,155,266554,5,8,3:0:0:0:
170,159,266629,1,4,3:0:0:0:
204,163,266704,1,8,3:0:0:0:
237,167,266779,1,4,3:0:0:0:
271,171,266854,6,0,P|260:237|261:255,1,45,8|0,3:0|3:0,0:0:0:0:
299,288,267004,1,4,3:0:0:0:
330,284,267079,1,4,3:0:0:0:
361,280,267154,1,8,3:0:0:0:
339,240,267229,1,8,3:0:0:0:
337,196,267304,1,4,3:0:0:0:
353,154,267379,1,4,3:0:0:0:
385,123,267454,6,0,L|285:100,1,90,8|0,3:0|0:0,0:0:0:0:
181,178,267679,2,0,P|232:183|275:154,1,90,8|0,3:0|0:0,0:0:0:0:
147,64,267904,2,0,L|143:119,1,45,4|0,3:0|0:0,0:0:0:0:
175,264,268054,6,0,B|190:218|190:218|175:157,1,90,8|0,3:0|0:0,0:0:0:0:
99,148,268279,1,4,3:0:0:0:
63,145,268354,1,8,0:0:0:0:
199,80,268504,2,0,L|259:74,1,45,4|0,3:0|0:0,0:0:0:0:
343,42,268654,5,8,3:0:0:0:
386,32,268729,1,8,3:0:0:0:
427,48,268804,1,8,3:0:0:0:
451,85,268879,1,8,3:0:0:0:
450,129,268954,1,12,3:0:0:0:
424,165,269029,1,4,3:0:0:0:
382,180,269104,1,4,3:0:0:0:
340,168,269179,1,4,3:0:0:0:
311,134,269254,6,0,L|322:79,4,45,2|2|2|2|2,0:0|0:0|0:0|0:0|0:0,0:0:0:0:
181,211,269704,2,0,P|172:265|180:292,1,45,4|0,3:0|0:0,0:0:0:0:
241,329,269854,5,8,3:0:0:0:
271,343,269929,1,8,3:0:0:0:
304,345,270004,1,4,3:0:0:0:
337,335,270079,1,4,3:0:0:0:
363,314,270154,1,8,0:0:0:0:
389,293,270229,1,8,0:0:0:0:
421,283,270304,1,4,0:0:0:0:
455,285,270379,1,4,0:0:0:0:
485,299,270454,6,0,P|493:246|483:217,1,45,4|0,0:0|0:0,0:0:0:0:
416,181,270604,1,8,3:0:0:0:
387,188,270679,1,8,3:0:0:0:
357,183,270754,1,4,3:0:0:0:
332,168,270829,1,4,3:0:0:0:
314,144,270904,1,8,3:0:0:0:
307,115,270979,1,8,3:0:0:0:
312,85,271054,2,0,L|453:75,2,135,2|2|2,0:0|0:0|0:0,0:0:0:0:
166,77,271654,6,0,L|170:138,1,45,4|0,0:0|0:0,0:0:0:0:
209,212,271804,1,8,3:0:0:0:
246,189,271879,1,8,3:0:0:0:
289,198,271954,1,4,3:0:0:0:
314,234,272029,1,4,3:0:0:0:
308,277,272104,1,8,3:0:0:0:
274,305,272179,1,8,3:0:0:0:
230,302,272254,2,0,P|164:278|92:295,2,135,2|2|2,0:0|0:0|0:0,0:0:0:0:
438,347,272854,5,4,0:0:0:0:
373,144,273004,1,0,0:0:0:0:
360,175,273079,1,0,0:0:0:0:
355,208,273154,1,0,0:0:0:0:
359,241,273229,1,0,0:0:0:0:
371,273,273304,2,0,L|434:275,1,45
255,181,273454,5,8,3:0:0:0:
210,178,273529,1,4,0:0:0:0:
166,175,273604,1,8,3:0:0:0:
121,172,273679,1,4,0:0:0:0:
76,169,273754,2,0,L|95:109,1,45,8|0,3:0|0:0,0:0:0:0:
117,275,273904,1,4,3:0:0:0:
117,275,274204,5,4,0:0:0:0:
289,119,274354,1,4,0:0:0:0:
251,351,274504,1,4,0:0:0:0:
139,133,274654,2,0,L|43:120,1,90,4|2,0:0|0:0,0:0:0:0:
248,195,278254,6,0,P|223:183|114:273,1,180,2|2,0:0|0:0,0:0:0:0:
318,139,278704,6,0,L|298:25,1,90,4|0,0:0|0:0,0:0:0:0:
479,155,279004,1,8,3:0:0:0:
479,155,279079,1,8,3:0:0:0:
479,155,279154,2,0,P|419:181|371:167,1,90,4|0,0:0|0:0,0:0:0:0:
408,45,279454,1,4,0:0:0:0:
305,224,279604,2,0,L|312:308,1,45,4|4,0:0|0:0,0:0:0:0:
234,326,279754,5,8,3:0:0:0:
216,297,279829,1,8,3:0:0:0:
187,279,279904,1,8,3:0:0:0:
154,275,279979,1,8,3:0:0:0:
123,286,280054,5,4,0:0:0:0:
357,309,280204,1,4,3:0:0:0:
260,95,280354,1,4,3:0:0:0:
258,234,280504,2,0,L|265:333,1,90,4|0,3:0|0:0,0:0:0:0:
151,196,280804,2,0,L|155:129,1,45,4|0,3:0|0:0,0:0:0:0:
239,86,280954,1,8,3:0:0:0:
266,104,281029,1,8,3:0:0:0:
299,108,281104,1,8,3:0:0:0:
330,96,281179,1,8,3:0:0:0:
352,71,281254,5,4,0:0:0:0:
230,258,281404,1,4,3:0:0:0:
291,36,281554,1,4,3:0:0:0:
370,258,281704,2,0,L|485:251,1,90,4|0,3:0|0:0,0:0:0:0:
337,168,282004,2,0,P|308:161|274:157,1,45,4|0,3:0|0:0,0:0:0:0:
228,222,282154,1,8,3:0:0:0:
208,194,282229,1,8,3:0:0:0:
200,162,282304,1,8,3:0:0:0:
204,128,282379,1,8,3:0:0:0:
220,99,282454,6,0,L|287:91,1,45,4|0,0:0|0:0,0:0:0:0:
412,204,282604,2,0,L|345:195,1,45,4|0,0:0|0:0,0:0:0:0:
365,52,282754,2,0,L|373:118,1,45,4|0,0:0|0:0,0:0:0:0:
260,243,282904,2,0,L|268:176,1,45,4|0,0:0|0:0,0:0:0:0:
251,48,283054,6,0,P|278:62|303:88,1,45,4|0,0:0|0:0,0:0:0:0:
139,86,283204,2,0,P|153:58|179:33,1,45,4|0,0:0|0:0,0:0:0:0:
289,160,283354,2,0,P|274:187|248:212,1,45,4|0,0:0|0:0,0:0:0:0:
177,198,283504,2,0,P|149:183|124:157,1,45,4|0,0:0|0:0,0:0:0:0:
148,332,283804,6,0,L|224:323,1,45,8|0,3:0|0:0,0:0:0:0:
290,279,283954,1,8,0:0:0:0:
166,206,284104,1,4,3:0:0:0:
183,197,284179,1,4,3:0:0:0:
203,188,284254,1,8,3:0:0:0:
180,150,284329,1,8,3:0:0:0:
193,109,284404,1,8,3:0:0:0:
233,92,284479,1,8,3:0:0:0:
272,111,284554,2,0,L|263:53,3,45,4|4|4|4,0:0|3:0|3:0|3:0,0:0:0:0:
299,207,284854,6,0,P|391:240|415:229,1,107.999996704102,4|4,0:0|3:0,0:0:0:0:
193,109,285154,2,0,P|99:139|87:163,1,107.999996704102,4|4,3:0|3:0,0:0:0:0:
341,129,285454,2,0,P|399:102|303:90,1,215.999993408203,4|4,3:0|3:0,0:0:0:0:
167,182,285904,2,0,L|166:240,1,53.9999983520508,4|0,3:0|0:0,0:0:0:0:
255,328,286054,5,8,3:0:0:0:
289,347,286129,1,8,3:0:0:0:
329,342,286204,1,4,3:0:0:0:
359,316,286279,1,4,3:0:0:0:
368,277,286354,1,8,3:0:0:0:
354,240,286429,1,8,3:0:0:0:
320,218,286504,1,4,3:0:0:0:
280,220,286579,1,4,3:0:0:0:
249,244,286654,6,0,L|81:260,1,161.999995056153,8|4,3:0|3:0,0:0:0:0:
17,173,286954,2,0,P|6:105|26:46,1,107.999996704102,8|4,3:0|3:0,0:0:0:0:
216,191,287254,5,8,3:0:0:0:
164,203,287329,1,8,3:0:0:0:
115,183,287404,1,8,3:0:0:0:
87,138,287479,1,8,3:0:0:0:
91,85,287554,1,6,3:0:0:0:
125,44,287629,1,4,3:0:0:0:
176,31,287704,1,4,3:0:0:0:
226,51,287779,1,4,3:0:0:0:
254,95,287854,5,8,3:0:0:0:
290,135,287929,1,8,3:0:0:0:
342,146,288004,1,8,3:0:0:0:
391,125,288079,1,8,3:0:0:0:
419,80,288154,1,6,3:0:0:0:
373,53,288229,1,4,3:0:0:0:
319,53,288304,1,6,3:0:0:0:
273,81,288379,1,4,3:0:0:0:
248,127,288454,5,10,3:0:0:0:
249,181,288529,1,8,3:0:0:0:
278,226,288604,1,8,3:0:0:0:
326,250,288679,1,8,3:0:0:0:
379,246,288754,1,6,3:0:0:0:
425,222,288829,1,4,3:0:0:0:
475,239,288904,1,4,3:0:0:0:
495,288,288979,1,4,3:0:0:0:
473,335,289054,5,10,3:0:0:0:
424,351,289129,1,8,3:0:0:0:
378,325,289204,1,8,3:0:0:0:
331,300,289279,1,8,3:0:0:0:
277,299,289354,2,0,L|213:296,1,53.9999983520508,6|0,3:0|3:0,0:0:0:0:
152,158,289504,2,0,L|216:154,1,53.9999983520508,4|0,3:0|3:0,0:0:0:0:
328,80,289654,6,0,P|317:158|338:199,1,107.999996704102,4|4,0:0|3:0,0:0:0:0:
77,321,289954,2,0,P|88:243|67:202,1,107.999996704102,4|4,3:0|3:0,0:0:0:0:
256,320,290254,2,0,B|336:304|336:304|400:320|400:320|492:304,1,215.999993408203,4|0,0:0|0:0,0:0:0:0:
272,128,290704,2,0,L|265:202,1,53.9999983520508,4|0,3:0|0:0,0:0:0:0:
356,174,290854,5,8,3:0:0:0:
365,121,290929,1,8,3:0:0:0:
346,72,291004,1,4,3:0:0:0:
303,40,291079,1,4,3:0:0:0:
250,36,291154,1,8,3:0:0:0:
203,60,291229,1,8,3:0:0:0:
176,106,291304,1,4,3:0:0:0:
178,159,291379,1,4,3:0:0:0:
207,204,291454,6,0,P|269:238|358:203,1,161.999995056153,8|4,3:0|3:0,0:0:0:0:
423,132,291754,2,0,L|405:-2,1,107.999996704102,8|4,3:0|3:0,0:0:0:0:
284,115,292054,5,10,3:0:0:0:
279,168,292129,1,8,3:0:0:0:
274,222,292204,1,8,3:0:0:0:
270,276,292279,1,10,3:0:0:0:
263,327,292354,1,6,3:0:0:0:
216,353,292429,1,4,3:0:0:0:
164,346,292504,1,6,3:0:0:0:
125,310,292579,1,4,3:0:0:0:
114,258,292654,5,10,3:0:0:0:
135,210,292729,1,8,3:0:0:0:
181,183,292804,1,8,3:0:0:0:
234,187,292879,1,10,3:0:0:0:
274,222,292954,1,6,3:1:0:0:
313,258,293029,1,4,3:0:0:0:
366,267,293104,1,6,3:1:0:0:
414,244,293179,1,4,3:0:0:0:
441,198,293254,5,10,3:0:0:0:
437,145,293329,1,8,3:0:0:0:
404,103,293404,1,8,3:0:0:0:
354,87,293479,1,10,3:0:0:0:
303,102,293554,1,6,3:0:0:0:
253,122,293629,1,6,3:0:0:0:
200,119,293704,1,6,3:0:0:0:
153,93,293779,1,4,3:0:0:0:
123,49,293854,6,0,L|179:32,3,53.9999983520508,2|2|2|2,0:0|0:0|0:0|0:0,0:0:0:0:
42,118,294154,2,0,P|71:175|57:234,1,107.999996704102,4|4,3:0|3:0,0:0:0:0:
118,301,294379,1,4,3:0:0:0:
118,301,294454,6,0,L|267:292,1,107.999996704102,4|4,0:0|3:0,0:0:0:0:
431,102,294754,2,0,L|282:93,1,107.999996704102,4|4,3:0|3:0,0:0:0:0:
428,306,295054,2,0,B|443:251|417:214|417:214|436:180|436:180|414:134|443:64,1,215.999993408203,4|4,0:0|3:0,0:0:0:0:
345,271,295504,2,0,L|261:270,1,53.9999983520508,4|0,3:0|0:0,0:0:0:0:
210,298,295654,5,8,3:0:0:0:
161,320,295729,1,8,3:0:0:0:
109,310,295804,1,8,3:0:0:0:
73,272,295879,1,8,3:0:0:0:
66,219,295954,1,4,3:0:0:0:
91,173,296029,1,4,3:0:0:0:
139,150,296104,1,4,3:0:0:0:
191,159,296179,1,4,3:0:0:0:
228,197,296254,6,0,P|296:206|354:125,1,161.999995056153,8|4,3:0|3:0,0:0:0:0:
273,23,296554,2,0,L|276:139,1,107.999996704102,8|4,3:0|3:0,0:0:0:0:
336,228,296854,5,10,3:0:0:0:
389,228,296929,1,10,3:0:0:0:
432,197,297004,1,8,3:0:0:0:
451,148,297079,1,10,3:0:0:0:
438,96,297154,1,6,3:0:0:0:
397,62,297229,1,6,3:0:0:0:
344,56,297304,1,6,3:0:0:0:
298,82,297379,1,4,3:0:0:0:
275,130,297454,5,10,3:0:0:0:
249,176,297529,1,10,3:0:0:0:
201,199,297604,1,8,3:0:0:0:
149,189,297679,1,10,3:0:0:0:
113,151,297754,1,6,3:0:0:0:
106,98,297829,1,6,3:0:0:0:
132,51,297904,1,6,3:0:0:0:
180,29,297979,1,4,3:0:0:0:
232,39,298054,5,10,3:0:0:0:
270,76,298129,1,10,3:0:0:0:
279,128,298204,1,8,3:0:0:0:
254,175,298279,1,10,3:0:0:0:
206,198,298354,1,6,3:0:0:0:
168,235,298429,1,6,3:0:0:0:
159,287,298504,1,6,3:0:0:0:
184,334,298579,1,4,3:0:0:0:
232,357,298654,5,10,3:0:0:0:
285,354,298729,1,10,3:0:0:0:
326,321,298804,1,8,3:0:0:0:
338,269,298879,1,8,3:0:0:0:
317,220,298954,2,0,L|390:213,1,53.9999983520508,4|0,3:0|3:0,0:0:0:0:
462,101,299104,2,0,L|389:93,1,53.9999983520508,4|0,3:0|3:0,0:0:0:0:
254,44,299254,5,4,0:0:0:0:
311,344,299404,1,4,3:0:0:0:
408,95,299554,5,4,3:0:0:0:
196,315,299704,1,4,3:0:0:0:
155,60,299854,5,4,3:0:0:0:
378,311,300004,1,4,3:0:0:0:
365,61,300154,5,4,3:0:0:0:
225,322,300304,1,4,3:0:0:0:
225,322,300379,1,4,3:0:0:0:
225,322,300454,5,4,0:0:0:0:
249,48,300604,1,4,3:0:0:0:
378,311,300754,5,4,3:0:0:0:
158,123,300904,1,4,3:0:0:0:
142,362,301054,5,4,3:0:0:0:
310,160,301204,1,4,3:0:0:0:
54,276,301354,5,4,3:0:0:0:
369,244,301504,1,4,3:0:0:0:
369,244,301579,1,4,3:0:0:0:
369,244,301654,5,4,0:0:0:0:
85,134,301804,1,4,3:0:0:0:
287,335,301954,5,4,3:0:0:0:
202,76,302104,1,4,3:0:0:0:
144,320,302254,6,0,P|178:237|156:158,2,161.999995056153,4|4|4,0:0|0:0|0:0,0:0:0:0:
137,65,302854,2,0,P|211:68|257:126,1,107.999996704102,8|4,3:0|3:0,0:0:0:0:
162,169,303079,1,4,3:0:0:0:
162,169,303154,2,0,L|45:159,1,107.999996704102,8|4,3:0|3:0,0:0:0:0:
16,93,303379,1,4,3:0:0:0:
16,93,303454,2,0,L|21:32,1,53.9999983520508,8|0,3:0|0:0,0:0:0:0:
58,216,303604,5,4,3:0:0:0:
79,177,303679,1,4,3:0:0:0:
119,159,303754,1,8,3:0:0:0:
162,169,303829,1,8,3:0:0:0:
190,204,303904,1,4,3:0:0:0:
191,248,303979,1,4,3:0:0:0:
165,283,304054,5,4,0:0:0:0:
165,283,305254,5,2,0:0:0:0:
248,186,305854,1,2,0:0:0:0:
291,307,306454,1,2,0:0:0:0:
291,307,307654,6,0,L|401:299,1,90,2|2,0:0|0:0,0:0:0:0:
248,193,308254,2,0,P|195:183|169:183,2,67.5,2|2|2,0:0|0:0|0:0,0:0:0:0:
344,159,308854,6,0,B|354:102|317:75|317:75|354:102|410:87,1,180,2|2,0:0|0:0,0:0:0:0:
197,278,310054,5,4,0:0:0:0:
256,192,310129,12,0,314854,0:0:0:0:
103,135,319654,5,4,3:0:0:0:
183,125,319749,1,4,3:0:0:0:
263,115,319844,1,4,3:0:0:0:
343,105,319939,1,4,3:0:0:0:
393,338,320511,5,4,3:0:0:0:
313,328,320606,1,4,3:0:0:0:
233,318,320701,1,4,3:0:0:0:
153,308,320796,1,4,3:0:0:0:
415,216,321939,5,4,3:0:0:0:
461,283,322034,1,4,3:0:0:0:
394,329,322130,1,4,3:0:0:0:
348,262,322225,1,4,3:0:0:0:
52,182,322796,5,4,3:0:0:0:
6,115,322891,1,4,3:0:0:0:
73,69,322987,1,4,3:0:0:0:
119,136,323082,1,4,3:0:0:0:
246,248,323939,5,4,0:0:0:0:
246,248,324225,5,12,3:0:0:0:
238,226,324296,1,8,3:0:0:0:
237,204,324367,1,8,3:0:0:0:
243,182,324439,1,8,3:0:0:0:
254,163,324510,1,6,3:1:0:0:
271,148,324582,1,4,3:0:0:0:
291,138,324653,1,4,3:0:0:0:
313,135,324725,1,4,3:0:0:0:
336,138,324796,5,12,3:0:0:0:
356,148,324867,1,8,3:0:0:0:
373,163,324939,1,10,3:1:0:0:
384,182,325010,1,8,3:0:0:0:
390,203,325082,1,6,3:1:0:0:
389,226,325153,1,4,3:0:0:0:
382,247,325225,1,4,3:0:0:0:
369,265,325296,1,4,3:0:0:0:
351,279,325368,6,0,L|357:344,7,45,12|8|8|8|10|8|8|8,3:0|3:0|3:0|3:0|3:1|3:0|3:0|3:0,0:0:0:0:
294,179,325939,2,0,L|298:134,7,45,12|4|6|4|6|4|4|4,3:0|3:0|3:1|3:0|3:1|3:0|3:0|3:0,0:0:0:0:
271,266,326511,5,12,3:0:0:0:
249,272,326582,1,8,3:0:0:0:
226,272,326653,1,8,3:0:0:0:
205,266,326725,1,8,3:0:0:0:
186,254,326796,1,6,3:1:0:0:
170,238,326868,1,4,3:0:0:0:
160,218,326939,1,4,3:0:0:0:
155,196,327011,1,4,3:0:0:0:
157,174,327082,5,12,3:0:0:0:
164,152,327153,1,8,3:0:0:0:
177,134,327225,1,8,3:0:0:0:
194,120,327296,1,8,3:0:0:0:
215,111,327368,1,4,3:0:0:0:
237,107,327439,1,4,3:0:0:0:
259,110,327511,1,4,3:0:0:0:
280,119,327582,1,4,3:0:0:0:
297,133,327654,6,0,P|328:142|380:130,7,45,12|8|8|8|8|8|8|8,3:0|3:0|3:0|3:0|3:0|3:0|3:0|3:0,0:0:0:0:
213,46,328225,2,0,P|190:47|169:55,7,45,12|4|4|4|4|4|4|4,3:0|3:0|3:0|3:0|3:0|3:0|3:0|3:0,0:0:0:0:
110,135,328796,5,12,3:0:0:0:
112,168,328867,1,8,3:0:0:0:
115,202,328938,1,8,3:0:0:0:
117,235,329010,1,8,3:0:0:0:
120,269,329082,1,6,3:1:0:0:
141,295,329153,1,4,3:0:0:0:
171,310,329224,1,4,3:0:0:0:
205,312,329296,1,4,3:0:0:0:
236,300,329368,5,12,3:0:0:0:
261,278,329439,1,8,3:0:0:0:
292,264,329510,1,8,3:0:0:0:
325,260,329582,1,10,3:1:0:0:
358,268,329654,1,6,3:1:0:0:
390,277,329725,1,4,3:0:0:0:
423,276,329796,1,4,3:0:0:0:
454,263,329868,1,4,3:0:0:0:
479,240,329939,6,0,L|471:189,3,45,12|8|8|8,3:0|3:0|3:0|3:0,0:0:0:0:
377,103,330225,2,0,L|370:148,3,45,4|4|4|4,3:0|3:0|3:0|3:0,0:0:0:0:
267,40,330511,2,0,L|344:27,3,45,12|8|8|10,3:0|3:0|3:0|3:1,0:0:0:0:
168,119,330797,2,0,L|90:106,3,45,6|4|4|4,3:1|3:0|3:0|3:0,0:0:0:0:
16,151,331082,6,0,L|20:222,1,45,8|0,3:0|3:0,0:0:0:0:
121,301,331225,2,0,L|125:230,1,45,8|0,3:0|3:0,0:0:0:0:
118,59,331368,2,0,L|122:130,1,45,4|0,3:0|3:0,0:0:0:0:
223,209,331511,2,0,L|227:138,1,45,4|0,3:0|3:0,0:0:0:0:
333,68,331654,6,0,P|277:70|261:64,1,45,8|0,3:0|3:0,0:0:0:0:
452,160,331796,2,0,P|474:163|494:172,1,45,8|0,3:0|3:0,0:0:0:0:
268,175,331939,2,0,P|215:156|202:145,1,45,4|0,3:0|3:0,0:0:0:0:
357,284,332082,2,0,P|376:295|395:317,1,45,4|0,3:0|3:0,0:0:0:0:
214,318,332225,5,8,3:0:0:0:
186,336,332296,1,8,3:0:0:0:
153,337,332367,1,8,3:0:0:0:
125,319,332439,1,8,3:0:0:0:
111,289,332510,1,4,3:0:0:0:
116,256,332582,1,4,3:0:0:0:
139,231,332653,1,4,3:0:0:0:
171,223,332725,1,4,3:0:0:0:
203,234,332796,5,8,3:0:0:0:
245,248,332867,1,8,3:0:0:0:
287,235,332938,1,8,3:0:0:0:
315,200,333010,1,8,3:0:0:0:
318,156,333081,1,4,3:0:0:0:
295,118,333153,1,4,3:0:0:0:
254,100,333224,1,4,3:0:0:0:
211,108,333296,1,4,3:0:0:0:
180,139,333368,6,0,L|191:200,3,45,4|4|4|4,0:0|3:0|3:0|3:0,0:0:0:0:
87,298,333654,2,0,L|97:237,3,45,8|8|8|8,3:0|3:0|3:0|3:0,0:0:0:0:
222,261,333939,2,0,L|161:271,3,45,4|4|4|4,3:0|3:0|3:0|3:0,0:0:0:0:
63,167,334225,2,0,L|123:177,3,45,8|8|8|8,3:0|3:0|3:0|3:0,0:0:0:0:
210,114,334511,5,8,3:0:0:0:
219,107,334582,1,8,3:0:0:0:
229,103,334653,1,8,3:0:0:0:
240,100,334725,1,10,3:0:0:0:
251,100,334796,1,6,3:0:0:0:
263,101,334868,1,4,3:0:0:0:
273,104,334939,1,4,3:0:0:0:
283,110,335011,1,6,3:0:0:0:
292,116,335082,5,10,3:0:0:0:
300,124,335153,1,8,3:0:0:0:
306,134,335225,1,8,3:0:0:0:
311,144,335296,1,10,3:0:0:0:
313,155,335368,1,6,3:0:0:0:
314,166,335439,1,4,3:0:0:0:
312,177,335511,1,4,3:0:0:0:
309,188,335582,1,4,3:0:0:0:
304,198,335654,6,0,P|288:251|291:267,3,45,4|8|8|8,0:0|3:0|3:0|3:0,0:0:0:0:
208,192,335939,2,0,P|167:229|162:245,3,45,4|4|4|4,3:0|3:0|3:0|3:0,0:0:0:0:
127,138,336225,2,0,P|73:150|60:161,3,45,8|8|8|8,3:0|3:0|3:0|3:0,0:0:0:0:
83,50,336511,2,0,P|30:34|14:36,3,45,4|4|4|4,3:0|3:0|3:0|3:0,0:0:0:0:
181,85,336796,5,8,3:0:0:0:
192,84,336867,1,8,3:0:0:0:
203,83,336938,1,8,3:0:0:0:
214,82,337010,1,8,3:0:0:0:
225,82,337081,1,6,3:0:0:0:
237,81,337153,1,4,3:0:0:0:
248,80,337224,1,4,3:0:0:0:
259,80,337296,1,4,3:0:0:0:
270,79,337367,5,8,3:0:0:0:
282,78,337438,1,8,3:0:0:0:
293,78,337510,1,8,3:0:0:0:
304,77,337581,1,8,3:0:0:0:
315,76,337653,1,6,3:0:0:0:
326,76,337724,1,4,3:0:0:0:
338,75,337796,1,4,3:0:0:0:
349,74,337867,1,4,3:0:0:0:
360,74,337939,6,0,L|354:19,3,45,4|8|8|8,0:0|3:0|3:0|3:0,0:0:0:0:
441,133,338225,2,0,L|447:78,3,45,4|4|4|4,3:0|3:0|3:0|3:0,0:0:0:0:
357,200,338511,2,0,L|351:145,3,45,8|8|8|8,3:0|3:0|3:0|3:0,0:0:0:0:
438,259,338797,2,0,L|444:204,3,45,4|4|4|4,3:0|3:0|3:0|3:0,0:0:0:0:
382,328,339082,5,10,3:0:0:0:
373,320,339153,1,8,3:0:0:0:
364,314,339224,1,10,3:0:0:0:
354,308,339296,1,8,3:0:0:0:
344,304,339367,1,6,3:0:0:0:
333,300,339439,1,4,3:0:0:0:
322,298,339510,1,4,3:0:0:0:
311,297,339582,1,4,3:0:0:0:
300,297,339653,5,10,3:0:0:0:
288,299,339724,1,8,3:0:0:0:
277,301,339796,1,10,3:0:0:0:
267,305,339867,1,8,3:0:0:0:
257,309,339939,1,6,3:0:0:0:
247,315,340010,1,4,3:0:0:0:
238,322,340082,1,4,3:0:0:0:
230,330,340153,1,4,3:0:0:0:
221,336,340225,6,0,L|138:325,3,45,4|8|8|8,0:0|3:0|3:0|3:0,0:0:0:0:
96,240,340511,2,0,L|179:229,3,45,4|4|4|4,3:0|3:0|3:0|3:0,0:0:0:0:
229,144,340796,2,0,L|146:133,3,45,8|8|8|8,3:0|3:0|3:0|3:0,0:0:0:0:
104,48,341082,2,0,L|187:37,3,45,4|4|4|4,3:0|3:0|3:0|3:0,0:0:0:0:
42,185,341368,6,0,P|32:133|38:113,3,45,4|8|8|8,0:0|3:0|3:0|3:0,0:0:0:0:
143,257,341654,2,0,P|153:309|147:329,3,45,4|4|4|4,3:0|3:0|3:0|3:0,0:0:0:0:
6,283,341939,2,0,P|29:281|50:273,3,45,8|8|8|8,3:0|3:0|3:0|3:0,0:0:0:0:
165,161,342225,2,0,P|142:163|122:172,3,45,4|4|6|4,3:0|3:0|3:0|3:0,0:0:0:0:
258,210,342511,5,4,0:0:0:0:
277,221,342582,1,8,3:0:0:0:
299,225,342653,1,8,3:0:0:0:
321,221,342725,1,8,3:0:0:0:
340,210,342796,1,6,3:0:0:0:
354,192,342868,1,4,3:0:0:0:
360,171,342939,1,4,3:0:0:0:
358,148,343011,1,4,3:0:0:0:
349,128,343082,5,10,3:0:0:0:
333,112,343153,1,8,3:0:0:0:
313,104,343225,1,10,3:0:0:0:
290,103,343296,1,8,3:0:0:0:
268,110,343368,1,6,3:1:0:0:
249,123,343439,1,4,3:0:0:0:
228,130,343510,1,4,3:0:0:0:
206,131,343582,1,4,3:0:0:0:
184,125,343654,6,0,L|188:64,3,45,8|8|8|8,3:0|3:0|3:0|3:0,0:0:0:0:
248,233,343940,2,0,L|250:277,3,45,4|4|4|4,3:0|3:0|3:0|3:0,0:0:0:0:
268,146,344225,2,0,L|329:150,3,45,8|8|8|8,3:0|3:0|3:0|3:0,0:0:0:0:
160,210,344511,2,0,L|116:212,3,45,4|4|4|4,3:0|3:0|3:0|3:0,0:0:0:0:
237,175,344796,5,4,0:0:0:0:
254,161,344867,1,8,3:0:0:0:
275,153,344938,1,8,3:0:0:0:
298,152,345010,1,8,3:0:0:0:
320,157,345081,1,6,3:0:0:0:
339,168,345153,1,4,3:0:0:0:
354,185,345224,1,4,3:0:0:0:
364,205,345296,1,4,3:0:0:0:
367,227,345367,5,10,3:0:0:0:
364,249,345438,1,8,3:0:0:0:
355,270,345510,1,8,3:0:0:0:
340,286,345581,1,10,3:0:0:0:
320,298,345653,1,6,3:1:0:0:
299,303,345724,1,4,3:0:0:0:
276,302,345796,1,4,3:0:0:0:
255,295,345867,1,4,3:0:0:0:
238,281,345939,6,0,P|203:265|166:263,3,45,8|8|8|8,3:0|3:0|3:0|3:0,0:0:0:0:
136,196,346225,2,0,P|171:180|208:178,3,45,4|4|4|4,3:0|3:0|3:0|3:0,0:0:0:0:
254,138,346511,2,0,P|227:110|193:95,3,45,8|8|8|8,3:0|3:0|3:0|3:0,0:0:0:0:
189,22,346797,2,0,P|227:19|262:30,3,45,4|4|4|4,3:0|3:0|3:0|3:0,0:0:0:0:
325,149,347082,5,4,0:0:0:0:
356,158,347153,1,8,3:0:0:0:
389,151,347224,1,8,3:0:0:0:
413,128,347296,1,8,3:0:0:0:
422,96,347367,1,4,3:0:0:0:
414,63,347439,1,4,3:0:0:0:
390,40,347510,1,4,3:0:0:0:
358,31,347582,1,4,3:0:0:0:
326,41,347654,5,8,3:0:0:0:
302,65,347725,1,8,3:0:0:0:
274,83,347796,1,8,3:0:0:0:
243,97,347868,1,8,3:0:0:0:
210,104,347939,1,6,3:1:0:0:
176,104,348011,1,4,3:0:0:0:
143,98,348082,1,4,3:0:0:0:
112,86,348154,1,4,3:0:0:0:
83,68,348225,6,0,L|89:15,3,45,8|8|8|8,3:0|3:0|3:0|3:0,0:0:0:0:
5,148,348511,2,0,L|0:94,3,45,4|4|4|4,3:0|3:0|3:0|3:0,0:0:0:0:
99,216,348796,2,0,L|104:162,3,45,8|8|8|8,3:0|3:0|3:0|3:0,0:0:0:0:
20,295,349082,2,0,L|14:241,3,45,4|4|4|4,3:0|3:0|3:0|3:0,0:0:0:0:
68,354,349368,5,8,3:0:0:0:
68,320,349439,1,8,3:0:0:0:
83,290,349510,1,8,3:0:0:0:
109,268,349582,1,10,3:0:0:0:
141,260,349653,1,6,3:1:0:0:
174,265,349725,1,4,3:0:0:0:
202,283,349796,1,4,3:0:0:0:
220,311,349868,1,4,3:0:0:0:
179,333,349939,5,10,3:0:0:0:
126,313,350010,1,8,3:0:0:0:
90,270,350081,1,10,3:0:0:0:
80,216,350153,1,8,3:0:0:0:
97,164,350224,1,6,3:1:0:0:
138,126,350296,1,4,3:0:0:0:
191,113,350367,1,4,3:0:0:0:
244,128,350439,1,4,3:0:0:0:
284,166,350511,5,10,3:0:0:0:
335,212,350582,1,8,3:0:0:0:
405,218,350653,1,8,3:0:0:0:
463,182,350725,1,8,3:0:0:0:
485,119,350796,1,4,3:0:0:0:
473,52,350868,1,4,3:0:0:0:
419,8,350939,1,4,3:0:0:0:
351,3,351011,1,4,3:0:0:0:
301,26,351082,5,10,3:0:0:0:
284,49,351153,1,8,3:0:0:0:
263,67,351224,1,8,3:0:0:0:
237,79,351296,1,8,3:0:0:0:
210,83,351368,2,0,L|201:28,3,45,2|2|2|2,0:0|0:0|0:0|0:0,0:0:0:0:
187,220,351654,5,4,0:0:0:0:
166,259,351722,1,8,3:0:0:0:
127,280,351790,1,4,3:0:0:0:
83,275,351858,1,4,3:0:0:0:
50,246,351926,1,8,3:0:0:0:
39,203,351994,1,8,3:0:0:0:
54,162,352063,1,4,3:0:0:0:
91,136,352131,1,4,3:0:0:0:
135,136,352199,5,8,3:0:0:0:
174,156,352267,1,8,3:0:0:0:
218,150,352335,1,4,3:0:0:0:
250,119,352403,1,4,3:0:0:0:
257,75,352471,1,8,3:0:0:0:
238,35,352539,1,8,3:0:0:0:
198,15,352608,1,4,3:0:0:0:
155,21,352676,6,0,L|152:88,1,45,8|0,3:0|0:0,0:0:0:0:
81,180,352813,2,0,P|117:205|133:246,1,90,8|0,3:0|0:0,0:0:0:0:
231,227,353017,2,0,P|222:184|238:143,1,90,8|0,3:0|0:0,0:0:0:0:
394,186,353222,6,0,L|277:187,1,90,8|0,3:0|0:0,0:0:0:0:
194,78,353426,2,0,B|241:66|241:66|288:80,1,90,8|0,3:0|0:0,0:0:0:0:
123,126,353631,2,0,P|109:67|126:27,1,90,8|0,3:0|0:0,0:0:0:0:
83,248,353835,5,8,3:0:0:0:
109,212,353903,1,8,3:0:0:0:
152,199,353971,1,4,3:0:0:0:
194,212,354039,1,4,3:0:0:0:
221,247,354107,1,8,3:0:0:0:
224,291,354175,1,8,3:0:0:0:
200,329,354244,1,4,3:0:0:0:
159,346,354312,1,4,3:0:0:0:
116,337,354381,5,8,3:0:0:0:
124,293,354449,1,8,3:0:0:0:
153,260,354517,1,4,3:0:0:0:
195,245,354585,1,4,3:0:0:0:
239,253,354653,1,8,3:0:0:0:
272,282,354721,1,8,3:0:0:0:
287,324,354790,1,4,3:0:0:0:
281,364,354858,6,0,P|256:368|176:353,1,90,4|0,3:0|0:0,0:0:0:0:
99,303,355063,2,0,L|95:248,1,45,4|0,3:0|0:0,0:0:0:0:
169,132,355199,2,0,L|162:257,1,90,4|4,3:0|3:0,0:0:0:0:
319,107,355472,6,0,P|278:86|217:86,1,90,8|0,3:0|0:0,0:0:0:0:
260,217,355676,2,0,L|366:215,1,90,8|0,3:0|0:0,0:0:0:0:
402,104,355881,2,0,P|397:131|402:157,1,45,8|0,3:0|0:0,0:0:0:0:
431,306,356017,6,0,P|443:237|410:191,1,90,4|0,3:0|0:0,0:0:0:0:
334,135,356290,1,8,3:0:0:0:
295,112,356358,1,8,3:0:0:0:
251,105,356426,1,4,3:0:0:0:
207,116,356494,1,4,3:0:0:0:
171,142,356563,5,8,3:0:0:0:
134,167,356631,1,8,3:0:0:0:
91,178,356699,1,4,3:0:0:0:
46,171,356767,1,4,3:0:0:0:
8,149,356835,2,0,L|13:88,3,45,2|2|2|2,0:0|0:0|0:0|0:0,0:0:0:0:
70,239,357108,5,8,3:0:0:0:
55,279,357176,1,8,3:0:0:0:
68,322,357244,1,4,3:0:0:0:
104,349,357312,1,4,3:0:0:0:
148,349,357380,1,8,3:0:0:0:
183,322,357448,1,8,3:0:0:0:
196,281,357517,1,4,3:0:0:0:
181,238,357585,1,4,3:0:0:0:
141,197,357654,5,8,3:0:0:0:
114,161,357722,1,8,3:0:0:0:
108,117,357790,1,4,3:0:0:0:
127,76,357858,1,4,3:0:0:0:
164,52,357926,1,8,3:0:0:0:
207,48,357994,1,8,3:0:0:0:
247,70,358063,1,4,3:0:0:0:
269,108,358131,1,4,3:0:0:0:
269,153,358199,6,0,P|256:208|272:279,1,90,4|0,3:0|0:0,0:0:0:0:
32,157,358472,2,0,P|45:102|29:31,1,90,4|0,3:0|0:0,0:0:0:0:
79,248,358744,6,0,L|202:229,1,90,8|0,3:0|0:0,0:0:0:0:
269,153,358949,2,0,L|146:134,1,90,8|0,3:0|0:0,0:0:0:0:
104,49,359154,2,0,P|97:77|102:104,1,45,8|0,3:0|0:0,0:0:0:0:
180,139,359290,5,4,3:0:0:0:
180,139,359358,2,0,P|232:120|302:117,1,90,4|4,3:0|3:0,0:0:0:0:
350,194,359563,1,4,0:0:0:0:
394,190,359631,1,8,3:0:0:0:
431,166,359699,1,4,3:0:0:0:
453,127,359767,1,4,3:0:0:0:
455,82,359835,5,8,3:0:0:0:
435,42,359903,1,8,3:0:0:0:
399,16,359972,1,4,3:0:0:0:
355,10,360040,1,4,3:0:0:0:
313,25,360108,5,8,3:0:0:0:
280,55,360176,1,8,3:0:0:0:
240,73,360244,1,4,3:0:0:0:
195,77,360312,1,4,3:0:0:0:
152,66,360381,6,0,L|146:16,3,45,4|8|4|4,0:0|3:0|3:0|3:0,0:0:0:0:
110,159,360654,1,8,3:0:0:0:
91,199,360722,1,8,3:0:0:0:
96,243,360790,1,4,3:0:0:0:
124,277,360858,1,4,3:0:0:0:
167,291,360926,5,8,3:0:0:0:
209,280,360994,1,8,3:0:0:0:
240,247,361063,1,4,3:0:0:0:
248,204,361131,1,4,3:0:0:0:
232,162,361199,5,8,3:0:0:0:
30,283,361335,2,0,P|-1:182|59:95,1,180,8|8,3:0|3:0,0:0:0:0:
254,262,361744,2,0,L|357:257,1,90,8|8,3:0|3:0,0:0:0:0:
233,98,362017,2,0,L|130:93,1,90,8|8,3:0|3:0,0:0:0:0:
90,182,362222,1,8,3:0:0:0:
90,182,362290,2,0,P|102:231|102:243,1,45,4|0,3:0|0:0,0:0:0:0:
176,318,362426,1,4,3:0:0:0:
206,311,362494,1,4,3:0:0:0:
236,304,362563,5,8,3:0:0:0:
231,259,362631,1,8,3:0:0:0:
251,219,362699,1,4,3:0:0:0:
288,195,362767,1,4,3:0:0:0:
332,193,362835,1,8,3:0:0:0:
371,214,362903,1,8,3:0:0:0:
394,252,362972,1,4,3:0:0:0:
399,295,363040,1,4,3:0:0:0:
432,325,363108,5,8,3:0:0:0:
475,323,363176,1,8,3:0:0:0:
507,293,363244,1,4,3:0:0:0:
510,249,363312,1,4,3:0:0:0:
482,215,363381,5,8,3:0:0:0:
319,281,363517,2,0,L|136:265,1,180,8|8,3:0|3:0,0:0:0:0:
297,116,363926,2,0,P|357:93|415:107,1,90,8|8,3:0|3:0,0:0:0:0:
203,161,364199,2,0,P|158:159|118:139,1,90,8|8,3:0|3:0,0:0:0:0:
60,62,364404,1,8,3:0:0:0:
60,62,364472,2,0,L|63:4,1,45,4|0,3:0|0:0,0:0:0:0:
120,184,364608,2,0,L|117:126,1,45,4|0,3:0|0:0,0:0:0:0:
36,228,364744,5,8,3:0:0:0:
66,260,364812,1,8,3:0:0:0:
108,275,364880,1,8,3:0:0:0:
153,269,364948,1,4,3:0:0:0:
190,244,365016,1,6,3:1:0:0:
211,206,365084,5,8,3:0:0:0:
214,161,365154,1,10,3:1:0:0:
215,116,365222,1,8,3:0:0:0:
237,78,365290,1,4,3:0:0:0:
274,53,365358,1,4,3:0:0:0:
318,47,365426,5,6,3:1:0:0:
360,63,365494,1,4,3:0:0:0:
391,95,365563,1,6,3:1:0:0:
403,138,365631,1,4,3:0:0:0:
395,182,365699,1,4,3:0:0:0:
362,151,365767,1,4,3:0:0:0:
348,109,365835,5,6,3:1:0:0:
356,65,365903,1,4,3:0:0:0:
384,31,365971,1,10,3:1:0:0:
425,14,366039,1,4,3:0:0:0:
469,19,366108,5,8,3:0:0:0:
506,45,366176,1,4,3:0:0:0:
512,85,366244,1,4,3:0:0:0:
512,129,366312,1,4,3:0:0:0:
500,167,366381,6,0,P|482:230|506:308,1,135,8|0,3:0|0:0,0:0:0:0:
406,349,366654,2,0,L|326:338,1,45,4|0,3:0|0:0,0:0:0:0:
250,232,366790,2,0,L|294:225,1,45,4|0,3:0|0:0,0:0:0:0:
205,129,366926,5,4,3:0:0:0:
197,85,366994,1,4,3:0:0:0:
165,54,367062,1,8,3:0:0:0:
122,46,367130,1,8,3:0:0:0:
82,65,367198,1,4,3:0:0:0:
60,104,367266,1,4,3:0:0:0:
64,148,367335,1,8,3:0:0:0:
93,181,367403,1,8,3:0:0:0:
136,192,367472,5,6,3:0:0:0:
180,183,367540,1,4,3:0:0:0:
222,198,367608,1,8,3:0:0:0:
250,232,367676,1,8,3:0:0:0:
257,276,367745,1,6,3:0:0:0:
241,317,367813,1,4,3:0:0:0:
206,344,367881,1,8,3:0:0:0:
161,350,367949,1,8,3:0:0:0:
121,332,368017,5,6,0:1:0:0:
149,286,368085,1,8,3:0:0:0:
195,259,368153,1,4,3:0:0:0:
248,253,368221,1,4,3:0:0:0:
298,272,368290,5,6,0:1:0:0:
346,295,368358,1,8,3:0:0:0:
399,288,368426,1,4,3:0:0:0:
438,252,368494,1,4,3:0:0:0:
451,200,368562,5,6,0:1:0:0:
444,147,368631,1,12,3:0:0:0:
412,104,368699,1,4,3:0:0:0:
363,83,368767,1,4,3:0:0:0:
309,88,368835,6,0,L|325:9,3,45,2|2|2|2,0:1|0:0|0:0|0:0,0:0:0:0:
287,236,369108,5,8,3:0:0:0:
244,220,369176,1,8,3:0:0:0:
200,218,369244,1,8,3:0:0:0:
156,230,369312,1,8,3:0:0:0:
115,247,369380,1,6,3:0:0:0:
70,254,369448,1,4,3:0:0:0:
27,242,369517,1,8,3:0:0:0:
1,207,369585,1,8,3:0:0:0:
1,163,369654,6,0,L|15:108,1,45,8|0,3:0|0:0,0:0:0:0:
103,68,369790,2,0,P|171:108|215:100,1,90,4|4,3:0|3:0,0:0:0:0:
316,40,370063,2,0,L|239:41,1,45,4|0,3:0|0:0,0:0:0:0:
179,108,370199,5,4,3:0:0:0:
138,124,370267,1,4,3:0:0:0:
113,162,370335,1,0,0:0:0:0:
115,206,370403,1,0,0:0:0:0:
142,241,370471,1,6,3:1:0:0:
184,255,370539,1,4,3:0:0:0:
226,242,370608,1,0,0:0:0:0:
254,208,370676,1,0,0:0:0:0:
256,163,370744,5,6,3:1:0:0:
212,168,370812,1,4,3:0:0:0:
177,195,370880,1,0,0:0:0:0:
162,237,370948,1,0,0:0:0:0:
170,280,371016,1,6,3:1:0:0:
201,313,371084,1,4,3:0:0:0:
243,324,371153,1,8,3:0:0:0:
286,312,371221,1,8,3:0:0:0:
315,279,371290,6,0,P|310:224|311:202,1,45,4|0,3:0|0:0,0:0:0:0:
397,157,371426,2,0,P|402:102|401:80,1,45,4|0,3:0|0:0,0:0:0:0:
226,60,371563,2,0,P|299:76|357:56,1,135,4|0,3:0|0:0,0:0:0:0:
396,201,371835,2,0,L|397:130,1,45,4|0,3:0|0:0,0:0:0:0:
323,264,371972,2,0,P|368:299|439:299,1,90,4|4,3:0|3:0,0:0:0:0:
231,181,372244,2,0,L|177:171,1,45,4|0,3:0|0:0,0:0:0:0:
99,185,372381,5,8,3:0:0:0:
69,152,372449,1,8,3:0:0:0:
63,108,372517,1,4,3:0:0:0:
84,69,372585,1,4,3:0:0:0:
124,50,372653,1,0,0:0:0:0:
167,57,372721,1,8,3:0:0:0:
199,89,372790,1,4,3:0:0:0:
206,132,372858,1,0,0:0:0:0:
186,172,372926,5,10,1:0:0:0:
167,212,372994,1,8,3:0:0:0:
173,256,373062,1,4,3:0:0:0:
202,290,373130,1,0,0:0:0:0:
244,303,373198,1,10,1:0:0:0:
287,291,373266,1,8,3:0:0:0:
317,258,373335,1,4,3:0:0:0:
324,214,373403,1,4,3:0:0:0:
307,173,373472,6,0,P|294:115|348:41,1,135,8|0,3:0|0:0,0:0:0:0:
435,76,373744,2,0,P|448:134|394:208,1,135,8|0,3:0|0:0,0:0:0:0:
328,264,374017,2,0,L|223:246,1,90,4|0,3:0|0:0,0:0:0:0:
100,188,374222,2,0,P|167:168|207:177,1,90,4|0,3:0|0:0,0:0:0:0:
265,103,374426,2,0,L|266:164,1,45,4|0,3:0|0:0,0:0:0:0:
243,335,374563,6,0,B|230:296|230:296|242:232,1,90,8|0,3:0|0:0,0:0:0:0:
352,192,374767,2,0,B|365:231|365:231|353:295,1,90,8|0,3:0|0:0,0:0:0:0:
242,146,374972,2,0,L|298:136,1,45,8|0,3:0|0:0,0:0:0:0:
412,86,375108,2,0,P|368:68|319:76,1,90,8|8,3:0|3:0,0:0:0:0:
286,138,375313,1,8,3:0:0:0:
286,138,375381,2,0,L|294:197,3,45,4|4|4|4,3:0|3:0|3:0|3:0,0:0:0:0:
234,58,375654,5,8,3:0:0:0:
191,46,375722,1,8,3:0:0:0:
147,56,375790,1,4,3:0:0:0:
115,87,375858,1,4,3:0:0:0:
102,130,375926,1,8,3:0:0:0:
112,173,375994,1,8,3:0:0:0:
100,216,376062,1,6,1:0:0:0:
68,248,376130,1,4,3:0:0:0:
26,262,376199,5,10,1:0:0:0:
27,217,376267,1,8,3:0:0:0:
46,177,376335,1,4,3:0:0:0:
81,149,376403,1,4,3:0:0:0:
124,137,376471,1,8,3:0:0:0:
168,145,376539,1,8,3:0:0:0:
205,171,376608,1,4,3:0:0:0:
227,209,376676,1,4,3:0:0:0:
232,254,376744,5,8,3:0:0:0:
217,296,376812,1,8,3:0:0:0:
186,328,376880,1,8,3:0:0:0:
144,344,376949,1,8,3:0:0:0:
100,342,377017,5,4,0:0:0:0:
50,323,377085,1,8,3:0:0:0:
17,281,377153,1,10,1:0:0:0:
12,228,377221,1,8,3:0:0:0:
36,180,377290,5,6,1:0:0:0:
77,165,377358,1,4,3:0:0:0:
106,131,377426,1,4,3:0:0:0:
113,87,377494,1,4,3:0:0:0:
97,45,377563,5,4,3:0:0:0:
59,82,377631,1,4,3:0:0:0:
50,135,377699,1,4,3:0:0:0:
74,182,377767,1,4,3:0:0:0:
121,206,377835,6,0,P|195:193|283:233,1,135,8|4,3:0|3:0,0:0:0:0:
338,263,378108,1,4,3:0:0:0:
381,254,378176,1,4,3:0:0:0:
414,224,378244,1,8,3:0:0:0:
428,182,378312,1,8,3:0:0:0:
419,138,378380,1,6,3:1:0:0:
389,105,378448,1,4,3:0:0:0:
347,92,378517,1,8,3:0:0:0:
304,101,378585,1,10,3:0:0:0:
271,131,378654,5,6,3:1:0:0:
241,164,378722,1,4,3:0:0:0:
198,175,378790,1,10,1:0:0:0:
156,160,378858,1,8,3:0:0:0:
129,124,378926,1,6,1:0:0:0:
127,80,378994,1,4,3:0:0:0:
149,42,379063,1,10,1:0:0:0:
189,23,379131,1,8,3:0:0:0:
233,29,379199,5,4,3:0:0:0:
222,72,379267,1,4,3:0:0:0:
195,107,379335,1,10,3:1:0:0:
156,129,379403,1,8,3:0:0:0:
112,134,379471,1,6,3:1:0:0:
69,120,379539,1,4,3:0:0:0:
36,91,379608,6,0,L|35:23,1,45,10|2,3:1|0:1,0:0:0:0:
61,183,379744,1,4,3:0:0:0:
59,216,379812,1,4,3:0:0:0:
57,250,379880,1,8,3:0:0:0:
55,284,379948,1,8,3:0:0:0:
54,317,380017,5,4,3:0:0:0:
254,338,380154,1,4,3:0:0:0:
182,178,380290,2,0,P|168:236|175:315,1,135,8|4,3:0|3:0,0:0:0:0:
344,159,380563,2,0,L|247:141,1,90
363,274,380767,2,0,P|430:257|449:134,1,180,4|0,3:0|0:0,0:0:0:0:
405,91,381108,5,8,3:0:0:0:
360,85,381176,1,8,3:0:0:0:
315,80,381244,1,4,3:0:0:0:
270,75,381312,1,4,3:0:0:0:
248,30,381381,5,8,3:0:0:0:
203,35,381449,1,8,3:0:0:0:
158,40,381517,1,4,3:0:0:0:
113,45,381586,1,4,3:0:0:0:
69,50,381654,5,8,3:0:0:0:
102,79,381722,1,8,3:0:0:0:
113,121,381790,1,4,3:0:0:0:
98,163,381858,1,4,3:0:0:0:
62,189,381926,2,0,L|11:184,3,45,8|8|4|4,3:0|3:0|3:0|3:0,0:0:0:0:
147,191,382199,5,6,3:0:0:0:
164,170,382267,1,6,3:0:0:0:
186,156,382335,1,4,3:0:0:0:
211,148,382403,1,4,3:0:0:0:
237,149,382471,1,4,3:0:0:0:
263,156,382539,1,4,3:0:0:0:
285,171,382608,1,6,3:0:0:0:
301,191,382676,1,6,3:0:0:0:
313,216,382744,5,8,3:0:0:0:
323,240,382812,1,8,3:0:0:0:
341,260,382880,1,8,3:0:0:0:
365,274,382948,1,8,3:0:0:0:
391,279,383016,1,10,3:0:0:0:
418,276,383084,1,10,3:0:0:0:
442,265,383153,1,8,3:0:0:0:
462,246,383221,1,8,3:0:0:0:
475,223,383290,6,0,L|469:154,3,45,4|4|4|4,0:0|3:0|3:0|3:0,0:0:0:0:
383,97,383563,2,0,L|376:166,3,45,8|8|8|8,3:0|3:0|3:0|3:0,0:0:0:0:
282,219,383835,2,0,L|275:149,3,45,4|4|4|4,3:0|3:0|3:0|3:0,0:0:0:0:
189,92,384108,2,0,L|182:161,3,45,8|8|8|8,3:0|3:0|3:0|3:0,0:0:0:0:
76,46,384381,5,4,3:0:0:0:
55,55,384449,1,4,3:0:0:0:
38,70,384517,1,4,3:0:0:0:
26,88,384585,1,4,3:0:0:0:
18,109,384653,1,10,3:0:0:0:
17,132,384721,1,8,3:0:0:0:
22,154,384790,1,8,3:0:0:0:
32,174,384858,1,8,3:0:0:0:
47,190,384926,5,6,3:0:0:0:
66,202,384994,1,4,3:0:0:0:
87,208,385062,1,6,3:0:0:0:
110,209,385131,1,4,3:0:0:0:
132,204,385199,1,10,3:1:0:0:
151,193,385267,1,8,3:0:0:0:
167,177,385335,1,8,3:0:0:0:
178,157,385403,1,8,3:0:0:0:
185,136,385472,5,4,3:0:0:0:
186,108,385540,1,4,3:0:0:0:
196,81,385608,1,4,3:0:0:0:
212,58,385676,1,4,3:0:0:0:
234,40,385744,1,10,3:1:0:0:
259,29,385812,1,8,3:0:0:0:
287,25,385881,1,8,3:0:0:0:
315,29,385949,1,8,3:0:0:0:
341,40,386017,5,6,3:0:0:0:
362,57,386085,1,4,3:0:0:0:
379,80,386153,1,6,3:0:0:0:
388,106,386222,1,4,3:0:0:0:
391,134,386290,1,10,3:1:0:0:
385,162,386358,1,8,3:0:0:0:
373,187,386426,1,8,3:0:0:0:
354,208,386494,1,8,3:0:0:0:
330,223,386563,5,6,3:0:0:0:
302,188,386631,1,4,3:0:0:0:
290,145,386699,1,4,3:0:0:0:
296,100,386767,1,4,3:0:0:0:
319,62,386835,1,10,3:1:0:0:
355,36,386903,1,8,3:0:0:0:
399,27,386972,1,10,3:0:0:0:
443,35,387040,1,8,3:0:0:0:
480,60,387108,5,6,3:1:0:0:
504,98,387176,1,4,3:0:0:0:
511,142,387244,1,6,3:0:0:0:
500,185,387313,1,4,3:0:0:0:
473,221,387381,1,10,3:1:0:0:
430,231,387449,1,8,3:0:0:0:
397,262,387517,1,8,3:0:0:0:
385,304,387585,1,8,3:0:0:0:
397,347,387654,5,6,3:1:0:0:
447,303,387722,1,4,3:0:0:0:
474,242,387790,1,6,3:1:0:0:
475,175,387858,1,4,3:0:0:0:
448,113,387926,1,10,3:1:0:0:
398,68,387994,1,8,3:0:0:0:
334,48,388063,1,10,3:1:0:0:
268,54,388131,1,8,3:0:0:0:
210,88,388199,5,6,3:1:0:0:
170,142,388267,1,4,3:0:0:0:
157,208,388335,1,6,3:1:0:0:
112,256,388403,1,4,3:0:0:0:
46,259,388472,6,0,L|46:199,3,45,2|2|2|2,0:0|0:0|0:0|0:0,0:0:0:0:
108,339,388744,5,6,0:0:0:0:
121,349,388809,1,2,0:0:0:0:
136,356,388874,1,2,0:0:0:0:
153,358,388939,1,2,0:0:0:0:
169,356,389004,1,2,0:0:0:0:
185,350,389070,1,2,0:0:0:0:
198,339,389135,1,2,0:0:0:0:
208,326,389200,1,2,0:0:0:0:
215,310,389265,5,2,0:0:0:0:
216,294,389330,1,2,0:0:0:0:
214,277,389396,1,2,0:0:0:0:
207,262,389461,1,2,0:0:0:0:
196,249,389526,1,2,0:0:0:0:
182,239,389591,1,2,0:0:0:0:
167,233,389657,1,2,0:0:0:0:
150,232,389722,1,2,0:0:0:0:
134,236,389787,5,2,0:0:0:0:
118,243,389852,1,2,0:0:0:0:
102,247,389917,1,2,0:0:0:0:
85,246,389982,1,2,0:0:0:0:
69,241,390047,1,2,0:0:0:0:
55,231,390113,1,2,0:0:0:0:
44,219,390178,1,2,0:0:0:0:
36,204,390243,1,2,0:0:0:0:
32,188,390308,5,2,0:0:0:0:
33,171,390373,1,2,0:0:0:0:
37,155,390439,1,2,0:0:0:0:
46,141,390504,1,2,0:0:0:0:
58,129,390569,1,2,0:0:0:0:
73,121,390634,1,2,0:0:0:0:
90,117,390700,1,2,0:0:0:0:
106,117,390765,1,2,0:0:0:0:
124,122,390830,6,0,L|193:117,7,45,0|0|0|0|0|0|0|0,0:0|0:0|0:0|0:0|0:0|0:0|0:0|0:0,0:0:0:0:
258,273,391352,2,0,L|189:268,7,45,0|0|0|0|0|0|0|0,0:0|0:0|0:0|0:0|0:0|0:0|0:0|0:0,0:0:0:0:
387,312,391874,5,0,0:0:0:0:
386,300,391939,1,0,0:0:0:0:
385,289,392004,1,0,0:0:0:0:
385,278,392069,1,0,0:0:0:0:
384,267,392134,1,0,0:0:0:0:
384,255,392200,1,0,0:0:0:0:
383,244,392265,1,0,0:0:0:0:
382,233,392330,1,0,0:0:0:0:
382,222,392396,6,0,L|374:163,1,45,8|0,3:0|0:0,0:0:0:0:
290,64,392526,2,0,L|282:123,1,45,8|0,3:0|0:0,0:0:0:0:
232,225,392657,1,0,3:0:0:0:
232,225,392722,1,0,3:0:0:0:
232,225,392787,2,0,P|204:215|165:214,1,45,8|0,3:0|0:0,0:0:0:0:
115,174,392917,5,6,0:0:0:0:
84,156,392982,1,0,0:0:0:0:
64,126,393047,1,0,0:0:0:0:
62,90,393112,1,0,0:0:0:0:
76,58,393177,1,2,0:0:0:0:
105,36,393243,1,0,0:0:0:0:
140,30,393308,1,0,0:0:0:0:
174,42,393373,1,0,0:0:0:0:
198,68,393439,5,2,0:0:0:0:
206,103,393504,1,0,0:0:0:0:
226,133,393569,1,0,0:0:0:0:
256,152,393634,1,0,0:0:0:0:
291,159,393699,1,2,0:0:0:0:
326,153,393765,1,0,0:0:0:0:
356,133,393830,1,2,0:0:0:0:
383,111,393895,1,0,0:0:0:0:
418,104,393960,5,2,0:0:0:0:
452,114,394025,1,0,0:0:0:0:
478,139,394090,1,0,0:0:0:0:
489,173,394156,1,0,0:0:0:0:
482,208,394222,1,2,0:0:0:0:
458,245,394287,1,0,0:0:0:0:
417,261,394352,1,0,0:0:0:0:
373,252,394417,1,0,0:0:0:0:
343,220,394483,5,2,0:0:0:0:
310,190,394548,1,0,0:0:0:0:
267,180,394613,1,0,0:0:0:0:
225,194,394678,1,0,0:0:0:0:
196,228,394744,2,0,L|193:280,1,45,0|0,3:0|0:0,0:0:0:0:
112,132,394874,2,0,L|108:80,1,45,0|0,3:0|0:0,0:0:0:0:
213,46,395004,5,4,0:0:0:0:
246,44,395069,1,0,0:0:0:0:
280,43,395134,1,0,0:0:0:0:
314,41,395199,1,0,0:0:0:0:
347,40,395265,2,0,P|343:86|349:103,1,45,0|0,3:0|0:0,0:0:0:0:
425,234,395396,2,0,P|429:188|423:171,1,45,0|0,3:0|0:0,0:0:0:0:
223,213,395526,5,4,0:0:0:0:
256,210,395591,1,0,0:0:0:0:
290,207,395656,1,0,0:0:0:0:
323,204,395721,1,0,0:0:0:0:
357,201,395787,2,0,L|351:264,1,45,0|0,3:0|0:0,0:0:0:0:
231,340,395917,2,0,L|224:277,1,45,0|0,3:0|0:0,0:0:0:0:
156,192,396048,5,6,0:0:0:0:
140,165,396113,1,0,0:0:0:0:
139,133,396178,1,0,0:0:0:0:
153,106,396243,1,0,0:0:0:0:
179,88,396308,1,2,0:0:0:0:
210,85,396374,1,0,0:0:0:0:
238,98,396439,1,0,0:0:0:0:
258,122,396504,1,0,0:0:0:0:
262,153,396570,6,0,L|254:247,1,90,12|0,3:0|0:0,0:0:0:0:
107,303,396765,2,0,L|99:209,1,90,12|0,3:0|0:0,0:0:0:0:
230,319,396961,2,0,P|191:331|164:331,1,45,12|0,3:0|0:0,0:0:0:0:
244,234,397091,5,6,0:0:0:0:
236,189,397156,1,0,0:0:0:0:
249,147,397221,1,0,0:0:0:0:
278,113,397286,1,0,0:0:0:0:
319,95,397351,1,2,0:0:0:0:
364,97,397417,1,0,0:0:0:0:
403,117,397482,1,0,0:0:0:0:
431,152,397547,1,0,0:0:0:0:
440,196,397612,5,2,0:0:0:0:
430,240,397677,1,0,0:0:0:0:
402,275,397743,1,0,0:0:0:0:
362,294,397808,1,0,0:0:0:0:
318,295,397874,1,2,0:0:0:0:
317,251,397939,1,0,0:0:0:0:
296,212,398004,1,2,0:0:0:0:
259,187,398069,1,0,0:0:0:0:
215,182,398135,5,2,0:0:0:0:
174,199,398200,1,0,0:0:0:0:
145,233,398265,1,0,0:0:0:0:
136,277,398330,1,0,0:0:0:0:
148,320,398396,1,2,0:0:0:0:
178,352,398461,1,0,0:0:0:0:
220,366,398526,1,0,0:0:0:0:
264,359,398592,1,0,0:0:0:0:
303,336,398657,5,2,0:0:0:0:
321,295,398722,1,0,0:0:0:0:
314,251,398787,1,0,0:0:0:0:
306,207,398852,1,0,0:0:0:0:
315,164,398917,1,2,0:0:0:0:
352,140,398982,1,0,0:0:0:0:
396,142,399047,1,0,0:0:0:0:
431,169,399112,1,0,0:0:0:0:
444,211,399177,5,2,0:0:0:0:
430,253,399243,1,0,0:0:0:0:
394,280,399308,1,0,0:0:0:0:
350,280,399373,1,0,0:0:0:0:
313,256,399439,1,2,0:0:0:0:
350,231,399504,1,0,0:0:0:0:
394,232,399569,1,0,0:0:0:0:
430,258,399634,1,0,0:0:0:0:
444,300,399699,5,2,0:0:0:0:
431,342,399765,1,0,0:0:0:0:
396,370,399830,1,0,0:0:0:0:
352,372,399895,1,0,0:0:0:0:
315,349,399961,1,2,0:0:0:0:
287,314,400026,1,0,0:0:0:0:
247,295,400091,1,2,0:0:0:0:
202,298,400156,1,0,0:0:0:0:
164,321,400222,5,2,0:0:0:0:
145,281,400287,1,0,0:0:0:0:
151,237,400352,1,0,0:0:0:0:
179,203,400417,1,0,0:0:0:0:
221,190,400483,2,0,L|140:176,2,60,0|0|0,3:0|3:0|3:0,0:0:0:0:
358,137,400744,5,2,0:0:0:0:
383,173,400809,1,0,0:0:0:0:
425,188,400874,1,0,0:0:0:0:
467,176,400939,1,0,0:0:0:0:
495,141,401004,2,0,L|487:65,1,45,0|0,3:0|0:0,0:0:0:0:
371,269,401135,2,0,L|362:345,1,45,0|0,3:0|0:0,0:0:0:0:
395,179,401265,5,6,0:0:0:0:
404,135,401330,1,0,0:0:0:0:
389,94,401395,1,0,0:0:0:0:
351,70,401460,1,0,0:0:0:0:
307,72,401526,1,2,0:0:0:0:
272,97,401591,1,0,0:0:0:0:
259,140,401656,1,0,0:0:0:0:
272,182,401721,1,0,0:0:0:0:
307,209,401787,5,2,0:0:0:0:
333,244,401852,1,0,0:0:0:0:
337,288,401917,1,0,0:0:0:0:
316,327,401982,1,0,0:0:0:0:
278,349,402048,2,0,L|213:355,1,45,0|0,3:0|0:0,0:0:0:0:
149,259,402178,2,0,L|214:264,1,45,0|0,3:0|0:0,0:0:0:0:
237,93,402309,5,4,0:0:0:0:
219,133,402374,1,0,0:0:0:0:
228,176,402439,1,0,0:0:0:0:
262,205,402504,1,0,0:0:0:0:
306,208,402570,2,0,L|364:196,1,45,0|0,3:0|0:0,0:0:0:0:
466,121,402700,2,0,L|408:108,1,45,0|0,3:0|0:0,0:0:0:0:
237,93,402830,5,4,0:0:0:0:
192,96,402895,1,0,0:0:0:0:
147,99,402960,1,0,0:0:0:0:
102,102,403025,1,0,0:0:0:0:
57,105,403091,2,0,L|65:44,1,45,0|0,3:0|0:0,0:0:0:0:
125,211,403222,2,0,L|133:272,1,45,0|0,3:0|0:0,0:0:0:0:
225,326,403352,5,6,0:0:0:0:
264,346,403417,1,0,0:0:0:0:
308,342,403482,1,0,0:0:0:0:
343,315,403547,1,0,0:0:0:0:
358,273,403612,1,0,0:0:0:0:
348,229,403678,1,0,0:0:0:0:
316,198,403743,1,0,0:0:0:0:
273,189,403808,1,0,0:0:0:0:
231,205,403874,5,2,0:0:0:0:
190,223,403939,1,0,0:0:0:0:
146,217,404004,1,0,0:0:0:0:
110,191,404069,1,0,0:0:0:0:
92,151,404134,1,0,0:0:0:0:
96,106,404200,1,0,0:0:0:0:
122,70,404265,1,0,0:0:0:0:
162,49,404330,1,0,0:0:0:0:
205,39,404395,5,2,0:0:0:0:
249,62,404461,1,0,0:0:0:0:
276,104,404526,1,0,0:0:0:0:
279,155,404591,1,0,0:0:0:0:
256,199,404657,1,2,0:0:0:0:
235,245,404722,1,0,0:0:0:0:
242,295,404787,1,0,0:0:0:0:
273,333,404852,1,0,0:0:0:0:
321,349,404917,5,2,0:0:0:0:
369,338,404983,1,0,0:0:0:0:
404,302,405048,1,0,0:0:0:0:
416,252,405113,1,0,0:0:0:0:
398,206,405178,1,2,0:0:0:0:
372,163,405243,1,0,0:0:0:0:
375,113,405308,1,0,0:0:0:0:
408,76,405373,1,0,0:0:0:0:
457,67,405439,5,0,0:0:0:0:
468,115,405504,1,0,0:0:0:0:
455,164,405569,1,0,0:0:0:0:
422,203,405634,1,0,0:0:0:0:
376,224,405699,1,2,0:0:0:0:
326,221,405765,1,0,0:0:0:0:
281,199,405830,1,0,0:0:0:0:
252,158,405895,1,0,0:0:0:0:
243,108,405960,5,2,0:0:0:0:
293,112,406026,1,0,0:0:0:0:
333,141,406091,1,0,0:0:0:0:
351,188,406156,1,0,0:0:0:0:
342,237,406221,1,2,0:0:0:0:
307,273,406287,1,0,0:0:0:0:
259,286,406352,1,0,0:0:0:0:
211,270,406417,1,0,0:0:0:0:
180,230,406482,5,2,0:0:0:0:
136,208,406548,1,0,0:0:0:0:
85,211,406613,1,0,0:0:0:0:
45,242,406678,1,0,0:0:0:0:
28,289,406743,1,2,0:0:0:0:
39,338,406809,1,0,0:0:0:0:
75,373,406874,1,0,0:0:0:0:
123,384,406939,1,0,0:0:0:0:
171,367,407004,5,2,0:0:0:0:
208,332,407069,1,0,0:0:0:0:
254,314,407134,1,0,0:0:0:0:
305,315,407199,1,0,0:0:0:0:
352,333,407265,1,2,0:0:0:0:
309,360,407330,1,0,0:0:0:0:
259,361,407395,1,0,0:0:0:0:
215,338,407460,1,0,0:0:0:0:
189,295,407525,5,2,0:0:0:0:
188,245,407591,1,0,0:0:0:0:
211,201,407656,1,2,0:0:0:0:
255,175,407721,1,0,0:0:0:0:
305,174,407787,1,2,0:0:0:0:
354,188,407852,1,0,0:0:0:0:
401,173,407917,1,2,0:0:0:0:
431,133,407982,1,0,0:0:0:0:
435,84,408047,5,2,0:0:0:0:
409,41,408113,1,0,0:0:0:0:
364,19,408178,1,2,0:0:0:0:
314,27,408243,1,0,0:0:0:0:
278,62,408309,1,2,0:0:0:0:
245,101,408374,1,0,0:0:0:0:
200,122,408439,1,2,0:0:0:0:
149,121,408504,1,0,0:0:0:0:
104,98,408570,5,4,0:0:0:0:
256,192,408635,12,0,410526,0:0:0:0:
55,93,410722,5,2,0:0:0:0:
103,60,410787,1,2,0:0:0:0:
160,73,410852,1,2,0:0:0:0:
190,123,410917,1,2,0:0:0:0:
174,180,410983,1,2,0:0:0:0:
120,174,411048,1,2,0:0:0:0:
72,198,411113,1,2,0:0:0:0:
45,245,411178,1,2,0:0:0:0:
47,299,411243,5,2,0:0:0:0:
79,343,411309,1,2,0:0:0:0:
130,362,411374,1,2,0:0:0:0:
183,351,411439,1,2,0:0:0:0:
221,313,411504,1,2,0:0:0:0:
232,259,411570,1,2,0:0:0:0:
221,198,411635,1,2,0:0:0:0:
241,139,411700,5,2,0:0:0:0:
287,97,411765,1,2,0:0:0:0:
348,83,411830,1,2,0:0:0:0:
407,100,411896,1,2,0:0:0:0:
451,145,411961,1,2,0:0:0:0:
468,205,412026,1,2,0:0:0:0:
453,265,412091,1,2,0:0:0:0:
411,311,412156,1,2,0:0:0:0:
352,330,412222,5,2,0:0:0:0:
301,294,412287,1,2,0:0:0:0:
240,277,412352,1,2,0:0:0:0:
178,281,412417,1,2,0:0:0:0:
121,307,412483,1,2,0:0:0:0:
62,313,412548,1,2,0:0:0:0:
13,282,412613,1,2,0:0:0:0:
0,226,412678,1,2,0:0:0:0:
11,171,412744,5,6,0:0:0:0:
