osu file format v14

[General]
AudioFilename: audio.mp3
AudioLeadIn: 0
PreviewTime: 263360
Countdown: 0
SampleSet: Soft
StackLeniency: 0.4
Mode: 0
LetterboxInBreaks: 0
EpilepsyWarning: 1
WidescreenStoryboard: 1

[Editor]
Bookmarks: 14077,15277,16177,16477,17077,17677,18277,18577,18877,20077,20977,21277,21877,22477,22777,23677,32077,42877,52477,60877,62077,70477,71677,74582,92695,101751,104016,105148,106280,107412,108544,115897,116197,120997,123397,125797,130597,131797,132997,133597,134197,136297,138682,142967,146641,155518,159192,162865,166539,167457,168376,169600,169906,170212,173886,177559,181233,182151,184906,186743,188580,190416,192253,199294,213734,217893,223239,227992,232744,233932,235120,235714,236308,236903,237497,242249,243437,244625,245813,247002,249378,250566,251754,252942,254130,254724,255318,255912,256209,256804,263173,277273,282373,296473,301573,311089,320251,322616,332074,336803,351597,368626,369158,369690,375012,376076,376608,377141,377673,379269,383526,385655,386187,386719,387784,392041,393105,393637,394169,394702,395234,395766,403748
DistanceSpacing: 0.5
BeatDivisor: 2
GridSize: 16
TimelineZoom: 2.1

[Metadata]
Title:Songs Compilation
TitleUnicode:Songs Compilation
Artist:xi
ArtistUnicode:xi
Creator:BaAR_Vendel
Version:TWO DIMENSIONS
Source:
Tags:Garyou Tensei Longinus Over The Top Aragami Hesperides Ascension to Heaven Bad Elixir Glorious Crown video game instrumental stream practice
BeatmapID:1974981
BeatmapSetID:945821

[Difficulty]
HPDrainRate:2
CircleSize:4
OverallDifficulty:9.3
ApproachRate:9.6
SliderMultiplier:1.8
SliderTickRate:1

[Events]
//Background and Video events
0,0,"miku.jpg",0,0
//Break Periods
2,72577,73450
2,111374,113197
2,200518,210764
2,257695,260173
2,302473,305473
2,343897,346808
2,352129,359047
//Storyboard Layer 0 (Background)
//Storyboard Layer 1 (Fail)
//Storyboard Layer 2 (Pass)
//Storyboard Layer 3 (Foreground)
//Storyboard Sound Samples

[TimingPoints]
2576,300,4,2,1,40,1,0
2576,-200,4,2,1,40,0,0
14077,300,4,2,1,50,1,0
14077,-111.111111111111,4,2,1,50,0,0
23677,-100,4,2,1,70,0,1
26302,-100,4,2,1,5,0,1
26377,-100,4,2,1,70,0,1
28102,-100,4,2,1,5,0,1
28177,-100,4,2,1,70,0,1
31102,-100,4,2,1,5,0,1
31177,-100,4,2,1,70,0,1
32077,-90.9090909090909,4,2,1,70,0,1
33277,-90.9090909090909,4,2,1,70,0,0
42877,-111.111111111111,4,2,1,80,0,1
46702,-111.111111111111,4,2,1,5,0,1
46777,-111.111111111111,4,2,1,80,0,1
47002,-111.111111111111,4,2,1,5,0,1
47077,-111.111111111111,4,2,1,80,0,1
47227,-111.111111111111,4,2,1,5,0,1
47302,-111.111111111111,4,2,1,80,0,1
47452,-111.111111111111,4,2,1,5,0,1
47527,-111.111111111111,4,2,1,80,0,1
49477,-125,4,2,1,80,0,1
51877,-111.111111111111,4,2,1,80,0,1
52402,-111.111111111111,4,2,1,80,0,0
52477,-111.111111111111,4,2,1,80,0,1
56302,-111.111111111111,4,2,1,5,0,1
56377,-111.111111111111,4,2,1,80,0,1
56602,-111.111111111111,4,2,1,5,0,1
56677,-111.111111111111,4,2,1,80,0,1
56827,-111.111111111111,4,2,1,5,0,1
56902,-111.111111111111,4,2,1,80,0,1
57052,-111.111111111111,4,2,1,5,0,1
57127,-111.111111111111,4,2,1,80,0,1
61027,-111.111111111111,4,2,1,5,0,1
61102,-111.111111111111,4,2,1,80,0,1
61252,-111.111111111111,4,2,1,5,0,1
61327,-111.111111111111,4,2,1,80,0,1
62002,-111.111111111111,4,2,1,80,0,0
62077,-111.111111111111,4,2,1,70,0,1
62077,-111.111111111111,4,2,1,70,0,1
64702,-111.111111111111,4,2,1,5,0,1
64777,-111.111111111111,4,2,1,70,0,1
69502,-111.111111111111,4,2,1,5,0,1
69577,-111.111111111111,4,2,1,70,0,1
70627,-111.111111111111,4,2,1,5,0,1
70702,-111.111111111111,4,2,1,70,0,1
70852,-111.111111111111,4,2,1,5,0,1
70927,-111.111111111111,4,2,1,70,0,1
71677,-111.111111111111,4,2,1,70,0,0
73450,283.018867924528,4,2,1,50,1,0
74299,-142.857142857143,4,2,1,50,0,0
74582,-111.111111111111,4,2,1,70,0,1
92412,-111.111111111111,4,2,1,70,0,0
92695,-111.111111111111,4,2,1,70,0,1
107978,-100,4,2,1,70,0,1
108544,-90.9090909090909,4,2,1,70,0,1
110808,-90.9090909090909,4,2,1,70,0,0
111397,300,4,2,1,70,1,0
115897,-83.3333333333333,4,2,1,70,0,0
116122,-83.3333333333333,4,2,1,5,0,0
116197,-166.666666666667,4,2,1,50,0,0
118597,-142.857142857143,4,2,1,50,0,0
120997,-111.111111111111,4,2,1,70,0,0
123997,-100,4,2,1,60,0,0
125797,-83.3333333333333,4,2,1,80,0,1
128797,-95.2380952380952,4,2,1,80,0,1
129397,-111.111111111111,4,2,1,80,0,1
129997,-83.3333333333333,4,2,1,80,0,1
134947,-83.3333333333333,4,2,1,5,0,1
135022,-83.3333333333333,4,2,1,80,0,1
135172,-83.3333333333333,4,2,1,5,0,1
135247,-83.3333333333333,4,2,1,80,0,1
136297,-83.3333333333333,4,2,1,70,0,0
136522,-83.3333333333333,4,2,1,5,0,0
136597,-83.3333333333333,4,2,1,70,0,0
138070,306.122448979592,3,2,1,60,1,0
138070,-125,3,2,1,60,0,0
138605,-125,3,2,1,5,0,0
138682,-83.3333333333333,3,2,1,60,0,0
138911,-83.3333333333333,3,2,1,5,0,0
138988,-125,3,2,1,60,0,0
142967,-111.111111111111,3,2,1,60,0,0
155518,-100,3,2,1,70,0,1
162559,-62.5,3,2,1,70,0,1
162865,-100,3,2,1,70,0,1
169830,-100,3,2,1,5,0,1
169906,-100,3,2,1,70,0,1
170136,-100,3,2,1,5,0,1
170212,-100,3,2,1,70,0,1
177253,-62.5,3,2,1,70,0,0
177559,-90.9090909090909,3,2,1,70,0,1
183988,-111.111111111111,3,2,1,70,0,1
184906,-125,3,2,1,50,0,0
186131,-125,3,2,1,15,0,0
186743,-125,3,2,1,50,0,0
187967,-125,3,2,1,15,0,0
188274,-125,3,2,1,50,0,0
189804,-125,3,2,1,15,0,0
190416,-125,3,2,1,50,0,0
192253,-100,3,2,1,70,0,1
195927,-100,3,2,1,40,0,0
197763,-100,3,2,1,60,0,0
206606,297.029702970297,4,2,1,50,1,0
211358,-166.666666666667,4,2,1,50,0,0
213734,-142.857142857143,4,2,1,50,0,0
214922,-100,4,2,1,50,0,0
218115,-100,4,2,1,5,0,0
218190,-100,4,2,1,50,0,0
218487,-142.857142857143,4,2,1,50,0,0
220863,-111.111111111111,4,2,1,60,0,0
223239,-111.111111111111,4,2,1,80,0,1
227992,-100,4,2,1,80,0,1
237051,-125,4,2,1,80,0,0
237497,-100,4,2,1,80,0,1
251754,-100,4,2,1,70,0,0
254130,-100,4,2,1,80,0,0
258373,300,4,2,1,60,1,0
261973,-125,4,2,1,60,0,0
262573,-100,4,2,1,60,0,0
263173,-100,4,2,1,70,0,1
266773,-125,4,2,1,70,0,1
270073,-100,4,2,1,70,0,1
275773,-125,4,2,1,70,0,1
277573,-100,4,2,1,70,0,1
281773,-100,4,2,1,70,0,0
282373,-100,4,2,1,70,0,1
301573,-125,4,2,1,70,0,0
302518,295.566502463054,4,2,1,60,1,0
306064,-125,4,2,1,60,0,0
308429,-142.857142857143,4,2,1,40,0,0
309611,-100,4,2,1,50,0,0
311089,-83.3333333333333,4,2,1,80,0,1
311311,-83.3333333333333,4,2,1,5,0,1
311384,-83.3333333333333,4,2,1,80,0,1
313158,-100,4,2,1,80,0,1
316040,-100,4,2,1,5,0,1
316114,-100,4,2,1,80,0,1
316335,-100,4,2,1,5,0,1
316409,-100,4,2,1,80,0,1
322320,-125,4,2,1,70,0,0
322542,-125,4,2,1,5,0,0
322616,-100,4,2,1,80,0,1
324981,-111.111111111111,4,2,1,80,0,1
327345,-111.111111111111,4,2,1,70,0,0
327567,-111.111111111111,4,2,1,5,0,0
327641,-111.111111111111,4,2,1,70,0,0
327862,-111.111111111111,4,2,1,5,0,0
327936,-125,4,2,1,60,0,0
328158,-125,4,2,1,5,0,0
328232,-125,4,2,1,60,0,0
328453,-125,4,2,1,5,0,0
328527,-100,4,2,1,50,0,0
328749,-100,4,2,1,5,0,0
328823,-100,4,2,1,50,0,0
329045,-100,4,2,1,5,0,0
329118,-100,4,2,1,50,0,0
329931,-100,4,2,1,5,0,0
330005,-100,4,2,1,50,0,0
332074,-100,4,2,1,70,0,0
332444,-100,4,2,1,5,0,0
332518,-100,4,2,1,70,0,0
337173,-100,4,2,1,5,0,0
337247,-100,4,2,1,70,0,0
341532,-100,4,2,1,80,0,0
345212,266.075388026608,4,2,1,40,1,0
347340,-125,4,2,1,40,0,0
350733,-125,4,2,1,5,0,0
350799,-125,4,2,1,40,0,0
351597,-125,4,2,1,70,0,0
360112,-125,4,2,1,40,0,0
360577,-125,4,2,1,5,0,0
360644,-125,4,2,1,40,0,0
361110,-125,4,2,1,5,0,0
361176,-200,4,2,1,40,0,0
361642,-200,4,2,1,5,0,0
361708,-200,4,2,1,40,0,0
362240,-200,4,2,1,50,0,0
366498,-111.111111111111,4,2,1,80,0,1
374147,-111.111111111111,4,2,1,5,0,1
374214,-111.111111111111,4,2,1,80,0,1
377141,-100,4,2,1,70,0,1
379003,-111.111111111111,4,2,1,70,0,0
379269,-90.9090909090908,4,2,1,70,0,1
382662,-90.9090909090908,4,2,1,5,0,1
382728,-90.9090909090908,4,2,1,70,0,1
386719,-71.4285714285714,4,2,1,70,0,1
386985,-83.3333333333333,4,2,1,70,0,1
387251,-100,4,2,1,70,0,1
387517,-166.666666666667,4,2,1,70,0,0
387784,-90.9090909090908,4,2,1,70,0,1
399491,-147.058823529412,4,2,1,70,0,0
399557,-147.058823529412,4,2,1,5,0,0
401619,-90.9090909090908,4,2,1,70,0,0
403748,-90.9090909090908,4,2,1,70,0,0

[Colours]
Combo1 : 99,145,220
Combo2 : 130,214,105
Combo3 : 98,221,193
Combo4 : 97,197,222

[HitObjects]
95,58,2576,6,0,P|52:137|110:212,1,180,0|0,0:2|0:2,0:2:0:0:
332,312,3813,2,0,P|375:233|315:157,1,191.25,0|0,0:2|0:2,0:2:0:0:
95,205,5051,6,0,L|202:211,1,101.25,0|0,0:2|0:2,0:2:0:0:
332,312,5726,2,0,P|330:267|326:252,1,45,0|0,0:2|0:2,0:2:0:0:
407,191,6026,2,0,P|406:168|408:146,1,45,0|0,0:2|0:2,0:2:0:0:
280,67,6326,6,0,P|278:22|259:-9,2,67.5,0|0|0,0:2|0:2|0:2,0:2:0:0:
207,147,6963,2,0,P|194:178|195:211,2,67.5,0|0|0,0:2|0:2|0:2,0:2:0:0:
342,239,7601,6,0,P|363:169|278:199,1,202.5,0|0,0:2|0:2,0:2:0:0:
99,330,8951,2,0,B|212:290|176:378|291:340,1,191.25,0|0,0:2|0:2,0:2:0:0:
244,222,9926,1,0,0:2:0:0:
341,121,10263,6,0,P|438:126|447:228,1,213.75,0|0,0:2|0:2,0:2:0:0:
272,349,11669,1,0,0:2:0:0:
217,49,12851,6,0,L|213:15,2,22.5,0|0|0,0:2|0:2|0:2,0:2:0:0:
50,290,14077,5,6,0:2:0:0:
49,167,14227,1,0,0:2:0:0:
49,167,14302,1,0,0:2:0:0:
49,167,14377,1,0,0:2:0:0:
156,227,14527,1,0,0:2:0:0:
389,257,14677,5,0,0:2:0:0:
390,134,14827,1,0,0:2:0:0:
390,134,14902,1,0,0:2:0:0:
390,134,14977,1,0,0:2:0:0:
283,194,15127,1,0,0:2:0:0:
168,21,15277,6,0,P|124:15|75:37,1,80.9999975280763,6|0,0:2|0:2,0:2:0:0:
49,167,15577,2,0,P|93:173|142:151,1,80.9999975280763,0|0,0:2|0:2,0:2:0:0:
225,107,15877,1,2,0:2:0:0:
225,107,16027,1,0,0:2:0:0:
252,277,16177,2,0,L|242:380,1,80.9999975280763,6|0,0:2|0:2,0:2:0:0:
405,295,16477,6,0,L|386:106,1,161.999995056153,6|0,0:2|0:2,0:2:0:0:
389,133,17077,2,0,P|448:117|472:119,1,80.9999975280763,6|0,0:2|0:2,0:2:0:0:
467,118,17302,1,0,0:2:0:0:
467,118,17377,1,0,0:2:0:0:
362,33,17527,1,0,0:2:0:0:
260,195,17677,6,0,P|219:194|181:180,1,80.9999975280763,6|0,0:2|0:2,0:2:0:0:
141,105,17902,1,0,0:2:0:0:
141,105,17977,2,0,L|146:11,1,80.9999975280763,2|0,0:2|0:2,0:2:0:0:
51,209,18277,2,0,L|56:303,1,80.9999975280763,6|0,0:2|0:2,0:2:0:0:
135,381,18577,1,6,0:2:0:0:
4,362,18727,1,2,0:2:0:0:
178,247,18877,5,6,0:2:0:0:
166,145,19027,1,0,0:2:0:0:
166,145,19102,1,0,0:2:0:0:
166,145,19177,1,0,0:2:0:0:
154,43,19327,1,0,0:2:0:0:
358,43,19477,5,0,0:2:0:0:
346,145,19627,1,0,0:2:0:0:
346,145,19702,1,0,0:2:0:0:
346,145,19777,1,0,0:2:0:0:
334,247,19927,1,0,0:2:0:0:
166,145,20077,6,0,P|154:98|160:49,1,80.9999975280763,6|0,0:2|0:2,0:2:0:0:
255,219,20377,2,0,P|255:259|244:298,1,80.9999975280763,0|0,0:2|0:2,0:2:0:0:
146,331,20677,1,2,0:2:0:0:
146,331,20827,1,0,0:2:0:0:
305,371,20977,2,0,L|390:358,1,80.9999975280763,6|0,0:2|0:2,0:2:0:0:
439,162,21277,6,0,P|381:172|368:275,1,161.999995056153,6|0,0:2|0:2,0:2:0:0:
359,262,21877,2,0,L|274:249,1,80.9999975280763,6|0,0:2|0:2,0:2:0:0:
278,249,22102,1,0,0:2:0:0:
278,249,22177,1,0,0:2:0:0:
146,331,22327,1,0,0:2:0:0:
100,187,22477,6,0,L|110:100,1,80.9999975280763,6|0,0:2|0:2,0:2:0:0:
278,249,22777,2,0,L|268:162,1,80.9999975280763,6|0,0:2|0:2,0:2:0:0:
419,3,23077,5,2,0:2:0:0:
454,19,23152,1,2,0:2:0:0:
476,53,23227,1,2,0:2:0:0:
478,92,23302,1,2,0:2:0:0:
459,127,23377,1,2,0:2:0:0:
439,162,23452,1,2,0:2:0:0:
441,202,23527,1,2,0:2:0:0:
464,236,23602,1,2,0:2:0:0:
500,253,23677,5,6,0:2:0:0:
358,161,23827,1,0,0:2:0:0:
358,161,23902,1,0,0:2:0:0:
358,161,23977,2,0,L|234:171,1,90,2|0,0:2|0:2,0:2:0:0:
156,362,24277,5,2,0:2:0:0:
298,270,24427,1,0,0:2:0:0:
298,270,24502,1,0,0:2:0:0:
298,270,24577,2,0,L|422:280,1,90,2|0,0:2|0:2,0:2:0:0:
171,195,24877,5,2,0:2:0:0:
236,326,25027,1,0,0:2:0:0:
268,168,25177,1,2,0:2:0:0:
100,288,25327,1,0,0:2:0:0:
143,101,25477,1,2,0:2:0:0:
253,247,25627,1,0,0:2:0:0:
245,33,25777,1,2,0:2:0:0:
171,195,25927,1,0,0:2:0:0:
433,184,26077,6,0,P|428:107|356:86,1,135,2|0,0:2|0:2,0:2:0:0:
307,117,26377,2,0,P|262:131|214:130,1,90,2|0,0:2|0:2,0:2:0:0:
63,7,26677,1,2,0:2:0:0:
8,173,26827,1,0,0:2:0:0:
8,173,26902,1,0,0:2:0:0:
8,173,26977,2,0,P|10:223|26:273,1,90,2|0,0:2|0:2,0:2:0:0:
143,101,27277,5,2,0:2:0:0:
253,247,27427,1,0,0:2:0:0:
253,247,27502,1,0,0:2:0:0:
253,247,27577,2,0,P|251:297|235:347,1,90,2|0,0:2|0:2,0:2:0:0:
172,197,27877,2,0,P|236:151|315:171,1,135,2|0,0:2|0:2,0:2:0:0:
366,201,28177,2,0,P|424:194|456:170,1,90,2|2,0:2|0:2,0:2:0:0:
247,0,28477,5,2,0:2:0:0:
163,107,28627,1,0,0:2:0:0:
163,107,28702,1,0,0:2:0:0:
163,107,28777,2,0,L|174:217,1,90,2|0,0:2|0:2,0:2:0:0:
282,308,29077,5,2,0:2:0:0:
366,201,29227,1,0,0:2:0:0:
366,201,29302,1,0,0:2:0:0:
366,201,29377,2,0,L|355:91,1,90,2|0,0:2|0:2,0:2:0:0:
171,196,29677,5,2,0:2:0:0:
362,279,29827,1,0,0:2:0:0:
144,331,29977,1,2,0:2:0:0:
290,178,30127,1,0,0:2:0:0:
61,257,30277,1,2,0:2:0:0:
254,272,30427,1,0,0:2:0:0:
143,107,30577,1,2,0:2:0:0:
144,331,30727,1,0,0:2:0:0:
273,153,30877,6,0,P|282:67|234:18,1,135,2|0,0:2|0:2,0:2:0:0:
172,5,31177,2,0,L|75:14,1,90,2|0,0:2|0:2,0:2:0:0:
4,187,31477,1,2,0:2:0:0:
183,144,31627,1,0,0:2:0:0:
183,144,31702,1,0,0:2:0:0:
183,144,31777,2,0,L|272:152,1,90,2|0,0:2|0:2,0:2:0:0:
488,355,32077,6,0,B|500:303|500:303|484:261,1,99.0000030212403,6|0,0:2|0:2,0:2:0:0:
350,189,32302,1,2,0:2:0:0:
350,189,32377,2,0,B|338:241|338:241|362:302,1,99.0000030212403,0|2,0:2|0:2,0:2:0:0:
287,329,32677,5,2,0:2:0:0:
254,365,32752,1,0,0:2:0:0:
208,382,32827,1,2,0:2:0:0:
160,373,32902,1,0,0:2:0:0:
122,342,32977,1,2,0:2:0:0:
105,296,33052,1,2,0:2:0:0:
113,248,33127,1,2,0:2:0:0:
143,209,33202,1,2,0:2:0:0:
189,191,33277,5,2,0:2:0:0:
99,66,33427,2,0,L|95:117,1,49.5000015106202,0|0,0:2|0:2,0:2:0:0:
190,227,33577,1,2,0:2:0:0:
280,101,33727,2,0,L|284:152,1,49.5000015106202,0|0,0:2|0:2,0:2:0:0:
191,263,33877,1,2,0:2:0:0:
383,322,34027,5,0,0:2:0:0:
428,305,34102,1,0,0:2:0:0:
448,261,34177,1,2,0:2:0:0:
431,216,34252,1,0,0:2:0:0:
388,195,34327,1,0,0:2:0:0:
342,211,34402,1,0,0:2:0:0:
321,255,34477,5,2,0:2:0:0:
189,191,34627,1,0,0:2:0:0:
253,58,34777,1,2,0:2:0:0:
386,123,34927,1,0,0:2:0:0:
407,115,35077,5,2,0:2:0:0:
245,36,35227,1,0,0:2:0:0:
167,198,35377,1,2,0:2:0:0:
329,276,35527,1,0,0:2:0:0:
166,358,35677,5,2,0:2:0:0:
166,358,35752,2,0,P|100:370|64:342,1,99.0000030212403,0|0,0:2|0:2,0:2:0:0:
36,279,35977,2,0,P|101:266|137:294,1,99.0000030212403,2|0,0:2|0:2,0:2:0:0:
329,276,36277,5,2,0:2:0:0:
329,276,36352,2,0,P|394:288|430:260,1,99.0000030212403,0|0,0:2|0:2,0:2:0:0:
456,197,36577,2,0,P|390:184|354:212,1,99.0000030212403,2|0,0:2|0:2,0:2:0:0:
342,204,36802,1,0,0:2:0:0:
319,195,36877,5,2,0:2:0:0:
297,184,36952,1,0,0:2:0:0:
278,168,37027,1,0,0:2:0:0:
265,147,37102,1,0,0:2:0:0:
259,124,37177,1,2,0:2:0:0:
257,99,37252,1,0,0:2:0:0:
263,75,37327,1,0,0:2:0:0:
275,54,37402,1,0,0:2:0:0:
293,37,37477,5,2,0:2:0:0:
250,60,37552,1,0,0:2:0:0:
201,62,37627,1,0,0:2:0:0:
157,40,37702,1,0,0:2:0:0:
129,0,37777,1,2,0:2:0:0:
136,218,37927,1,2,0:2:0:0:
0,47,38077,5,2,0:2:0:0:
61,216,38227,1,0,0:2:0:0:
86,216,38302,1,0,0:2:0:0:
111,217,38377,1,2,0:2:0:0:
136,218,38452,1,0,0:2:0:0:
160,218,38527,1,0,0:2:0:0:
185,219,38602,1,0,0:2:0:0:
210,219,38677,5,2,0:2:0:0:
250,246,38752,1,0,0:2:0:0:
268,291,38827,1,0,0:2:0:0:
258,339,38902,1,0,0:2:0:0:
224,373,38977,1,2,0:2:0:0:
381,285,39127,1,0,0:2:0:0:
167,298,39277,5,2,0:2:0:0:
322,175,39427,1,0,0:2:0:0:
322,175,39502,1,0,0:2:0:0:
322,175,39577,2,0,L|377:182,1,49.5000015106202,2|0,0:2|0:2,0:2:0:0:
313,55,39727,2,0,L|258:62,1,49.5000015106202,0|0,0:2|0:2,0:2:0:0:
158,21,39877,5,2,0:2:0:0:
115,45,39952,1,0,0:2:0:0:
98,90,40027,1,0,0:2:0:0:
114,136,40102,1,0,0:2:0:0:
150,170,40177,1,2,0:2:0:0:
166,216,40252,1,0,0:2:0:0:
149,261,40327,1,0,0:2:0:0:
107,286,40402,1,0,0:2:0:0:
59,300,40477,5,2,0:2:0:0:
101,273,40552,1,0,0:2:0:0:
149,261,40627,1,0,0:2:0:0:
195,277,40702,1,0,0:2:0:0:
225,315,40777,1,2,0:2:0:0:
150,170,40927,1,0,0:2:0:0:
331,76,41077,5,2,0:2:0:0:
328,100,41152,1,0,0:2:0:0:
326,125,41227,1,0,0:2:0:0:
323,149,41302,1,0,0:2:0:0:
321,174,41377,1,2,0:2:0:0:
350,212,41452,1,0,0:2:0:0:
396,229,41527,1,0,0:2:0:0:
444,218,41602,1,0,0:2:0:0:
476,180,41677,5,2,0:2:0:0:
433,202,41752,1,0,0:2:0:0:
409,245,41827,1,0,0:2:0:0:
412,294,41902,1,0,0:2:0:0:
440,334,41977,1,2,0:2:0:0:
288,269,42127,1,0,0:2:0:0:
406,121,42277,5,2,0:2:0:0:
261,276,42427,2,0,L|268:336,1,49.5000015106202,2|0,0:2|0:2,0:2:0:0:
150,170,42577,1,2,0:2:0:0:
152,148,42652,1,2,0:2:0:0:
153,127,42727,1,2,0:2:0:0:
157,107,42802,1,2,0:2:0:0:
158,85,42877,5,6,0:2:0:0:
183,116,42952,1,0,0:2:0:0:
219,133,43027,1,0,0:2:0:0:
259,132,43102,1,0,0:2:0:0:
296,115,43177,1,2,0:2:0:0:
321,83,43252,1,0,0:2:0:0:
346,51,43327,1,0,0:2:0:0:
382,34,43402,1,0,0:2:0:0:
422,33,43477,1,2,0:2:0:0:
458,50,43552,1,0,0:2:0:0:
484,81,43627,1,0,0:2:0:0:
494,119,43702,1,0,0:2:0:0:
488,159,43777,1,2,0:2:0:0:
466,192,43852,1,0,0:2:0:0:
434,217,43927,2,0,L|368:224,1,40.4999987640381,0|0,0:2|0:2,0:2:0:0:
246,353,44077,5,2,0:2:0:0:
262,316,44152,1,0,0:2:0:0:
261,276,44227,1,0,0:2:0:0:
242,241,44302,1,0,0:2:0:0:
209,218,44377,1,2,0:2:0:0:
178,243,44452,1,0,0:2:0:0:
138,252,44527,2,0,L|80:246,1,40.4999987640381
20,147,44677,5,2,0:2:0:0:
23,106,44752,1,0,0:2:0:0:
44,73,44827,1,0,0:2:0:0:
79,53,44902,1,0,0:2:0:0:
119,51,44977,2,0,L|159:55,1,40.4999987640381,2|0,0:2|0:2,0:2:0:0:
242,241,45127,1,0,0:2:0:0:
242,241,45202,1,0,0:2:0:0:
242,241,45277,5,2,0:2:0:0:
202,242,45352,1,0,0:2:0:0:
170,266,45427,1,0,0:2:0:0:
158,304,45502,1,0,0:2:0:0:
171,342,45577,1,2,0:2:0:0:
203,365,45652,1,0,0:2:0:0:
243,365,45727,1,0,0:2:0:0:
280,351,45802,1,0,0:2:0:0:
315,331,45877,1,2,0:2:0:0:
355,328,45952,1,0,0:2:0:0:
393,340,46027,1,0,0:2:0:0:
430,354,46102,1,0,0:2:0:0:
467,341,46177,1,2,0:2:0:0:
487,307,46252,1,0,0:2:0:0:
479,268,46327,1,0,0:2:0:0:
448,243,46402,1,0,0:2:0:0:
409,245,46477,6,0,P|392:172|402:114,1,121.499996292114,2|0,0:2|0:2,0:2:0:0:
323,19,46777,6,0,P|306:92|316:150,1,121.499996292114,2|0,0:2|0:2,0:2:0:0:
251,197,47077,6,0,L|151:187,1,80.9999975280763,2|0,0:2|0:2,0:2:0:0:
78,117,47302,6,0,L|178:107,1,80.9999975280763,0|0,0:2|0:2,0:2:0:0:
227,61,47527,5,2,0:2:0:0:
47,37,47677,5,2,0:2:0:0:
16,63,47752,1,0,0:2:0:0:
0,99,47827,1,0,0:2:0:0:
2,139,47902,1,0,0:2:0:0:
21,174,47977,1,2,0:2:0:0:
57,195,48052,1,0,0:2:0:0:
97,199,48127,1,0,0:2:0:0:
137,192,48202,1,0,0:2:0:0:
174,208,48277,1,2,0:2:0:0:
196,241,48352,1,0,0:2:0:0:
197,281,48427,1,0,0:2:0:0:
175,314,48502,1,0,0:2:0:0:
139,331,48577,1,2,0:2:0:0:
100,325,48652,1,0,0:2:0:0:
70,298,48727,2,0,L|63:241,1,40.4999987640381,0|0,0:2|0:2,0:2:0:0:
159,98,48877,5,2,0:2:0:0:
189,71,48952,1,0,0:2:0:0:
227,61,49027,1,0,0:2:0:0:
267,69,49102,1,0,0:2:0:0:
299,93,49177,1,2,0:2:0:0:
339,101,49252,1,0,0:2:0:0:
377,91,49327,1,0,0:2:0:0:
407,64,49402,1,0,0:2:0:0:
421,25,49477,5,2,0:2:0:0:
396,51,49552,1,0,0:2:0:0:
382,84,49627,1,0,0:2:0:0:
381,120,49702,1,0,0:2:0:0:
391,154,49777,1,2,0:2:0:0:
413,183,49852,1,0,0:2:0:0:
435,210,49927,1,0,0:2:0:0:
442,245,50002,1,0,0:2:0:0:
432,279,50077,5,2,0:2:0:0:
407,304,50152,1,0,0:2:0:0:
373,315,50227,1,0,0:2:0:0:
338,309,50302,1,0,0:2:0:0:
310,288,50377,5,2,0:2:0:0:
295,256,50452,1,0,0:2:0:0:
292,221,50527,1,0,0:2:0:0:
280,187,50602,1,0,0:2:0:0:
255,163,50677,5,2,0:2:0:0:
221,153,50752,1,0,0:2:0:0:
186,160,50827,1,0,0:2:0:0:
159,183,50902,1,0,0:2:0:0:
144,215,50977,2,0,L|147:278,1,36,2|0,0:2|0:2,0:2:0:0:
51,349,51127,2,0,L|52:313,1,36,0|0,0:2|0:2,0:2:0:0:
90,69,51277,5,2,0:2:0:0:
120,50,51352,1,0,0:2:0:0:
155,46,51427,1,0,0:2:0:0:
189,58,51502,1,0,0:2:0:0:
214,84,51577,1,2,0:2:0:0:
226,118,51652,1,0,0:2:0:0:
221,153,51727,2,0,P|215:183|196:213,1,36,0|0,0:2|0:2,0:2:0:0:
159,292,51877,6,0,P|153:274|150:251,1,40.4999987640381,2|0,0:2|0:2,0:2:0:0:
296,217,52027,1,2,0:2:0:0:
310,225,52102,1,0,0:2:0:0:
322,237,52177,1,2,0:2:0:0:
330,252,52252,1,2,0:2:0:0:
334,268,52327,1,2,0:2:0:0:
334,285,52402,1,2,0:2:0:0:
330,302,52477,5,6,0:2:0:0:
366,318,52552,1,0,0:2:0:0:
406,318,52627,1,0,0:2:0:0:
442,299,52702,1,0,0:2:0:0:
466,267,52777,1,2,0:2:0:0:
474,228,52852,1,0,0:2:0:0:
463,189,52927,1,0,0:2:0:0:
437,159,53002,1,0,0:2:0:0:
399,142,53077,1,2,0:2:0:0:
358,144,53152,1,0,0:2:0:0:
323,163,53227,1,0,0:2:0:0:
300,196,53302,1,0,0:2:0:0:
277,230,53377,1,2,0:2:0:0:
245,253,53452,1,0,0:2:0:0:
206,264,53527,1,0,0:2:0:0:
166,260,53602,1,0,0:2:0:0:
132,238,53677,5,2,0:2:0:0:
93,247,53752,1,0,0:2:0:0:
63,274,53827,1,0,0:2:0:0:
51,312,53902,1,0,0:2:0:0:
60,351,53977,1,2,0:2:0:0:
90,378,54052,1,0,0:2:0:0:
130,378,54127,2,0,P|159:366|183:353,1,40.4999987640381,0|0,0:2|0:2,0:2:0:0:
323,163,54277,5,2,0:2:0:0:
322,203,54352,1,0,0:2:0:0:
322,243,54427,1,0,0:2:0:0:
321,284,54502,1,0,0:2:0:0:
321,324,54577,2,0,L|318:386,1,40.4999987640381,2|0,0:2|0:2,0:2:0:0:
121,173,54727,1,0,0:2:0:0:
121,133,54802,1,0,0:2:0:0:
121,93,54877,5,2,0:2:0:0:
150,120,54952,1,0,0:2:0:0:
189,131,55027,1,0,0:2:0:0:
228,125,55102,1,0,0:2:0:0:
262,103,55177,1,2,0:2:0:0:
282,68,55252,1,0,0:2:0:0:
312,42,55327,1,0,0:2:0:0:
351,38,55402,1,0,0:2:0:0:
386,58,55477,1,2,0:2:0:0:
402,95,55552,1,0,0:2:0:0:
393,134,55627,1,0,0:2:0:0:
363,160,55702,1,0,0:2:0:0:
324,173,55777,1,2,0:2:0:0:
290,195,55852,1,0,0:2:0:0:
271,230,55927,1,0,0:2:0:0:
272,270,56002,1,0,0:2:0:0:
293,304,56077,6,0,L|417:295,1,121.499996292114,2|0,0:2|0:2,0:2:0:0:
241,370,56377,6,0,L|117:361,1,121.499996292114,2|0,0:2|0:2,0:2:0:0:
27,371,56677,6,0,P|37:312|74:279,1,80.9999975280763,2|0,0:2|0:2,0:2:0:0:
85,223,56902,6,0,P|130:260|141:309,1,80.9999975280763,0|0,0:2|0:2,0:2:0:0:
119,361,57127,5,2,0:2:0:0:
0,224,57277,5,2,0:2:0:0:
1,183,57352,1,0,0:2:0:0:
3,143,57427,1,0,0:2:0:0:
5,102,57502,1,0,0:2:0:0:
7,62,57577,1,2,0:2:0:0:
39,38,57652,1,0,0:2:0:0:
79,32,57727,1,0,0:2:0:0:
117,44,57802,1,0,0:2:0:0:
145,72,57877,1,2,0:2:0:0:
173,100,57952,1,0,0:2:0:0:
211,112,58027,1,0,0:2:0:0:
251,106,58102,1,0,0:2:0:0:
283,82,58177,2,0,L|290:22,1,40.4999987640381,2|0,0:2|0:2,0:2:0:0:
339,194,58327,2,0,L|353:247,1,40.4999987640381,0|0,0:2|0:2,0:2:0:0:
512,122,58477,5,2,0:2:0:0:
510,82,58552,1,0,0:2:0:0:
487,48,58627,1,0,0:2:0:0:
451,32,58702,1,0,0:2:0:0:
411,36,58777,2,0,P|387:46|367:63,1,40.4999987640381,2|0,0:2|0:2,0:2:0:0:
320,158,58927,2,0,P|330:182|347:202,1,40.4999987640381,0|0,0:2|0:2,0:2:0:0:
442,286,59077,5,2,0:2:0:0:
424,321,59152,1,0,0:2:0:0:
391,344,59227,1,0,0:2:0:0:
351,348,59302,1,0,0:2:0:0:
314,332,59377,2,0,P|291:309|275:280,1,40.4999987640381,2|0,0:2|0:2,0:2:0:0:
208,239,59527,2,0,P|204:207|211:174,1,40.4999987640381,0|0,0:2|0:2,0:2:0:0:
130,17,59677,5,2,0:2:0:0:
93,0,59752,1,0,0:2:0:0:
53,5,59827,1,0,0:2:0:0:
20,28,59902,1,0,0:2:0:0:
4,65,59977,1,2,0:2:0:0:
8,105,60052,1,0,0:2:0:0:
31,137,60127,1,2,0:2:0:0:
67,154,60202,1,0,0:2:0:0:
107,151,60277,1,2,0:2:0:0:
140,129,60352,1,0,0:2:0:0:
176,112,60427,1,2,0:2:0:0:
217,110,60502,1,0,0:2:0:0:
255,123,60577,5,2,0:2:0:0:
230,167,60652,1,0,0:2:0:0:
227,217,60727,1,2,0:2:0:0:
245,264,60802,1,0,0:2:0:0:
280,299,60877,6,0,L|389:285,1,80.9999975280763,6|0,0:2|0:2,0:2:0:0:
480,297,61102,6,0,L|413:209,1,80.9999975280763,2|0,0:2|0:2,0:2:0:0:
363,162,61327,6,0,L|347:199,1,40.4999987640381,2|0,0:2|0:2,0:2:0:0:
280,299,61477,6,0,L|295:336,3,40.4999987640381,2|0|0|0,0:2|0:2|0:2|0:2,0:2:0:0:
230,167,61777,2,0,L|245:129,3,40.4999987640381,2|0|2|2,0:2|0:2|0:2|0:2,0:2:0:0:
87,332,62077,5,6,0:2:0:0:
295,336,62227,1,0,0:2:0:0:
295,336,62302,1,0,0:2:0:0:
295,336,62377,1,2,0:2:0:0:
141,257,62527,1,0,0:2:0:0:
215,83,62677,5,2,0:2:0:0:
219,291,62827,1,0,0:2:0:0:
219,291,62902,1,0,0:2:0:0:
219,291,62977,1,2,0:2:0:0:
140,137,63127,1,0,0:2:0:0:
379,219,63277,5,2,0:2:0:0:
365,69,63427,1,0,0:2:0:0:
215,83,63577,1,2,0:2:0:0:
229,233,63727,1,0,0:2:0:0:
215,249,63877,5,2,0:2:0:0:
198,69,64027,1,0,0:2:0:0:
378,52,64177,1,2,0:2:0:0:
395,232,64327,1,0,0:2:0:0:
187,167,64477,6,0,P|129:228|141:290,1,121.499996292114,2|0,0:2|0:2,0:2:0:0:
117,337,64777,2,0,P|96:261|80:245,1,80.9999975280763,2|0,0:2|0:2,0:2:0:0:
62,95,65077,2,0,P|43:130|40:171,1,80.9999975280763,2|0,0:2|0:2,0:2:0:0:
40,170,65302,1,0,0:2:0:0:
40,170,65377,1,2,0:2:0:0:
198,69,65527,1,0,0:2:0:0:
215,249,65677,5,2,0:2:0:0:
123,155,65827,1,0,0:2:0:0:
123,155,65902,1,0,0:2:0:0:
123,155,65977,1,2,0:2:0:0:
310,183,66127,1,0,0:2:0:0:
205,329,66277,2,0,L|218:214,1,80.9999975280763,2|0,0:2|0:2,0:2:0:0:
300,102,66577,2,0,L|313:217,1,80.9999975280763,2|2,0:2|0:2,0:2:0:0:
442,355,66877,5,2,0:2:0:0:
467,168,67027,1,0,0:2:0:0:
467,168,67102,1,0,0:2:0:0:
467,168,67177,1,2,0:2:0:0:
347,328,67327,1,0,0:2:0:0:
228,185,67477,5,2,0:2:0:0:
430,255,67627,1,0,0:2:0:0:
430,255,67702,1,0,0:2:0:0:
430,255,67777,1,2,0:2:0:0:
205,329,67927,1,0,0:2:0:0:
338,190,68077,5,2,0:2:0:0:
289,93,68227,1,0,0:2:0:0:
180,88,68377,1,2,0:2:0:0:
122,180,68527,1,0,0:2:0:0:
99,188,68677,5,2,0:2:0:0:
169,78,68827,1,0,0:2:0:0:
300,84,68977,1,2,0:2:0:0:
359,200,69127,1,0,0:2:0:0:
193,365,69277,6,0,L|205:218,1,121.499996292114,2|0,0:2|0:2,0:2:0:0:
262,182,69577,2,0,L|255:98,1,80.9999975280763,2|0,0:2|0:2,0:2:0:0:
52,220,69877,2,0,P|83:251|130:255,1,80.9999975280763,2|0,0:2|0:2,0:2:0:0:
118,257,70102,1,0,0:2:0:0:
118,257,70177,1,2,0:2:0:0:
169,78,70327,1,0,0:2:0:0:
352,281,70477,6,0,L|359:197,1,80.9999975280763,6|0,0:2|0:2,0:2:0:0:
262,182,70702,6,0,L|269:266,1,80.9999975280763,2|0,0:2|0:2,0:2:0:0:
292,340,70927,5,2,0:2:0:0:
449,196,71077,5,2,0:2:0:0:
449,185,71152,1,0,0:2:0:0:
450,175,71227,1,2,0:2:0:0:
451,165,71302,1,0,0:2:0:0:
452,155,71377,5,2,0:2:0:0:
432,109,71452,1,2,0:2:0:0:
391,79,71527,1,2,0:2:0:0:
342,73,71602,1,2,0:2:0:0:
296,93,71677,1,6,0:2:0:0:
50,86,74016,6,0,L|53:135,3,45,0|0|0|0,0:2|0:2|0:2|0:2,0:2:0:0:
104,208,74299,2,0,L|101:257,3,31.4999990386963,0|0|0|0,0:2|0:2|0:2|0:2,0:2:0:0:
49,331,74582,5,6,0:2:0:0:
83,351,74652,1,0,0:2:0:0:
123,355,74723,1,0,0:2:0:0:
160,341,74794,1,0,0:2:0:0:
188,311,74865,1,2,0:2:0:0:
216,281,74935,1,0,0:2:0:0:
253,267,75006,1,0,0:2:0:0:
293,271,75077,1,0,0:2:0:0:
327,291,75148,1,2,0:2:0:0:
321,330,75218,1,0,0:2:0:0:
298,363,75289,1,0,0:2:0:0:
262,380,75360,1,0,0:2:0:0:
222,377,75431,1,2,0:2:0:0:
188,356,75501,1,0,0:2:0:0:
168,321,75572,1,0,0:2:0:0:
168,281,75643,1,0,0:2:0:0:
187,246,75714,5,2,0:2:0:0:
209,212,75784,1,0,0:2:0:0:
208,172,75855,1,0,0:2:0:0:
187,139,75926,1,0,0:2:0:0:
150,122,75997,1,2,0:2:0:0:
111,129,76067,1,0,0:2:0:0:
81,155,76138,1,0,0:2:0:0:
70,194,76209,1,0,0:2:0:0:
83,232,76280,6,0,P|89:282|87:301,3,40.4999987640381,2|0|0|0,0:2|0:2|0:2|0:2,0:2:0:0:
0,132,76563,2,0,P|1:111|6:92,3,40.4999987640381,2|0|0|0,0:2|0:2|0:2|0:2,0:2:0:0:
179,33,76846,5,2,0:2:0:0:
212,11,76916,1,0,0:2:0:0:
252,8,76987,1,0,0:2:0:0:
289,24,77058,1,0,0:2:0:0:
315,55,77129,1,2,0:2:0:0:
323,94,77200,1,0,0:2:0:0:
312,132,77270,1,0,0:2:0:0:
302,171,77341,1,0,0:2:0:0:
318,208,77412,1,2,0:2:0:0:
352,228,77483,1,0,0:2:0:0:
392,223,77553,1,0,0:2:0:0:
421,195,77624,1,0,0:2:0:0:
427,156,77695,1,2,0:2:0:0:
409,121,77766,1,0,0:2:0:0:
373,103,77836,2,0,L|317:98,1,40.4999987640381,0|0,0:2|0:2,0:2:0:0:
325,331,77978,5,2,0:2:0:0:
284,328,78049,1,0,0:2:0:0:
244,325,78119,1,0,0:2:0:0:
203,322,78190,1,0,0:2:0:0:
163,319,78261,1,2,0:2:0:0:
122,317,78332,1,0,0:2:0:0:
82,314,78402,1,0,0:2:0:0:
41,312,78473,1,0,0:2:0:0:
1,309,78544,6,0,L|10:244,1,40.4999987640381,2|0,0:2|0:2,0:2:0:0:
71,190,78685,2,0,L|62:125,1,40.4999987640381,0|0,0:2|0:2,0:2:0:0:
7,9,78827,5,2,0:2:0:0:
10,28,78898,1,2,0:2:0:0:
11,49,78968,1,2,0:2:0:0:
8,69,79039,1,2,0:2:0:0:
3,88,79110,5,2,0:2:0:0:
35,64,79181,1,0,0:2:0:0:
75,57,79251,1,0,0:2:0:0:
113,69,79322,1,0,0:2:0:0:
143,96,79393,1,2,0:2:0:0:
157,133,79464,1,0,0:2:0:0:
171,170,79534,1,0,0:2:0:0:
201,197,79605,1,0,0:2:0:0:
239,209,79676,1,2,0:2:0:0:
279,202,79747,1,0,0:2:0:0:
311,178,79817,1,0,0:2:0:0:
331,143,79888,1,0,0:2:0:0:
332,103,79959,1,2,0:2:0:0:
313,67,80030,1,0,0:2:0:0:
280,45,80100,1,0,0:2:0:0:
240,42,80171,1,0,0:2:0:0:
203,58,80242,5,2,0:2:0:0:
179,90,80313,1,0,0:2:0:0:
174,130,80383,1,0,0:2:0:0:
188,167,80454,1,0,0:2:0:0:
207,202,80525,1,2,0:2:0:0:
215,241,80596,1,0,0:2:0:0:
211,281,80666,1,0,0:2:0:0:
192,318,80737,1,0,0:2:0:0:
162,345,80808,1,2,0:2:0:0:
124,357,80879,1,0,0:2:0:0:
84,352,80950,1,0,0:2:0:0:
51,329,81020,1,0,0:2:0:0:
31,294,81091,1,2,0:2:0:0:
33,254,81162,1,0,0:2:0:0:
55,221,81233,1,0,0:2:0:0:
91,203,81303,1,0,0:2:0:0:
131,207,81374,5,2,0:2:0:0:
164,230,81445,1,0,0:2:0:0:
200,246,81516,1,0,0:2:0:0:
240,252,81586,1,0,0:2:0:0:
279,246,81657,1,2,0:2:0:0:
312,223,81728,1,0,0:2:0:0:
331,187,81799,1,0,0:2:0:0:
331,147,81869,1,0,0:2:0:0:
313,111,81940,6,0,L|308:48,3,40.4999987640381,2|0|0|0,0:2|0:2|0:2|0:2,0:2:0:0:
443,40,82223,2,0,L|446:0,3,40.4999987640381,2|0|0|0,0:2|0:2|0:2|0:2,0:2:0:0:
512,189,82506,5,2,0:2:0:0:
509,229,82577,1,0,0:2:0:0:
507,269,82648,1,0,0:2:0:0:
505,310,82718,1,0,0:2:0:0:
503,350,82789,1,2,0:2:0:0:
469,372,82860,1,0,0:2:0:0:
429,375,82931,1,0,0:2:0:0:
393,358,83001,1,0,0:2:0:0:
364,330,83072,5,2,0:2:0:0:
377,293,83143,1,0,0:2:0:0:
365,255,83214,1,0,0:2:0:0:
333,231,83284,1,0,0:2:0:0:
293,231,83355,1,2,0:2:0:0:
261,255,83426,1,0,0:2:0:0:
250,294,83497,1,0,0:2:0:0:
264,331,83567,1,0,0:2:0:0:
299,350,83638,5,2,0:2:0:0:
271,321,83709,1,0,0:2:0:0:
233,307,83780,1,0,0:2:0:0:
193,313,83850,1,0,0:2:0:0:
160,336,83921,1,2,0:2:0:0:
127,359,83992,1,0,0:2:0:0:
87,364,84063,1,0,0:2:0:0:
49,351,84133,1,0,0:2:0:0:
21,322,84204,1,2,0:2:0:0:
10,283,84275,1,0,0:2:0:0:
21,244,84346,1,0,0:2:0:0:
50,217,84416,1,0,0:2:0:0:
89,208,84487,1,2,0:2:0:0:
128,215,84558,1,0,0:2:0:0:
166,227,84629,1,0,0:2:0:0:
206,221,84699,1,0,0:2:0:0:
239,199,84770,5,2,0:2:0:0:
259,164,84841,1,0,0:2:0:0:
261,123,84912,1,0,0:2:0:0:
245,86,84983,1,0,0:2:0:0:
215,60,85053,1,2,0:2:0:0:
175,51,85124,1,0,0:2:0:0:
136,60,85195,1,0,0:2:0:0:
106,86,85266,1,0,0:2:0:0:
91,124,85336,6,0,L|95:189,3,40.4999987640381,2|0|0|0,0:2|0:2|0:2|0:2,0:2:0:0:
21,244,85619,2,0,L|17:308,3,40.4999987640381,2|0|0|0,0:2|0:2|0:2|0:2,0:2:0:0:
206,221,85902,5,2,0:2:0:0:
245,215,85973,1,0,0:2:0:0:
281,232,86044,1,0,0:2:0:0:
302,267,86115,1,0,0:2:0:0:
300,306,86185,1,2,0:2:0:0:
276,339,86256,1,0,0:2:0:0:
239,353,86327,2,0,P|209:362|181:362,1,40.4999987640381,0|2,0:2|0:2,0:2:0:0:
206,221,86468,5,2,0:2:0:0:
246,216,86539,1,0,0:2:0:0:
286,212,86610,1,0,0:2:0:0:
326,208,86681,1,0,0:2:0:0:
367,204,86751,1,2,0:2:0:0:
407,200,86822,1,0,0:2:0:0:
447,196,86893,2,0,L|500:189,1,40.4999987640381,0|0,0:2|0:2,0:2:0:0:
298,98,87034,5,2,0:2:0:0:
270,127,87105,1,0,0:2:0:0:
232,138,87176,1,0,0:2:0:0:
193,127,87247,1,0,0:2:0:0:
165,98,87317,1,2,0:2:0:0:
157,59,87388,1,0,0:2:0:0:
170,21,87459,2,0,P|191:4|214:-3,1,40.4999987640381,0|2,0:2|0:2,0:2:0:0:
340,179,87600,5,2,0:2:0:0:
370,204,87671,1,0,0:2:0:0:
409,211,87742,1,0,0:2:0:0:
447,196,87813,1,0,0:2:0:0:
472,165,87883,2,0,L|474:106,1,40.4999987640381,2|0,0:0|0:0,0:0:0:0:
415,40,88025,2,0,L|413:-19,1,40.4999987640381,2|2,0:0|0:0,0:0:0:0:
230,65,88166,5,2,0:2:0:0:
232,105,88237,1,0,0:2:0:0:
234,145,88308,1,0,0:2:0:0:
237,186,88379,1,0,0:2:0:0:
239,226,88449,1,2,0:2:0:0:
241,267,88520,1,0,0:2:0:0:
244,307,88591,1,0,0:2:0:0:
214,335,88662,1,0,0:2:0:0:
177,348,88733,1,2,0:2:0:0:
136,347,88803,1,0,0:2:0:0:
100,329,88874,1,0,0:2:0:0:
73,299,88945,1,0,0:2:0:0:
60,261,89016,1,2,0:2:0:0:
63,221,89086,1,0,0:2:0:0:
81,185,89157,1,0,0:2:0:0:
112,159,89228,1,0,0:2:0:0:
150,147,89299,5,2,0:2:0:0:
170,181,89369,1,0,0:2:0:0:
202,205,89440,1,0,0:2:0:0:
241,216,89511,1,0,0:2:0:0:
281,210,89582,1,2,0:2:0:0:
316,190,89652,1,0,0:2:0:0:
350,169,89723,1,0,0:2:0:0:
390,164,89794,1,0,0:2:0:0:
429,174,89865,5,2,0:2:0:0:
389,178,89935,1,0,0:2:0:0:
351,163,90006,1,0,0:2:0:0:
326,133,90077,1,0,0:2:0:0:
318,93,90148,1,2,0:2:0:0:
330,55,90218,1,0,0:2:0:0:
358,27,90289,1,0,0:2:0:0:
397,16,90360,1,0,0:2:0:0:
436,24,90431,5,2,0:2:0:0:
423,24,90501,1,0,0:2:0:0:
410,25,90572,1,0,0:2:0:0:
398,26,90643,1,0,0:2:0:0:
385,27,90714,1,2,0:2:0:0:
372,27,90784,1,0,0:2:0:0:
360,28,90855,1,0,0:2:0:0:
347,29,90926,1,0,0:2:0:0:
334,30,90997,1,2,0:2:0:0:
322,31,91067,1,0,0:2:0:0:
309,31,91138,1,0,0:2:0:0:
297,32,91209,1,0,0:2:0:0:
284,33,91280,1,2,0:2:0:0:
271,34,91350,1,0,0:2:0:0:
259,34,91421,1,0,0:2:0:0:
246,35,91492,1,0,0:2:0:0:
212,13,91563,5,2,0:2:0:0:
191,10,91633,1,0,0:2:0:0:
171,8,91704,1,0,0:2:0:0:
151,6,91775,1,0,0:2:0:0:
131,3,91846,5,2,0:2:0:0:
97,25,91916,1,0,0:2:0:0:
77,60,91987,1,0,0:2:0:0:
74,100,92058,1,0,0:2:0:0:
89,138,92129,1,2,0:2:0:0:
118,165,92199,1,0,0:2:0:0:
157,177,92270,1,0,0:2:0:0:
196,189,92341,1,0,0:2:0:0:
225,216,92412,5,2,0:2:0:0:
240,253,92483,1,2,0:2:0:0:
237,294,92553,1,2,0:2:0:0:
217,328,92624,1,2,0:2:0:0:
184,351,92695,5,6,0:2:0:0:
212,322,92766,1,0,0:2:0:0:
249,307,92836,1,0,0:2:0:0:
290,308,92907,1,0,0:2:0:0:
327,323,92978,1,2,0:2:0:0:
359,348,93049,1,0,0:2:0:0:
394,367,93119,1,0,0:2:0:0:
434,367,93190,1,0,0:2:0:0:
470,349,93261,1,2,0:2:0:0:
493,316,93332,1,0,0:2:0:0:
498,276,93402,1,0,0:2:0:0:
483,238,93473,1,0,0:2:0:0:
453,212,93544,6,0,L|388:206,1,40.4999987640381,2|0,0:2|0:2,0:2:0:0:
225,216,93685,1,0,0:2:0:0:
223,195,93756,1,0,0:2:0:0:
221,175,93827,5,2,0:2:0:0:
258,188,93898,1,0,0:2:0:0:
298,186,93968,1,0,0:2:0:0:
333,166,94039,1,0,0:2:0:0:
357,134,94110,1,2,0:2:0:0:
366,95,94181,1,0,0:2:0:0:
357,55,94251,1,0,0:2:0:0:
333,23,94322,1,0,0:2:0:0:
296,6,94393,6,0,L|225:2,3,40.4999987640381,2|0|0|0,0:2|0:2|0:2|0:2,0:2:0:0:
147,81,94676,2,0,L|76:85,3,40.4999987640381,2|0|2|0,0:2|0:2|0:2|0:2,0:2:0:0:
357,134,94959,5,2,0:2:0:0:
395,146,95030,1,0,0:2:0:0:
424,174,95100,1,0,0:2:0:0:
440,211,95171,1,0,0:2:0:0:
439,251,95242,1,2,0:2:0:0:
422,287,95313,1,0,0:2:0:0:
392,314,95383,1,0,0:2:0:0:
353,325,95454,1,0,0:2:0:0:
313,320,95525,1,2,0:2:0:0:
279,299,95596,1,0,0:2:0:0:
256,266,95666,1,0,0:2:0:0:
249,227,95737,1,0,0:2:0:0:
257,187,95808,6,0,L|266:137,1,40.4999987640381,2|0,0:2|0:2,0:2:0:0:
166,59,95949,2,0,L|159:20,1,40.4999987640381,0|0,0:2|0:2,0:2:0:0:
22,90,96091,5,2,0:2:0:0:
24,130,96162,1,0,0:2:0:0:
26,170,96233,1,0,0:2:0:0:
28,211,96303,1,0,0:2:0:0:
30,251,96374,1,2,0:2:0:0:
32,292,96445,1,0,0:2:0:0:
34,332,96516,2,0,L|39:391,1,40.4999987640381,0|0,0:2|0:2,0:2:0:0:
257,306,96657,5,2,0:2:0:0:
256,266,96728,1,0,0:2:0:0:
233,233,96799,1,0,0:2:0:0:
196,220,96869,1,0,0:2:0:0:
157,230,96940,2,0,P|134:242|119:259,1,40.4999987640381,2|2,0:2|0:2,0:2:0:0:
157,384,97082,2,0,P|180:372|195:355,1,40.4999987640381,2|2,0:2|0:2,0:2:0:0:
388,235,97223,5,2,0:2:0:0:
414,236,97294,1,0,0:2:0:0:
439,247,97365,1,0,0:2:0:0:
458,265,97435,1,0,0:2:0:0:
470,289,97506,1,2,0:2:0:0:
472,316,97577,1,0,0:2:0:0:
464,342,97648,1,0,0:2:0:0:
448,364,97718,1,0,0:2:0:0:
426,378,97789,1,2,0:2:0:0:
400,384,97860,1,0,0:2:0:0:
373,380,97931,1,0,0:2:0:0:
350,367,98001,1,0,0:2:0:0:
332,346,98072,6,0,P|321:326|314:294,1,40.4999987640381,2|0,0:2|0:2,0:2:0:0:
419,159,98214,1,0,0:2:0:0:
419,159,98284,1,0,0:2:0:0:
419,159,98355,6,0,L|415:217,1,40.4999987640381,2|0,0:2|0:2,0:2:0:0:
346,92,98497,2,0,L|342:34,1,40.4999987640381,0|0,0:2|0:2,0:2:0:0:
318,178,98638,2,0,L|314:236,1,40.4999987640381,2|0,0:2|0:2,0:2:0:0:
245,111,98780,2,0,L|241:53,1,40.4999987640381,0|0,0:2|0:2,0:2:0:0:
188,192,98921,6,0,P|149:202|111:189,1,80.9999975280763,2|0,0:2|0:2,0:2:0:0:
204,0,99204,2,0,P|243:-9|281:3,1,80.9999975280763,2|0,0:2|0:2,0:2:0:0:
419,159,99487,6,0,L|413:242,1,80.9999975280763,2|0,0:2|0:2,0:2:0:0:
350,298,99699,1,0,0:2:0:0:
350,298,99770,2,0,L|355:381,1,80.9999975280763,2|0,0:2|0:2,0:2:0:0:
325,129,100053,6,0,L|319:212,1,80.9999975280763,2|0,0:2|0:2,0:2:0:0:
256,268,100266,1,0,0:2:0:0:
256,268,100336,2,0,L|261:351,1,80.9999975280763,2|0,0:2|0:2,0:2:0:0:
231,99,100619,6,0,L|225:179,1,80.9999975280763,2|0,0:2|0:2,0:2:0:0:
162,238,100832,1,0,0:2:0:0:
162,238,100902,2,0,L|167:318,1,80.9999975280763,2|0,0:2|0:2,0:2:0:0:
70,320,101185,6,0,L|64:239,1,80.9999975280763,2|0,0:2|0:2,0:2:0:0:
1,181,101398,1,0,0:2:0:0:
1,181,101468,2,0,L|6:100,1,80.9999975280763,2|2,0:2|0:2,0:2:0:0:
129,0,101751,5,6,0:2:0:0:
130,40,101822,1,0,0:2:0:0:
148,76,101893,1,0,0:2:0:0:
179,102,101964,1,0,0:2:0:0:
217,113,102034,1,2,0:2:0:0:
257,108,102105,1,0,0:2:0:0:
292,87,102176,1,0,0:2:0:0:
326,66,102247,1,0,0:2:0:0:
366,61,102317,1,2,0:2:0:0:
404,72,102388,1,0,0:2:0:0:
435,98,102459,1,0,0:2:0:0:
453,134,102530,1,0,0:2:0:0:
455,174,102600,6,0,P|450:204|435:237,1,40.4999987640381,2|0,0:2|0:2,0:2:0:0:
353,256,102742,2,0,P|347:236|344:216,1,40.4999987640381,0|0,0:2|0:2,0:2:0:0:
220,22,102883,5,2,0:2:0:0:
222,47,102954,1,0,0:2:0:0:
224,72,103025,1,0,0:2:0:0:
226,97,103096,1,0,0:2:0:0:
228,122,103166,1,2,0:2:0:0:
230,148,103237,1,0,0:2:0:0:
232,173,103308,1,0,0:2:0:0:
234,198,103379,1,0,0:2:0:0:
236,223,103449,6,0,L|244:283,3,40.4999987640381,2|0|0|0,0:2|0:2|0:2|0:2,0:2:0:0:
169,335,103733,2,0,L|163:375,3,40.4999987640381,2|0|0|0,0:2|0:2|0:2|0:2,0:2:0:0:
34,272,104016,5,6,0:2:0:0:
26,232,104086,1,0,0:2:0:0:
32,192,104157,1,0,0:2:0:0:
51,157,104228,1,0,0:2:0:0:
81,130,104299,1,2,0:2:0:0:
118,114,104369,1,0,0:2:0:0:
158,112,104440,1,0,0:2:0:0:
197,124,104511,1,0,0:2:0:0:
229,147,104582,5,2,0:2:0:0:
227,157,104652,1,0,0:2:0:0:
225,167,104723,1,0,0:2:0:0:
222,177,104794,1,0,0:2:0:0:
220,187,104865,1,2,0:2:0:0:
217,197,104935,1,0,0:2:0:0:
215,206,105006,1,0,0:2:0:0:
213,216,105077,1,0,0:2:0:0:
210,226,105148,5,6,0:2:0:0:
242,249,105218,1,0,0:2:0:0:
281,261,105289,1,0,0:2:0:0:
321,259,105360,1,0,0:2:0:0:
358,243,105431,1,2,0:2:0:0:
388,216,105501,1,0,0:2:0:0:
407,181,105572,1,0,0:2:0:0:
413,141,105643,1,0,0:2:0:0:
405,101,105714,6,0,L|392:33,1,40.4999987640381,2|0,0:2|0:2,0:2:0:0:
283,0,105855,2,0,L|270:68,1,40.4999987640381,0|0,0:2|0:2,0:2:0:0:
158,112,105997,5,2,0:2:0:0:
123,132,106067,1,2,0:2:0:0:
83,134,106138,1,2,0:2:0:0:
47,116,106209,1,2,0:2:0:0:
24,83,106280,5,6,0:2:0:0:
53,110,106350,1,0,0:2:0:0:
72,145,106421,1,0,0:2:0:0:
76,185,106492,1,0,0:2:0:0:
66,225,106563,1,2,0:2:0:0:
60,264,106633,1,0,0:2:0:0:
70,303,106704,1,0,0:2:0:0:
94,335,106775,1,0,0:2:0:0:
129,356,106846,1,2,0:2:0:0:
169,361,106916,1,0,0:2:0:0:
207,350,106987,1,0,0:2:0:0:
239,324,107058,1,0,0:2:0:0:
258,289,107129,6,0,L|263:226,1,40.4999987640381,2|0,0:2|0:2,0:2:0:0:
161,152,107270,2,0,L|158:112,1,40.4999987640381,0|0,0:2|0:2,0:2:0:0:
330,20,107412,5,6,0:2:0:0:
365,1,107483,1,0,0:2:0:0:
405,0,107553,1,0,0:2:0:0:
441,18,107624,1,0,0:2:0:0:
465,51,107695,1,2,0:2:0:0:
471,90,107766,1,0,0:2:0:0:
459,128,107836,1,0,0:2:0:0:
430,157,107907,1,0,0:2:0:0:
392,169,107978,6,0,L|332:173,3,45,2|0|0|0,0:2|0:2|0:2|0:2,0:2:0:0:
290,107,108261,2,0,L|230:103,3,45,2|0|0|0,0:2|0:2|0:2|0:2,0:2:0:0:
159,268,108544,5,6,0:2:0:0:
118,295,108615,1,0,0:2:0:0:
69,297,108685,1,0,0:2:0:0:
26,274,108756,1,0,0:2:0:0:
2,231,108827,1,2,0:2:0:0:
3,183,108898,1,0,0:2:0:0:
30,142,108968,1,0,0:2:0:0:
74,120,109039,1,0,0:2:0:0:
122,125,109110,5,2,0:2:0:0:
145,158,109181,1,0,0:2:0:0:
183,174,109251,1,0,0:2:0:0:
223,169,109322,1,0,0:2:0:0:
255,144,109393,1,2,0:2:0:0:
287,119,109464,1,0,0:2:0:0:
327,113,109534,1,0,0:2:0:0:
365,130,109605,1,0,0:2:0:0:
388,163,109676,2,0,L|391:201,6,24.7500007553101,2|0|0|0|0|0|0,0:2|0:2|0:2|0:2|0:2|0:2|0:2,0:2:0:0:
327,8,109959,5,0,3:2:0:0:
278,16,110030,1,0,3:2:0:0:
244,50,110100,1,0,3:2:0:0:
234,98,110171,1,0,3:2:0:0:
255,144,110242,1,0,3:2:0:0:
274,189,110313,1,0,3:2:0:0:
271,238,110383,1,0,3:2:0:0:
243,277,110454,1,0,3:2:0:0:
197,295,110525,1,0,3:2:0:0:
149,285,110596,1,0,3:2:0:0:
115,250,110666,1,0,3:2:0:0:
104,203,110737,1,0,3:2:0:0:
122,157,110808,1,2,0:2:0:0:
139,114,113797,5,8,0:2:0:0:
215,369,113947,1,8,0:2:0:0:
307,96,114247,5,8,0:2:0:0:
225,334,114397,1,8,0:2:0:0:
71,62,114697,5,8,0:2:0:0:
347,219,114847,1,8,0:2:0:0:
48,292,115147,5,8,0:2:0:0:
377,192,115297,1,8,0:2:0:0:
71,62,115597,5,8,0:2:0:0:
71,62,115897,6,0,P|106:134|90:225,1,161.999995056153,6|0,0:2|0:2,0:2:0:0:
48,292,116197,5,6,0:2:0:0:
71,305,116272,1,0,0:2:0:0:
98,310,116347,1,0,0:2:0:0:
124,307,116422,1,0,0:2:0:0:
148,297,116497,1,0,0:2:0:0:
169,278,116572,1,0,0:2:0:0:
182,255,116647,1,0,0:2:0:0:
193,230,116722,1,0,0:2:0:0:
210,209,116797,5,0,0:2:0:0:
233,194,116872,1,0,0:2:0:0:
259,189,116947,1,0,0:2:0:0:
285,193,117022,1,0,0:2:0:0:
309,207,117097,1,0,0:2:0:0:
325,228,117172,1,0,0:2:0:0:
333,254,117247,1,0,0:2:0:0:
331,280,117322,1,0,0:2:0:0:
319,305,117397,6,0,L|269:308,7,26.9999991760254,0|0|0|0|0|0|0|0,0:2|0:2|0:2|0:2|0:2|0:2|0:2|0:2,0:2:0:0:
445,245,117997,6,0,L|495:242,3,26.9999991760254,0|0|0|0,0:2|0:2|0:2|0:2,0:2:0:0:
309,207,118297,2,0,L|259:204,3,26.9999991760254,0|0|0|0,0:2|0:2|0:2|0:2,0:2:0:0:
435,147,118597,5,2,0:2:0:0:
454,122,118672,1,0,0:2:0:0:
457,91,118747,1,0,0:2:0:0:
444,63,118822,1,0,0:2:0:0:
417,47,118897,1,0,0:2:0:0:
386,48,118972,1,0,0:2:0:0:
360,65,119047,1,0,0:2:0:0:
347,93,119122,1,0,0:2:0:0:
352,124,119197,5,2,0:2:0:0:
356,93,119272,1,0,0:2:0:0:
344,64,119347,1,0,0:2:0:0:
318,47,119422,1,0,0:2:0:0:
287,46,119497,1,0,0:2:0:0:
260,62,119572,1,0,0:2:0:0:
246,90,119647,1,0,0:2:0:0:
249,121,119722,1,0,0:2:0:0:
268,145,119797,5,2,0:2:0:0:
256,116,119872,1,0,0:2:0:0:
231,97,119947,1,0,0:2:0:0:
200,95,120022,1,0,0:2:0:0:
173,110,120097,1,0,0:2:0:0:
158,137,120172,1,0,0:2:0:0:
159,168,120247,1,0,0:2:0:0:
178,193,120322,1,0,0:2:0:0:
206,205,120397,5,0,0:2:0:0:
204,216,120472,1,0,0:2:0:0:
203,228,120547,1,0,0:2:0:0:
202,240,120622,1,0,0:2:0:0:
201,251,120697,1,0,0:2:0:0:
199,263,120772,1,0,0:2:0:0:
198,275,120847,1,0,0:2:0:0:
197,287,120922,1,0,0:2:0:0:
196,298,120997,5,4,0:2:0:0:
224,269,121072,1,0,0:2:0:0:
262,255,121147,1,0,0:2:0:0:
302,259,121222,1,0,0:2:0:0:
337,278,121297,1,0,0:2:0:0:
372,297,121372,1,0,0:2:0:0:
412,300,121447,1,0,0:2:0:0:
449,287,121522,1,0,0:2:0:0:
478,258,121597,5,0,0:2:0:0:
437,255,121672,1,0,0:2:0:0:
403,235,121747,1,0,0:2:0:0:
381,201,121822,1,0,0:2:0:0:
376,161,121897,1,0,0:2:0:0:
390,123,121972,1,0,0:2:0:0:
410,88,122047,1,0,0:2:0:0:
406,49,122122,1,0,0:2:0:0:
380,19,122197,5,0,0:2:0:0:
341,10,122272,1,0,0:2:0:0:
305,26,122347,1,0,0:2:0:0:
285,60,122422,1,0,0:2:0:0:
289,100,122497,1,0,0:2:0:0:
294,140,122572,1,0,0:2:0:0:
281,178,122647,1,0,0:2:0:0:
252,206,122722,1,0,0:2:0:0:
214,218,122797,6,0,L|154:213,3,40.4999987640381,0|0|0|0,0:2|0:2|0:2|0:2,0:2:0:0:
338,328,123097,2,0,L|378:331,3,40.4999987640381,0|0|0|0,0:2|0:2|0:2|0:2,0:2:0:0:
113,358,123397,5,6,0:2:0:0:
73,352,123472,1,0,0:2:0:0:
40,329,123547,1,0,0:2:0:0:
20,294,123622,1,0,0:2:0:0:
18,254,123697,1,0,0:2:0:0:
33,217,123772,1,0,0:2:0:0:
64,191,123847,1,0,0:2:0:0:
102,181,123922,1,0,0:2:0:0:
142,189,123997,5,0,0:2:0:0:
185,197,124072,1,0,0:2:0:0:
226,180,124147,1,0,0:2:0:0:
251,144,124222,1,0,0:2:0:0:
252,99,124297,1,0,0:2:0:0:
229,62,124372,1,0,0:2:0:0:
188,43,124447,1,0,0:2:0:0:
145,50,124522,1,0,0:2:0:0:
111,79,124597,5,0,0:2:0:0:
165,77,124672,1,0,0:2:0:0:
217,63,124747,1,0,0:2:0:0:
266,40,124822,1,0,0:2:0:0:
315,18,124897,1,2,0:2:0:0:
368,20,124972,1,2,0:2:0:0:
415,46,125047,1,2,0:2:0:0:
445,90,125122,1,2,0:2:0:0:
453,143,125197,5,2,0:2:0:0:
451,166,125272,1,2,0:2:0:0:
450,189,125347,1,2,0:2:0:0:
449,212,125422,1,2,0:2:0:0:
448,236,125497,1,2,0:2:0:0:
448,257,125572,1,2,0:2:0:0:
447,280,125647,1,2,0:2:0:0:
446,304,125722,1,2,0:2:0:0:
445,327,125797,6,0,L|443:384,1,53.9999983520508,6|0,0:2|0:2,0:2:0:0:
241,259,125947,1,0,0:2:0:0:
241,259,126022,1,0,0:2:0:0:
241,259,126097,1,8,0:2:0:0:
223,208,126172,1,0,0:2:0:0:
240,158,126247,1,0,0:2:0:0:
283,127,126322,1,0,0:2:0:0:
336,129,126397,5,2,0:2:0:0:
387,142,126472,1,0,0:2:0:0:
431,116,126547,1,0,0:2:0:0:
445,65,126622,1,0,0:2:0:0:
418,20,126697,2,0,L|361:14,1,53.9999983520508,8|0,0:2|0:2,0:2:0:0:
241,58,126847,2,0,L|187:63,1,53.9999983520508,0|0,0:2|0:2,0:2:0:0:
31,236,126997,5,2,0:2:0:0:
84,234,127072,1,0,0:2:0:0:
128,204,127147,2,0,P|150:178|166:148,1,53.9999983520508,0|0,0:2|0:2,0:2:0:0:
129,0,127297,5,8,0:2:0:0:
76,2,127372,1,0,0:2:0:0:
32,32,127447,2,0,P|9:57|-6:87,1,53.9999983520508,0|0,0:2|0:2,0:2:0:0:
128,204,127597,5,2,0:2:0:0:
181,198,127672,1,0,0:2:0:0:
234,192,127747,2,0,L|287:186,1,53.9999983520508,0|0,0:2|0:2,0:2:0:0:
159,357,127897,5,8,0:2:0:0:
106,351,127972,1,0,0:2:0:0:
53,345,128047,2,0,L|0:339,1,53.9999983520508,0|0,0:2|0:2,0:2:0:0:
89,108,128197,5,2,0:2:0:0:
138,88,128272,1,0,0:2:0:0:
190,100,128347,1,0,0:2:0:0:
226,140,128422,1,0,0:2:0:0:
234,192,128497,2,0,P|227:238|218:261,1,53.9999983520508,8|0,0:2|0:2,0:2:0:0:
106,351,128647,2,0,P|99:324|96:298,1,53.9999983520508,0|0,0:2|0:2,0:2:0:0:
89,108,128797,5,2,0:2:0:0:
114,69,128872,1,0,0:2:0:0:
155,45,128947,1,0,0:2:0:0:
202,43,129022,1,0,0:2:0:0:
245,62,129097,2,0,P|283:68|328:62,1,47.2499985580445,8|0,0:2|0:2,0:2:0:0:
436,6,129247,2,0,P|412:0|389:0,1,47.2499985580445,0|0,0:2|0:2,0:2:0:0:
380,118,129397,6,0,L|383:158,1,40.4999987640381,2|0,0:2|0:2,0:2:0:0:
492,192,129547,1,0,0:2:0:0:
492,192,129622,1,0,0:2:0:0:
492,192,129697,2,0,L|497:136,1,40.4999987640381,8|0,0:2|0:2,0:2:0:0:
409,253,129847,2,0,L|412:293,1,40.4999987640381,0|0,0:2|0:2,0:2:0:0:
323,366,129997,5,2,0:2:0:0:
272,380,130072,1,0,0:2:0:0:
224,358,130147,1,2,0:2:0:0:
203,309,130222,1,2,0:2:0:0:
219,259,130297,1,2,0:2:0:0:
246,213,130372,1,0,0:2:0:0:
252,159,130447,1,2,0:2:0:0:
236,108,130522,1,0,0:2:0:0:
200,68,130597,6,0,P|175:57|143:52,1,53.9999983520508,6|0,0:2|0:2,0:2:0:0:
113,212,130747,1,0,0:2:0:0:
113,212,130822,1,0,0:2:0:0:
113,212,130897,2,0,P|135:195|155:170,1,53.9999983520508,8|0,0:2|0:2,0:2:0:0:
31,64,131047,1,0,0:2:0:0:
31,64,131122,1,0,0:2:0:0:
31,64,131197,6,0,P|33:91|45:121,1,53.9999983520508,2|0,0:2|0:2,0:2:0:0:
200,68,131347,2,0,P|175:57|143:52,1,53.9999983520508,0|0,0:2|0:2,0:2:0:0:
252,159,131497,1,8,0:2:0:0:
265,157,131572,1,0,0:2:0:0:
278,154,131647,1,0,0:2:0:0:
291,149,131722,1,0,0:2:0:0:
303,143,131797,6,0,L|309:82,1,53.9999983520508,6|0,0:2|0:2,0:2:0:0:
460,195,131947,1,0,0:2:0:0:
460,195,132022,1,0,0:2:0:0:
460,195,132097,2,0,L|454:141,1,53.9999983520508,8|0,0:2|0:2,0:2:0:0:
291,297,132247,1,0,0:2:0:0:
291,297,132322,1,0,0:2:0:0:
291,297,132397,6,0,L|297:236,1,53.9999983520508,2|0,0:2|0:2,0:2:0:0:
472,349,132547,1,0,0:2:0:0:
472,349,132622,1,0,0:2:0:0:
472,349,132697,2,0,L|466:288,1,53.9999983520508,8|0,0:2|0:2,0:2:0:0:
378,168,132847,2,0,L|372:221,1,53.9999983520508,8|8,0:2|0:2,0:2:0:0:
249,370,132997,5,4,0:2:0:0:
196,376,133072,1,0,0:2:0:0:
148,352,133147,1,2,0:2:0:0:
123,305,133222,1,0,0:2:0:0:
86,262,133297,1,2,0:2:0:0:
31,264,133372,1,0,0:2:0:0:
0,308,133447,1,2,0:2:0:0:
13,359,133522,1,2,0:2:0:0:
63,382,133597,5,6,0:2:0:0:
111,356,133672,1,0,0:2:0:0:
123,305,133747,1,2,0:2:0:0:
110,252,133822,1,0,0:2:0:0:
73,212,133897,1,2,0:2:0:0:
34,173,133972,1,0,0:2:0:0:
19,121,134047,2,0,P|19:80|33:44,1,53.9999983520508,2|2,2:2|2:2,2:2:0:0:
192,260,134197,5,6,0:2:0:0:
244,258,134272,1,2,0:2:0:0:
291,234,134347,1,2,0:2:0:0:
321,189,134422,1,2,0:2:0:0:
328,136,134497,1,2,0:2:0:0:
345,85,134572,1,2,0:2:0:0:
385,52,134647,1,2,0:2:0:0:
439,44,134722,1,2,0:2:0:0:
487,67,134797,6,0,B|501:124|501:124|482:200,1,107.999996704102,2|0,0:2|0:2,0:2:0:0:
321,189,135022,6,0,B|307:132|307:132|318:84,1,107.999996704102,0|2,0:2|0:2,0:2:0:0:
410,230,135247,6,0,L|406:294,1,53.9999983520508,0|0,0:2|0:2,0:2:0:0:
295,384,135397,5,2,0:2:0:0:
295,384,135472,1,2,0:2:0:0:
295,384,135547,2,0,L|291:320,1,53.9999983520508,2|2,0:2|0:2,0:2:0:0:
159,303,135697,2,0,L|197:251,1,53.9999983520508,8|0,0:2|0:2,0:2:0:0:
106,153,135847,2,0,L|168:137,1,53.9999983520508,8|2,0:2|0:2,0:2:0:0:
291,77,135997,6,0,L|318:84,6,26.9999991760254,0|0|0|0|0|0|0,0:2|0:2|0:2|0:2|0:2|0:2|0:2,0:2:0:0:
101,58,136297,6,0,P|30:93|20:186,1,161.999995056153,6|0,0:2|0:2,0:2:0:0:
67,233,136597,5,8,0:2:0:0:
0,0,136747,1,8,0:2:0:0:
170,40,138070,6,0,B|150:91|175:142|175:142|161:182|161:182|191:231|166:294,1,252,2|0,0:2|0:2,0:2:0:0:
10,347,138682,6,0,P|17:269|113:250,1,161.999995056153,6|0,0:2|0:2,0:2:0:0:
247,336,138988,5,2,0:2:0:0:
282,332,139064,1,0,0:2:0:0:
318,329,139141,1,8,0:2:0:0:
354,325,139217,1,0,0:2:0:0:
390,322,139294,2,0,L|441:317,1,36,2|0,0:0|0:0,0:0:0:0:
332,129,139447,5,8,0:2:0:0:
308,126,139523,1,0,0:2:0:0:
286,134,139600,1,2,0:2:0:0:
269,151,139676,1,0,0:2:0:0:
262,174,139753,1,8,0:2:0:0:
266,198,139829,1,0,0:2:0:0:
280,217,139906,5,2,0:2:0:0:
314,207,139982,1,0,0:2:0:0:
350,208,140059,1,8,0:2:0:0:
384,221,140135,1,0,0:2:0:0:
412,242,140212,1,2,0:2:0:0:
446,252,140288,1,0,0:2:0:0:
480,241,140365,1,8,0:2:0:0:
501,213,140441,1,0,0:2:0:0:
503,178,140518,1,2,0:2:0:0:
484,148,140594,1,0,0:2:0:0:
452,133,140671,1,8,0:2:0:0:
416,139,140747,1,0,0:2:0:0:
385,159,140825,6,0,L|323:157,5,36,2|0|8|0|2|0,0:2|0:2|0:2|0:2|0:2|0:2,0:2:0:0:
280,217,141284,2,0,L|218:218,5,36,8|0|2|0|8|0,0:2|0:2|0:2|0:2|0:2|0:2,0:2:0:0:
155,177,141743,5,2,0:2:0:0:
138,145,141819,1,0,0:2:0:0:
138,109,141896,1,8,0:2:0:0:
155,78,141972,1,0,0:2:0:0:
185,59,142049,1,2,0:2:0:0:
220,56,142125,1,0,0:2:0:0:
253,70,142202,1,8,0:2:0:0:
282,92,142279,1,0,0:2:0:0:
314,107,142356,1,2,0:2:0:0:
350,104,142432,1,0,0:2:0:0:
380,85,142509,1,8,0:2:0:0:
404,59,142585,1,8,0:2:0:0:
416,25,142661,5,2,0:2:0:0:
468,177,142814,2,0,L|467:242,1,36,8|0,0:2|0:2,0:2:0:0:
473,358,142967,5,6,0:2:0:0:
452,323,143043,1,0,0:2:0:0:
417,303,143120,1,8,0:2:0:0:
377,304,143196,1,0,0:2:0:0:
343,325,143273,1,2,0:2:0:0:
308,345,143351,1,0,0:2:0:0:
268,346,143427,1,8,0:2:0:0:
234,327,143504,1,0,0:2:0:0:
213,292,143580,5,2,0:2:0:0:
252,284,143656,1,0,0:2:0:0:
283,259,143733,1,8,0:2:0:0:
298,222,143809,1,0,0:2:0:0:
294,182,143886,1,2,0:2:0:0:
271,149,143962,1,0,0:2:0:0:
235,131,144039,1,8,0:2:0:0:
195,132,144115,1,0,0:2:0:0:
160,153,144192,2,0,L|148:215,1,40.4999987640381,2|0,0:2|0:2,0:2:0:0:
85,302,144345,2,0,L|73:240,1,40.4999987640381,8|0,0:2|0:2,0:2:0:0:
0,79,144498,5,2,0:2:0:0:
25,48,144574,1,0,0:2:0:0:
62,33,144651,1,8,0:2:0:0:
103,35,144727,1,0,0:2:0:0:
137,56,144804,1,2,0:2:0:0:
168,82,144881,1,0,0:2:0:0:
202,101,144957,1,8,0:2:0:0:
240,91,145034,1,0,0:2:0:0:
260,57,145110,5,2,0:2:0:0:
251,18,145187,1,0,0:2:0:0:
218,4,145263,1,8,0:2:0:0:
178,12,145340,1,0,0:2:0:0:
154,44,145416,1,2,0:2:0:0:
146,83,145493,1,0,0:2:0:0:
156,122,145569,1,8,0:2:0:0:
182,153,145646,1,0,0:2:0:0:
217,172,145723,2,0,L|271:175,3,40.4999987640381,2|0|8|0,0:2|0:2|0:2|0:2,0:2:0:0:
85,302,146029,5,8,0:2:0:0:
85,302,146105,1,8,0:2:0:0:
85,302,146182,1,8,0:2:0:0:
85,302,146258,1,8,0:2:0:0:
85,302,146335,1,2,0:2:0:0:
310,258,146488,5,8,0:2:0:0:
310,258,146564,1,0,0:2:0:0:
310,258,146641,1,6,0:2:0:0:
270,254,146717,1,0,0:2:0:0:
235,234,146794,1,8,0:2:0:0:
210,201,146870,1,0,0:2:0:0:
202,161,146947,1,2,0:2:0:0:
210,122,147023,1,0,0:2:0:0:
234,90,147100,1,8,0:2:0:0:
268,69,147176,1,0,0:2:0:0:
308,64,147253,5,2,0:2:0:0:
347,74,147329,1,0,0:2:0:0:
382,96,147406,1,8,0:2:0:0:
416,116,147482,1,0,0:2:0:0:
456,116,147559,1,2,0:2:0:0:
490,95,147635,1,0,0:2:0:0:
509,59,147712,5,8,0:2:0:0:
479,86,147788,1,0,0:2:0:0:
462,122,147865,1,2,0:2:0:0:
465,162,147942,1,0,0:2:0:0:
476,200,148018,1,8,0:2:0:0:
485,239,148095,1,0,0:2:0:0:
479,278,148172,6,0,L|471:348,3,40.4999987640381,2|0|8|0,0:2|0:2|0:2|0:2,0:2:0:0:
395,230,148478,2,0,L|390:189,3,40.4999987640381,2|0|8|0,0:2|0:2|0:2|0:2,0:2:0:0:
311,278,148784,2,0,L|306:318,3,40.4999987640381,2|0|8|0,0:2|0:2|0:2|0:2,0:2:0:0:
195,151,149090,5,2,0:2:0:0:
159,132,149166,1,0,0:2:0:0:
118,129,149243,1,8,0:2:0:0:
80,142,149319,1,0,0:2:0:0:
50,169,149396,1,2,0:2:0:0:
33,205,149472,1,0,0:2:0:0:
31,246,149549,1,8,0:2:0:0:
45,283,149625,1,0,0:2:0:0:
72,313,149702,1,2,0:2:0:0:
109,329,149778,1,0,0:2:0:0:
149,330,149855,1,8,0:2:0:0:
187,315,149932,1,8,0:2:0:0:
215,287,150008,5,2,0:2:0:0:
210,278,150084,1,0,0:2:0:0:
205,270,150161,1,8,0:2:0:0:
200,261,150237,1,0,0:2:0:0:
195,252,150314,5,2,0:2:0:0:
225,225,150390,1,2,0:2:0:0:
264,215,150467,1,8,0:2:0:0:
303,223,150543,1,8,0:2:0:0:
334,248,150620,1,2,0:2:0:0:
352,284,150697,1,2,0:2:0:0:
368,320,150773,1,8,0:2:0:0:
402,341,150850,1,0,0:2:0:0:
442,339,150926,1,2,0:2:0:0:
474,315,151003,1,2,0:2:0:0:
487,278,151079,1,8,0:2:0:0:
476,239,151156,1,8,0:2:0:0:
446,213,151233,6,0,L|375:205,1,40.4999987640381,2|0,0:2|0:2,0:2:0:0:
295,126,151386,1,8,0:2:0:0:
295,126,151462,1,8,0:2:0:0:
295,126,151539,2,0,L|335:121,1,40.4999987640381,2|0,0:2|0:2,0:2:0:0:
478,47,151692,5,8,0:2:0:0:
478,47,151768,1,8,0:2:0:0:
478,47,151845,1,2,0:2:0:0:
457,44,151921,1,2,0:2:0:0:
437,42,151998,1,8,0:2:0:0:
417,39,152074,1,8,0:2:0:0:
397,37,152151,1,2,0:2:0:0:
377,34,152227,1,2,0:2:0:0:
357,32,152304,5,8,0:2:0:0:
351,71,152380,1,8,0:2:0:0:
329,105,152457,1,2,0:2:0:0:
295,126,152533,1,0,0:2:0:0:
255,130,152610,1,8,0:2:0:0:
217,117,152686,1,8,0:2:0:0:
185,92,152763,5,2,0:2:0:0:
155,64,152839,1,0,0:2:0:0:
117,52,152916,1,0,0:2:0:0:
77,58,152992,1,0,0:2:0:0:
43,80,153069,1,2,0:2:0:0:
23,115,153145,1,0,0:2:0:0:
19,155,153222,1,8,0:2:0:0:
33,193,153298,1,8,0:2:0:0:
61,221,153375,1,2,0:2:0:0:
99,234,153451,1,2,0:2:0:0:
139,229,153528,1,8,0:2:0:0:
173,208,153604,1,0,0:2:0:0:
195,173,153682,1,2,0:2:0:0:
25,314,154906,6,0,B|16:255|16:255|29:214|29:214|18:149,1,161.999995056153,0|0,0:2|0:2,0:2:0:0:
280,282,155518,5,6,0:2:0:0:
250,314,155594,1,0,0:2:0:0:
209,331,155671,1,0,0:2:0:0:
165,329,155747,1,0,0:2:0:0:
125,308,155825,2,0,P|106:282|97:259,1,45,2|0,0:0|0:0,0:0:0:0:
294,164,155978,5,2,0:2:0:0:
336,173,156054,1,2,0:2:0:0:
371,200,156131,1,0,0:2:0:0:
392,240,156207,1,0,0:2:0:0:
394,285,156284,2,0,P|380:313|365:333,1,45,2|0,0:0|0:0,0:0:0:0:
185,211,156437,5,2,0:2:0:0:
172,169,156513,1,0,0:2:0:0:
178,125,156590,1,0,0:2:0:0:
201,87,156666,1,0,0:2:0:0:
239,63,156743,1,2,0:2:0:0:
273,91,156819,1,0,0:2:0:0:
316,103,156896,1,2,0:2:0:0:
360,96,156972,1,0,0:2:0:0:
397,72,157049,2,0,L|405:13,1,45,0|0,0:2|0:2,0:2:0:0:
489,177,157202,2,0,L|481:236,1,45,2|0,0:2|0:2,0:2:0:0:
388,344,157355,5,2,0:2:0:0:
363,306,157431,1,0,0:2:0:0:
324,284,157508,1,0,0:2:0:0:
280,282,157584,1,0,0:2:0:0:
239,300,157661,1,2,0:2:0:0:
198,318,157738,1,0,0:2:0:0:
153,316,157814,1,2,0:2:0:0:
115,293,157891,1,0,0:2:0:0:
90,256,157967,1,0,0:2:0:0:
92,226,158043,1,0,0:2:0:0:
94,196,158120,1,2,0:2:0:0:
96,166,158196,1,0,0:2:0:0:
98,136,158274,6,0,L|105:74,3,45,2|0|0|0,0:2|0:2|0:2|0:2,0:2:0:0:
194,56,158580,2,0,P|222:58|267:77,3,45,2|0|0|0,0:2|0:2|0:2|0:2,0:2:0:0:
308,166,158886,2,0,P|336:164|381:145,3,45,0|0|0|2,0:2|0:2|0:2|0:2,0:2:0:0:
406,54,159192,5,6,0:2:0:0:
444,78,159268,1,0,0:2:0:0:
467,116,159345,1,0,0:2:0:0:
470,160,159421,1,0,0:2:0:0:
454,202,159498,2,0,P|439:227|415:248,1,45,0|0,0:2|0:0,0:0:0:0:
153,316,159651,5,2,0:2:0:0:
137,274,159728,1,0,0:2:0:0:
140,230,159804,1,0,0:2:0:0:
163,192,159881,1,0,0:2:0:0:
201,168,159957,2,0,P|229:159|260:160,1,45,2|0,0:2|0:0,0:0:0:0:
414,284,160110,5,2,0:2:0:0:
380,283,160186,1,0,0:2:0:0:
346,282,160263,1,0,0:2:0:0:
312,282,160339,1,0,0:2:0:0:
279,281,160416,2,0,L|225:282,1,45
67,171,160570,5,2,0:2:0:0:
100,170,160646,1,0,0:2:0:0:
134,169,160723,1,0,0:2:0:0:
168,169,160799,1,0,0:2:0:0:
201,168,160876,2,0,L|245:167,1,45,2|0,0:0|0:0,0:0:0:0:
406,54,161029,5,2,0:2:0:0:
375,22,161105,1,0,0:2:0:0:
331,20,161182,1,0,0:2:0:0:
297,48,161258,1,0,0:2:0:0:
292,92,161335,1,2,0:2:0:0:
317,129,161411,1,0,0:2:0:0:
344,164,161487,1,2,0:2:0:0:
347,208,161564,1,0,0:2:0:0:
325,246,161641,1,2,0:2:0:0:
285,266,161717,1,0,0:2:0:0:
241,261,161793,1,2,0:2:0:0:
208,232,161870,1,0,0:2:0:0:
196,189,161947,2,0,L|199:128,3,45,0|0|0|0,0:2|0:2|0:2|0:2,0:2:0:0:
121,304,162253,2,0,L|123:348,3,45,2|0|0|0,0:2|0:2|0:2|0:2,0:2:0:0:
34,160,162559,6,0,P|14:154|-16:151,6,36,2|2|2|2|0|0|0,0:2|0:2|0:2|0:2|0:2|0:2|0:2,0:2:0:0:
202,45,162865,5,6,0:2:0:0:
240,23,162941,1,0,0:2:0:0:
285,21,163018,1,8,0:2:0:0:
325,41,163094,1,0,0:2:0:0:
351,77,163171,1,2,0:2:0:0:
358,121,163247,1,0,0:2:0:0:
343,163,163325,1,8,0:2:0:0:
326,204,163401,1,0,0:2:0:0:
338,246,163478,1,2,0:2:0:0:
374,272,163554,1,0,0:2:0:0:
418,269,163631,1,8,0:2:0:0:
450,239,163707,1,0,0:2:0:0:
456,195,163784,5,2,0:2:0:0:
413,207,163860,1,0,0:2:0:0:
380,236,163937,1,8,0:2:0:0:
363,277,164013,1,0,0:2:0:0:
346,318,164089,1,2,0:2:0:0:
313,348,164166,1,0,0:2:0:0:
270,360,164243,2,0,L|202:352,3,45,8|0|2|0,0:2|0:2|0:2|0:2,0:2:0:0:
148,291,164549,2,0,L|80:299,1,45,8|0,0:2|0:2,0:2:0:0:
5,209,164702,5,2,0:2:0:0:
4,164,164778,1,0,0:2:0:0:
25,125,164855,1,8,0:2:0:0:
63,102,164931,1,0,0:2:0:0:
108,101,165008,1,2,0:2:0:0:
147,122,165084,1,0,0:2:0:0:
186,143,165161,1,8,0:2:0:0:
230,142,165238,1,0,0:2:0:0:
268,119,165314,1,2,0:2:0:0:
270,96,165390,1,0,0:2:0:0:
273,74,165467,1,8,0:2:0:0:
275,51,165543,1,0,0:2:0:0:
278,29,165621,5,2,0:2:0:0:
315,5,165697,1,0,0:2:0:0:
359,6,165774,1,8,0:2:0:0:
395,32,165850,1,0,0:2:0:0:
410,74,165927,1,2,0:2:0:0:
399,117,166003,1,0,0:2:0:0:
373,154,166080,1,8,0:2:0:0:
360,196,166156,1,0,0:2:0:0:
369,240,166233,2,0,L|380:297,1,45,2|0,0:2|0:2,0:2:0:0:
287,384,166386,2,0,L|298:327,1,45,8|0,0:2|0:2,0:2:0:0:
230,142,166539,5,6,0:2:0:0:
196,102,166615,1,0,0:2:0:0:
149,82,166692,1,8,0:2:0:0:
97,86,166768,1,0,0:2:0:0:
54,114,166845,1,2,0:2:0:0:
27,158,166921,1,0,0:2:0:0:
25,208,166998,1,8,0:2:0:0:
46,255,167074,1,0,0:2:0:0:
85,287,167151,1,2,0:2:0:0:
135,299,167227,1,0,0:2:0:0:
185,285,167304,1,8,0:2:0:0:
225,252,167381,1,0,0:2:0:0:
258,213,167457,5,6,0:2:0:0:
298,179,167534,1,0,0:2:0:0:
348,166,167611,1,8,0:2:0:0:
397,176,167687,1,0,0:2:0:0:
437,208,167764,1,2,0:2:0:0:
458,255,167840,1,0,0:2:0:0:
455,307,167917,1,8,0:2:0:0:
428,351,167993,1,0,0:2:0:0:
385,377,168070,1,2,0:2:0:0:
334,382,168146,1,0,0:2:0:0:
287,362,168223,1,8,0:2:0:0:
254,323,168299,1,0,0:2:0:0:
238,274,168376,5,6,0:2:0:0:
240,251,168452,1,0,0:2:0:0:
242,229,168529,1,8,0:2:0:0:
244,206,168605,1,0,0:2:0:0:
246,184,168682,1,2,0:2:0:0:
249,162,168758,1,0,0:2:0:0:
251,139,168835,1,8,0:2:0:0:
228,100,168911,1,0,0:2:0:0:
187,83,168988,1,2,0:2:0:0:
144,93,169064,1,2,0:2:0:0:
115,126,169141,1,2,0:2:0:0:
112,170,169217,1,2,0:2:0:0:
135,208,169294,2,0,P|149:264|137:313,1,90,2|0,0:2|0:2,0:2:0:0:
9,103,169600,6,0,L|149:92,1,135,6|0,0:2|0:2,0:2:0:0:
355,10,169906,6,0,L|215:-1,1,135,6|0,0:2|0:2,0:2:0:0:
251,121,170212,5,6,0:2:0:0:
286,147,170288,1,0,0:2:0:0:
330,153,170365,1,8,0:2:0:0:
371,135,170441,1,0,0:2:0:0:
398,100,170518,2,0,P|408:73|410:38,1,45,2|0,0:0|0:0,0:0:0:0:
152,38,170672,5,8,0:2:0:0:
116,11,170748,1,0,0:2:0:0:
72,5,170825,1,2,0:2:0:0:
31,23,170901,1,0,0:2:0:0:
4,58,170978,1,8,0:2:0:0:
0,102,171054,1,0,0:2:0:0:
18,143,171131,5,2,0:2:0:0:
54,117,171207,1,0,0:2:0:0:
98,113,171284,1,8,0:2:0:0:
138,132,171360,1,0,0:2:0:0:
163,168,171437,1,2,0:2:0:0:
169,213,171513,1,0,0:2:0:0:
194,250,171590,1,8,0:2:0:0:
234,269,171666,1,0,0:2:0:0:
278,264,171743,1,2,0:2:0:0:
314,239,171819,1,0,0:2:0:0:
341,202,171896,2,0,L|334:143,1,45,8|0,0:2|0:2,0:2:0:0:
261,38,172049,5,2,0:2:0:0:
299,15,172125,1,0,0:2:0:0:
343,11,172202,1,8,0:2:0:0:
385,26,172278,1,0,0:2:0:0:
417,58,172355,1,2,0:2:0:0:
431,100,172431,1,0,0:2:0:0:
429,145,172508,1,8,0:2:0:0:
411,186,172585,1,0,0:2:0:0:
391,226,172661,1,2,0:2:0:0:
388,271,172738,1,0,0:2:0:0:
406,311,172814,1,8,0:2:0:0:
439,341,172891,1,0,0:2:0:0:
482,352,172967,5,2,0:2:0:0:
450,320,173043,1,0,0:2:0:0:
408,305,173120,1,8,0:2:0:0:
364,309,173196,1,0,0:2:0:0:
325,331,173274,2,0,L|308:388,3,45,2|0|8|0,0:2|0:2|0:2|0:2,0:2:0:0:
261,213,173580,2,0,L|248:169,3,45,2|0|8|0,0:2|0:2|0:2|0:2,0:2:0:0:
127,348,173886,5,6,0:2:0:0:
85,364,173962,1,0,0:2:0:0:
42,356,174039,1,8,0:2:0:0:
10,325,174115,1,0,0:2:0:0:
1,281,174192,1,2,0:2:0:0:
17,240,174268,1,0,0:2:0:0:
54,215,174345,1,8,0:2:0:0:
95,197,174422,1,0,0:2:0:0:
126,164,174498,1,2,0:2:0:0:
138,121,174575,1,0,0:2:0:0:
130,78,174651,1,8,0:2:0:0:
102,43,174728,1,0,0:2:0:0:
58,31,174804,5,2,0:2:0:0:
92,59,174880,1,0,0:2:0:0:
135,69,174957,1,8,0:2:0:0:
179,61,175033,1,0,0:2:0:0:
215,34,175110,1,2,0:2:0:0:
252,10,175186,1,0,0:2:0:0:
297,11,175263,1,8,0:2:0:0:
333,37,175339,1,0,0:2:0:0:
349,79,175416,1,2,0:2:0:0:
339,122,175492,1,0,0:2:0:0:
306,152,175569,1,8,0:2:0:0:
262,159,175645,1,0,0:2:0:0:
221,140,175723,5,2,0:2:0:0:
219,151,175799,1,0,0:2:0:0:
218,162,175876,1,8,0:2:0:0:
217,173,175952,1,0,0:2:0:0:
216,184,176029,1,2,0:2:0:0:
215,196,176105,1,0,0:2:0:0:
214,207,176182,1,8,0:2:0:0:
213,218,176258,1,0,0:2:0:0:
212,229,176335,2,0,L|205:294,1,45,2|2,0:2|0:2,0:2:0:0:
305,377,176488,2,0,L|298:312,1,45,0|0,0:2|0:2,0:2:0:0:
339,122,176641,5,2,0:2:0:0:
380,105,176717,1,0,0:2:0:0:
423,113,176794,1,8,0:2:0:0:
455,144,176870,1,0,0:2:0:0:
465,187,176947,2,0,L|462:244,3,45,2|0|8|0,0:2|0:2|0:2|0:2,0:2:0:0:
401,334,177253,6,0,L|404:391,6,36,2|0|2|2|0|0|0,0:2|0:2|0:2|0:2|0:2|0:2|0:2,0:2:0:0:
310,190,177559,5,6,0:2:0:0:
265,169,177635,1,0,0:2:0:0:
217,174,177712,1,8,0:2:0:0:
178,204,177788,1,0,0:2:0:0:
162,250,177865,1,2,0:2:0:0:
171,298,177941,1,0,0:2:0:0:
205,333,178018,1,8,0:2:0:0:
252,346,178094,1,0,0:2:0:0:
299,332,178172,1,2,0:2:0:0:
318,316,178248,1,0,0:2:0:0:
340,306,178325,1,8,0:2:0:0:
365,301,178401,1,0,0:2:0:0:
395,302,178478,5,2,0:2:0:0:
379,255,178554,1,0,0:2:0:0:
381,206,178631,1,8,0:2:0:0:
400,161,178707,1,0,0:2:0:0:
435,126,178784,1,2,0:2:0:0:
463,86,178860,1,0,0:2:0:0:
459,38,178937,1,8,0:2:0:0:
423,5,179013,1,0,0:2:0:0:
375,4,179090,1,2,0:2:0:0:
338,36,179166,1,0,0:2:0:0:
301,67,179242,1,8,0:2:0:0:
252,66,179319,1,0,0:2:0:0:
217,33,179396,5,2,0:2:0:0:
264,46,179472,1,0,0:2:0:0:
297,81,179549,1,8,0:2:0:0:
309,129,179625,1,0,0:2:0:0:
294,176,179702,1,2,0:2:0:0:
259,209,179778,1,0,0:2:0:0:
211,220,179855,1,8,0:2:0:0:
164,205,179931,1,0,0:2:0:0:
132,168,180008,2,0,L|130:102,1,49.5000015106202,2|0,0:2|0:2,0:2:0:0:
41,263,180161,2,0,L|38:329,1,49.5000015106202,8|0,0:2|0:2,0:2:0:0:
232,372,180314,6,0,P|257:315|243:258,1,99.0000030212403,2|8,0:2|0:2,0:2:0:0:
211,220,180544,1,0,0:2:0:0:
211,220,180621,2,0,P|209:171|232:127,1,99.0000030212403,2|8,0:2|0:2,0:2:0:0:
370,315,180927,1,2,0:2:0:0:
173,313,181080,1,8,0:2:0:0:
173,313,181156,1,0,0:2:0:0:
173,313,181233,5,12,0:2:0:0:
339,208,181386,1,2,0:2:0:0:
132,168,181539,1,2,0:2:0:0:
347,295,181692,5,8,0:2:0:0:
231,112,181845,1,2,0:2:0:0:
187,340,181998,1,2,0:2:0:0:
258,97,182151,5,12,0:2:0:0:
54,211,182304,1,2,0:2:0:0:
339,208,182457,1,2,0:2:0:0:
64,65,182610,5,8,0:2:0:0:
173,308,182763,2,0,L|173:258,1,49.5000015106202,2|2,0:2|0:2,0:2:0:0:
231,112,182916,2,0,L|231:161,1,49.5000015106202,2|2,0:2|0:2,0:2:0:0:
367,303,183070,5,2,0:2:0:0:
409,278,183146,1,0,0:2:0:0:
434,236,183223,1,8,0:2:0:0:
434,187,183299,1,0,0:2:0:0:
409,145,183376,1,2,0:2:0:0:
366,121,183452,1,0,0:2:0:0:
316,118,183529,5,8,0:2:0:0:
347,155,183605,1,0,0:2:0:0:
394,171,183682,1,2,0:2:0:0:
442,162,183758,1,2,0:2:0:0:
479,131,183835,1,2,0:2:0:0:
496,85,183911,1,2,0:2:0:0:
488,37,183988,6,0,L|297:35,1,161.999995056153,2|2,0:2|0:2,0:2:0:0:
149,52,184447,1,8,0:2:0:0:
217,190,184600,2,0,P|231:131|225:81,1,80.9999975280763,2|0,0:2|0:2,0:2:0:0:
38,29,184906,5,6,0:2:0:0:
245,0,185059,1,2,0:2:0:0:
245,0,185365,5,2,0:2:0:0:
77,137,185518,1,2,0:2:0:0:
349,286,185825,6,0,P|373:219|347:154,2,144,2|0|0,0:2|0:2|0:2,0:2:0:0:
148,350,186743,5,6,0:2:0:0:
198,143,186896,1,2,0:2:0:0:
198,143,187202,5,2,0:2:0:0:
286,359,187355,1,2,0:2:0:0:
137,220,187661,6,0,B|53:203|80:269|-25:233,2,144,2|0|0,0:2|0:2|0:2,0:2:0:0:
255,275,188427,1,2,0:2:0:0:
255,275,188503,1,2,0:2:0:0:
255,275,188580,5,6,0:2:0:0:
198,143,188733,2,0,L|191:49,1,72,2|0,0:2|0:2,0:2:0:0:
269,251,189039,5,2,0:2:0:0:
326,119,189192,2,0,L|333:25,1,72,2|0,0:2|0:2,0:2:0:0:
480,214,189498,6,0,P|428:268|353:237,2,144,2|0|0,0:2|0:2|0:2,0:2:0:0:
331,47,190416,5,6,0:2:0:0:
363,181,190570,2,0,P|369:225|359:284,1,72,2|0,0:2|0:2,0:2:0:0:
161,327,190876,5,2,0:2:0:0:
129,193,191030,2,0,P|123:149|133:90,1,72,2|0,0:2|0:2,0:2:0:0:
271,318,191335,5,2,0:2:0:0:
65,287,191488,1,2,0:2:0:0:
65,287,191641,1,0,0:2:0:0:
235,218,191794,6,0,L|264:215,8,18,8|0|0|0|0|0|0|0|0,0:2|0:2|0:2|0:2|0:2|0:2|0:2|0:2|0:2,0:2:0:0:
113,20,192253,5,6,0:2:0:0:
68,14,192329,1,0,0:2:0:0:
29,35,192406,1,8,0:2:0:0:
7,73,192482,1,0,0:2:0:0:
11,118,192559,1,2,0:2:0:0:
38,152,192635,1,0,0:2:0:0:
80,166,192712,1,8,0:2:0:0:
123,154,192788,1,0,0:2:0:0:
152,121,192865,1,2,0:2:0:0:
185,91,192941,1,0,0:2:0:0:
228,80,193018,1,8,0:2:0:0:
272,88,193094,1,0,0:2:0:0:
307,116,193172,5,2,0:2:0:0:
304,145,193248,1,0,0:2:0:0:
302,175,193325,1,8,0:2:0:0:
300,205,193401,1,0,0:2:0:0:
263,218,193478,5,2,0:2:0:0:
265,247,193554,1,0,0:2:0:0:
267,277,193631,1,8,0:2:0:0:
269,307,193707,1,0,0:2:0:0:
301,338,193784,5,2,0:2:0:0:
340,316,193860,1,0,0:2:0:0:
385,318,193937,1,8,0:2:0:0:
423,340,194013,1,0,0:2:0:0:
448,377,194090,5,2,0:2:0:0:
422,340,194166,1,0,0:2:0:0:
416,296,194243,1,8,0:2:0:0:
431,254,194319,1,0,0:2:0:0:
464,224,194396,1,2,0:2:0:0:
490,188,194472,1,0,0:2:0:0:
493,144,194549,1,8,0:2:0:0:
470,106,194625,1,0,0:2:0:0:
431,86,194702,1,2,0:2:0:0:
387,92,194778,1,0,0:2:0:0:
353,121,194855,1,8,0:2:0:0:
341,163,194931,1,0,0:2:0:0:
354,206,195008,5,2,0:2:0:0:
321,237,195084,1,0,0:2:0:0:
279,252,195161,1,8,0:2:0:0:
235,248,195238,1,0,0:2:0:0:
196,226,195314,1,2,0:2:0:0:
170,189,195390,1,0,0:2:0:0:
161,146,195467,1,8,0:2:0:0:
177,103,195544,1,0,0:2:0:0:
205,68,195621,6,0,L|268:60,1,45,2|0,0:2|0:2,0:2:0:0:
73,159,195774,2,0,L|10:151,1,45,8|0,0:2|0:2,0:2:0:0:
155,353,195927,5,2,0:2:0:0:
162,352,196003,1,0,0:2:0:0:
170,352,196080,1,8,0:2:0:0:
178,351,196156,1,8,0:2:0:0:
186,351,196233,1,2,0:2:0:0:
194,351,196309,1,0,0:2:0:0:
202,350,196386,1,8,0:2:0:0:
210,350,196462,1,8,0:2:0:0:
217,349,196539,1,2,0:2:0:0:
225,349,196615,1,0,0:2:0:0:
233,349,196692,1,8,0:2:0:0:
241,348,196768,1,8,0:2:0:0:
249,348,196845,1,2,0:2:0:0:
257,347,196921,1,0,0:2:0:0:
265,347,196998,1,8,0:2:0:0:
272,347,197074,1,8,0:2:0:0:
280,346,197151,1,2,0:2:0:0:
288,345,197228,1,0,0:2:0:0:
296,345,197304,1,8,0:2:0:0:
303,344,197381,1,8,0:2:0:0:
311,344,197457,1,2,0:2:0:0:
319,344,197534,1,0,0:2:0:0:
327,343,197610,1,8,0:2:0:0:
335,343,197687,1,8,0:2:0:0:
343,343,197763,5,2,0:2:0:0:
374,311,197839,1,0,0:2:0:0:
384,268,197916,1,8,0:2:0:0:
370,226,197992,1,0,0:2:0:0:
336,198,198069,1,2,0:2:0:0:
292,192,198145,1,0,0:2:0:0:
252,210,198222,1,8,0:2:0:0:
211,228,198300,1,0,0:2:0:0:
167,222,198376,1,2,0:2:0:0:
133,194,198453,1,0,0:2:0:0:
119,152,198529,1,8,0:2:0:0:
129,108,198606,1,0,0:2:0:0:
161,77,198682,5,2,0:2:0:0:
201,111,198758,1,0,0:2:0:0:
253,123,198835,1,8,0:2:0:0:
305,109,198911,1,0,0:2:0:0:
344,73,198988,1,2,0:2:0:0:
385,39,199064,1,0,0:2:0:0:
438,36,199141,1,8,0:2:0:0:
482,64,199217,1,8,0:2:0:0:
501,114,199294,6,0,L|497:175,1,45,6|0,0:2|0:2,0:2:0:0:
458,251,199447,2,0,L|462:312,2,45,2|2|2,0:2|0:2|0:2,0:2:0:0:
126,241,211358,6,0,B|244:186|225:295|340:248,1,215.999993408203,2|0,0:2|0:2,0:2:0:0:
388,34,212546,2,0,P|297:51|293:164,1,215.999993408203,2|0,0:2|0:2,0:2:0:0:
167,85,213586,5,2,0:2:0:0:
167,85,213660,1,2,0:2:0:0:
167,85,213734,2,0,L|115:80,3,31.4999990386963,6|0|8|0,0:2|0:2|0:2|0:2,0:2:0:0:
58,154,214031,2,0,L|26:150,3,31.4999990386963,2|0|8|0,0:2|0:2|0:2|0:2,0:2:0:0:
168,216,214328,1,2,0:2:0:0:
196,227,214403,1,0,0:2:0:0:
218,250,214477,1,8,0:2:0:0:
230,279,214551,1,0,0:2:0:0:
229,310,214625,1,2,0:2:0:0:
216,338,214700,1,0,0:2:0:0:
193,359,214774,2,0,P|166:366|141:371,1,31.4999990386963,8|0,0:2|0:2,0:2:0:0:
58,154,214922,5,2,0:2:0:0:
95,149,214997,1,0,0:2:0:0:
133,144,215071,1,8,0:2:0:0:
171,139,215145,1,0,0:2:0:0:
209,134,215219,1,2,0:2:0:0:
245,120,215294,1,0,0:2:0:0:
268,90,215368,1,8,0:2:0:0:
272,53,215442,1,0,0:2:0:0:
256,19,215516,1,2,0:2:0:0:
224,0,215591,1,0,0:2:0:0:
186,0,215665,1,8,0:2:0:0:
154,17,215739,1,0,0:2:0:0:
136,50,215813,2,2,L|142:97,1,45,2|2,0:2|0:2,0:2:0:0:
218,250,215962,2,0,L|224:203,1,45,8|0,0:2|0:2,0:2:0:0:
357,12,216110,5,2,0:2:0:0:
400,19,216185,1,2,0:2:0:0:
436,46,216259,1,2,0:2:0:0:
454,87,216333,1,2,0:2:0:0:
451,131,216407,1,2,0:2:0:0:
428,169,216482,1,2,0:2:0:0:
390,192,216556,1,2,0:2:0:0:
345,193,216630,1,2,0:2:0:0:
305,174,216705,5,2,0:2:0:0:
314,130,216779,1,2,0:2:0:0:
303,86,216853,1,2,0:2:0:0:
272,53,216927,1,2,0:2:0:0:
229,40,217002,1,2,0:2:0:0:
185,47,217076,1,2,0:2:0:0:
150,75,217150,1,2,0:2:0:0:
132,115,217224,1,2,0:2:0:0:
134,161,217299,5,2,0:2:0:0:
135,177,217373,1,2,0:2:0:0:
137,194,217447,1,2,0:2:0:0:
139,211,217521,1,2,0:2:0:0:
141,228,217596,1,2,0:2:0:0:
142,244,217670,1,2,0:2:0:0:
144,261,217744,1,2,0:2:0:0:
146,278,217818,1,2,0:2:0:0:
148,295,217893,2,0,P|213:310|279:269,1,135,6|0,0:2|0:2,0:2:0:0:
390,192,218190,6,0,L|395:236,3,45,8|0|0|0,0:2|0:2|0:2|0:2,0:2:0:0:
409,42,218487,5,2,0:2:0:0:
383,23,218561,1,0,0:2:0:0:
353,15,218635,1,0,0:2:0:0:
322,17,218709,1,0,0:2:0:0:
293,30,218784,1,0,0:2:0:0:
271,52,218858,1,0,0:2:0:0:
248,73,218932,1,0,0:2:0:0:
220,86,219006,1,0,0:2:0:0:
188,89,219081,1,0,0:2:0:0:
158,80,219155,1,0,0:2:0:0:
133,62,219229,1,0,0:2:0:0:
109,41,219304,1,0,0:2:0:0:
79,34,219378,1,0,0:2:0:0:
49,43,219452,1,0,0:2:0:0:
27,65,219526,1,0,0:2:0:0:
18,94,219601,1,0,0:2:0:0:
24,125,219675,5,0,0:2:0:0:
45,148,219749,1,0,0:2:0:0:
74,160,219823,1,0,0:2:0:0:
105,156,219898,1,0,0:2:0:0:
136,161,219972,1,0,0:2:0:0:
163,175,220046,1,0,0:2:0:0:
185,197,220120,1,0,0:2:0:0:
195,226,220195,1,0,0:2:0:0:
195,257,220269,1,0,0:2:0:0:
179,284,220343,1,0,0:2:0:0:
152,299,220417,1,0,0:2:0:0:
122,300,220492,1,0,0:2:0:0:
94,283,220566,1,0,0:2:0:0:
79,256,220640,1,0,0:2:0:0:
80,225,220714,1,0,0:2:0:0:
97,199,220789,1,0,0:2:0:0:
124,184,220863,5,0,0:2:0:0:
142,219,220937,1,0,0:2:0:0:
172,246,221011,1,0,0:2:0:0:
210,259,221086,1,0,0:2:0:0:
251,259,221160,1,0,0:2:0:0:
288,243,221234,1,0,0:2:0:0:
317,215,221308,1,0,0:2:0:0:
342,184,221383,1,0,0:2:0:0:
377,164,221457,1,8,0:2:0:0:
417,161,221531,1,0,0:2:0:0:
455,174,221606,1,8,0:2:0:0:
485,201,221680,1,0,0:2:0:0:
501,238,221754,1,8,0:2:0:0:
501,278,221828,1,8,0:2:0:0:
484,315,221903,1,8,0:2:0:0:
455,342,221977,1,8,0:2:0:0:
417,355,222051,5,8,0:2:0:0:
369,349,222125,1,8,0:2:0:0:
330,320,222200,1,8,0:2:0:0:
308,277,222274,1,8,0:2:0:0:
286,234,222348,1,8,0:2:0:0:
245,209,222422,1,8,0:2:0:0:
197,209,222497,1,8,0:2:0:0:
156,234,222571,1,8,0:2:0:0:
134,276,222645,1,8,0:2:0:0:
137,324,222719,1,8,0:2:0:0:
165,363,222794,1,8,0:2:0:0:
209,382,222868,1,8,0:2:0:0:
256,375,222942,1,2,0:2:0:0:
216,67,223239,5,6,0:2:0:0:
217,107,223313,1,0,0:2:0:0:
218,147,223388,1,0,0:2:0:0:
219,188,223462,1,0,0:2:0:0:
220,228,223536,1,2,0:2:0:0:
222,269,223610,1,0,0:2:0:0:
223,309,223685,1,0,0:2:0:0:
200,342,223759,1,0,0:2:0:0:
165,363,223833,5,2,0:2:0:0:
125,367,223907,1,0,0:2:0:0:
87,355,223982,1,0,0:2:0:0:
58,328,224056,1,0,0:2:0:0:
42,291,224130,2,0,L|45:231,1,40.4999987640381,2|0,0:2|0:2,0:2:0:0:
122,115,224279,2,0,L|125:175,1,40.4999987640381,0|0,0:2|0:2,0:2:0:0:
222,269,224427,5,2,0:2:0:0:
259,284,224502,1,0,0:2:0:0:
299,282,224576,1,0,0:2:0:0:
334,263,224650,1,0,0:2:0:0:
358,231,224724,1,2,0:2:0:0:
372,192,224799,1,0,0:2:0:0:
382,154,224873,1,0,0:2:0:0:
413,129,224947,1,0,0:2:0:0:
453,128,225021,5,2,0:2:0:0:
484,152,225096,1,0,0:2:0:0:
495,191,225170,1,0,0:2:0:0:
480,227,225244,1,0,0:2:0:0:
446,247,225318,2,0,L|393:255,1,40.4999987640381,2|0,0:2|0:2,0:2:0:0:
235,186,225467,2,0,L|275:179,1,40.4999987640381,0|0,0:2|0:2,0:2:0:0:
416,16,225615,5,2,0:2:0:0:
376,8,225690,1,0,0:2:0:0:
339,23,225764,1,0,0:2:0:0:
316,56,225838,1,0,0:2:0:0:
315,96,225912,2,0,P|332:122|347:135,1,40.4999987640381,2|0,0:2|0:2,0:2:0:0:
358,231,226061,2,0,P|387:222|404:212,1,40.4999987640381,0|0,0:2|0:2,0:2:0:0:
285,316,226209,5,2,0:2:0:0:
250,336,226284,1,0,0:2:0:0:
210,337,226358,1,0,0:2:0:0:
174,319,226432,1,0,0:2:0:0:
151,286,226506,1,2,0:2:0:0:
128,252,226581,1,0,0:2:0:0:
92,234,226655,1,0,0:2:0:0:
52,236,226729,1,0,0:2:0:0:
17,256,226804,5,2,0:2:0:0:
40,223,226878,1,0,0:2:0:0:
51,184,226952,1,0,0:2:0:0:
47,144,227026,1,0,0:2:0:0:
30,108,227101,5,2,0:2:0:0:
22,69,227175,1,0,0:2:0:0:
36,31,227249,1,0,0:2:0:0:
67,6,227323,1,0,0:2:0:0:
107,1,227398,5,2,0:2:0:0:
143,17,227472,1,0,0:2:0:0:
166,50,227546,1,0,0:2:0:0:
169,90,227620,1,0,0:2:0:0:
150,125,227695,2,0,L|139:188,1,40.4999987640381,2|0,0:2|0:2,0:2:0:0:
235,266,227843,2,0,L|224:203,1,40.4999987640381,0|0,0:2|0:2,0:2:0:0:
367,37,227992,5,6,0:2:0:0:
406,15,228066,1,0,0:2:0:0:
450,16,228140,1,0,0:2:0:0:
488,39,228214,1,0,0:2:0:0:
511,77,228289,1,2,0:2:0:0:
512,122,228363,1,0,0:2:0:0:
491,161,228437,1,0,0:2:0:0:
453,185,228511,1,0,0:2:0:0:
407,182,228586,5,2,0:2:0:0:
367,161,228660,1,0,0:2:0:0:
325,146,228734,1,0,0:2:0:0:
282,152,228808,1,0,0:2:0:0:
246,180,228883,1,2,0:2:0:0:
230,221,228957,1,0,0:2:0:0:
235,266,229031,1,0,0:2:0:0:
262,301,229106,1,0,0:2:0:0:
302,320,229180,6,0,L|372:315,3,45,2|0|0|0,0:2|0:2|0:2|0:2,0:2:0:0:
154,384,229477,2,0,L|83:379,3,45,2|0|0|0,0:2|0:2|0:2|0:2,0:2:0:0:
235,266,229774,5,2,0:2:0:0:
243,245,229848,1,0,0:2:0:0:
245,222,229922,1,0,0:2:0:0:
241,200,229997,1,0,0:2:0:0:
230,181,230071,1,2,0:2:0:0:
215,164,230145,1,0,0:2:0:0:
195,154,230219,1,0,0:2:0:0:
173,148,230294,1,0,0:2:0:0:
151,150,230368,5,2,0:2:0:0:
109,164,230442,1,0,0:2:0:0:
65,153,230516,1,0,0:2:0:0:
35,121,230591,1,0,0:2:0:0:
27,77,230665,1,2,0:2:0:0:
44,36,230739,1,0,0:2:0:0:
81,11,230813,1,0,0:2:0:0:
125,10,230888,1,0,0:2:0:0:
163,33,230962,5,2,0:2:0:0:
196,63,231036,1,0,0:2:0:0:
237,80,231110,1,0,0:2:0:0:
279,87,231185,1,0,0:2:0:0:
323,81,231259,1,2,0:2:0:0:
365,65,231333,1,0,0:2:0:0:
402,40,231407,2,0,P|412:21|419:-1,1,45,0|0,0:2|0:2,0:2:0:0:
279,87,231556,5,2,0:2:0:0:
264,129,231630,1,0,0:2:0:0:
273,172,231705,1,0,0:2:0:0:
303,205,231779,1,0,0:2:0:0:
345,218,231853,1,2,0:2:0:0:
390,211,231927,1,0,0:2:0:0:
433,200,232002,1,0,0:2:0:0:
475,213,232076,1,0,0:2:0:0:
504,246,232150,5,2,0:2:0:0:
512,290,232224,1,0,0:2:0:0:
496,331,232299,1,0,0:2:0:0:
461,358,232373,1,0,0:2:0:0:
417,363,232447,2,0,P|390:360|361:345,1,45,2|0,0:2|0:2,0:2:0:0:
276,285,232596,2,0,P|249:288|220:303,1,45,0|0,0:2|0:2,0:2:0:0:
36,384,232744,5,6,0:2:0:0:
37,339,232818,1,0,0:2:0:0:
39,294,232893,1,0,0:2:0:0:
40,249,232967,1,0,0:2:0:0:
42,204,233041,1,2,0:2:0:0:
62,164,233115,1,0,0:2:0:0:
100,141,233190,1,0,0:2:0:0:
144,140,233264,1,0,0:2:0:0:
183,163,233338,5,2,0:2:0:0:
221,185,233412,1,0,0:2:0:0:
265,185,233487,1,0,0:2:0:0:
303,161,233561,1,0,0:2:0:0:
324,122,233635,1,2,0:2:0:0:
324,77,233709,1,0,0:2:0:0:
300,38,233784,2,0,L|235:30,1,45,0|0,0:2|0:2,0:2:0:0:
32,1,233932,5,6,0:2:0:0:
72,19,234006,1,0,0:2:0:0:
100,54,234081,1,0,0:2:0:0:
110,97,234155,1,0,0:2:0:0:
99,140,234229,1,2,0:2:0:0:
83,182,234304,1,0,0:2:0:0:
90,225,234378,1,0,0:2:0:0:
121,256,234452,1,0,0:2:0:0:
165,264,234526,5,2,0:2:0:0:
192,262,234601,1,0,0:2:0:0:
217,248,234675,1,0,0:2:0:0:
234,226,234749,1,0,0:2:0:0:
240,199,234823,2,0,L|234:139,1,45,2|0,0:2|0:2,0:2:0:0:
314,303,234972,2,0,L|308:363,1,45,0|0,0:2|0:2,0:2:0:0:
482,251,235120,5,6,0:2:0:0:
483,224,235195,1,0,0:2:0:0:
477,198,235269,1,0,0:2:0:0:
463,175,235343,1,0,0:2:0:0:
443,157,235417,1,2,0:2:0:0:
418,147,235492,1,0,0:2:0:0:
391,144,235566,1,0,0:2:0:0:
365,150,235640,1,0,0:2:0:0:
342,164,235714,5,6,0:2:0:0:
317,195,235789,1,0,0:2:0:0:
280,211,235863,1,0,0:2:0:0:
240,207,235937,1,0,0:2:0:0:
207,184,236011,1,2,0:2:0:0:
190,148,236086,1,0,0:2:0:0:
192,108,236160,1,0,0:2:0:0:
213,74,236234,1,0,0:2:0:0:
248,55,236308,5,6,0:2:0:0:
219,88,236383,1,0,0:2:0:0:
178,106,236457,1,0,0:2:0:0:
133,104,236531,1,0,0:2:0:0:
93,83,236606,1,2,0:2:0:0:
49,83,236680,1,0,0:2:0:0:
15,111,236754,1,0,0:2:0:0:
5,154,236828,1,0,0:2:0:0:
24,193,236903,5,6,0:2:0:0:
46,196,236977,1,0,0:2:0:0:
68,199,237051,2,0,L|125:185,2,36,0|0|0,0:2|0:2|0:2,0:2:0:0:
192,372,237497,5,6,0:2:0:0:
236,372,237571,1,0,0:2:0:0:
275,351,237645,1,0,0:2:0:0:
298,313,237719,1,0,0:2:0:0:
299,269,237794,1,2,0:2:0:0:
278,230,237868,1,0,0:2:0:0:
240,207,237942,1,0,0:2:0:0:
202,183,238016,1,0,0:2:0:0:
180,144,238091,5,2,0:2:0:0:
181,100,238165,1,0,0:2:0:0:
204,62,238239,1,0,0:2:0:0:
243,41,238313,1,0,0:2:0:0:
288,42,238388,2,0,P|314:48|342:57,1,45,2|0,0:2|0:2,0:2:0:0:
439,79,238536,2,0,P|460:74|482:67,1,45,0|0,0:2|0:2,0:2:0:0:
359,155,238685,5,2,0:2:0:0:
362,199,238759,1,0,0:2:0:0:
365,244,238833,1,0,0:2:0:0:
368,289,238907,1,0,0:2:0:0:
371,334,238982,1,2,0:2:0:0:
338,364,239056,1,0,0:2:0:0:
295,372,239130,1,0,0:2:0:0:
254,354,239205,1,0,0:2:0:0:
230,317,239279,5,2,0:2:0:0:
235,273,239353,1,0,0:2:0:0:
224,229,239427,1,0,0:2:0:0:
191,200,239502,1,0,0:2:0:0:
146,199,239576,2,0,L|76:207,1,45,2|0,0:2|0:2,0:2:0:0:
12,104,239724,2,0,L|80:104,1,45,0|0,0:2|0:2,0:2:0:0:
288,42,239873,5,2,0:2:0:0:
332,45,239947,1,0,0:2:0:0:
365,74,240021,1,0,0:2:0:0:
374,117,240096,1,0,0:2:0:0:
355,157,240170,2,0,P|336:177|318:188,1,45,2|0,0:2|0:2,0:2:0:0:
277,286,240318,2,0,P|249:280|231:271,1,45,0|0,0:2|0:2,0:2:0:0:
101,204,240467,5,2,0:2:0:0:
102,226,240541,1,0,0:2:0:0:
103,247,240615,1,0,0:2:0:0:
104,269,240690,1,0,0:2:0:0:
106,291,240764,1,2,0:2:0:0:
107,313,240838,1,0,0:2:0:0:
108,335,240912,1,0,0:2:0:0:
110,357,240987,1,0,0:2:0:0:
111,379,241061,5,2,0:2:0:0:
134,341,241135,1,0,0:2:0:0:
173,319,241209,1,0,0:2:0:0:
217,319,241284,1,0,0:2:0:0:
256,341,241358,2,0,P|294:354|321:358,1,45,2|0,0:2|0:2,0:2:0:0:
415,363,241506,2,0,P|439:330|451:306,1,45,0|0,0:2|0:2,0:2:0:0:
420,144,241655,5,2,0:2:0:0:
375,148,241729,1,0,0:2:0:0:
342,178,241804,1,0,0:2:0:0:
332,221,241878,1,0,0:2:0:0:
348,262,241952,1,2,0:2:0:0:
359,265,242026,1,0,0:2:0:0:
370,268,242101,1,0,0:2:0:0:
381,271,242175,1,0,0:2:0:0:
392,274,242249,5,6,0:2:0:0:
366,237,242323,1,0,0:2:0:0:
327,215,242398,1,0,0:2:0:0:
283,210,242472,1,0,0:2:0:0:
241,225,242546,1,2,0:2:0:0:
208,256,242620,1,0,0:2:0:0:
175,286,242695,1,0,0:2:0:0:
133,301,242769,1,0,0:2:0:0:
89,297,242843,5,2,0:2:0:0:
50,274,242917,1,0,0:2:0:0:
24,238,242992,1,0,0:2:0:0:
19,193,243066,1,0,0:2:0:0:
35,152,243140,1,2,0:2:0:0:
68,122,243214,1,0,0:2:0:0:
113,112,243289,2,0,L|174:116,1,45,0|0,0:2|0:2,0:2:0:0:
327,215,243437,5,6,0:2:0:0:
371,205,243511,1,0,0:2:0:0:
404,175,243586,1,0,0:2:0:0:
420,133,243660,1,0,0:2:0:0:
416,89,243734,1,2,0:2:0:0:
390,53,243808,1,0,0:2:0:0:
351,30,243883,1,0,0:2:0:0:
307,26,243957,1,0,0:2:0:0:
265,41,244031,5,2,0:2:0:0:
261,70,244106,1,0,0:2:0:0:
258,100,244180,1,0,0:2:0:0:
254,130,244254,1,0,0:2:0:0:
234,166,244328,5,2,0:2:0:0:
238,195,244403,1,0,0:2:0:0:
241,225,244477,1,0,0:2:0:0:
245,255,244551,1,0,0:2:0:0:
277,295,244625,5,6,0:2:0:0:
256,334,244700,1,0,0:2:0:0:
218,357,244774,1,0,0:2:0:0:
173,356,244848,1,0,0:2:0:0:
136,333,244922,2,0,L|132:266,1,45,2|0,0:2|0:2,0:2:0:0:
19,193,245071,2,0,L|15:260,1,45,0|0,0:2|0:2,0:2:0:0:
142,147,245219,5,2,0:2:0:0:
140,124,245294,1,0,0:2:0:0:
139,102,245368,1,0,0:2:0:0:
137,79,245442,1,0,0:2:0:0:
136,57,245516,1,2,0:2:0:0:
174,35,245591,1,0,0:2:0:0:
219,35,245665,1,0,0:2:0:0:
257,58,245739,1,0,0:2:0:0:
280,96,245813,6,0,L|278:166,1,45,6|0,0:2|0:2,0:2:0:0:
315,318,245962,5,0,0:2:0:0:
315,318,246036,1,0,0:2:0:0:
315,318,246110,2,0,L|255:281,1,45,2|0,0:2|0:2,0:2:0:0:
105,237,246259,5,0,0:2:0:0:
105,237,246333,1,0,0:2:0:0:
105,237,246407,2,0,L|166:203,1,45,2|0,0:2|0:2,0:2:0:0:
280,96,246556,5,0,0:2:0:0:
280,96,246630,1,0,0:2:0:0:
280,96,246705,2,0,L|278:166,1,45,2|0,0:2|0:2,0:2:0:0:
387,243,246853,2,0,L|385:198,1,45,8|8,0:2|0:2,0:2:0:0:
144,215,247002,5,6,0:2:0:0:
99,215,247076,1,0,0:2:0:0:
64,189,247150,1,8,0:2:0:0:
54,146,247224,1,0,0:2:0:0:
73,106,247299,1,2,0:2:0:0:
112,86,247373,1,0,0:2:0:0:
155,96,247447,1,8,0:2:0:0:
189,126,247521,1,0,0:2:0:0:
228,147,247596,5,2,0:2:0:0:
273,150,247670,1,0,0:2:0:0:
315,135,247744,1,8,0:2:0:0:
347,103,247818,1,0,0:2:0:0:
363,62,247893,2,0,L|367:-7,1,45,2|0,0:2|0:2,0:2:0:0:
467,168,248041,2,0,L|471:237,1,45,8|0,0:2|0:2,0:2:0:0:
311,362,248190,5,2,0:2:0:0:
288,361,248264,1,0,0:2:0:0:
267,353,248338,1,8,0:2:0:0:
250,338,248412,1,0,0:2:0:0:
238,319,248487,1,2,0:2:0:0:
233,298,248561,1,0,0:2:0:0:
235,275,248635,1,8,0:2:0:0:
244,255,248709,1,0,0:2:0:0:
260,238,248784,5,2,0:2:0:0:
283,214,248858,1,0,0:2:0:0:
293,182,248932,1,8,0:2:0:0:
288,149,249006,1,0,0:2:0:0:
268,122,249081,1,2,0:2:0:0:
238,106,249155,1,0,0:2:0:0:
205,106,249229,1,8,0:2:0:0:
175,121,249304,1,0,0:2:0:0:
155,148,249378,5,6,0:2:0:0:
199,139,249452,1,0,0:2:0:0:
234,112,249526,1,8,0:2:0:0:
254,72,249601,1,0,0:2:0:0:
273,32,249675,1,2,0:2:0:0:
309,5,249749,1,0,0:2:0:0:
353,0,249823,1,8,0:2:0:0:
395,14,249898,1,0,0:2:0:0:
425,48,249972,5,2,0:2:0:0:
430,92,250046,1,0,0:2:0:0:
415,134,250120,1,8,0:2:0:0:
395,174,250195,1,0,0:2:0:0:
391,218,250269,1,2,0:2:0:0:
403,261,250343,1,0,0:2:0:0:
430,297,250417,2,0,P|457:310|497:315,1,45,8|0,0:2|0:2,0:2:0:0:
415,134,250566,5,6,0:2:0:0:
372,124,250640,1,0,0:2:0:0:
329,137,250714,1,8,0:2:0:0:
299,170,250789,1,0,0:2:0:0:
289,213,250863,1,2,0:2:0:0:
278,256,250937,1,0,0:2:0:0:
248,288,251011,1,8,0:2:0:0:
205,301,251086,1,0,0:2:0:0:
162,292,251160,6,0,L|103:294,3,45,2|0|8|0,0:2|0:2|0:2|0:2,0:2:0:0:
70,195,251457,2,0,L|11:193,3,45,2|0|8|0,0:2|0:2|0:2|0:2,0:2:0:0:
217,32,251754,5,6,0:2:0:0:
258,16,251828,1,0,0:2:0:0:
302,25,251903,1,0,0:2:0:0:
334,56,251977,1,0,0:2:0:0:
345,99,252051,1,0,0:2:0:0:
332,141,252125,1,0,0:2:0:0:
299,170,252200,1,0,0:2:0:0:
255,177,252274,1,0,0:2:0:0:
214,160,252348,5,0,0:2:0:0:
196,145,252422,1,0,0:2:0:0:
176,136,252497,1,0,0:2:0:0:
154,132,252571,1,0,0:2:0:0:
131,135,252645,1,0,0:2:0:0:
111,143,252719,1,0,0:2:0:0:
93,157,252794,1,0,0:2:0:0:
79,174,252868,1,0,0:2:0:0:
70,195,252942,5,6,0:2:0:0:
114,201,253016,1,0,0:2:0:0:
151,225,253091,1,0,0:2:0:0:
174,263,253165,1,0,0:2:0:0:
179,308,253239,2,0,L|170:382,3,45,0|0|0|0,0:2|0:2|0:2|0:2,0:2:0:0:
255,177,253536,2,0,L|249:132,3,45,0|0|0|0,0:2|0:2|0:2|0:2,0:2:0:0:
363,335,253833,2,0,P|422:327|434:322,1,45,2|0,0:2|0:2,0:2:0:0:
434,227,253982,2,0,P|474:182|480:171,1,45,2|0,0:2|0:2,0:2:0:0:
304,37,254130,5,6,3:2:0:0:
266,60,254205,1,0,3:2:0:0:
247,100,254279,1,0,3:2:0:0:
254,144,254353,1,0,3:2:0:0:
283,178,254427,1,0,3:2:0:0:
326,190,254502,1,0,3:2:0:0:
368,176,254576,1,0,3:2:0:0:
396,142,254650,1,0,3:2:0:0:
401,98,254724,5,6,3:2:0:0:
356,95,254799,1,0,3:2:0:0:
314,110,254873,1,0,3:2:0:0:
281,141,254947,1,0,3:2:0:0:
263,184,255021,1,0,3:2:0:0:
236,219,255096,1,0,3:2:0:0:
195,236,255170,1,0,3:2:0:0:
151,229,255244,1,0,3:2:0:0:
117,200,255318,5,6,3:2:0:0:
118,155,255393,1,0,3:2:0:0:
119,110,255467,1,0,3:2:0:0:
120,65,255541,1,0,3:2:0:0:
93,37,255615,5,2,3:2:0:0:
93,81,255690,1,0,3:2:0:0:
94,126,255764,1,0,3:2:0:0:
95,171,255838,1,0,3:2:0:0:
69,201,255912,5,6,3:2:0:0:
68,156,255987,1,0,3:2:0:0:
67,111,256061,1,0,3:2:0:0:
66,66,256135,1,0,3:2:0:0:
39,37,256209,6,0,L|-11:29,3,45,6|0|0|0,3:2|3:2|3:2|3:2,0:2:0:0:
196,0,256506,1,8,0:2:0:0:
320,267,256804,5,6,0:2:0:0:
224,290,260773,5,2,0:2:0:0:
339,122,260923,1,2,0:2:0:0:
334,299,261073,1,8,0:2:0:0:
229,113,261223,1,8,0:2:0:0:
212,307,261373,5,2,0:2:0:0:
350,106,261523,1,2,0:2:0:0:
344,318,261673,1,8,0:2:0:0:
218,95,261823,1,8,0:2:0:0:
423,338,261973,5,2,0:2:0:0:
449,335,262048,1,2,0:2:0:0:
474,325,262123,1,2,0:2:0:0:
494,306,262198,1,2,0:2:0:0:
506,283,262273,1,2,0:2:0:0:
510,256,262348,1,2,0:2:0:0:
505,230,262423,1,2,0:2:0:0:
491,207,262498,1,2,0:2:0:0:
471,189,262573,5,2,0:2:0:0:
437,218,262648,1,2,0:2:0:0:
394,232,262723,1,2,0:2:0:0:
350,229,262798,1,2,0:2:0:0:
310,209,262873,1,2,0:2:0:0:
280,176,262948,1,2,0:2:0:0:
266,133,263023,2,0,L|276:65,1,45,2|2,0:2|0:2,0:2:0:0:
159,310,263173,5,6,0:2:0:0:
118,328,263248,1,0,0:2:0:0:
75,319,263323,1,0,0:2:0:0:
44,287,263398,1,0,0:2:0:0:
37,244,263473,1,8,0:2:0:0:
56,204,263548,1,0,0:2:0:0:
95,182,263623,1,2,0:2:0:0:
139,187,263698,1,0,0:2:0:0:
183,192,263773,1,0,0:2:0:0:
222,170,263848,1,0,0:2:0:0:
241,130,263923,1,0,0:2:0:0:
234,87,263998,1,0,0:2:0:0:
203,55,264073,1,8,0:2:0:0:
160,46,264148,1,0,0:2:0:0:
120,65,264223,1,2,0:2:0:0:
96,102,264298,1,0,0:2:0:0:
96,147,264373,5,0,0:2:0:0:
118,185,264448,1,2,0:2:0:0:
157,207,264523,1,0,0:2:0:0:
200,216,264598,1,2,0:2:0:0:
243,202,264673,1,8,0:2:0:0:
283,183,264748,1,0,0:2:0:0:
327,185,264823,1,2,0:2:0:0:
365,208,264898,1,0,0:2:0:0:
395,241,264973,1,0,0:2:0:0:
427,273,265048,1,0,0:2:0:0:
470,275,265123,1,2,0:2:0:0:
504,247,265198,1,0,0:2:0:0:
510,203,265273,1,8,0:2:0:0:
485,168,265348,1,0,0:2:0:0:
442,159,265423,2,0,L|386:166,1,45,2|0,0:2|0:2,0:2:0:0:
259,62,265573,5,2,0:2:0:0:
259,62,265648,1,2,0:2:0:0:
259,62,265723,2,0,L|303:67,1,45,0|2,0:2|0:2,0:2:0:0:
171,165,265873,5,8,0:2:0:0:
171,165,265948,1,0,0:2:0:0:
171,165,266023,2,0,L|212:147,1,45,2|0,0:2|0:2,0:2:0:0:
195,282,266173,5,0,0:2:0:0:
195,282,266248,1,0,0:2:0:0:
195,282,266323,2,0,L|222:246,1,45,2|0,0:2|0:2,0:2:0:0:
287,355,266473,5,8,0:2:0:0:
287,355,266548,1,0,0:2:0:0:
287,355,266623,2,0,L|292:310,1,45,2|0,0:2|0:2,0:2:0:0:
409,125,266773,5,0,0:2:0:0:
404,89,266848,1,2,0:2:0:0:
386,58,266923,1,0,0:2:0:0:
356,38,266998,1,2,0:2:0:0:
321,31,267073,1,8,0:2:0:0:
287,40,267148,1,0,0:2:0:0:
258,61,267223,1,2,0:2:0:0:
241,93,267298,1,0,0:2:0:0:
229,127,267373,1,0,0:2:0:0:
207,155,267448,1,8,0:2:0:0:
177,175,267523,1,2,0:2:0:0:
143,184,267598,1,0,0:2:0:0:
107,183,267673,1,8,0:2:0:0:
73,171,267748,1,0,0:2:0:0:
44,150,267823,1,2,0:2:0:0:
24,120,267898,1,0,0:2:0:0:
13,86,267973,5,2,0:2:0:0:
13,100,268048,1,2,0:2:0:0:
14,114,268123,1,0,0:2:0:0:
15,129,268198,1,2,0:2:0:0:
16,143,268273,1,8,0:2:0:0:
17,157,268348,1,0,0:2:0:0:
18,172,268423,1,2,0:2:0:0:
18,186,268498,1,8,0:2:0:0:
19,201,268573,1,0,0:2:0:0:
20,215,268648,1,8,0:2:0:0:
21,229,268723,1,2,0:2:0:0:
22,244,268798,1,0,0:2:0:0:
23,258,268873,1,8,0:2:0:0:
23,272,268948,1,0,0:2:0:0:
24,287,269023,1,2,0:2:0:0:
25,301,269098,1,0,0:2:0:0:
26,316,269173,5,0,0:2:0:0:
56,296,269248,1,2,0:2:0:0:
90,288,269323,1,0,0:2:0:0:
126,292,269398,1,2,0:2:0:0:
158,307,269473,1,8,0:2:0:0:
183,333,269548,1,0,0:2:0:0:
215,348,269623,1,2,0:2:0:0:
251,348,269698,1,0,0:2:0:0:
283,333,269773,1,0,0:2:0:0:
306,305,269848,1,8,0:2:0:0:
314,270,269923,1,2,0:2:0:0:
306,235,269998,1,0,0:2:0:0:
292,201,270073,2,0,L|281:144,1,45,8|0,0:2|0:2,0:2:0:0:
163,62,270223,2,0,L|152:119,1,45,2|0,0:2|0:2,0:2:0:0:
126,292,270373,5,2,0:2:0:0:
83,300,270448,1,2,0:2:0:0:
46,276,270523,1,0,0:2:0:0:
39,233,270598,1,0,0:2:0:0:
64,197,270673,1,8,0:2:0:0:
107,190,270748,1,0,0:2:0:0:
149,204,270823,1,2,0:2:0:0:
193,198,270898,1,8,0:2:0:0:
229,173,270973,1,0,0:2:0:0:
246,131,271048,1,0,0:2:0:0:
241,87,271123,1,2,0:2:0:0:
215,51,271198,1,0,0:2:0:0:
176,31,271273,1,8,0:2:0:0:
131,32,271348,1,0,0:2:0:0:
93,55,271423,1,2,0:2:0:0:
69,93,271498,1,0,0:2:0:0:
67,137,271573,5,0,0:2:0:0:
112,135,271648,1,2,0:2:0:0:
153,118,271723,1,0,0:2:0:0:
186,87,271798,1,2,0:2:0:0:
219,57,271873,1,8,0:2:0:0:
260,41,271948,1,0,0:2:0:0:
305,42,272023,1,2,0:2:0:0:
346,60,272098,1,0,0:2:0:0:
377,93,272173,5,0,0:2:0:0:
377,115,272248,1,8,0:2:0:0:
377,138,272323,1,2,0:2:0:0:
377,160,272398,1,0,0:2:0:0:
377,183,272473,2,0,L|375:236,1,45,8|0,0:2|0:2,0:2:0:0:
288,360,272623,1,2,0:2:0:0:
288,360,272698,1,2,0:2:0:0:
288,360,272773,5,2,0:2:0:0:
246,373,272848,1,0,0:2:0:0:
205,357,272923,1,0,0:2:0:0:
183,318,272998,1,0,0:2:0:0:
192,275,273073,1,8,0:2:0:0:
226,247,273148,1,0,0:2:0:0:
270,248,273223,1,2,0:2:0:0:
306,274,273298,1,8,0:2:0:0:
341,301,273373,1,0,0:2:0:0:
385,308,273448,1,0,0:2:0:0:
427,293,273523,1,2,0:2:0:0:
457,260,273598,1,0,0:2:0:0:
467,216,273673,1,8,0:2:0:0:
455,174,273748,1,0,0:2:0:0:
443,132,273823,1,2,0:2:0:0:
453,88,273898,1,0,0:2:0:0:
483,55,273973,5,0,0:2:0:0:
446,80,274048,1,0,0:2:0:0:
402,89,274123,1,0,0:2:0:0:
358,80,274198,1,2,0:2:0:0:
321,55,274273,1,8,0:2:0:0:
284,29,274348,1,0,0:2:0:0:
240,21,274423,1,2,0:2:0:0:
196,29,274498,1,0,0:2:0:0:
159,55,274573,1,0,0:2:0:0:
143,97,274648,1,8,0:2:0:0:
149,141,274723,1,2,0:2:0:0:
180,173,274798,1,0,0:2:0:0:
224,177,274873,1,8,0:2:0:0:
261,153,274948,1,0,0:2:0:0:
273,110,275023,2,0,L|267:61,1,45,8|8,0:2|0:2,0:2:0:0:
60,80,275173,5,2,0:0:0:0:
60,102,275248,1,2,0:0:0:0:
60,124,275323,1,0,0:0:0:0:
60,147,275398,1,2,0:0:0:0:
60,169,275473,2,0,P|68:222|68:238,1,45,8|0,0:2|0:2,0:2:0:0:
159,341,275623,2,0,P|167:288|167:272,1,45,2|8,0:2|0:2,0:2:0:0:
345,229,275773,5,0,0:2:0:0:
357,221,275848,1,0,0:2:0:0:
370,215,275923,1,0,0:2:0:0:
384,213,275998,1,0,0:2:0:0:
398,213,276073,1,8,0:2:0:0:
412,216,276148,1,0,0:2:0:0:
426,221,276223,1,2,0:2:0:0:
438,229,276298,1,2,0:2:0:0:
448,240,276373,5,0,0:2:0:0:
456,252,276448,1,2,0:2:0:0:
461,265,276523,1,0,0:2:0:0:
464,279,276598,1,2,0:2:0:0:
464,293,276673,1,8,0:2:0:0:
461,308,276748,1,0,0:2:0:0:
455,321,276823,1,2,0:2:0:0:
447,333,276898,1,0,0:2:0:0:
437,343,276973,5,0,0:2:0:0:
425,351,277048,1,0,0:2:0:0:
412,356,277123,1,2,0:2:0:0:
398,359,277198,1,0,0:2:0:0:
384,359,277273,2,0,L|334:355,1,36,12|0,0:2|0:2,0:2:0:0:
285,293,277423,2,0,L|235:297,1,36,2|0,0:2|0:2,0:2:0:0:
45,366,277573,5,2,0:2:0:0:
78,336,277648,1,2,0:2:0:0:
93,294,277723,1,2,0:2:0:0:
88,250,277798,1,2,0:2:0:0:
64,213,277873,1,8,0:2:0:0:
39,175,277948,1,0,0:2:0:0:
34,131,278023,1,2,0:2:0:0:
50,89,278098,1,8,0:2:0:0:
83,60,278173,5,0,0:2:0:0:
101,100,278248,1,0,0:2:0:0:
134,131,278323,1,2,0:2:0:0:
176,146,278398,1,0,0:2:0:0:
220,145,278473,1,8,0:2:0:0:
261,126,278548,1,0,0:2:0:0:
291,93,278623,2,0,L|297:28,1,45,2|0,0:2|0:2,0:2:0:0:
465,10,278773,5,0,0:2:0:0:
465,51,278848,1,2,0:2:0:0:
465,94,278923,1,0,0:2:0:0:
465,137,278998,1,2,0:2:0:0:
465,178,279073,1,8,0:2:0:0:
466,220,279148,1,0,0:2:0:0:
467,263,279223,1,2,0:2:0:0:
468,305,279298,1,0,0:2:0:0:
450,353,279373,1,0,0:2:0:0:
415,381,279448,1,0,0:2:0:0:
371,383,279523,1,2,0:2:0:0:
335,357,279598,1,0,0:2:0:0:
322,315,279673,1,8,0:2:0:0:
336,274,279748,1,0,0:2:0:0:
374,250,279823,2,0,L|427:252,1,45,8|0,0:2|0:2,0:2:0:0:
291,93,279973,5,2,0:2:0:0:
246,95,280048,1,2,0:2:0:0:
207,116,280123,1,2,0:2:0:0:
181,153,280198,1,2,0:2:0:0:
173,197,280273,1,8,0:2:0:0:
186,240,280348,1,0,0:2:0:0:
215,273,280423,2,0,P|241:281|270:286,1,45,2|8,0:2|0:2,0:2:0:0:
440,217,280573,5,0,0:2:0:0:
461,177,280648,1,0,0:2:0:0:
462,132,280723,1,2,0:2:0:0:
443,92,280798,1,0,0:2:0:0:
409,63,280873,1,8,0:2:0:0:
366,52,280948,1,0,0:2:0:0:
322,61,281023,2,0,P|302:78|284:101,1,45,2|0,0:2|0:2,0:2:0:0:
259,284,281173,5,0,0:2:0:0:
283,322,281248,1,2,0:2:0:0:
321,345,281323,1,0,0:2:0:0:
365,349,281398,1,2,0:2:0:0:
407,334,281473,1,8,0:2:0:0:
439,302,281548,1,0,0:2:0:0:
453,259,281623,2,0,P|447:232|436:205,1,45,2|2,0:2|0:2,0:2:0:0:
290,92,281773,5,0,0:2:0:0:
290,92,281848,1,0,0:2:0:0:
290,92,281923,1,0,0:2:0:0:
290,92,281998,1,0,0:2:0:0:
290,92,282073,1,0,0:2:0:0:
267,94,282148,1,0,0:2:0:0:
245,96,282223,1,0,0:2:0:0:
222,99,282298,1,0,0:2:0:0:
200,101,282373,5,6,0:2:0:0:
158,118,282448,1,0,0:2:0:0:
129,152,282523,1,0,0:2:0:0:
119,195,282598,1,2,0:2:0:0:
129,238,282673,1,8,0:2:0:0:
157,273,282748,1,0,0:2:0:0:
198,291,282823,1,2,0:2:0:0:
242,288,282898,1,0,0:2:0:0:
281,266,282973,1,0,0:2:0:0:
306,229,283048,1,0,0:2:0:0:
331,192,283123,1,2,0:2:0:0:
370,170,283198,1,0,0:2:0:0:
414,167,283273,1,8,0:2:0:0:
455,185,283348,1,0,0:2:0:0:
483,220,283423,1,2,0:2:0:0:
493,263,283498,1,0,0:2:0:0:
482,306,283573,5,0,0:2:0:0:
453,340,283648,1,2,0:2:0:0:
412,357,283723,1,0,0:2:0:0:
367,349,283798,1,2,0:2:0:0:
330,325,283873,1,8,0:2:0:0:
304,288,283948,1,0,0:2:0:0:
296,244,284023,1,2,0:2:0:0:
304,201,284098,1,0,0:2:0:0:
312,157,284173,1,0,0:2:0:0:
304,113,284248,1,0,0:2:0:0:
278,76,284323,1,2,0:2:0:0:
241,52,284398,1,0,0:2:0:0:
196,43,284473,2,0,L|141:48,1,45,8|0,0:2|0:2,0:2:0:0:
25,142,284623,2,0,L|80:147,1,45,8|8,0:2|0:2,0:2:0:0:
196,286,284773,5,2,0:2:0:0:
196,286,284848,1,2,0:2:0:0:
196,286,284923,2,0,L|203:346,1,45,0|2,0:2|0:2,0:2:0:0:
304,201,285073,5,8,0:2:0:0:
304,201,285148,1,0,0:2:0:0:
304,201,285223,2,0,L|297:261,1,45,2|8,0:2|0:2,0:2:0:0:
400,296,285373,5,0,0:2:0:0:
400,296,285448,1,0,0:2:0:0:
400,296,285523,2,0,L|407:356,1,45,2|0,0:2|0:2,0:2:0:0:
508,211,285673,5,8,0:2:0:0:
508,211,285748,1,0,0:2:0:0:
508,211,285823,2,0,L|501:271,1,45,2|0,0:2|0:2,0:2:0:0:
408,75,285973,5,0,0:2:0:0:
368,54,286048,1,2,0:2:0:0:
324,57,286123,1,0,0:2:0:0:
287,82,286198,1,2,0:2:0:0:
270,123,286273,1,8,0:2:0:0:
276,167,286348,1,0,0:2:0:0:
304,201,286423,1,2,0:2:0:0:
346,216,286498,1,0,0:2:0:0:
389,207,286573,1,0,0:2:0:0:
432,198,286648,1,0,0:2:0:0:
474,213,286723,1,2,0:2:0:0:
502,247,286798,1,0,0:2:0:0:
508,291,286873,1,8,0:2:0:0:
491,332,286948,1,2,0:2:0:0:
454,357,287023,1,2,0:2:0:0:
410,360,287098,1,0,0:2:0:0:
370,339,287173,5,2,0:2:0:0:
370,327,287248,1,8,0:2:0:0:
370,316,287323,1,8,0:2:0:0:
371,305,287398,1,8,0:2:0:0:
371,294,287473,1,8,0:2:0:0:
371,282,287548,1,0,0:2:0:0:
372,271,287623,1,2,0:2:0:0:
372,260,287698,1,8,0:2:0:0:
373,249,287773,1,8,0:2:0:0:
373,237,287848,1,0,0:2:0:0:
373,226,287923,1,2,0:2:0:0:
374,215,287998,1,0,0:2:0:0:
374,204,288073,1,8,0:2:0:0:
375,192,288148,1,0,0:2:0:0:
375,181,288223,1,2,0:2:0:0:
375,170,288298,1,0,0:2:0:0:
376,159,288373,5,0,0:2:0:0:
347,179,288448,1,2,0:2:0:0:
312,187,288523,1,0,0:2:0:0:
277,179,288598,1,2,0:2:0:0:
248,157,288673,1,8,0:2:0:0:
231,126,288748,1,0,0:2:0:0:
229,90,288823,1,2,0:2:0:0:
244,57,288898,1,2,0:2:0:0:
272,34,288973,5,8,0:2:0:0:
229,20,289048,1,0,0:2:0:0:
185,24,289123,1,2,0:2:0:0:
146,46,289198,1,0,0:2:0:0:
119,81,289273,2,0,P|115:115|126:154,1,45,8|0,0:2|0:2,0:2:0:0:
280,223,289423,2,0,P|281:200|276:178,1,45,8|0,0:2|0:2,0:2:0:0:
93,285,289573,5,2,0:2:0:0:
109,326,289648,1,2,0:2:0:0:
142,355,289723,1,0,0:2:0:0:
186,366,289798,1,0,0:2:0:0:
229,355,289873,1,8,0:2:0:0:
262,325,289948,1,0,0:2:0:0:
295,295,290023,1,2,0:2:0:0:
338,284,290098,1,0,0:2:0:0:
381,294,290173,1,0,0:2:0:0:
398,333,290248,1,0,0:2:0:0:
375,370,290323,1,2,0:2:0:0:
332,373,290398,1,0,0:2:0:0:
303,339,290473,1,8,0:2:0:0:
316,296,290548,1,0,0:2:0:0:
324,251,290623,1,2,0:2:0:0:
324,207,290698,1,0,0:2:0:0:
315,163,290773,5,0,0:2:0:0:
308,141,290848,1,2,0:2:0:0:
295,123,290923,1,2,0:2:0:0:
278,108,290998,1,2,0:2:0:0:
258,99,291073,1,8,0:2:0:0:
236,96,291148,1,0,0:2:0:0:
213,99,291223,1,2,0:2:0:0:
193,109,291298,1,2,0:2:0:0:
176,123,291373,5,0,0:2:0:0:
141,150,291448,1,0,0:2:0:0:
97,157,291523,1,2,0:2:0:0:
55,142,291598,1,2,0:2:0:0:
25,109,291673,2,0,L|25:35,1,45,8|0,0:2|0:2,0:2:0:0:
114,242,291823,2,0,L|114:316,1,45,2|0,0:2|0:2,0:2:0:0:
236,96,291973,5,2,0:2:0:0:
271,69,292048,1,0,0:2:0:0:
315,62,292123,1,0,0:2:0:0:
357,77,292198,1,2,0:2:0:0:
387,110,292273,1,8,0:2:0:0:
392,154,292348,1,0,0:2:0:0:
384,198,292423,1,2,0:2:0:0:
362,237,292498,1,0,0:2:0:0:
355,281,292573,1,0,0:2:0:0:
374,321,292648,1,0,0:2:0:0:
412,343,292723,1,2,0:2:0:0:
456,340,292798,1,0,0:2:0:0:
491,313,292873,1,8,0:2:0:0:
505,271,292948,1,0,0:2:0:0:
492,228,293023,1,2,0:2:0:0:
458,200,293098,1,0,0:2:0:0:
413,195,293173,5,0,0:2:0:0:
388,232,293248,1,2,0:2:0:0:
352,259,293323,1,2,0:2:0:0:
309,271,293398,1,2,0:2:0:0:
265,268,293473,1,8,0:2:0:0:
224,250,293548,1,0,0:2:0:0:
183,231,293623,1,2,0:2:0:0:
138,228,293698,1,0,0:2:0:0:
95,240,293773,1,0,0:2:0:0:
59,267,293848,1,0,0:2:0:0:
35,305,293923,6,0,L|39:356,1,45,2|0,0:2|0:2,0:2:0:0:
101,158,294073,2,0,L|105:107,1,45,8|0,0:2|0:2,0:2:0:0:
167,305,294223,2,0,L|171:356,1,45,8|0,0:2|0:2,0:2:0:0:
321,185,294373,5,2,0:2:0:0:
283,190,294448,1,2,0:2:0:0:
245,195,294523,2,0,L|194:201,1,45,2|0,0:2|0:2,0:2:0:0:
320,356,294673,5,8,0:2:0:0:
358,361,294748,1,0,0:2:0:0:
396,366,294823,2,0,L|447:372,1,45,2|0,0:2|0:2,0:2:0:0:
309,271,294973,6,0,L|258:277,3,45,0|0|2|0,0:2|0:2|0:2|0:2,0:2:0:0:
167,305,295273,2,0,L|116:299,3,45,8|0|2|0,0:2|0:2|0:2|0:2,0:2:0:0:
39,240,295573,5,0,0:2:0:0:
20,209,295648,1,0,0:2:0:0:
12,174,295723,1,0,0:2:0:0:
16,138,295798,1,2,0:2:0:0:
31,106,295873,1,8,0:2:0:0:
56,80,295948,1,0,0:2:0:0:
89,65,296023,1,2,0:2:0:0:
124,60,296098,1,0,0:2:0:0:
159,67,296173,1,0,0:2:0:0:
188,88,296248,1,0,0:2:0:0:
221,100,296323,1,2,0:2:0:0:
257,103,296398,1,0,0:2:0:0:
292,96,296473,2,0,P|323:86|341:75,1,45,12|2,0:2|0:2,0:2:0:0:
459,16,296623,2,0,P|438:5|417:0,1,45,2|0,0:2|0:2,0:2:0:0:
453,142,296773,5,2,0:2:0:0:
453,156,296848,1,2,0:2:0:0:
454,170,296923,1,2,0:2:0:0:
454,184,296998,1,2,0:2:0:0:
455,198,297073,1,8,0:2:0:0:
455,212,297148,1,0,0:2:0:0:
456,226,297223,1,2,0:2:0:0:
457,240,297298,1,8,0:2:0:0:
457,254,297373,1,0,0:2:0:0:
458,268,297448,1,2,0:2:0:0:
458,282,297523,1,2,0:2:0:0:
459,296,297598,1,0,0:2:0:0:
460,310,297673,1,8,0:2:0:0:
460,324,297748,1,0,0:2:0:0:
461,338,297823,1,2,0:2:0:0:
461,352,297898,1,0,0:2:0:0:
462,366,297973,5,0,0:2:0:0:
436,373,298048,1,2,0:2:0:0:
409,374,298123,1,0,0:2:0:0:
383,367,298198,1,2,0:2:0:0:
360,354,298273,1,8,0:2:0:0:
341,334,298348,1,0,0:2:0:0:
328,311,298423,1,2,0:2:0:0:
318,286,298498,1,0,0:2:0:0:
298,269,298573,1,0,0:2:0:0:
272,262,298648,1,0,0:2:0:0:
245,267,298723,1,2,0:2:0:0:
224,283,298798,1,0,0:2:0:0:
212,307,298873,1,8,0:2:0:0:
213,334,298948,1,0,0:2:0:0:
224,358,299023,1,2,0:2:0:0:
246,374,299098,1,0,0:2:0:0:
272,379,299173,5,2,0:2:0:0:
217,161,299323,1,2,0:2:0:0:
74,352,299473,1,10,0:2:0:0:
328,311,299623,1,10,0:2:0:0:
110,149,299773,5,2,0:2:0:0:
213,334,299923,1,2,0:2:0:0:
306,76,300073,1,10,0:2:0:0:
121,238,300223,1,10,0:2:0:0:
422,274,300373,5,2,0:2:0:0:
463,239,300448,1,2,0:2:0:0:
484,191,300523,1,2,0:2:0:0:
481,137,300598,1,2,0:2:0:0:
454,91,300673,1,2,0:2:0:0:
409,62,300748,1,2,0:2:0:0:
356,56,300823,1,2,0:2:0:0:
306,76,300898,1,2,0:2:0:0:
276,121,300973,5,2,0:0:0:0:
251,167,301048,1,2,0:0:0:0:
206,195,301123,1,2,0:0:0:0:
152,198,301198,1,2,0:0:0:0:
105,173,301273,1,2,0:0:0:0:
77,128,301348,1,2,0:0:0:0:
75,74,301423,1,2,0:0:0:0:
101,27,301498,1,2,0:0:0:0:
146,0,301573,5,2,0:0:0:0:
153,192,306064,6,0,P|230:197|262:135,1,144,8|0,0:2|0:2,0:2:0:0:
225,65,306508,1,0,0:2:0:0:
225,65,306655,2,0,L|117:57,2,108,0|0|0,0:2|0:2|0:2,0:2:0:0:
430,23,307247,6,0,B|455:71|455:71|430:168,1,144,8|0,0:2|0:2,0:2:0:0:
368,210,307690,1,0,0:2:0:0:
368,210,307838,2,0,P|360:267|384:319,2,108,0|0|0,0:2|0:2|0:2,0:2:0:0:
337,71,308429,6,0,P|275:44|213:77,1,125.999996154785,8|0,0:2|0:2,0:2:0:0:
153,192,309020,2,0,P|215:219|277:186,1,125.999996154785,0|0,0:2|0:2,0:2:0:0:
127,47,309611,6,0,L|64:59,1,45,0|0,0:2|0:2,0:2:0:0:
6,142,309759,1,0,0:2:0:0:
8,171,309833,1,0,0:2:0:0:
11,201,309907,1,0,0:2:0:0:
14,231,309981,1,0,0:2:0:0:
17,261,310054,1,0,0:2:0:0:
20,291,310128,1,0,0:2:0:0:
23,321,310202,5,0,0:2:0:0:
42,332,310276,1,0,0:2:0:0:
63,339,310350,1,0,0:2:0:0:
85,341,310424,1,0,0:2:0:0:
107,337,310498,1,0,0:2:0:0:
128,328,310572,1,0,0:2:0:0:
146,314,310646,2,0,P|159:291|164:270,2,45,0|0|0,0:2|0:2|0:2,0:2:0:0:
146,314,311089,6,0,B|210:307|210:307|250:330|250:330|328:322,1,161.999995056153,6|0,0:2|0:2,0:2:0:0:
310,201,311384,6,0,P|280:229|266:262,2,53.9999983520508,2|0|0,0:2|0:2|0:2,0:2:0:0:
206,125,311606,6,0,P|194:164|198:199,2,53.9999983520508,2|0|0,0:2|0:2|0:2,0:2:0:0:
79,154,311828,5,2,0:2:0:0:
261,11,311976,5,2,0:2:0:0:
106,134,312123,1,0,0:2:0:0:
297,94,312271,2,0,L|351:102,1,53.9999983520508,2|0,0:2|0:2,0:2:0:0:
274,240,312419,5,0,0:2:0:0:
220,247,312493,1,0,0:2:0:0:
166,254,312567,2,0,L|112:262,1,53.9999983520508,2|0,0:2|0:2,0:2:0:0:
44,54,312715,5,0,0:2:0:0:
98,61,312788,1,0,0:2:0:0:
152,68,312862,2,0,L|206:76,1,53.9999983520508,2|0,0:2|0:2,0:2:0:0:
306,310,313010,5,0,0:2:0:0:
252,317,313084,1,0,0:2:0:0:
198,324,313158,5,2,0:2:0:0:
231,294,313232,1,0,0:2:0:0:
244,252,313306,1,0,0:2:0:0:
233,209,313380,1,0,0:2:0:0:
200,179,313453,1,2,0:2:0:0:
156,171,313527,1,0,0:2:0:0:
115,187,313601,1,0,0:2:0:0:
89,223,313675,1,0,0:2:0:0:
86,267,313749,5,2,0:2:0:0:
83,222,313823,1,0,0:2:0:0:
64,181,313897,1,0,0:2:0:0:
31,150,313971,1,0,0:2:0:0:
4,115,314045,1,2,0:2:0:0:
0,71,314118,1,0,0:2:0:0:
19,31,314192,1,0,0:2:0:0:
56,6,314266,1,0,0:2:0:0:
100,5,314340,5,2,0:2:0:0:
140,23,314414,1,0,0:2:0:0:
168,58,314488,2,0,L|174:126,1,45,0|0,0:2|0:2,0:2:0:0:
244,252,314636,1,2,0:2:0:0:
245,229,314710,1,0,0:2:0:0:
247,207,314784,1,0,0:2:0:0:
249,184,314857,1,0,0:2:0:0:
251,162,314931,5,2,0:2:0:0:
279,114,315005,1,0,0:2:0:0:
328,89,315079,1,0,0:2:0:0:
383,97,315153,1,0,0:2:0:0:
425,133,315227,2,0,L|429:190,1,45,8|0,0:2|0:2,0:2:0:0:
509,319,315375,2,0,L|512:274,1,45,2|0,0:2|0:2,0:2:0:0:
281,226,315522,5,2,0:2:0:0:
244,252,315596,1,0,0:2:0:0:
227,293,315670,2,0,P|223:329|231:353,1,45,2|0,0:2|0:2,0:2:0:0:
398,257,315818,2,0,B|425:229|425:229|425:118,1,135,2|0,0:2|0:2,0:2:0:0:
354,18,316114,2,0,B|327:46|327:46|327:157,1,135,2|0,0:2|0:2,0:2:0:0:
281,226,316409,1,2,0:2:0:0:
180,72,316557,1,0,0:2:0:0:
180,72,316631,1,0,0:2:0:0:
180,72,316705,5,2,0:2:0:0:
136,61,316779,1,0,0:2:0:0:
94,73,316852,1,0,0:2:0:0:
63,105,316926,1,0,0:2:0:0:
53,148,317000,1,2,0:2:0:0:
66,191,317074,1,0,0:2:0:0:
98,221,317148,1,0,0:2:0:0:
142,230,317222,1,0,0:2:0:0:
184,217,317296,5,2,0:2:0:0:
226,203,317370,1,0,0:2:0:0:
269,212,317444,1,0,0:2:0:0:
302,242,317518,1,0,0:2:0:0:
315,285,317591,1,2,0:2:0:0:
305,328,317665,1,0,0:2:0:0:
274,360,317739,1,0,0:2:0:0:
231,372,317813,1,0,0:2:0:0:
188,362,317887,5,2,0:2:0:0:
218,329,317961,1,0,0:2:0:0:
261,317,318035,1,0,0:2:0:0:
305,328,318109,1,0,0:2:0:0:
338,357,318183,1,2,0:2:0:0:
379,374,318256,1,0,0:2:0:0:
423,369,318330,1,0,0:2:0:0:
460,344,318404,1,0,0:2:0:0:
480,304,318478,6,0,L|474:244,3,45,2|0|0|0,0:2|0:2|0:2|0:2,0:2:0:0:
392,143,318774,2,0,L|387:187,3,45,2|0|0|0,0:2|0:2|0:2|0:2,0:2:0:0:
269,212,319069,5,2,0:2:0:0:
252,209,319143,1,0,0:2:0:0:
235,207,319217,1,0,0:2:0:0:
218,205,319291,1,0,0:2:0:0:
182,178,319365,5,2,0:2:0:0:
151,183,319439,1,0,0:2:0:0:
121,186,319513,1,0,0:2:0:0:
91,190,319586,1,0,0:2:0:0:
62,193,319660,2,0,L|6:200,1,45,0|0,3:2|0:2,0:2:0:0:
199,333,319808,5,0,3:2:0:0:
226,298,319882,1,0,3:2:0:0:
229,254,319956,1,8,0:2:0:0:
206,216,320030,1,0,0:2:0:0:
182,178,320104,1,2,0:2:0:0:
186,133,320178,1,2,0:2:0:0:
213,99,320251,6,0,P|247:80|281:77,1,45,6|0,0:2|0:2,0:2:0:0:
404,21,320399,1,2,0:2:0:0:
404,21,320473,1,2,0:2:0:0:
404,21,320547,2,0,P|403:59|389:90,3,45,2|0|0|0,0:2|0:2|0:2|0:2,0:2:0:0:
376,225,320843,2,0,P|342:205|322:177,3,45,2|0|0|0,0:2|0:2|0:2|0:2,0:2:0:0:
213,99,321138,2,0,P|247:80|281:77,3,45,2|0|0|0,0:2|0:2|0:2|0:2,0:2:0:0:
106,226,321434,6,0,P|84:218|66:205,1,45,2|0,0:2|0:2,0:2:0:0:
107,68,321582,1,2,0:2:0:0:
107,68,321655,1,2,0:2:0:0:
107,68,321729,2,0,L|117:-18,2,60,2|0|0,0:2|0:2|0:2,0:2:0:0:
186,180,322025,5,0,3:2:0:0:
187,194,322099,1,0,3:2:0:0:
189,209,322173,1,0,3:2:0:0:
191,224,322247,1,0,3:2:0:0:
192,239,322320,2,0,P|248:262|294:236,1,108,2|0,3:2|0:2,0:2:0:0:
387,70,322616,5,6,0:2:0:0:
362,106,322690,1,0,0:2:0:0:
355,151,322764,1,0,0:2:0:0:
369,193,322838,1,0,0:2:0:0:
400,225,322912,1,8,0:2:0:0:
431,257,322985,1,0,0:2:0:0:
445,299,323059,1,0,0:2:0:0:
438,344,323133,1,0,0:2:0:0:
413,380,323207,5,2,0:2:0:0:
396,338,323281,1,0,0:2:0:0:
364,307,323355,1,0,0:2:0:0:
322,292,323429,1,0,0:2:0:0:
277,295,323503,2,0,P|248:304|222:320,1,45,8|0,0:2|0:2,0:2:0:0:
121,370,323651,2,0,P|92:361|66:345,1,45,0|0,0:2|0:2,0:2:0:0:
167,220,323798,6,0,L|164:168,1,45,2|0,0:2|0:2,0:2:0:0:
111,46,323946,1,2,0:2:0:0:
94,21,324020,1,0,0:2:0:0:
65,13,324094,1,8,0:2:0:0:
39,25,324168,1,0,0:2:0:0:
26,52,324242,1,0,0:2:0:0:
33,80,324316,1,2,0:2:0:0:
57,98,324389,5,2,0:2:0:0:
84,133,324463,1,2,0:2:0:0:
91,177,324537,1,2,0:2:0:0:
78,220,324611,1,2,0:2:0:0:
47,251,324685,2,0,L|-9:246,1,45,2|0,0:2|0:2,0:2:0:0:
121,370,324833,2,0,L|177:365,1,45,2|0,0:2|0:2,0:2:0:0:
292,196,324981,5,0,0:2:0:0:
331,188,325054,1,0,0:2:0:0:
370,199,325128,1,0,0:2:0:0:
400,225,325202,1,2,0:2:0:0:
416,262,325276,1,0,0:2:0:0:
415,302,325350,1,0,0:2:0:0:
396,338,325424,2,0,P|374:361|349:371,1,40.4999987640381,2|0,0:2|0:2,0:2:0:0:
212,231,325572,5,2,0:2:0:0:
204,191,325646,1,0,0:2:0:0:
215,153,325719,1,0,0:2:0:0:
243,124,325793,1,2,0:2:0:0:
281,111,325867,2,0,P|295:89|309:50,1,40.4999987640381,0|0,0:2|0:2,0:2:0:0:
393,0,326015,2,0,P|401:18|413:35,1,40.4999987640381,2|0,0:2|0:2,0:2:0:0:
455,244,326163,5,2,0:2:0:0:
415,241,326237,1,0,0:2:0:0:
374,239,326311,1,0,0:2:0:0:
334,237,326384,1,2,0:2:0:0:
293,235,326458,1,0,0:2:0:0:
253,233,326532,1,0,0:2:0:0:
212,231,326606,2,0,L|158:229,1,40.4999987640381,2|0,0:2|0:2,0:2:0:0:
338,325,326754,5,2,0:2:0:0:
374,309,326828,1,0,0:2:0:0:
402,280,326902,1,0,0:2:0:0:
415,241,326976,1,2,0:2:0:0:
408,202,327050,1,2,0:2:0:0:
387,168,327123,1,2,0:2:0:0:
356,141,327197,2,0,P|342:118|337:101,1,40.4999987640381,2|0,0:2|0:2,0:2:0:0:
102,234,327345,6,0,P|163:254|221:219,1,121.499996292114,2|0,0:2|0:2,0:2:0:0:
207,127,327641,2,0,P|146:107|88:142,1,121.499996292114,2|0,0:2|0:2,0:2:0:0:
10,186,327936,2,0,L|1:50,1,108,2|0,0:2|0:2,0:2:0:0:
103,22,328232,2,0,L|94:157,1,108,2|0,0:2|0:2,0:2:0:0:
102,234,328527,6,0,P|159:245|151:184,1,135,0|0,0:2|0:2,0:2:0:0:
24,176,328823,2,0,B|2:217|2:217|20:320,1,135,0|0,0:2|0:2,0:2:0:0:
88,339,329118,2,0,L|134:334,1,45,0|0,3:2|3:2,0:2:0:0:
218,294,329266,2,0,L|264:299,1,45,0|0,3:2|3:2,0:2:0:0:
348,341,329414,1,0,3:2:0:0:
377,324,329488,1,0,3:2:0:0:
395,296,329562,1,0,3:2:0:0:
399,263,329636,1,0,3:2:0:0:
386,232,329710,6,0,P|368:156|403:102,1,135,2|0,0:2|0:2,0:2:0:0:
467,73,330005,2,0,L|516:77,3,45,2|0|0|0,0:2|0:2|0:2|0:2,0:2:0:0:
327,6,330301,5,0,0:2:0:0:
327,11,330375,1,0,0:2:0:0:
327,17,330449,1,0,0:2:0:0:
328,22,330522,1,0,0:2:0:0:
328,28,330596,1,0,0:2:0:0:
328,34,330670,1,0,0:2:0:0:
329,39,330744,1,0,0:2:0:0:
329,45,330818,1,0,0:2:0:0:
330,50,330892,6,0,P|274:79|186:16,2,180,2|2|2,0:2|0:2|0:2,0:2:0:0:
250,188,331631,1,2,0:2:0:0:
250,188,331705,1,2,0:2:0:0:
250,188,331779,2,0,L|244:256,1,45,8|0,0:2|0:2,0:2:0:0:
155,165,331926,2,0,L|149:97,1,45,2|0,0:2|0:2,0:2:0:0:
102,322,332074,5,6,0:2:0:0:
0,155,332222,2,0,P|24:85|81:79,1,135,2|0,0:2|0:2,0:2:0:0:
155,165,332518,5,2,0:2:0:0:
155,165,332591,1,0,0:2:0:0:
155,165,332665,1,2,0:2:0:0:
13,310,332813,5,0,0:2:0:0:
13,310,332887,1,0,0:2:0:0:
13,310,332961,1,2,0:2:0:0:
171,240,333109,2,0,L|174:284,1,45,2|0,0:2|0:2,0:2:0:0:
278,373,333256,5,0,0:2:0:0:
309,341,333330,1,2,0:2:0:0:
352,329,333404,1,0,0:2:0:0:
395,340,333478,1,0,0:2:0:0:
438,351,333552,1,2,0:2:0:0:
480,339,333626,1,0,0:2:0:0:
512,307,333700,2,0,L|508:262,1,45,2|2,0:2|0:2,0:2:0:0:
418,103,333848,6,0,L|414:147,1,45,2|0,0:2|0:2,0:2:0:0:
297,257,333995,1,0,0:2:0:0:
297,257,334069,1,0,0:2:0:0:
297,257,334143,2,0,L|293:212,1,45,2|0,0:2|0:2,0:2:0:0:
443,126,334291,2,0,L|439:170,1,45,0|0,0:2|0:2,0:2:0:0:
272,280,334439,6,0,L|268:235,1,45,2|0,0:2|0:2,0:2:0:0:
180,82,334586,1,2,0:2:0:0:
180,82,334660,1,0,0:2:0:0:
180,82,334734,1,8,0:2:0:0:
180,82,334808,1,0,0:2:0:0:
180,82,334882,5,2,0:2:0:0:
136,71,334956,1,0,0:2:0:0:
95,87,335030,1,2,0:2:0:0:
71,124,335104,1,0,0:2:0:0:
72,168,335178,2,0,L|75:212,1,45,8|0,0:2|0:2,0:2:0:0:
161,326,335325,1,2,0:2:0:0:
205,320,335399,1,0,0:2:0:0:
250,315,335473,1,2,0:2:0:0:
295,310,335547,1,0,0:2:0:0:
339,304,335621,6,0,P|366:290|381:267,1,45,2|0,0:2|0:2,0:2:0:0:
464,206,335769,2,0,P|450:179|427:164,1,45,2|0,0:2|0:2,0:2:0:0:
366,81,335917,2,0,P|339:95|324:118,1,45,2|0,0:2|0:2,0:2:0:0:
241,179,336064,2,0,P|255:206|278:221,1,45,2|0,0:2|0:2,0:2:0:0:
374,279,336212,5,8,0:2:0:0:
374,279,336286,1,0,0:2:0:0:
374,279,336360,1,8,0:2:0:0:
374,279,336434,1,0,0:2:0:0:
375,279,336508,2,0,P|359:295|339:304,1,45,2|0,0:2|0:2,0:2:0:0:
265,215,336655,2,0,P|249:199|241:179,1,45,2|0,0:2|0:2,0:2:0:0:
366,81,336803,5,6,0:2:0:0:
201,67,336951,2,0,L|52:75,1,135,2|0,0:2|0:2,0:2:0:0:
1,141,337247,5,2,0:2:0:0:
1,141,337320,1,0,0:2:0:0:
1,141,337394,1,2,0:2:0:0:
172,239,337542,5,0,0:2:0:0:
172,239,337616,1,0,0:2:0:0:
172,239,337690,1,2,0:2:0:0:
44,304,337838,2,0,L|-14:302,1,45,2|0,0:2|0:2,0:2:0:0:
118,168,337985,5,2,0:2:0:0:
158,149,338059,1,0,0:2:0:0:
202,151,338133,1,0,0:2:0:0:
240,176,338207,1,0,0:2:0:0:
261,215,338281,1,2,0:2:0:0:
260,259,338355,1,0,0:2:0:0:
238,298,338429,1,0,0:2:0:0:
199,322,338503,1,2,0:2:0:0:
154,327,338577,5,2,0:2:0:0:
187,286,338651,1,0,0:2:0:0:
238,270,338724,1,0,0:2:0:0:
289,285,338798,1,0,0:2:0:0:
324,325,338872,1,2,0:2:0:0:
381,346,338946,1,0,0:2:0:0:
438,324,339020,1,0,0:2:0:0:
465,268,339094,1,0,0:2:0:0:
447,209,339168,5,2,0:2:0:0:
238,360,339316,1,2,0:2:0:0:
294,203,339463,5,0,0:2:0:0:
291,180,339537,1,0,0:2:0:0:
289,158,339611,1,2,0:2:0:0:
287,135,339685,1,0,0:2:0:0:
285,113,339759,1,2,0:2:0:0:
183,242,339907,5,0,0:2:0:0:
185,264,339981,1,0,0:2:0:0:
187,286,340054,1,2,0:2:0:0:
324,325,340202,1,2,0:2:0:0:
136,355,340350,5,2,0:2:0:0:
119,354,340424,1,0,0:2:0:0:
103,349,340498,1,8,0:2:0:0:
89,339,340572,1,0,0:2:0:0:
78,326,340646,1,2,0:2:0:0:
72,310,340719,1,0,0:2:0:0:
71,294,340793,1,8,0:2:0:0:
74,277,340867,1,0,0:2:0:0:
82,262,340941,1,2,0:2:0:0:
93,250,341015,1,0,0:2:0:0:
108,242,341089,1,8,0:2:0:0:
124,238,341163,1,0,0:2:0:0:
141,239,341237,1,2,0:2:0:0:
157,245,341311,1,0,0:2:0:0:
170,256,341384,1,8,0:2:0:0:
180,269,341458,1,0,0:2:0:0:
186,285,341532,5,0,3:2:0:0:
215,251,341606,1,0,3:2:0:0:
225,208,341680,1,0,3:2:0:0:
211,165,341754,1,0,3:2:0:0:
205,120,341828,1,0,3:2:0:0:
215,77,341902,1,0,3:2:0:0:
244,43,341976,1,0,3:2:0:0:
288,37,342050,1,0,3:2:0:0:
328,54,342123,5,0,3:2:0:0:
355,103,342197,1,0,3:2:0:0:
345,159,342271,1,0,3:2:0:0:
303,197,342345,1,0,3:2:0:0:
246,201,342419,1,0,3:2:0:0:
199,168,342493,1,0,3:2:0:0:
183,114,342567,1,0,3:2:0:0:
204,61,342641,1,0,3:2:0:0:
430,314,343010,5,8,0:2:0:0:
142,264,347340,5,0,0:2:0:0:
142,264,347473,2,0,L|134:347,2,72,0|0|0,0:2|0:2|0:2,0:2:0:0:
205,152,347872,1,0,0:2:0:0:
205,152,348138,2,0,L|198:80,1,72,0|0,0:2|0:2,0:2:0:0:
314,223,348404,5,0,0:2:0:0:
314,223,348537,2,0,P|359:223|399:201,2,72,0|0|0,0:2|0:2|0:2,0:2:0:0:
354,32,348937,5,0,0:2:0:0:
221,44,349136,5,0,0:2:0:0:
88,56,349336,5,0,0:2:0:0:
205,152,349469,6,0,P|250:152|290:130,2,72,0|0|0,0:2|0:2|0:2,0:2:0:0:
133,216,349868,1,0,0:2:0:0:
133,216,350001,2,0,P|167:244|212:253,2,72,0|0|0,0:2|0:2|0:2,0:2:0:0:
37,216,350400,1,0,0:2:0:0:
88,56,350533,6,0,L|203:62,1,108,0|0,0:2|0:2,0:2:0:0:
277,21,350799,2,0,L|342:17,3,36,0|0|0|0,0:2|0:2|0:2|0:2,0:2:0:0:
205,152,351065,1,0,0:2:0:0:
305,164,351198,1,0,0:2:0:0:
293,264,351331,1,0,0:2:0:0:
193,252,351464,1,0,0:2:0:0:
205,152,351597,5,12,0:2:0:0:
123,216,360111,6,0,B|226:208|226:208|269:238|269:238|366:231,1,252,0|0,0:2|0:2,0:2:0:0:
367,101,360644,6,0,P|291:48|317:150,1,252,0|0,0:2|0:2,0:2:0:0:
426,159,361176,6,0,B|461:204|461:204|443:315,1,157.5,0|0,0:2|0:2,0:2:0:0:
444,303,361709,5,0,0:2:0:0:
365,231,361842,1,0,0:2:0:0:
264,267,361975,1,8,0:2:0:0:
185,195,362108,1,0,0:2:0:0:
367,51,362241,5,0,3:2:0:0:
366,56,362307,1,0,3:2:0:0:
366,62,362374,1,0,3:2:0:0:
366,67,362440,1,0,3:2:0:0:
366,73,362507,1,0,3:2:0:0:
366,79,362573,1,0,3:2:0:0:
366,84,362640,1,0,3:2:0:0:
366,90,362706,1,0,3:2:0:0:
366,95,362773,1,0,3:2:0:0:
366,101,362840,1,0,3:2:0:0:
366,107,362906,1,0,3:2:0:0:
366,112,362973,1,0,3:2:0:0:
365,118,363039,1,0,3:2:0:0:
365,124,363106,1,0,3:2:0:0:
365,129,363172,1,0,3:2:0:0:
365,135,363239,1,0,3:2:0:0:
365,140,363305,5,0,3:2:0:0:
365,146,363372,1,0,3:2:0:0:
365,152,363438,1,0,3:2:0:0:
365,157,363505,1,0,3:2:0:0:
365,163,363571,1,0,3:2:0:0:
365,169,363638,1,0,3:2:0:0:
365,174,363704,1,0,3:2:0:0:
365,180,363771,1,0,3:2:0:0:
364,185,363837,1,0,3:2:0:0:
364,191,363904,1,0,3:2:0:0:
364,197,363970,1,0,3:2:0:0:
364,202,364037,1,0,3:2:0:0:
364,208,364103,1,0,3:2:0:0:
364,214,364170,1,0,3:2:0:0:
364,219,364236,1,0,3:2:0:0:
364,225,364303,1,0,3:2:0:0:
364,230,364369,5,2,0:2:0:0:
350,212,364436,1,0,0:2:0:0:
332,198,364502,1,8,0:2:0:0:
311,190,364569,1,0,0:2:0:0:
289,187,364636,1,2,0:2:0:0:
267,191,364702,1,0,0:2:0:0:
247,201,364769,1,8,0:2:0:0:
230,215,364835,1,0,0:2:0:0:
218,234,364902,1,2,0:2:0:0:
205,252,364968,1,0,0:2:0:0:
188,268,365035,1,8,0:2:0:0:
167,277,365101,1,0,0:2:0:0:
145,280,365168,1,2,0:2:0:0:
123,279,365234,1,0,0:2:0:0:
103,270,365301,1,8,0:2:0:0:
85,256,365367,1,0,0:2:0:0:
71,239,365434,5,2,0:2:0:0:
91,229,365500,1,0,0:2:0:0:
108,215,365567,1,8,0:2:0:0:
121,196,365633,1,0,0:2:0:0:
127,175,365700,1,2,0:2:0:0:
128,152,365766,1,0,0:2:0:0:
122,131,365833,1,8,0:2:0:0:
110,112,365899,1,0,0:2:0:0:
94,96,365966,5,2,0:2:0:0:
247,201,366099,1,0,3:2:0:0:
247,201,366165,1,0,3:2:0:0:
247,201,366232,1,2,0:2:0:0:
71,239,366365,1,0,3:2:0:0:
71,239,366432,1,0,3:2:0:0:
71,239,366498,5,6,0:1:0:0:
63,278,366565,1,0,0:2:0:0:
74,317,366631,1,0,0:2:0:0:
100,347,366698,1,0,0:2:0:0:
137,364,366764,1,2,0:2:0:0:
177,363,366831,1,0,0:2:0:0:
213,345,366897,1,0,0:2:0:0:
238,313,366964,1,0,0:2:0:0:
246,274,367030,1,2,0:2:0:0:
238,235,367097,1,0,0:2:0:0:
213,203,367163,1,0,0:2:0:0:
187,170,367230,1,0,0:2:0:0:
177,132,367296,1,2,0:2:0:0:
185,93,367363,1,0,0:2:0:0:
208,60,367429,1,0,0:2:0:0:
244,41,367496,1,0,0:2:0:0:
285,42,367562,5,2,0:2:0:0:
248,58,367629,1,0,0:2:0:0:
208,60,367695,1,0,0:2:0:0:
170,46,367762,1,0,0:2:0:0:
131,37,367828,1,2,0:2:0:0:
90,42,367895,1,0,0:2:0:0:
55,63,367961,2,0,L|49:124,1,40.4999987640381,0|0,0:2|0:2,0:2:0:0:
85,340,368095,5,2,0:2:0:0:
119,320,368161,1,0,0:2:0:0:
139,285,368228,1,0,0:2:0:0:
138,245,368294,1,0,0:2:0:0:
116,212,368361,2,0,L|69:196,1,40.4999987640381,2|0,0:2|0:2,0:2:0:0:
131,37,368494,2,0,L|178:21,1,40.4999987640381,2|0,0:2|0:2,0:2:0:0:
283,130,368627,5,6,0:1:0:0:
322,133,368693,1,0,0:2:0:0:
355,156,368760,1,0,0:2:0:0:
370,193,368826,1,0,0:2:0:0:
364,233,368893,2,0,L|350:287,1,40.4999987640381,2|0,0:2|0:2,0:2:0:0:
248,352,369026,2,0,L|234:298,1,40.4999987640381,2|0,0:2|0:2,0:2:0:0:
202,90,369159,5,6,0:1:0:0:
162,93,369225,1,0,0:2:0:0:
129,116,369292,1,0,0:2:0:0:
114,153,369358,1,0,0:2:0:0:
121,193,369425,2,0,L|135:247,1,40.4999987640381,2|0,0:2|0:2,0:2:0:0:
237,312,369558,2,0,L|251:258,1,40.4999987640381,2|0,0:2|0:2,0:2:0:0:
363,52,369691,5,6,0:1:0:0:
339,84,369757,1,0,0:2:0:0:
332,124,369824,1,0,0:2:0:0:
343,162,369891,1,0,0:2:0:0:
370,193,369957,1,2,0:2:0:0:
397,224,370024,1,0,0:2:0:0:
408,262,370090,1,0,0:2:0:0:
401,302,370157,1,0,0:2:0:0:
377,334,370223,2,0,P|318:333|261:364,2,121.499996292114,2|0|0,0:2|0:2|0:2,0:2:0:0:
459,122,370754,5,6,0:1:0:0:
418,124,370821,1,0,0:2:0:0:
378,126,370887,1,0,0:2:0:0:
337,129,370954,1,0,0:2:0:0:
297,131,371020,1,2,0:2:0:0:
256,133,371087,1,0,0:2:0:0:
216,136,371153,1,0,0:2:0:0:
175,138,371220,1,0,0:2:0:0:
135,140,371286,5,2,0:2:0:0:
112,173,371353,1,0,0:2:0:0:
104,213,371419,1,0,0:2:0:0:
114,252,371486,1,0,0:2:0:0:
140,283,371552,2,0,P|164:292|192:300,1,40.4999987640381,2|0,0:2|0:2,0:2:0:0:
247,374,371686,2,0,P|269:361|293:345,1,40.4999987640381,0|0,0:2|0:2,0:2:0:0:
377,220,371819,5,2,0:2:0:0:
400,222,371885,1,0,0:2:0:0:
423,224,371952,2,0,L|421:158,1,40.4999987640381,0|0,0:2|0:2,0:2:0:0:
262,140,372085,5,2,0:2:0:0:
239,138,372151,1,0,0:2:0:0:
216,136,372218,2,0,L|218:202,1,40.4999987640381,0|0,0:2|0:2,0:2:0:0:
394,84,372351,5,2,0:2:0:0:
417,86,372417,1,0,0:2:0:0:
440,88,372484,2,0,L|438:22,1,40.4999987640381,0|0,0:2|0:2,0:2:0:0:
279,4,372617,5,2,0:2:0:0:
256,2,372683,1,0,0:2:0:0:
233,0,372750,2,0,L|235:66,1,40.4999987640381,0|0,0:2|0:2,0:2:0:0:
292,237,372883,5,2,0:2:0:0:
262,264,372949,1,0,0:2:0:0:
223,276,373016,1,0,0:2:0:0:
184,270,373082,1,0,0:2:0:0:
150,249,373149,1,2,0:2:0:0:
128,215,373215,1,0,0:2:0:0:
123,175,373282,1,0,0:2:0:0:
134,137,373348,1,0,0:2:0:0:
136,97,373415,5,2,0:2:0:0:
115,63,373482,1,0,0:2:0:0:
78,48,373548,1,0,0:2:0:0:
39,58,373615,1,0,0:2:0:0:
13,88,373681,2,0,L|7:142,1,40.4999987640381,2|0,0:2|0:2,0:2:0:0:
48,222,373814,2,0,L|54:276,1,40.4999987640381,0|0,0:2|0:2,0:2:0:0:
8,381,373947,6,0,P|65:345|143:372,1,121.499996292114,2|0,0:2|0:2,0:2:0:0:
192,383,374213,2,0,L|199:316,2,53.9999983520508,2|0|0,0:2|0:2|0:2,0:2:0:0:
283,223,374479,2,0,L|272:123,1,80.9999975280763,2|0,0:2|0:2,0:2:0:0:
150,249,374745,1,2,0:2:0:0:
298,316,374878,1,2,0:2:0:0:
357,92,375011,5,6,0:1:0:0:
332,60,375078,1,0,0:2:0:0:
296,42,375145,1,0,0:2:0:0:
255,41,375211,1,0,0:2:0:0:
219,58,375278,1,2,0:2:0:0:
193,88,375344,1,0,0:2:0:0:
166,118,375411,1,0,0:2:0:0:
128,134,375477,1,0,0:2:0:0:
88,133,375544,5,2,0:2:0:0:
53,115,375610,1,0,0:2:0:0:
28,84,375677,1,0,0:2:0:0:
17,44,375743,1,0,0:2:0:0:
27,5,375810,2,0,L|83:-1,1,40.4999987640381,2|0,0:2|0:2,0:2:0:0:
193,88,375943,2,0,L|137:94,1,40.4999987640381,2|0,0:2|0:2,0:2:0:0:
0,182,376076,5,6,0:1:0:0:
2,222,376142,1,0,0:2:0:0:
5,262,376209,1,0,0:2:0:0:
7,303,376275,1,0,0:2:0:0:
10,343,376342,2,0,L|13:395,1,40.4999987640381,2|0,0:2|0:2,0:2:0:0:
142,312,376475,2,0,L|145:259,1,40.4999987640381,2|0,0:2|0:2,0:2:0:0:
255,155,376608,5,6,0:1:0:0:
295,156,376674,1,0,0:2:0:0:
329,176,376741,1,0,0:2:0:0:
349,211,376807,1,0,0:2:0:0:
351,251,376874,2,0,P|343:278|336:295,1,40.4999987640381,2|0,0:2|0:2,0:2:0:0:
251,344,377007,2,0,P|258:362|263:382,1,40.4999987640381,2|0,0:2|0:2,0:2:0:0:
452,277,377140,5,6,0:1:0:0:
486,249,377207,1,0,0:2:0:0:
503,207,377273,1,2,0:2:0:0:
498,163,377340,1,0,0:2:0:0:
472,127,377406,1,2,0:2:0:0:
431,109,377473,1,0,0:2:0:0:
387,112,377539,1,2,0:2:0:0:
350,137,377606,1,0,0:2:0:0:
329,176,377672,5,6,0:1:0:0:
308,215,377739,1,0,0:2:0:0:
271,240,377805,1,2,0:2:0:0:
227,243,377872,1,0,0:2:0:0:
186,224,377938,1,2,0:2:0:0:
160,188,378005,1,0,0:2:0:0:
155,144,378071,1,2,0:2:0:0:
172,103,378138,1,0,0:2:0:0:
206,75,378204,6,0,L|326:68,1,90,2|0,0:2|0:2,0:2:0:0:
142,285,378470,2,0,L|22:278,1,90,2|0,0:2|0:2,0:2:0:0:
249,151,378737,5,8,0:2:0:0:
325,234,378870,1,0,0:2:0:0:
408,158,379003,1,0,0:2:0:0:
332,75,379136,1,0,0:2:0:0:
274,360,379269,5,6,0:1:0:0:
229,379,379335,1,0,0:2:0:0:
181,369,379402,1,0,0:2:0:0:
148,333,379468,1,0,0:2:0:0:
142,285,379535,1,2,0:2:0:0:
165,242,379601,1,0,0:2:0:0:
188,199,379668,1,0,0:2:0:0:
190,150,379734,1,0,0:2:0:0:
168,105,379801,5,2,0:2:0:0:
129,76,379867,1,0,0:2:0:0:
79,73,379934,1,0,0:2:0:0:
34,93,380000,1,0,0:2:0:0:
6,134,380067,2,0,L|1:207,1,49.5000015106202,2|0,0:2|0:2,0:2:0:0:
142,285,380200,2,0,L|137:212,1,49.5000015106202,0|0,0:2|0:2,0:2:0:0:
244,55,380333,5,2,0:2:0:0:
292,47,380399,1,0,0:2:0:0:
335,70,380466,1,0,0:2:0:0:
355,114,380533,1,0,0:2:0:0:
345,161,380599,2,0,L|272:172,1,49.5000015106202,2|0,0:2|0:2,0:2:0:0:
232,293,380732,2,0,L|305:304,1,49.5000015106202,0|0,0:2|0:2,0:2:0:0:
453,376,380865,5,2,0:2:0:0:
486,340,380932,1,0,0:2:0:0:
500,293,380998,1,0,0:2:0:0:
490,245,381065,1,0,0:2:0:0:
459,207,381131,2,0,P|428:199|397:201,1,49.5000015106202,2|0,0:2|0:2,0:2:0:0:
355,114,381264,2,0,P|328:132|310:157,1,49.5000015106202,0|0,0:2|0:2,0:2:0:0:
232,293,381397,5,2,0:2:0:0:
189,316,381464,1,0,0:2:0:0:
140,312,381530,1,0,0:2:0:0:
101,283,381597,1,0,0:2:0:0:
85,237,381663,1,2,0:2:0:0:
96,189,381730,1,0,0:2:0:0:
131,156,381796,1,0,0:2:0:0:
179,147,381863,1,0,0:2:0:0:
224,165,381929,5,2,0:2:0:0:
272,178,381996,1,0,0:2:0:0:
320,167,382062,1,0,0:2:0:0:
358,137,382129,1,0,0:2:0:0:
379,92,382195,1,2,0:2:0:0:
377,43,382262,1,0,0:2:0:0:
343,6,382329,2,0,P|316:-6|281:-6,1,49.5000015106202,0|0,0:2|0:2,0:2:0:0:
179,147,382462,6,0,P|135:90|173:-1,1,148.50000453186,2|0,0:2|0:2,0:2:0:0:
224,70,382728,2,0,L|289:66,2,66.0000020141602,2|0|0,0:2|0:2|0:2,0:2:0:0:
123,0,382994,2,0,P|73:0|26:14,1,99.0000030212403,2|0,0:2|0:2,0:2:0:0:
96,189,383260,1,2,0:2:0:0:
224,70,383393,1,2,0:2:0:0:
103,280,383526,5,6,0:1:0:0:
55,269,383592,1,0,0:2:0:0:
20,235,383659,1,0,0:2:0:0:
7,187,383725,1,0,0:2:0:0:
21,140,383792,1,2,0:2:0:0:
56,107,383858,1,0,0:2:0:0:
104,97,383925,1,0,0:2:0:0:
150,113,383992,1,0,0:2:0:0:
197,128,384058,5,2,0:2:0:0:
246,125,384125,1,0,0:2:0:0:
284,93,384192,1,0,0:2:0:0:
315,56,384258,1,0,0:2:0:0:
362,42,384325,1,2,0:2:0:0:
409,56,384391,1,0,0:2:0:0:
446,89,384458,2,0,L|441:165,1,49.5000015106202,0|0,0:2|0:2,0:2:0:0:
299,320,384591,5,2,0:2:0:0:
297,290,384657,1,0,0:2:0:0:
295,260,384724,1,0,0:2:0:0:
293,231,384790,1,0,0:2:0:0:
291,201,384857,1,2,0:2:0:0:
289,171,384923,1,0,0:2:0:0:
287,142,384990,2,0,L|282:66,1,49.5000015106202,0|0,0:2|0:2,0:2:0:0:
159,251,385123,5,2,0:2:0:0:
170,298,385189,1,0,0:2:0:0:
205,331,385256,1,0,0:2:0:0:
254,339,385322,1,0,0:2:0:0:
298,319,385389,2,0,P|323:301|345:263,1,49.5000015106202,2|0,0:2|0:2,0:2:0:0:
291,201,385522,2,0,P|266:219|244:257,1,49.5000015106202,2|0,0:2|0:2,0:2:0:0:
88,305,385655,5,6,0:1:0:0:
61,262,385721,1,0,0:2:0:0:
64,214,385788,1,0,0:2:0:0:
95,177,385854,1,0,0:2:0:0:
142,166,385921,2,0,L|219:174,1,49.5000015106202,2|0,0:2|0:2,0:2:0:0:
239,35,386054,2,0,L|189:40,1,49.5000015106202,2|0,0:2|0:2,0:2:0:0:
55,16,386187,5,6,0:1:0:0:
56,53,386253,1,0,0:2:0:0:
58,90,386320,1,0,0:2:0:0:
59,127,386386,1,0,0:2:0:0:
61,164,386453,2,0,L|64:235,3,49.5000015106202,2|2|2|2,0:2|0:2|0:2|0:2,0:2:0:0:
184,336,386719,6,0,P|206:275|273:256,1,125.999996154785,6|0,0:1|0:2,0:2:0:0:
458,325,386985,2,0,P|405:326|365:292,1,107.999996704102,2|0,0:0|0:2,0:2:0:0:
339,96,387251,2,0,P|356:137|345:180,1,90,2|0,0:0|0:2,0:2:0:0:
260,255,387517,2,0,L|192:252,1,53.9999983520508,0|0,0:2|0:2,0:2:0:0:
82,59,387784,5,6,0:1:0:0:
35,71,387850,1,0,0:2:0:0:
3,109,387917,1,0,0:2:0:0:
0,158,387983,1,0,0:2:0:0:
17,204,388050,1,2,0:2:0:0:
61,223,388116,1,0,0:2:0:0:
110,215,388183,1,0,0:2:0:0:
146,183,388249,1,0,0:2:0:0:
164,136,388316,5,2,0:2:0:0:
196,99,388382,1,0,0:2:0:0:
241,79,388449,1,0,0:2:0:0:
290,80,388515,1,0,0:2:0:0:
334,101,388582,1,2,0:2:0:0:
366,139,388648,1,0,0:2:0:0:
379,186,388715,1,0,0:2:0:0:
371,234,388781,1,0,0:2:0:0:
343,275,388848,5,2,0:2:0:0:
302,246,388914,1,0,0:2:0:0:
279,203,388981,1,0,0:2:0:0:
276,154,389047,1,0,0:2:0:0:
295,109,389114,1,2,0:2:0:0:
309,62,389180,1,0,0:2:0:0:
290,17,389247,1,0,0:2:0:0:
247,0,389313,1,0,0:2:0:0:
200,4,389380,5,2,0:2:0:0:
184,23,389446,1,0,0:2:0:0:
164,37,389513,1,0,0:2:0:0:
141,47,389579,1,0,0:2:0:0:
117,50,389646,1,2,0:2:0:0:
92,48,389712,1,0,0:2:0:0:
69,40,389779,1,0,0:2:0:0:
49,26,389845,1,0,0:2:0:0:
32,7,389912,5,2,0:2:0:0:
74,31,389978,1,0,0:2:0:0:
102,71,390045,1,0,0:2:0:0:
110,120,390111,1,0,0:2:0:0:
96,167,390178,1,2,0:2:0:0:
61,203,390245,1,0,0:2:0:0:
24,236,390311,1,0,0:2:0:0:
1,279,390377,1,0,0:2:0:0:
7,327,390444,5,2,0:2:0:0:
39,363,390510,1,0,0:2:0:0:
86,375,390577,1,0,0:2:0:0:
132,357,390643,1,0,0:2:0:0:
159,317,390710,1,2,0:2:0:0:
160,271,390776,1,0,0:2:0:0:
128,229,390843,2,0,P|99:211|73:203,1,49.5000015106202,0|0,0:2|0:2,0:2:0:0:
276,154,390976,5,2,0:2:0:0:
300,155,391042,1,0,0:2:0:0:
325,156,391109,1,0,0:2:0:0:
350,158,391175,1,0,0:2:0:0:
374,159,391243,2,0,L|436:162,3,49.5000015106202,2|0|0|0,0:2|0:2|0:2|0:2,0:2:0:0:
268,68,391509,2,0,P|202:106|192:162,1,99.0000030212403,2|0,0:2|0:2,0:2:0:0:
393,257,391775,1,2,0:2:0:0:
362,76,391908,1,2,0:2:0:0:
172,305,392041,5,6,0:1:0:0:
123,298,392107,1,0,0:2:0:0:
84,269,392174,1,0,0:2:0:0:
65,224,392240,1,0,0:2:0:0:
71,175,392307,1,2,0:2:0:0:
100,136,392373,1,0,0:2:0:0:
145,117,392440,1,0,0:2:0:0:
194,123,392506,1,0,0:2:0:0:
233,152,392572,5,2,0:2:0:0:
272,181,392639,1,0,0:2:0:0:
321,187,392705,1,0,0:2:0:0:
366,168,392772,1,0,0:2:0:0:
392,126,392839,2,0,L|386:67,1,49.5000015106202,2|0,0:2|0:2,0:2:0:0:
338,274,392972,2,0,L|332:333,1,49.5000015106202,2|0,0:2|0:2,0:2:0:0:
165,221,393105,5,6,0:1:0:0:
150,174,393171,1,0,0:2:0:0:
162,127,393238,1,0,0:2:0:0:
198,93,393304,1,0,0:2:0:0:
246,84,393371,2,0,L|306:90,1,49.5000015106202,2|0,0:2|0:2,0:2:0:0:
157,0,393504,2,0,L|107:4,1,49.5000015106202,2|0,0:2|0:2,0:2:0:0:
18,164,393637,5,6,0:1:0:0:
33,209,393703,1,0,0:2:0:0:
71,239,393770,1,0,0:2:0:0:
121,243,393836,1,0,0:2:0:0:
165,221,393903,2,0,P|187:204|210:171,1,49.5000015106202,2|0,0:2|0:2,0:2:0:0:
295,89,394036,2,0,P|317:106|340:139,1,49.5000015106202,2|0,0:2|0:2,0:2:0:0:
440,346,394169,5,6,0:1:0:0:
415,346,394235,1,0,0:2:0:0:
390,346,394302,1,2,0:2:0:0:
365,346,394368,1,0,0:2:0:0:
341,346,394435,1,2,0:2:0:0:
316,346,394501,1,0,0:2:0:0:
291,346,394568,1,2,0:2:0:0:
266,346,394634,1,0,0:2:0:0:
242,346,394702,5,6,0:1:0:0:
213,323,394768,1,0,0:2:0:0:
197,289,394835,1,2,0:2:0:0:
199,252,394901,1,0,0:2:0:0:
217,220,394968,1,2,0:2:0:0:
234,187,395035,1,0,0:2:0:0:
236,151,395101,1,2,0:2:0:0:
221,117,395168,1,0,0:2:0:0:
192,94,395234,5,6,0:1:0:0:
212,138,395300,1,0,0:2:0:0:
252,167,395367,1,2,0:2:0:0:
300,174,395433,1,0,0:2:0:0:
346,158,395500,1,2,0:2:0:0:
380,122,395566,1,0,0:2:0:0:
414,88,395632,1,2,0:2:0:0:
462,85,395699,1,0,0:2:0:0:
500,114,395765,5,6,0:1:0:0:
509,162,395832,1,0,0:2:0:0:
484,203,395898,1,2,0:2:0:0:
437,221,395965,1,0,0:2:0:0:
390,236,396031,1,2,0:2:0:0:
356,271,396098,1,0,0:2:0:0:
344,318,396165,2,0,L|355:384,1,49.5000015106202,2|0,0:2|0:2,0:2:0:0:
80,378,396298,5,0,3:2:0:0:
50,339,396364,1,0,3:2:0:0:
46,290,396431,1,0,3:2:0:0:
68,247,396497,1,0,3:2:0:0:
111,222,396564,1,0,3:2:0:0:
159,224,396630,1,0,3:2:0:0:
199,252,396697,1,0,3:2:0:0:
213,299,396764,1,0,3:2:0:0:
213,348,396830,5,0,3:2:0:0:
165,337,396896,1,0,3:2:0:0:
130,302,396963,1,0,3:2:0:0:
120,255,397029,1,0,3:2:0:0:
136,208,397096,1,0,3:2:0:0:
175,179,397162,1,0,3:2:0:0:
223,175,397229,1,0,3:2:0:0:
264,202,397296,1,0,3:2:0:0:
287,245,397362,6,0,L|293:319,1,49.5000015106202,2|0,0:2|0:2,0:2:0:0:
373,382,397495,2,0,L|378:333,1,49.5000015106202,2|0,0:2|0:2,0:2:0:0:
466,242,397628,2,0,L|472:316,1,49.5000015106202,2|0,0:2|0:2,0:2:0:0:
375,154,397761,5,2,0:2:0:0:
370,139,397827,1,2,0:2:0:0:
368,125,397894,1,2,0:2:0:0:
369,110,397960,1,0,0:2:0:0:
372,95,398027,1,2,0:2:0:0:
377,82,398093,1,0,0:2:0:0:
385,69,398160,1,2,0:2:0:0:
395,58,398226,1,0,0:2:0:0:
407,49,398293,1,2,0:2:0:0:
420,42,398359,1,2,0:2:0:0:
434,37,398427,5,2,0:2:0:0:
406,77,398493,1,2,0:2:0:0:
364,103,398560,1,2,0:2:0:0:
315,108,398626,1,2,0:2:0:0:
269,93,398693,1,2,0:2:0:0:
233,59,398759,1,2,0:2:0:0:
190,35,398825,1,2,0:2:0:0:
141,30,398892,1,2,0:2:0:0:
95,47,398958,5,2,0:2:0:0:
60,81,399025,1,2,0:2:0:0:
42,127,399091,1,2,0:2:0:0:
46,176,399158,1,2,0:2:0:0:
69,219,399224,1,2,0:2:0:0:
109,248,399291,1,2,0:2:0:0:
157,258,399357,1,2,0:2:0:0:
205,247,399424,1,2,0:2:0:0:
246,220,399491,6,0,B|274:193|286:161|278:117|278:117|270:66|292:24|344:14|393:26|393:26|338:103|390:154|432:207|497:219|552:175|557:68|472:-7|361:42|371:192|378:219|394:253|394:253|407:279|421:322|395:374,1,918.000005603027,2|0,0:2|0:2,0:2:0:0:
246,220,401619,5,2,0:2:0:0:
202,196,401685,1,2,0:2:0:0:
153,199,401752,1,2,0:2:0:0:
113,225,401818,1,2,0:2:0:0:
91,269,401885,1,2,0:2:0:0:
94,318,401951,1,2,0:2:0:0:
122,358,402018,1,2,0:2:0:0:
167,378,402084,1,2,0:2:0:0:
216,373,402152,5,2,0:2:0:0:
261,355,402218,1,2,0:2:0:0:
294,319,402285,1,2,0:2:0:0:
308,272,402351,1,2,0:2:0:0:
300,224,402418,1,2,0:2:0:0:
271,184,402484,1,2,0:2:0:0:
227,161,402551,1,2,0:2:0:0:
190,129,402617,1,2,0:2:0:0:
180,81,402684,5,2,0:2:0:0:
201,38,402750,1,2,0:2:0:0:
245,16,402817,1,2,0:2:0:0:
292,26,402883,1,2,0:2:0:0:
324,63,402950,1,2,0:2:0:0:
355,99,403016,1,2,0:2:0:0:
403,109,403082,1,2,0:2:0:0:
446,88,403149,1,2,0:2:0:0:
468,44,403216,6,0,L|463:-8,5,49.5000015106202,0|0|0|0|0|0,0:2|0:2|0:2|0:2|0:2|0:2,0:2:0:0:
512,188,403615,5,2,0:2:0:0:
510,212,403681,1,2,0:2:0:0:
508,237,403748,1,6,0:2:0:0:
