osu file format v14

[General]
AudioFilename: audio.mp3
AudioLeadIn: 0
PreviewTime: 51435
Countdown: 0
SampleSet: Soft
StackLeniency: 0.7
Mode: 3
LetterboxInBreaks: 0
SpecialStyle: 0
WidescreenStoryboard: 1

[Editor]
DistanceSpacing: 0.8
BeatDivisor: 4
GridSize: 32
TimelineZoom: 1.9

[Metadata]
Title:Solar Storm
TitleUnicode:Solar Storm
Artist:xi
ArtistUnicode:xi
Creator:Kyousuke-
Version:_VK's HARD
Source:GROOVE COASTER 2 HEAVENLY FESTIVAL
Tags:Arcade Evolved Chronicles DVSP-0169 Comic Market comiket C91 Yusuke Ishiwata グルーヴコースター TENKAICHI Pack ORIGINAL STYLE SOUNDTRACK BOOST TEAM ZUNTATA TAITO 第二回天下一音ゲ祭 _VianK_ FAMoss Instrumental Video Game Electronic VOLTEX III GRAVITY WARS sdvx 3 BEMANI KONAMI
BeatmapID:2278921
BeatmapSetID:1088476

[Difficulty]
HPDrainRate:7.5
CircleSize:5
OverallDifficulty:7.5
ApproachRate:5
SliderMultiplier:1.4
SliderTickRate:1

[Events]
//Background and Video events
0,0,"bg.jpg",0,0
//Break Periods
//Storyboard Layer 0 (Background)
//Storyboard Layer 1 (Fail)
//Storyboard Layer 2 (Pass)
//Storyboard Layer 3 (Foreground)
//Storyboard Layer 4 (Overlay)
//Storyboard Sound Samples
Sample,83535,0,"LR4_SnareKKF.wav",50
Sample,85035,0,"LR4_SnareKKF.wav",50

[TimingPoints]
1185,300.0,4,2,1,50,1,0
32535,-100.0,4,2,1,30,0,0
41985,-100.0,4,2,1,40,0,0
51585,-100.0,4,2,1,50,0,1
61185,-100.0,4,2,1,50,0,0
68385,-100.0,4,2,1,50,0,1
73185,-100.0,4,2,1,50,0,0
74385,-100.0,4,2,1,20,0,0
75060,-100.0,4,2,1,50,0,0
85185,-100.0,4,2,1,50,0,1
94785,-100.0,4,2,1,50,0,0
102135,-100.0,4,2,1,50,0,1
106485,-100.0,4,2,1,50,0,0

[HitObjects]
153,192,1185,1,2,0:0:0:0:
358,192,1185,1,4,0:0:0:0:
153,192,1335,1,2,0:0:0:0:
358,192,1335,1,4,0:0:0:0:
460,192,1485,128,0,1785:0:0:0:0:
51,192,1785,1,2,0:0:0:0:
256,192,1785,1,4,0:0:0:0:
51,192,1935,1,2,0:0:0:0:
256,192,1935,1,4,0:0:0:0:
358,192,2085,128,0,2385:0:0:0:0:
51,192,2385,1,4,0:0:0:0:
153,192,2385,1,2,0:0:0:0:
51,192,2535,1,4,0:0:0:0:
153,192,2535,1,2,0:0:0:0:
256,192,2685,128,0,2985:0:0:0:0:
51,192,2985,1,2,0:0:0:0:
460,192,2985,1,4,0:0:0:0:
51,192,3135,1,2,0:0:0:0:
460,192,3135,1,4,0:0:0:0:
153,192,3285,128,0,3585:0:0:0:0:
358,192,3585,1,2,0:0:0:0:
460,192,3585,1,4,0:0:0:0:
358,192,3735,1,2,0:0:0:0:
460,192,3735,1,4,0:0:0:0:
51,192,3885,1,8,0:0:0:0:
153,192,3885,1,0,0:0:0:0:
460,192,3960,1,8,0:0:0:0:
358,192,4035,1,8,0:0:0:0:
256,192,4110,1,8,0:0:0:0:
51,192,4185,1,2,0:0:0:0:
153,192,4185,1,4,0:0:0:0:
51,192,4335,1,2,0:0:0:0:
153,192,4335,1,4,0:0:0:0:
358,192,4485,1,8,0:0:0:0:
460,192,4485,1,0,0:0:0:0:
51,192,4560,1,8,0:0:0:0:
153,192,4635,1,8,0:0:0:0:
256,192,4710,1,8,0:0:0:0:
358,192,4785,1,2,0:0:0:0:
460,192,4785,1,4,0:0:0:0:
358,192,4935,1,2,0:0:0:0:
460,192,4935,1,4,0:0:0:0:
51,192,5085,1,8,0:0:0:0:
153,192,5085,1,0,0:0:0:0:
256,192,5160,1,8,0:0:0:0:
358,192,5235,1,10,0:0:0:0:
460,192,5310,1,8,0:0:0:0:
51,192,5385,1,12,0:0:0:0:
153,192,5385,1,2,0:0:0:0:
256,192,5460,1,8,0:0:0:0:
358,192,5535,1,10,0:0:0:0:
460,192,5610,1,10,0:0:0:0:
51,192,5685,1,14,0:0:0:0:
153,192,5760,1,8,0:0:0:0:
256,192,5835,1,10,0:0:0:0:
358,192,5910,1,8,0:0:0:0:
51,192,5985,1,2,0:0:0:0:
460,192,5985,1,4,0:0:0:0:
51,192,6135,1,6,0:0:0:0:
153,192,6285,1,8,0:0:0:0:
358,192,6285,1,0,0:0:0:0:
153,192,6435,1,2,0:0:0:0:
256,192,6510,1,2,0:0:0:0:
358,192,6585,1,2,0:0:0:0:
460,192,6585,1,4,0:0:0:0:
153,192,6735,1,6,0:0:0:0:
153,192,6885,1,8,0:0:0:0:
358,192,6885,1,0,0:0:0:0:
460,192,7035,1,2,0:0:0:0:
358,192,7110,1,2,0:0:0:0:
51,192,7185,1,2,0:0:0:0:
153,192,7185,1,4,0:0:0:0:
256,192,7185,1,0,0:0:0:0:
358,192,7260,1,2,0:0:0:0:
460,192,7335,1,2,0:0:0:0:
256,192,7410,1,2,0:0:0:0:
358,192,7485,1,6,0:0:0:0:
153,192,7560,1,2,0:0:0:0:
256,192,7635,1,2,0:0:0:0:
51,192,7710,1,2,0:0:0:0:
153,192,7785,1,14,0:0:0:0:
358,192,7860,1,10,0:0:0:0:
460,192,7935,1,10,0:0:0:0:
256,192,8010,1,10,0:0:0:0:
358,192,8085,1,14,0:0:0:0:
153,192,8160,1,10,0:0:0:0:
256,192,8235,1,10,0:0:0:0:
51,192,8310,1,10,0:0:0:0:
153,192,8385,1,2,0:0:0:0:
256,192,8385,1,4,0:0:0:0:
358,192,8385,1,0,0:0:0:0:
460,192,8685,1,0,0:0:0:0:
358,192,8760,1,0,0:0:0:0:
153,192,8835,1,0,0:0:0:0:
51,192,8910,1,0,0:0:0:0:
256,192,8985,1,0,0:0:0:0:
153,192,9060,1,0,0:0:0:0:
358,192,9135,1,0,0:0:0:0:
256,192,9210,1,0,0:0:0:0:
460,192,9285,1,0,0:0:0:0:
358,192,9360,1,0,0:0:0:0:
153,192,9435,1,0,0:0:0:0:
51,192,9510,1,0,0:0:0:0:
358,192,9585,1,0,0:0:0:0:
460,192,9660,1,0,0:0:0:0:
256,192,9735,1,0,0:0:0:0:
358,192,9810,1,0,0:0:0:0:
153,192,9885,1,0,0:0:0:0:
256,192,9960,1,0,0:0:0:0:
51,192,10035,128,0,10185:0:0:0:0:
153,192,10110,128,0,10185:0:0:0:0:
256,192,10185,1,0,0:0:0:0:
153,192,10335,1,2,0:0:0:0:
460,192,10335,1,0,0:0:0:0:
51,192,10410,1,2,0:0:0:0:
256,192,10485,1,2,0:0:0:0:
153,192,10560,1,2,0:0:0:0:
358,192,10635,1,2,0:0:0:0:
256,192,10710,1,2,0:0:0:0:
51,192,10785,1,2,0:0:0:0:
153,192,10785,1,4,0:0:0:0:
460,192,10785,1,0,0:0:0:0:
51,192,11085,1,0,0:0:0:0:
358,192,11085,1,0,0:0:0:0:
51,192,11385,1,0,0:0:0:0:
153,192,11385,1,0,0:0:0:0:
51,192,11535,1,0,0:0:0:0:
358,192,11535,1,0,0:0:0:0:
51,192,11835,1,0,0:0:0:0:
153,192,11835,1,0,0:0:0:0:
51,192,12135,1,0,0:0:0:0:
358,192,12135,1,0,0:0:0:0:
153,192,12435,1,0,0:0:0:0:
358,192,12435,1,0,0:0:0:0:
51,192,12735,1,0,0:0:0:0:
153,192,12735,1,0,0:0:0:0:
51,192,12885,1,0,0:0:0:0:
358,192,12885,1,0,0:0:0:0:
153,192,13035,1,0,0:0:0:0:
256,192,13035,1,0,0:0:0:0:
358,192,13185,1,2,0:0:0:0:
460,192,13185,1,0,0:0:0:0:
153,192,13485,1,0,0:0:0:0:
460,192,13485,1,0,0:0:0:0:
358,192,13785,1,0,0:0:0:0:
460,192,13785,1,0,0:0:0:0:
153,192,13935,1,0,0:0:0:0:
460,192,13935,1,0,0:0:0:0:
358,192,14235,1,0,0:0:0:0:
460,192,14235,1,0,0:0:0:0:
153,192,14535,1,0,0:0:0:0:
460,192,14535,1,0,0:0:0:0:
153,192,14835,1,0,0:0:0:0:
358,192,14835,1,0,0:0:0:0:
256,192,15135,1,2,0:0:0:0:
460,192,15135,1,0,0:0:0:0:
51,192,15210,1,2,0:0:0:0:
358,192,15285,1,2,0:0:0:0:
153,192,15360,1,2,0:0:0:0:
460,192,15435,1,2,0:0:0:0:
256,192,15510,1,2,0:0:0:0:
51,192,15585,1,4,0:0:0:0:
153,192,15585,1,2,0:0:0:0:
460,192,15585,1,0,0:0:0:0:
51,192,15885,1,0,0:0:0:0:
358,192,15885,1,0,0:0:0:0:
51,192,16185,1,0,0:0:0:0:
153,192,16185,1,0,0:0:0:0:
51,192,16335,1,0,0:0:0:0:
358,192,16335,1,0,0:0:0:0:
51,192,16635,1,0,0:0:0:0:
153,192,16635,1,0,0:0:0:0:
51,192,16935,1,0,0:0:0:0:
358,192,16935,1,0,0:0:0:0:
153,192,17235,1,0,0:0:0:0:
358,192,17235,1,0,0:0:0:0:
51,192,17535,1,0,0:0:0:0:
153,192,17535,1,0,0:0:0:0:
51,192,17685,1,0,0:0:0:0:
358,192,17685,1,0,0:0:0:0:
153,192,17835,1,0,0:0:0:0:
256,192,17835,1,0,0:0:0:0:
358,192,17985,1,2,0:0:0:0:
460,192,17985,1,0,0:0:0:0:
153,192,18285,1,0,0:0:0:0:
460,192,18285,1,0,0:0:0:0:
358,192,18585,1,0,0:0:0:0:
460,192,18585,1,0,0:0:0:0:
153,192,18735,1,0,0:0:0:0:
460,192,18735,1,0,0:0:0:0:
51,192,18885,1,0,0:0:0:50:LR4_SnareKKF.wav
153,192,18885,1,0,0:0:0:0:
256,192,19035,1,2,0:0:0:0:
358,192,19035,1,4,0:0:0:0:
460,192,19035,1,0,0:0:0:0:
153,192,19335,1,2,0:0:0:0:
256,192,19335,1,4,0:0:0:0:
358,192,19335,1,0,0:0:0:0:
51,192,19635,1,2,0:0:0:0:
153,192,19635,1,4,0:0:0:0:
256,192,19635,1,0,0:0:0:0:
256,192,19935,1,2,0:0:0:0:
460,192,19935,1,0,0:0:0:0:
51,192,20010,1,2,0:0:0:0:
358,192,20085,1,2,0:0:0:0:
153,192,20160,1,2,0:0:0:0:
460,192,20235,1,2,0:0:0:0:
256,192,20310,1,2,0:0:0:0:
51,192,20385,1,2,0:0:0:0:
153,192,20385,1,4,0:0:0:0:
460,192,20385,1,0,0:0:0:0:
358,192,20535,1,2,0:0:0:0:
51,192,20685,1,0,0:0:0:50:LR4_SnareKKF.wav
256,192,20685,1,0,0:0:0:0:
460,192,20835,1,2,0:0:0:0:
358,192,20985,1,0,0:0:0:0:
51,192,21135,1,0,0:0:0:50:LR4_SnareKKF.wav
256,192,21135,1,0,0:0:0:0:
460,192,21285,1,2,0:0:0:0:
358,192,21360,1,2,0:0:0:0:
51,192,21435,1,0,0:0:0:50:LR4_SnareKKF.wav
256,192,21435,1,0,0:0:0:0:
460,192,21735,1,2,0:0:0:0:
51,192,21885,1,0,0:0:0:50:LR4_SnareKKF.wav
256,192,21885,1,0,0:0:0:0:
460,192,22035,1,2,0:0:0:0:
460,192,22335,1,2,0:0:0:0:
358,192,22410,1,2,0:0:0:0:
51,192,22485,1,0,0:0:0:50:LR4_SnareKKF.wav
256,192,22485,1,0,0:0:0:0:
460,192,22635,1,2,0:0:0:0:
256,192,22785,1,2,0:0:0:0:
460,192,22935,1,2,0:0:0:0:
51,192,23085,1,0,0:0:0:50:LR4_SnareKKF.wav
256,192,23085,1,0,0:0:0:0:
460,192,23235,1,2,0:0:0:0:
358,192,23385,1,0,0:0:0:0:
51,192,23535,1,0,0:0:0:50:LR4_SnareKKF.wav
256,192,23535,1,0,0:0:0:0:
460,192,23685,1,2,0:0:0:0:
358,192,23760,1,2,0:0:0:0:
51,192,23835,1,0,0:0:0:50:LR4_SnareKKF.wav
256,192,23835,1,0,0:0:0:0:
460,192,24135,1,2,0:0:0:0:
51,192,24285,1,0,0:0:0:50:LR4_SnareKKF.wav
256,192,24285,1,0,0:0:0:0:
460,192,24435,1,2,0:0:0:0:
51,192,24585,1,0,0:0:0:50:LR4_SnareKKF.wav
256,192,24585,1,0,0:0:0:0:
460,192,24735,1,2,0:0:0:0:
358,192,24810,1,2,0:0:0:0:
460,192,24885,1,2,0:0:0:0:
51,192,25035,1,0,0:0:0:50:LR4_SnareKKF.wav
256,192,25035,1,0,0:0:0:0:
51,192,25185,1,2,0:0:0:0:
256,192,25185,1,4,0:0:0:0:
460,192,25185,1,0,0:0:0:0:
153,192,25335,1,2,0:0:0:0:
256,192,25485,1,0,0:0:0:50:LR4_SnareKKF.wav
460,192,25485,1,0,0:0:0:0:
51,192,25635,1,2,0:0:0:0:
153,192,25785,1,0,0:0:0:0:
256,192,25935,1,0,0:0:0:50:LR4_SnareKKF.wav
460,192,25935,1,0,0:0:0:0:
51,192,26085,1,2,0:0:0:0:
153,192,26160,1,2,0:0:0:0:
51,192,26235,1,4,0:0:0:0:
256,192,26235,1,0,0:0:0:50:LR4_SnareKKF.wav
460,192,26235,1,0,0:0:0:0:
51,192,26535,1,2,0:0:0:0:
256,192,26685,1,4,0:0:0:0:
460,192,26685,1,0,0:0:0:50:LR4_SnareKKF.wav
51,192,26835,1,2,0:0:0:0:
51,192,27135,1,2,0:0:0:0:
153,192,27210,1,2,0:0:0:0:
256,192,27285,1,0,0:0:0:50:LR4_SnareKKF.wav
460,192,27285,1,0,0:0:0:0:
51,192,27435,1,2,0:0:0:0:
153,192,27585,1,2,0:0:0:0:
358,192,27585,1,4,0:0:0:0:
460,192,27585,1,0,0:0:0:0:
51,192,27735,1,2,0:0:0:0:
256,192,27885,1,4,0:0:0:0:
460,192,27885,1,0,0:0:0:50:LR4_SnareKKF.wav
51,192,28035,1,2,0:0:0:0:
153,192,28185,1,4,0:0:0:0:
256,192,28185,1,0,0:0:0:0:
358,192,28335,1,4,0:0:0:0:
460,192,28335,1,0,0:0:0:50:LR4_SnareKKF.wav
51,192,28485,1,2,0:0:0:0:
153,192,28560,1,2,0:0:0:0:
256,192,28635,1,6,0:0:0:0:
358,192,28710,1,2,0:0:0:0:
51,192,28785,1,2,0:0:0:0:
153,192,28785,1,4,0:0:0:0:
460,192,28785,1,0,0:0:0:0:
51,192,29010,1,2,0:0:0:0:
153,192,29010,1,4,0:0:0:0:
460,192,29010,1,0,0:0:0:0:
51,192,29235,1,2,0:0:0:0:
256,192,29235,1,4,0:0:0:0:
358,192,29235,1,0,0:0:0:0:
153,192,29460,1,2,0:0:0:0:
256,192,29460,1,4,0:0:0:0:
460,192,29460,1,0,0:0:0:0:
51,192,29685,1,4,0:0:0:0:
256,192,29685,1,2,0:0:0:0:
358,192,29685,1,0,0:0:0:0:
153,192,29835,1,4,0:0:0:0:
358,192,29835,1,2,0:0:0:0:
460,192,29835,1,0,0:0:0:0:
256,192,29985,1,2,0:0:0:0:
460,192,29985,1,4,0:0:0:0:
51,192,30060,1,0,0:0:0:0:
358,192,30135,1,0,0:0:0:0:
153,192,30210,1,0,0:0:0:0:
460,192,30285,1,0,0:0:0:0:
256,192,30360,1,0,0:0:0:0:
51,192,30435,1,0,0:0:0:0:
358,192,30510,1,0,0:0:0:0:
153,192,30585,1,0,0:0:0:0:
460,192,30660,1,0,0:0:0:0:
256,192,30735,1,0,0:0:0:0:
51,192,30810,1,0,0:0:0:0:
358,192,30885,1,0,0:0:0:0:
153,192,30960,1,0,0:0:0:0:
460,192,31035,1,0,0:0:0:0:
256,192,31110,1,0,0:0:0:0:
51,192,31185,1,0,0:0:0:0:
358,192,31260,1,0,0:0:0:0:
153,192,31335,1,0,0:0:0:0:
460,192,31410,1,0,0:0:0:0:
256,192,31485,1,0,0:0:0:0:
51,192,31560,1,0,0:0:0:0:
358,192,31635,1,0,0:0:0:0:
153,192,31710,1,0,0:0:0:0:
460,192,31785,1,0,0:0:0:0:
256,192,31860,1,0,0:0:0:0:
51,192,31935,1,0,0:0:0:0:
358,192,32010,1,0,0:0:0:0:
153,192,32085,1,0,0:0:0:50:LR4_SnareKKF.wav
460,192,32085,1,0,0:0:0:0:
153,192,32235,1,2,0:0:0:0:
256,192,32310,1,2,0:0:0:0:
51,192,32385,128,2,32985:0:0:0:0:
358,192,32385,128,4,32985:0:0:0:0:
460,192,32385,1,0,0:0:0:0:
153,192,32985,128,0,33585:0:0:0:0:
460,192,32985,128,0,34485:0:0:0:0:
51,192,33585,128,0,34485:0:0:0:0:
256,192,34485,128,0,34785:0:0:0:0:
51,192,34785,128,0,35085:0:0:0:0:
358,192,34785,128,0,35085:0:0:0:0:
153,192,35085,128,0,35385:0:0:0:0:
460,192,35085,128,0,35385:0:0:0:0:
51,192,35385,128,0,35685:0:0:0:0:
256,192,35385,128,0,35685:0:0:0:0:
153,192,35685,128,0,35985:0:0:0:0:
358,192,35685,128,0,35985:0:0:0:0:
256,192,35985,128,0,37185:0:0:0:0:
460,192,35985,128,0,37185:0:0:0:0:
51,192,36585,128,0,37185:0:0:0:0:
153,192,37185,128,0,37785:0:0:0:0:
358,192,37185,128,0,39285:0:0:0:0:
51,192,37785,128,0,38385:0:0:0:0:
153,192,38385,128,0,39285:0:0:0:0:
256,192,39285,128,0,39585:0:0:0:0:
153,192,39585,128,0,39885:0:0:0:0:
358,192,39585,128,0,39885:0:0:0:0:
51,192,39885,128,0,40185:0:0:0:0:
256,192,39885,128,0,40185:0:0:0:0:
153,192,40185,128,0,40485:0:0:0:0:
460,192,40185,128,0,40485:0:0:0:0:
51,192,40485,128,0,40785:0:0:0:0:
358,192,40485,128,0,40785:0:0:0:0:
153,192,40785,128,0,41385:0:0:0:0:
460,192,40785,128,0,41835:0:0:0:0:
358,192,41385,128,0,41835:0:0:0:0:
51,192,41835,1,2,0:0:0:0:
153,192,41910,1,2,0:0:0:0:
256,192,41985,1,2,0:0:0:0:
358,192,41985,1,4,0:0:0:0:
460,192,41985,128,0,42322:0:0:0:0:
51,192,42322,1,0,0:0:0:0:
153,192,42397,1,0,0:0:0:0:
256,192,42472,1,0,0:0:0:0:
460,192,42547,1,0,0:0:0:0:
358,192,42622,1,0,0:0:0:0:
256,192,42697,1,0,0:0:0:0:
51,192,42772,1,0,0:0:0:0:
153,192,42847,1,0,0:0:0:0:
256,192,42922,1,0,0:0:0:0:
460,192,42997,1,0,0:0:0:0:
358,192,43072,1,0,0:0:0:0:
51,192,43147,128,0,43522:0:0:0:0:
256,192,43147,1,0,0:0:0:0:
256,192,43522,1,0,0:0:0:0:
153,192,43597,1,0,0:0:0:0:
358,192,43672,1,0,0:0:0:0:
256,192,43747,1,0,0:0:0:0:
460,192,43822,1,0,0:0:0:0:
358,192,43897,1,0,0:0:0:0:
51,192,43972,1,0,0:0:0:0:
153,192,44047,1,0,0:0:0:0:
460,192,44122,1,0,0:0:0:0:
358,192,44197,1,0,0:0:0:0:
256,192,44272,1,0,0:0:0:0:
51,192,44347,128,0,44735:0:0:0:0:
153,192,44347,1,0,0:0:0:0:
460,192,44735,1,0,0:0:0:0:
358,192,44810,1,0,0:0:0:0:
51,192,44885,1,0,0:0:0:0:
153,192,44960,1,0,0:0:0:0:
358,192,45035,1,0,0:0:0:0:
460,192,45110,1,0,0:0:0:0:
153,192,45185,1,0,0:0:0:0:
51,192,45260,1,0,0:0:0:0:
358,192,45335,1,0,0:0:0:0:
153,192,45410,1,0,0:0:0:0:
256,192,45485,1,0,0:0:0:0:
358,192,45560,1,0,0:0:0:0:
460,192,45560,128,0,45860:0:0:0:0:
153,192,45860,1,0,0:0:0:0:
51,192,45935,1,0,0:0:0:0:
256,192,46010,1,0,0:0:0:0:
153,192,46085,1,0,0:0:0:0:
358,192,46160,1,0,0:0:0:0:
460,192,46235,1,0,0:0:0:0:
256,192,46310,1,0,0:0:0:0:
358,192,46385,1,0,0:0:0:0:
153,192,46460,1,0,0:0:0:0:
256,192,46535,1,0,0:0:0:0:
51,192,46635,1,2,0:0:0:0:
153,192,46710,1,2,0:0:0:0:
256,192,46785,1,6,0:0:0:0:
460,192,46785,1,8,0:0:0:0:
358,192,46860,1,8,0:0:0:0:
153,192,46935,1,8,0:0:0:0:
358,192,47010,1,8,0:0:0:0:
153,192,47085,1,8,0:0:0:0:
358,192,47160,1,8,0:0:0:0:
51,192,47235,1,8,0:0:0:0:
256,192,47310,1,8,0:0:0:0:
460,192,47385,1,8,0:0:0:0:
153,192,47460,1,8,0:0:0:0:
358,192,47535,1,8,0:0:0:0:
51,192,47610,1,8,0:0:0:0:
256,192,47685,1,8,0:0:0:0:
460,192,47760,1,8,0:0:0:0:
153,192,47835,1,8,0:0:0:0:
358,192,47910,1,8,0:0:0:0:
51,192,47985,1,12,0:0:0:0:
256,192,47985,1,2,0:0:0:0:
153,192,48060,1,8,0:0:0:0:
358,192,48135,1,8,0:0:0:0:
153,192,48210,1,8,0:0:0:0:
358,192,48285,1,8,0:0:0:0:
153,192,48360,1,8,0:0:0:0:
460,192,48435,1,8,0:0:0:0:
256,192,48510,1,8,0:0:0:0:
51,192,48585,1,8,0:0:0:0:
358,192,48660,1,8,0:0:0:0:
153,192,48735,1,8,0:0:0:0:
460,192,48810,1,8,0:0:0:0:
256,192,48885,1,8,0:0:0:0:
51,192,48960,1,8,0:0:0:0:
358,192,49035,1,8,0:0:0:0:
153,192,49110,1,8,0:0:0:0:
256,192,49185,1,10,0:0:0:0:
460,192,49185,1,4,0:0:0:0:
358,192,49260,1,8,0:0:0:0:
153,192,49335,1,8,0:0:0:0:
358,192,49410,1,8,0:0:0:0:
153,192,49485,1,8,0:0:0:0:
358,192,49560,1,8,0:0:0:0:
153,192,49635,1,8,0:0:0:0:
256,192,49710,1,8,0:0:0:0:
51,192,49785,1,8,0:0:0:0:
460,192,49785,1,4,0:0:0:0:
358,192,49860,1,8,0:0:0:0:
256,192,49935,1,8,0:0:0:0:
153,192,50010,1,8,0:0:0:0:
460,192,50085,1,8,0:0:0:0:
358,192,50160,1,8,0:0:0:0:
256,192,50235,1,8,0:0:0:0:
153,192,50310,1,8,0:0:0:0:
51,192,50385,1,10,0:0:0:0:
460,192,50385,128,4,51285:0:0:0:0:
153,192,50460,1,8,0:0:0:0:
358,192,50535,1,8,0:0:0:0:
51,192,50610,1,8,0:0:0:0:
153,192,50685,1,12,0:0:0:0:
358,192,50760,1,8,0:0:0:0:
51,192,50835,1,8,0:0:0:0:
153,192,50910,1,8,0:0:0:0:
358,192,50985,128,12,51285:0:0:0:0:
51,192,51285,1,0,0:0:0:70:LR4_SnareKKF.wav
153,192,51285,1,0,0:0:0:0:
51,192,51585,1,2,0:0:0:0:
256,192,51585,128,4,52185:0:0:0:0:
358,192,51585,1,0,0:0:0:0:
51,192,51735,1,0,0:0:0:0:
153,192,51885,1,2,0:0:0:0:
460,192,51885,1,0,0:0:0:0:
51,192,52110,1,2,0:0:0:0:
358,192,52185,128,2,52335:0:0:0:0:
460,192,52185,1,0,0:0:0:0:
51,192,52410,1,2,0:0:0:0:
358,192,52485,128,2,52635:0:0:0:0:
460,192,52485,1,0,0:0:0:0:
153,192,52635,128,0,52785:0:0:0:0:
51,192,52785,1,2,0:0:0:0:
256,192,52785,128,0,53085:0:0:0:0:
51,192,53010,1,2,0:0:0:0:
153,192,53085,1,2,0:0:0:0:
358,192,53085,128,0,53385:0:0:0:0:
153,192,53310,1,2,0:0:0:0:
256,192,53385,1,2,0:0:0:0:
460,192,53385,128,0,53685:0:0:0:0:
256,192,53610,1,2,0:0:0:0:
51,192,53685,128,2,53985:0:0:0:0:
358,192,53685,1,0,0:0:0:0:
358,192,53910,1,2,0:0:0:0:
153,192,53985,128,2,54285:0:0:0:0:
460,192,53985,1,0,0:0:0:0:
358,192,54285,128,2,54435:0:0:0:0:
460,192,54285,1,0,0:0:0:0:
256,192,54435,1,0,0:0:0:0:
153,192,54510,1,2,0:0:0:0:
51,192,54585,128,2,54885:0:0:0:0:
460,192,54585,1,0,0:0:0:0:
153,192,54885,1,2,0:0:0:0:
256,192,54885,128,0,55035:0:0:0:0:
358,192,55035,1,0,0:0:0:0:
460,192,55110,1,2,0:0:0:0:
51,192,55185,1,2,0:0:0:0:
153,192,55185,1,0,0:0:0:0:
256,192,55260,1,0,0:0:0:0:
358,192,55335,1,0,0:0:0:0:
460,192,55410,1,2,0:0:0:0:
51,192,55485,1,2,0:0:0:0:
153,192,55485,1,0,0:0:0:0:
256,192,55560,1,0,0:0:0:0:
358,192,55635,1,0,0:0:0:0:
460,192,55710,1,2,0:0:0:0:
51,192,55785,1,2,0:0:0:0:
256,192,55785,1,0,0:0:0:0:
153,192,55860,1,0,0:0:0:0:
358,192,55935,1,0,0:0:0:0:
256,192,56010,1,2,0:0:0:0:
51,192,56085,1,2,0:0:0:0:
460,192,56085,1,0,0:0:0:0:
358,192,56160,1,0,0:0:0:0:
256,192,56235,1,2,0:0:0:0:
153,192,56310,1,2,0:0:0:0:
51,192,56385,1,2,0:0:0:0:
460,192,56385,1,0,0:0:0:0:
51,192,56535,1,0,0:0:0:0:
460,192,56535,1,0,0:0:0:0:
153,192,56685,128,2,56985:0:0:0:0:
358,192,56685,128,0,56985:0:0:0:0:
51,192,56985,1,2,0:0:0:0:
460,192,56985,1,0,0:0:0:0:
256,192,57135,1,0,0:0:0:0:
358,192,57210,1,2,0:0:0:0:
51,192,57285,1,2,0:0:0:0:
460,192,57285,1,0,0:0:0:0:
358,192,57360,1,0,0:0:0:0:
256,192,57435,1,0,0:0:0:0:
153,192,57510,1,2,0:0:0:0:
51,192,57585,1,2,0:0:0:0:
460,192,57585,128,0,57735:0:0:0:0:
51,192,57810,128,2,57960:0:0:0:0:
256,192,57885,1,2,0:0:0:0:
460,192,57885,128,0,58035:0:0:0:0:
256,192,58110,128,2,58260:0:0:0:0:
51,192,58185,1,2,0:0:0:0:
460,192,58185,128,0,58335:0:0:0:0:
51,192,58410,128,2,58560:0:0:0:0:
256,192,58485,1,2,0:0:0:0:
460,192,58485,128,0,58635:0:0:0:0:
256,192,58710,1,2,0:0:0:0:
51,192,58785,1,2,0:0:0:0:
460,192,58785,1,0,0:0:0:0:
153,192,58860,1,0,0:0:0:0:
358,192,58935,1,0,0:0:0:0:
460,192,59010,1,2,0:0:0:0:
51,192,59085,1,2,0:0:0:0:
256,192,59085,1,0,0:0:0:0:
153,192,59235,1,0,0:0:0:0:
256,192,59310,1,2,0:0:0:0:
51,192,59385,1,2,0:0:0:0:
460,192,59385,1,0,0:0:0:0:
358,192,59460,1,0,0:0:0:0:
153,192,59535,1,0,0:0:0:0:
51,192,59610,1,2,0:0:0:0:
256,192,59685,1,2,0:0:0:0:
460,192,59685,1,0,0:0:0:0:
153,192,59760,1,2,0:0:0:0:
358,192,59835,1,2,0:0:0:0:
256,192,59910,1,2,0:0:0:0:
51,192,59985,1,2,0:0:0:0:
153,192,59985,1,4,0:0:0:0:
460,192,59985,1,0,0:0:0:0:
51,192,60210,1,2,0:0:0:0:
153,192,60210,1,4,0:0:0:0:
460,192,60210,1,0,0:0:0:0:
153,192,60435,1,2,0:0:0:0:
256,192,60435,1,4,0:0:0:0:
358,192,60435,1,0,0:0:0:0:
153,192,60660,1,2,0:0:0:0:
256,192,60660,1,4,0:0:0:0:
358,192,60660,1,0,0:0:0:0:
51,192,60885,1,2,0:0:0:0:
460,192,60885,1,4,0:0:0:0:
256,192,60960,1,2,0:0:0:0:
358,192,61035,1,6,0:0:0:0:
153,192,61110,1,2,0:0:0:0:
51,192,61185,1,2,0:0:0:0:
256,192,61185,1,4,0:0:0:0:
460,192,61185,1,0,0:0:0:0:
51,192,61335,1,2,0:0:0:0:
256,192,61335,1,4,0:0:0:0:
460,192,61335,1,0,0:0:0:0:
153,192,61635,1,0,0:0:0:50:LR4_SnareKKF.wav
358,192,61635,1,0,0:0:0:0:
153,192,61935,1,0,0:0:0:50:LR4_SnareKKF.wav
358,192,61935,1,0,0:0:0:0:
51,192,62085,1,2,0:0:0:0:
256,192,62085,1,4,0:0:0:0:
460,192,62085,1,0,0:0:0:0:
51,192,62235,1,2,0:0:0:0:
256,192,62235,1,4,0:0:0:0:
460,192,62235,1,0,0:0:0:0:
153,192,62535,1,0,0:0:0:50:LR4_SnareKKF.wav
358,192,62535,1,0,0:0:0:0:
51,192,62835,1,2,0:0:0:0:
256,192,62835,1,0,0:0:0:0:
153,192,62985,1,2,0:0:0:0:
358,192,62985,1,4,0:0:0:0:
460,192,62985,1,0,0:0:0:0:
153,192,63135,1,2,0:0:0:0:
358,192,63135,1,4,0:0:0:0:
460,192,63135,1,0,0:0:0:0:
51,192,63285,1,0,0:0:0:50:LR4_SnareKKF.wav
256,192,63285,1,0,0:0:0:0:
460,192,63435,1,2,0:0:0:0:
358,192,63510,1,2,0:0:0:0:
51,192,63585,1,2,0:0:0:0:
153,192,63585,1,4,0:0:0:0:
256,192,63585,1,0,0:0:0:0:
51,192,63735,1,2,0:0:0:0:
153,192,63735,1,4,0:0:0:0:
256,192,63735,1,0,0:0:0:0:
153,192,64035,1,0,0:0:0:50:LR4_SnareKKF.wav
358,192,64035,1,0,0:0:0:0:
153,192,64335,1,0,0:0:0:50:LR4_SnareKKF.wav
358,192,64335,1,0,0:0:0:0:
51,192,64485,1,2,0:0:0:0:
256,192,64485,1,4,0:0:0:0:
460,192,64485,1,0,0:0:0:0:
51,192,64635,1,2,0:0:0:0:
256,192,64635,1,4,0:0:0:0:
460,192,64635,1,0,0:0:0:0:
153,192,64935,1,0,0:0:0:50:LR4_SnareKKF.wav
358,192,64935,1,0,0:0:0:0:
153,192,65235,1,0,0:0:0:50:LR4_SnareKKF.wav
358,192,65235,1,0,0:0:0:0:
51,192,65385,1,2,0:0:0:0:
256,192,65385,1,4,0:0:0:0:
460,192,65385,1,0,0:0:0:0:
51,192,65535,1,2,0:0:0:0:
256,192,65535,1,4,0:0:0:0:
460,192,65535,1,0,0:0:0:0:
153,192,65685,1,0,0:0:0:50:LR4_SnareKKF.wav
358,192,65685,1,0,0:0:0:0:
358,192,65835,1,2,0:0:0:0:
153,192,65910,1,2,0:0:0:0:
51,192,65985,1,2,0:0:0:0:
256,192,65985,1,4,0:0:0:0:
460,192,65985,1,0,0:0:0:0:
256,192,66135,1,4,0:0:0:0:
460,192,66135,1,0,0:0:0:0:
51,192,66285,1,2,0:0:0:0:
153,192,66285,1,0,0:0:0:0:
358,192,66435,1,0,0:0:0:50:LR4_SnareKKF.wav
51,192,66585,1,2,0:0:0:0:
256,192,66585,1,0,0:0:0:0:
460,192,66735,1,0,0:0:0:50:LR4_SnareKKF.wav
153,192,66885,1,2,0:0:0:0:
358,192,66885,1,4,0:0:0:0:
153,192,67035,1,2,0:0:0:0:
358,192,67035,1,4,0:0:0:0:
51,192,67185,1,2,0:0:0:0:
256,192,67185,1,0,0:0:0:0:
460,192,67335,1,0,0:0:0:50:LR4_SnareKKF.wav
153,192,67485,1,2,0:0:0:0:
358,192,67485,1,0,0:0:0:0:
51,192,67635,1,0,0:0:0:0:
256,192,67785,1,2,0:0:0:0:
460,192,67785,1,4,0:0:0:0:
256,192,67935,1,6,0:0:0:0:
460,192,67935,1,8,0:0:0:0:
51,192,68085,1,2,0:0:0:0:
358,192,68085,1,0,0:0:0:0:
460,192,68160,1,0,0:0:0:0:
153,192,68235,1,2,0:0:0:0:
256,192,68310,1,2,0:0:0:0:
51,192,68385,1,2,0:0:0:0:
358,192,68385,1,4,0:0:0:0:
460,192,68385,1,0,0:0:0:0:
153,192,68485,1,0,0:0:0:0:
256,192,68585,1,0,0:0:0:0:
153,192,68685,1,2,0:0:0:0:
460,192,68685,1,4,0:0:0:0:
256,192,68785,1,0,0:0:0:0:
358,192,68885,1,0,0:0:0:0:
51,192,68985,1,4,0:0:0:0:
153,192,68985,1,2,0:0:0:0:
460,192,68985,1,0,0:0:0:0:
358,192,69085,1,0,0:0:0:0:
256,192,69185,1,0,0:0:0:0:
51,192,69285,1,4,0:0:0:0:
358,192,69285,1,2,0:0:0:0:
256,192,69385,1,0,0:0:0:0:
153,192,69485,1,0,0:0:0:0:
51,192,69585,1,2,0:0:0:0:
358,192,69585,1,4,0:0:0:0:
460,192,69585,1,0,0:0:0:0:
153,192,69685,1,0,0:0:0:0:
256,192,69785,1,0,0:0:0:0:
153,192,69885,1,2,0:0:0:0:
460,192,69885,1,4,0:0:0:0:
256,192,69985,1,0,0:0:0:0:
358,192,70085,1,0,0:0:0:0:
51,192,70185,1,4,0:0:0:0:
153,192,70185,1,2,0:0:0:0:
460,192,70185,1,0,0:0:0:0:
358,192,70285,1,0,0:0:0:0:
256,192,70385,1,0,0:0:0:0:
51,192,70485,1,4,0:0:0:0:
358,192,70485,1,2,0:0:0:0:
256,192,70585,1,2,0:0:0:0:
153,192,70685,1,2,0:0:0:0:
51,192,70785,1,2,0:0:0:0:
460,192,70785,1,4,0:0:0:0:
256,192,70885,1,2,0:0:0:0:
460,192,70985,1,2,0:0:0:0:
256,192,71085,1,2,0:0:0:0:
358,192,71085,1,4,0:0:0:0:
153,192,71185,1,2,0:0:0:0:
358,192,71285,1,2,0:0:0:0:
153,192,71385,1,4,0:0:0:0:
256,192,71385,1,2,0:0:0:0:
51,192,71485,1,2,0:0:0:0:
256,192,71585,1,2,0:0:0:0:
51,192,71685,1,4,0:0:0:0:
153,192,71685,1,2,0:0:0:0:
358,192,71785,1,2,0:0:0:0:
256,192,71885,1,2,0:0:0:0:
51,192,71985,1,2,0:0:0:0:
460,192,71985,1,4,0:0:0:0:
256,192,72085,1,2,0:0:0:0:
153,192,72185,1,2,0:0:0:0:
358,192,72285,1,2,0:0:0:0:
460,192,72285,1,4,0:0:0:0:
256,192,72385,1,2,0:0:0:0:
460,192,72485,1,2,0:0:0:0:
256,192,72585,1,4,0:0:0:0:
358,192,72585,1,2,0:0:0:0:
153,192,72685,1,2,0:0:0:0:
358,192,72785,1,2,0:0:0:0:
153,192,72885,1,2,0:0:0:0:
256,192,72885,1,4,0:0:0:0:
51,192,72985,1,2,0:0:0:0:
256,192,73085,1,2,0:0:0:0:
51,192,73185,1,2,0:0:0:0:
358,192,73185,1,4,0:0:0:0:
460,192,73185,1,0,0:0:0:0:
153,192,73485,1,0,0:0:0:0:
51,192,73585,1,0,0:0:0:0:
358,192,73685,1,0,0:0:0:0:
460,192,73785,1,0,0:0:0:0:
51,192,73885,1,0,0:0:0:0:
153,192,73985,1,0,0:0:0:0:
256,192,74085,1,0,0:0:0:0:
358,192,74185,1,0,0:0:0:0:
460,192,74285,1,0,0:0:0:0:
153,192,74385,1,8,0:0:0:0:
51,192,74460,1,8,0:0:0:0:
256,192,74535,1,8,0:0:0:0:
153,192,74610,1,8,0:0:0:0:
358,192,74685,1,8,0:0:0:0:
256,192,74760,1,8,0:0:0:0:
460,192,74835,1,8,0:0:0:0:
358,192,74910,1,8,0:0:0:0:
51,192,74985,128,0,75435:0:0:0:0:
153,192,74985,1,0,0:0:0:0:
460,192,75285,128,0,75435:0:0:0:0:
256,192,75435,1,2,0:0:0:0:
358,192,75510,1,2,0:0:0:0:
51,192,75585,1,2,0:0:0:0:
153,192,75585,1,4,0:0:0:0:
460,192,75585,1,0,0:0:0:0:
358,192,75735,1,2,0:0:0:0:
51,192,75885,1,0,0:0:0:50:LR4_SnareKKF.wav
256,192,75885,1,0,0:0:0:0:
460,192,75885,1,0,0:0:0:0:
153,192,76035,1,2,0:0:0:0:
358,192,76185,1,0,0:0:0:0:
51,192,76335,1,0,0:0:0:50:LR4_SnareKKF.wav
256,192,76335,1,0,0:0:0:0:
460,192,76335,1,0,0:0:0:0:
358,192,76485,1,2,0:0:0:0:
153,192,76560,1,2,0:0:0:0:
51,192,76635,1,0,0:0:0:50:LR4_SnareKKF.wav
256,192,76635,1,0,0:0:0:0:
460,192,76635,1,0,0:0:0:0:
51,192,76935,1,6,0:0:0:0:
153,192,77085,1,0,0:0:0:50:LR4_SnareKKF.wav
358,192,77085,1,0,0:0:0:0:
460,192,77085,1,0,0:0:0:0:
256,192,77235,1,6,0:0:0:0:
51,192,77385,1,0,0:0:0:0:
460,192,77535,1,6,0:0:0:0:
358,192,77610,1,2,0:0:0:0:
51,192,77685,1,0,0:0:0:50:LR4_SnareKKF.wav
153,192,77685,1,0,0:0:0:0:
256,192,77685,1,0,0:0:0:0:
358,192,77835,1,2,0:0:0:0:
153,192,77985,1,6,0:0:0:0:
358,192,78135,1,2,0:0:0:0:
51,192,78285,1,0,0:0:0:50:LR4_SnareKKF.wav
256,192,78285,1,0,0:0:0:0:
460,192,78285,1,0,0:0:0:0:
358,192,78435,1,2,0:0:0:0:
153,192,78585,1,0,0:0:0:0:
51,192,78735,1,0,0:0:0:50:LR4_SnareKKF.wav
256,192,78735,1,0,0:0:0:0:
460,192,78735,1,0,0:0:0:0:
153,192,78885,1,2,0:0:0:0:
256,192,78960,1,2,0:0:0:0:
51,192,79035,1,0,0:0:0:50:LR4_SnareKKF.wav
358,192,79035,1,0,0:0:0:0:
460,192,79035,1,0,0:0:0:0:
460,192,79335,1,6,0:0:0:0:
51,192,79485,1,0,0:0:0:50:LR4_SnareKKF.wav
153,192,79485,1,0,0:0:0:0:
358,192,79485,1,0,0:0:0:0:
256,192,79635,1,6,0:0:0:0:
51,192,79785,1,0,0:0:0:50:LR4_SnareKKF.wav
358,192,79785,1,0,0:0:0:0:
460,192,79785,1,0,0:0:0:0:
153,192,79935,1,6,0:0:0:0:
256,192,80010,1,2,0:0:0:0:
51,192,80085,1,2,0:0:0:0:
358,192,80085,1,0,0:0:0:0:
153,192,80235,1,0,0:0:0:50:LR4_SnareKKF.wav
256,192,80310,1,0,0:0:0:0:
51,192,80385,1,4,0:0:0:0:
358,192,80385,1,2,0:0:0:0:
460,192,80385,1,0,0:0:0:0:
256,192,80535,1,2,0:0:0:0:
51,192,80685,1,0,0:0:0:50:LR4_SnareKKF.wav
153,192,80685,1,0,0:0:0:0:
460,192,80685,1,0,0:0:0:0:
358,192,80835,1,2,0:0:0:0:
153,192,80985,1,0,0:0:0:0:
51,192,81135,1,0,0:0:0:50:LR4_SnareKKF.wav
358,192,81135,1,0,0:0:0:0:
460,192,81135,1,0,0:0:0:0:
256,192,81285,1,2,0:0:0:0:
153,192,81360,1,2,0:0:0:0:
51,192,81435,1,0,0:0:0:50:LR4_SnareKKF.wav
358,192,81435,1,0,0:0:0:0:
460,192,81435,1,0,0:0:0:0:
153,192,81735,1,6,0:0:0:0:
51,192,81885,1,0,0:0:0:50:LR4_SnareKKF.wav
358,192,81885,1,0,0:0:0:0:
460,192,81885,1,0,0:0:0:0:
256,192,82035,1,6,0:0:0:0:
153,192,82185,1,0,0:0:0:0:
460,192,82185,1,0,0:0:0:0:
358,192,82335,1,6,0:0:0:0:
153,192,82410,1,2,0:0:0:0:
51,192,82485,1,0,0:0:0:50:LR4_SnareKKF.wav
256,192,82485,1,0,0:0:0:0:
460,192,82485,1,0,0:0:0:0:
358,192,82635,1,2,0:0:0:0:
51,192,82785,1,4,0:0:0:0:
153,192,82785,1,2,0:0:0:0:
460,192,82785,1,0,0:0:0:0:
256,192,82935,1,2,0:0:0:0:
51,192,83085,1,0,0:0:0:50:LR4_SnareKKF.wav
358,192,83085,1,0,0:0:0:0:
460,192,83085,1,0,0:0:0:0:
153,192,83235,1,2,0:0:0:0:
256,192,83385,1,4,0:0:0:0:
460,192,83385,1,0,0:0:0:0:
51,192,83535,1,4,0:0:0:0:
358,192,83685,1,2,0:0:0:0:
460,192,83685,1,0,0:0:0:0:
256,192,83835,1,6,0:0:0:0:
153,192,83910,1,2,0:0:0:0:
51,192,83985,1,2,0:0:0:0:
358,192,83985,1,4,0:0:0:0:
460,192,83985,1,0,0:0:0:0:
51,192,84210,1,2,0:0:0:0:
358,192,84210,1,4,0:0:0:0:
460,192,84210,1,0,0:0:0:0:
153,192,84435,1,2,0:0:0:0:
256,192,84435,1,4,0:0:0:0:
460,192,84435,1,0,0:0:0:0:
51,192,84660,1,2,0:0:0:0:
153,192,84660,1,4,0:0:0:0:
358,192,84660,1,0,0:0:0:0:
256,192,84885,128,2,84960:0:0:0:0:
460,192,84885,1,4,0:0:0:0:
153,192,84960,128,0,85035:0:0:0:0:
358,192,85035,128,4,85110:0:0:0:0:
256,192,85110,128,2,85185:0:0:0:0:
153,192,85185,128,2,86385:0:0:0:0:
460,192,85185,1,4,0:0:0:0:
358,192,85485,1,2,0:0:0:0:
460,192,85485,1,8,0:0:0:0:
358,192,85785,1,2,0:0:0:0:
460,192,85785,1,0,0:0:0:0:
358,192,86085,1,2,0:0:0:0:
460,192,86085,1,8,0:0:0:0:
358,192,86385,1,2,0:0:0:0:
460,192,86385,1,0,0:0:0:0:
51,192,86535,128,0,86685:0:0:0:0:
256,192,86535,128,0,86685:0:0:0:0:
460,192,86685,128,10,86760:0:0:0:0:
153,192,86760,128,0,86835:0:0:0:0:
256,192,86835,128,0,86910:0:0:0:0:
358,192,86910,128,0,86985:0:0:0:0:
51,192,86985,128,2,87060:0:0:0:0:
153,192,87060,128,0,87135:0:0:0:0:
256,192,87135,128,0,87210:0:0:0:0:
460,192,87210,128,0,87285:0:0:0:0:
358,192,87285,128,10,87360:0:0:0:0:
256,192,87360,128,0,87435:0:0:0:0:
153,192,87435,128,0,87510:0:0:0:0:
51,192,87510,128,0,87585:0:0:0:0:
358,192,87585,128,6,87660:0:0:0:0:
153,192,87660,128,0,87735:0:0:0:0:
51,192,87735,128,0,87810:0:0:0:0:
460,192,87810,128,0,87885:0:0:0:0:
256,192,87885,128,10,87960:0:0:0:0:
153,192,87960,128,0,88035:0:0:0:0:
460,192,88035,128,0,88110:0:0:0:0:
358,192,88110,128,0,88185:0:0:0:0:
256,192,88185,128,2,88635:0:0:0:0:
51,192,88335,128,0,88635:0:0:0:0:
460,192,88335,128,0,88635:0:0:0:0:
153,192,88635,128,0,88935:0:0:0:0:
358,192,88635,128,0,88935:0:0:0:0:
51,192,88935,128,0,89235:0:0:0:0:
256,192,89085,128,10,89385:0:0:0:0:
460,192,89235,128,0,89535:0:0:0:0:
153,192,89385,128,2,89610:0:0:0:0:
256,192,89535,128,0,89685:0:0:0:0:
358,192,89610,128,2,89760:0:0:0:0:
460,192,89685,128,10,89985:0:0:0:0:
51,192,89835,128,2,89985:0:0:0:0:
153,192,89985,1,4,0:0:0:0:
256,192,89985,128,2,90585:0:0:0:0:
358,192,89985,1,0,0:0:0:0:
358,192,90285,1,8,0:0:0:0:
460,192,90285,1,2,0:0:0:0:
51,192,90585,128,2,90660:0:0:0:0:
460,192,90585,1,0,0:0:0:0:
153,192,90660,128,0,90735:0:0:0:0:
256,192,90735,128,2,90810:0:0:0:0:
358,192,90810,128,0,90885:0:0:0:0:
153,192,90885,128,10,90960:0:0:0:0:
256,192,90960,128,0,91035:0:0:0:0:
358,192,91035,128,2,91110:0:0:0:0:
460,192,91110,128,2,91185:0:0:0:0:
256,192,91185,128,6,91260:0:0:0:0:
153,192,91260,128,0,91335:0:0:0:0:
51,192,91335,128,2,91410:0:0:0:0:
358,192,91410,128,2,91485:0:0:0:0:
256,192,91485,128,10,91560:0:0:0:0:
153,192,91560,128,0,91635:0:0:0:0:
460,192,91635,128,2,91710:0:0:0:0:
358,192,91710,128,2,91785:0:0:0:0:
256,192,91785,128,2,92085:0:0:0:0:
51,192,91935,128,2,92085:0:0:0:0:
460,192,91935,128,0,92085:0:0:0:0:
153,192,92085,128,8,92385:0:0:0:0:
358,192,92085,128,2,92385:0:0:0:0:
51,192,92385,1,4,0:0:0:0:
460,192,92385,1,2,0:0:0:0:
256,192,92460,1,2,0:0:0:0:
153,192,92535,1,2,0:0:0:0:
358,192,92610,1,2,0:0:0:0:
256,192,92685,1,10,0:0:0:0:
460,192,92760,1,2,0:0:0:0:
358,192,92835,1,2,0:0:0:0:
256,192,92910,1,2,0:0:0:0:
51,192,92985,1,2,0:0:0:0:
153,192,92985,1,4,0:0:0:0:
358,192,93060,1,2,0:0:0:0:
460,192,93135,1,2,0:0:0:0:
256,192,93210,1,2,0:0:0:0:
358,192,93285,1,2,0:0:0:0:
153,192,93360,1,2,0:0:0:0:
256,192,93435,1,2,0:0:0:0:
51,192,93510,1,2,0:0:0:0:
153,192,93585,1,2,0:0:0:0:
358,192,93585,1,4,0:0:0:0:
460,192,93585,1,0,0:0:0:0:
153,192,93810,1,2,0:0:0:0:
358,192,93810,1,4,0:0:0:0:
460,192,93810,1,0,0:0:0:0:
153,192,94035,1,2,0:0:0:0:
358,192,94035,1,4,0:0:0:0:
460,192,94035,1,0,0:0:0:0:
51,192,94260,1,2,0:0:0:0:
153,192,94260,1,4,0:0:0:0:
358,192,94260,1,0,0:0:0:0:
256,192,94485,1,2,0:0:0:0:
460,192,94485,1,4,0:0:0:0:
153,192,94560,1,2,0:0:0:0:
358,192,94635,1,6,0:0:0:0:
256,192,94710,1,2,0:0:0:0:
51,192,94785,1,2,0:0:0:0:
153,192,94785,1,4,0:0:0:0:
51,192,94935,1,2,0:0:0:0:
153,192,94935,1,4,0:0:0:0:
358,192,95085,1,8,0:0:0:0:
460,192,95085,1,0,0:0:0:50:LR4_SnareKKF.wav
51,192,95160,1,8,0:0:0:0:
153,192,95235,1,8,0:0:0:0:
256,192,95310,1,8,0:0:0:0:
51,192,95385,1,10,0:0:0:0:
358,192,95385,1,4,0:0:0:0:
153,192,95460,1,8,0:0:0:0:
256,192,95535,1,8,0:0:0:0:
358,192,95610,1,8,0:0:0:0:
153,192,95685,1,8,0:0:0:0:
256,192,95760,1,8,0:0:0:0:
358,192,95835,1,10,0:0:0:0:
460,192,95835,1,4,0:0:0:0:
51,192,96135,1,10,0:0:0:0:
256,192,96135,1,4,0:0:0:0:
51,192,96285,1,10,0:0:0:0:
256,192,96285,1,4,0:0:0:0:
460,192,96360,1,8,0:0:0:0:
358,192,96435,1,8,0:0:0:0:
256,192,96510,1,8,0:0:0:0:
51,192,96585,1,10,0:0:0:0:
153,192,96585,1,4,0:0:0:0:
256,192,96660,1,8,0:0:0:0:
358,192,96735,1,14,0:0:0:0:
460,192,96810,1,8,0:0:0:0:
51,192,96885,1,14,0:0:0:0:
153,192,96960,1,8,0:0:0:0:
358,192,97035,1,10,0:0:0:0:
460,192,97110,1,8,0:0:0:0:
51,192,97385,1,2,0:0:0:0:
153,192,97385,1,4,0:0:0:0:
358,192,97385,1,0,0:0:0:0:
51,192,97585,1,2,0:0:0:0:
358,192,97585,1,4,0:0:0:0:
153,192,97785,1,2,0:0:0:0:
256,192,97785,1,4,0:0:0:0:
460,192,97785,1,0,0:0:0:0:
51,192,97985,1,2,0:0:0:0:
153,192,97985,1,4,0:0:0:0:
358,192,97985,1,0,0:0:0:0:
51,192,98185,1,2,0:0:0:0:
358,192,98185,1,4,0:0:0:0:
153,192,98385,1,2,0:0:0:0:
256,192,98385,1,4,0:0:0:0:
460,192,98385,1,0,0:0:0:0:
256,192,98585,1,2,0:0:0:0:
460,192,98585,1,4,0:0:0:0:
51,192,98785,1,4,0:0:0:0:
153,192,98785,1,2,0:0:0:0:
358,192,98785,1,0,0:0:0:0:
153,192,98985,1,2,0:0:0:0:
358,192,98985,1,4,0:0:0:0:
51,192,99185,1,2,0:0:0:0:
256,192,99185,1,4,0:0:0:0:
460,192,99185,1,0,0:0:0:0:
51,192,99385,1,2,0:0:0:0:
256,192,99385,1,4,0:0:0:0:
358,192,99585,1,2,0:0:0:0:
460,192,99585,1,4,0:0:0:0:
358,192,99735,1,2,0:0:0:0:
460,192,99735,1,4,0:0:0:0:
51,192,99885,1,8,0:0:0:0:
256,192,99885,1,0,0:0:0:0:
358,192,99960,1,8,0:0:0:0:
153,192,100035,1,8,0:0:0:0:
256,192,100110,1,8,0:0:0:0:
51,192,100185,1,10,0:0:0:0:
460,192,100185,1,4,0:0:0:0:
358,192,100260,1,8,0:0:0:0:
153,192,100335,1,8,0:0:0:0:
51,192,100410,1,8,0:0:0:0:
358,192,100485,1,8,0:0:0:0:
153,192,100560,1,8,0:0:0:0:
256,192,100635,1,10,0:0:0:0:
460,192,100635,1,4,0:0:0:0:
153,192,100935,1,2,0:0:0:0:
358,192,100935,1,4,0:0:0:0:
153,192,101085,128,2,101385:0:0:0:0:
358,192,101085,128,4,101385:0:0:0:0:
51,192,101385,1,10,0:0:0:0:
460,192,101385,1,4,0:0:0:0:
153,192,101460,1,8,0:0:0:0:
256,192,101535,1,14,0:0:0:0:
358,192,101610,1,8,0:0:0:0:
51,192,101685,1,10,0:0:0:0:
460,192,101685,1,4,0:0:0:0:
358,192,101760,1,8,0:0:0:0:
256,192,101835,1,8,0:0:0:0:
153,192,101910,1,8,0:0:0:0:
51,192,101985,1,2,0:0:0:0:
460,192,101985,1,4,0:0:0:0:
153,192,102135,1,2,0:0:0:0:
358,192,102135,1,0,0:0:0:0:
153,192,102285,128,6,102585:0:0:0:0:
358,192,102285,128,8,102585:0:0:0:0:
51,192,102585,1,2,0:0:0:0:
460,192,102585,1,4,0:0:0:0:
153,192,102660,1,0,0:0:0:0:
256,192,102735,1,2,0:0:0:0:
358,192,102810,1,2,0:0:0:0:
51,192,102885,1,10,0:0:0:0:
153,192,102885,1,4,0:0:0:0:
256,192,102960,1,0,0:0:0:0:
358,192,103035,1,2,0:0:0:0:
460,192,103110,1,2,0:0:0:0:
51,192,103185,1,2,0:0:0:0:
358,192,103185,1,4,0:0:0:0:
256,192,103260,1,0,0:0:0:0:
153,192,103335,1,2,0:0:0:0:
51,192,103410,1,2,0:0:0:0:
358,192,103485,1,10,0:0:0:0:
460,192,103485,1,4,0:0:0:0:
358,192,103635,128,10,103935:0:0:0:0:
460,192,103635,128,4,103935:0:0:0:0:
51,192,103935,128,2,104010:0:0:0:0:
256,192,103935,128,0,104010:0:0:0:0:
153,192,104085,128,10,104160:0:0:0:0:
358,192,104085,128,4,104160:0:0:0:0:
256,192,104235,128,2,104310:0:0:0:0:
460,192,104235,128,0,104310:0:0:0:0:
51,192,104385,128,2,104685:0:0:0:0:
153,192,104385,128,4,104685:0:0:0:0:
358,192,104685,1,10,0:0:0:0:
460,192,104685,1,4,0:0:0:0:
153,192,104760,1,0,0:0:0:0:
256,192,104835,1,2,0:0:0:0:
358,192,104910,1,2,0:0:0:0:
51,192,104985,1,2,0:0:0:0:
460,192,104985,1,4,0:0:0:0:
153,192,105060,1,0,0:0:0:0:
256,192,105135,1,2,0:0:0:0:
358,192,105210,1,2,0:0:0:0:
51,192,105285,1,10,0:0:0:0:
460,192,105285,1,4,0:0:0:0:
256,192,105360,1,2,0:0:0:0:
358,192,105435,1,2,0:0:0:0:
153,192,105510,1,2,0:0:0:0:
256,192,105585,1,2,0:0:0:0:
460,192,105585,1,4,0:0:0:0:
51,192,105660,1,2,0:0:0:0:
358,192,105735,1,2,0:0:0:0:
256,192,105810,1,2,0:0:0:0:
153,192,105885,1,2,0:0:0:0:
460,192,105885,1,4,0:0:0:0:
358,192,105960,1,2,0:0:0:0:
256,192,106035,1,2,0:0:0:0:
460,192,106110,1,2,0:0:0:0:
153,192,106185,1,2,0:0:0:0:
358,192,106185,1,4,0:0:0:0:
51,192,106260,1,0,0:0:0:0:
256,192,106335,1,2,0:0:0:0:
153,192,106410,1,0,0:0:0:0:
51,192,106485,1,4,0:0:0:0:
460,192,106485,1,0,0:0:0:50:LR4_SnareKKF.wav
153,192,106635,1,2,0:0:0:0:
256,192,106635,1,4,0:0:0:0:
358,192,106635,1,0,0:0:0:0:
