osu file format v14

[General]
AudioFilename: audio.mp3
AudioLeadIn: 0
PreviewTime: 51435
Countdown: 0
SampleSet: Soft
StackLeniency: 0.7
Mode: 3
LetterboxInBreaks: 0
SpecialStyle: 0
WidescreenStoryboard: 1

[Editor]
DistanceSpacing: 0.8
BeatDivisor: 4
GridSize: 32
TimelineZoom: 3.099997

[Metadata]
Title:Solar Storm
TitleUnicode:Solar Storm
Artist:xi
ArtistUnicode:xi
Creator:Kyousuke-
Version:BASIC
Source:GROOVE COASTER 2 HEAVENLY FESTIVAL
Tags:Arcade Evolved Chronicles DVSP-0169 Comic Market comiket C91 Yusuke Ishiwata グルーヴコースター TENKAICHI Pack ORIGINAL STYLE SOUNDTRACK BOOST TEAM ZUNTATA TAITO 第二回天下一音ゲ祭 _VianK_ FAMoss Instrumental Video Game Electronic VOLTEX III GRAVITY WARS sdvx 3 BEMANI KONAMI
BeatmapID:2284219
BeatmapSetID:1088476

[Difficulty]
HPDrainRate:7
CircleSize:5
OverallDifficulty:6.5
ApproachRate:5
SliderMultiplier:1.4
SliderTickRate:1

[Events]
//Background and Video events
0,0,"bg.jpg",0,0
//Break Periods
//Storyboard Layer 0 (Background)
//Storyboard Layer 1 (Fail)
//Storyboard Layer 2 (Pass)
//Storyboard Layer 3 (Foreground)
//Storyboard Layer 4 (Overlay)
//Storyboard Sound Samples
Sample,27885,0,"LR4_SnareKKF.wav",50
Sample,28335,0,"LR4_SnareKKF.wav",50
Sample,83535,0,"LR4_SnareKKF.wav",50
Sample,106485,0,"LR4_SnareKKF.wav",50

[TimingPoints]
1185,300,4,2,1,50,1,0
32535,-100,4,2,1,30,0,0
41985,-100,4,2,1,40,0,0
51585,-100,4,2,1,50,0,1
61185,-100,4,2,1,50,0,0
68385,-100,4,2,1,50,0,1
73185,-100,4,2,1,50,0,0
74385,-100,4,2,1,20,0,0
75060,-100,4,2,1,50,0,0
85185,-100,4,2,1,50,0,1
94785,-100,4,2,1,50,0,0
102135,-100,4,2,1,50,0,1
106485,-100,4,2,1,50,0,0

[HitObjects]
153,192,1185,5,6,0:0:0:0:
51,192,1335,1,6,0:0:0:0:
358,192,1785,1,6,0:0:0:0:
460,192,1935,1,6,0:0:0:0:
51,192,2385,1,6,0:0:0:0:
153,192,2535,1,6,0:0:0:0:
460,192,2985,1,6,0:0:0:0:
358,192,3135,1,6,0:0:0:0:
51,192,3585,1,6,0:0:0:0:
256,192,3735,1,6,0:0:0:0:
153,192,4185,1,6,0:0:0:0:
358,192,4335,1,6,0:0:0:0:
256,192,4785,1,6,0:0:0:0:
460,192,4935,1,6,0:0:0:0:
358,192,5385,128,14,5685:0:0:0:0:
51,192,5685,128,14,5985:0:0:0:0:
153,192,5985,1,2,0:0:0:0:
256,192,5985,1,4,0:0:0:0:
460,192,6285,1,8,0:0:0:0:
153,192,6585,1,6,0:0:0:0:
358,192,6885,1,8,0:0:0:0:
51,192,7185,128,6,7485:0:0:0:0:
358,192,7485,128,6,7785:0:0:0:0:
153,192,7785,128,14,8085:0:0:0:0:
460,192,8085,128,14,8385:0:0:0:0:
256,192,8385,1,2,0:0:0:0:
358,192,8385,1,4,0:0:0:0:
51,192,8685,128,0,10185:0:0:0:0:
256,192,10485,128,2,10785:0:0:0:0:
51,192,10785,1,2,0:0:0:0:
153,192,10785,1,4,0:0:0:0:
358,192,11085,1,0,0:0:0:0:
460,192,11385,1,0,0:0:0:0:
256,192,11535,1,0,0:0:0:0:
51,192,11835,1,0,0:0:0:0:
153,192,12135,1,0,0:0:0:0:
460,192,12435,1,0,0:0:0:0:
358,192,12735,1,0,0:0:0:0:
256,192,12885,1,0,0:0:0:0:
153,192,13035,1,0,0:0:0:0:
51,192,13185,1,2,0:0:0:0:
460,192,13485,1,0,0:0:0:0:
153,192,13785,1,0,0:0:0:0:
358,192,13935,1,0,0:0:0:0:
256,192,14235,1,0,0:0:0:0:
153,192,14535,1,0,0:0:0:0:
51,192,14835,1,0,0:0:0:0:
358,192,15135,128,2,15585:0:0:0:0:
51,192,15585,1,4,0:0:0:0:
460,192,15585,1,2,0:0:0:0:
256,192,15885,1,0,0:0:0:0:
153,192,16185,1,0,0:0:0:0:
358,192,16335,1,0,0:0:0:0:
51,192,16635,1,0,0:0:0:0:
256,192,16935,1,0,0:0:0:0:
460,192,17235,1,0,0:0:0:0:
358,192,17535,1,0,0:0:0:0:
256,192,17685,1,0,0:0:0:0:
153,192,17835,1,0,0:0:0:0:
51,192,17985,1,2,0:0:0:0:
358,192,18285,1,0,0:0:0:0:
153,192,18585,1,0,0:0:0:0:
256,192,18735,1,0,0:0:0:0:
460,192,18885,1,0,0:0:0:50:LR4_SnareKKF.wav
51,192,19035,1,6,0:0:0:0:
358,192,19335,1,6,0:0:0:0:
153,192,19635,1,6,0:0:0:0:
256,192,19935,128,2,20385:0:0:0:0:
51,192,20385,1,2,0:0:0:0:
460,192,20385,1,4,0:0:0:0:
153,192,20685,1,0,0:0:0:50:LR4_SnareKKF.wav
358,192,20985,1,0,0:0:0:0:
460,192,21135,1,0,0:0:0:50:LR4_SnareKKF.wav
256,192,21435,1,0,0:0:0:50:LR4_SnareKKF.wav
153,192,21735,1,2,0:0:0:0:
51,192,22035,1,2,0:0:0:0:
256,192,22335,1,2,0:0:0:0:
460,192,22485,1,0,0:0:0:50:LR4_SnareKKF.wav
153,192,22635,1,2,0:0:0:0:
358,192,22785,1,2,0:0:0:0:
51,192,23085,1,0,0:0:0:50:LR4_SnareKKF.wav
153,192,23385,1,0,0:0:0:0:
256,192,23535,1,0,0:0:0:50:LR4_SnareKKF.wav
460,192,23835,1,0,0:0:0:50:LR4_SnareKKF.wav
358,192,24135,1,2,0:0:0:0:
256,192,24435,1,2,0:0:0:0:
51,192,24735,1,2,0:0:0:0:
358,192,24885,1,2,0:0:0:0:
256,192,25035,1,0,0:0:0:50:LR4_SnareKKF.wav
153,192,25185,1,2,0:0:0:0:
460,192,25185,1,4,0:0:0:0:
51,192,25485,1,0,0:0:0:50:LR4_SnareKKF.wav
256,192,25785,1,0,0:0:0:0:
358,192,25935,1,0,0:0:0:50:LR4_SnareKKF.wav
153,192,26235,1,4,0:0:0:0:
460,192,26235,1,0,0:0:0:50:LR4_SnareKKF.wav
256,192,26535,1,2,0:0:0:0:
358,192,26835,1,2,0:0:0:0:
460,192,27135,1,2,0:0:0:0:
153,192,27285,1,0,0:0:0:50:LR4_SnareKKF.wav
256,192,27435,1,2,0:0:0:0:
51,192,27585,1,2,0:0:0:0:
358,192,27585,1,4,0:0:0:0:
153,192,27885,1,4,0:0:0:0:
256,192,28185,1,4,0:0:0:0:
51,192,28335,1,4,0:0:0:0:
460,192,28485,128,2,28785:0:0:0:0:
153,192,28785,1,6,0:0:0:0:
358,192,29010,1,6,0:0:0:0:
51,192,29235,1,6,0:0:0:0:
256,192,29460,1,6,0:0:0:0:
460,192,29685,1,6,0:0:0:0:
358,192,29835,1,6,0:0:0:0:
51,192,29985,1,2,0:0:0:0:
256,192,29985,128,4,32085:0:0:0:0:
358,192,32085,1,0,0:0:0:50:LR4_SnareKKF.wav
460,192,32235,1,2,0:0:0:0:
51,192,32385,128,2,32985:0:0:0:0:
153,192,32385,1,4,0:0:0:0:
256,192,32985,128,0,33585:0:0:0:0:
460,192,33585,128,0,34485:0:0:0:0:
153,192,34485,1,0,0:0:0:0:
51,192,34785,1,0,0:0:0:0:
358,192,35085,1,0,0:0:0:0:
256,192,35385,1,0,0:0:0:0:
153,192,35685,1,0,0:0:0:0:
460,192,35985,128,0,36585:0:0:0:0:
256,192,36585,128,0,37185:0:0:0:0:
51,192,37185,128,0,37785:0:0:0:0:
153,192,37785,128,0,38385:0:0:0:0:
256,192,38385,128,0,39285:0:0:0:0:
460,192,39285,1,0,0:0:0:0:
358,192,39585,1,0,0:0:0:0:
51,192,39885,1,0,0:0:0:0:
153,192,40185,1,0,0:0:0:0:
256,192,40485,1,0,0:0:0:0:
358,192,40785,128,0,41385:0:0:0:0:
460,192,41385,128,0,41985:0:0:0:0:
51,192,41985,1,2,0:0:0:0:
153,192,41985,1,4,0:0:0:0:
358,192,42322,128,0,43147:0:0:0:0:
153,192,43147,1,0,0:0:0:0:
153,192,43522,128,0,44347:0:0:0:0:
358,192,44347,1,0,0:0:0:0:
460,192,44735,128,0,45560:0:0:0:0:
51,192,45560,1,0,0:0:0:0:
51,192,45860,128,0,46785:0:0:0:0:
358,192,46785,1,6,0:0:0:0:
460,192,46785,1,8,0:0:0:0:
256,192,47085,1,8,0:0:0:0:
153,192,47385,128,8,47985:0:0:0:0:
358,192,47685,1,8,0:0:0:0:
51,192,47985,1,12,0:0:0:0:
460,192,47985,1,2,0:0:0:0:
256,192,48285,1,8,0:0:0:0:
358,192,48585,128,8,49185:0:0:0:0:
153,192,48885,1,8,0:0:0:0:
51,192,49185,1,10,0:0:0:0:
460,192,49185,1,4,0:0:0:0:
358,192,49485,1,8,0:0:0:0:
256,192,49785,128,12,50385:0:0:0:0:
153,192,50385,1,14,0:0:0:0:
358,192,50685,1,12,0:0:0:0:
153,192,50985,1,12,0:0:0:0:
358,192,51285,1,0,0:0:0:70:LR4_SnareKKF.wav
51,192,51585,1,2,0:0:0:0:
460,192,51585,1,4,0:0:0:0:
256,192,51885,1,2,0:0:0:0:
358,192,52185,1,2,0:0:0:0:
460,192,52485,1,2,0:0:0:0:
256,192,52635,1,0,0:0:0:0:
51,192,52785,1,2,0:0:0:0:
153,192,53085,1,2,0:0:0:0:
460,192,53385,1,2,0:0:0:0:
358,192,53685,1,2,0:0:0:0:
256,192,53985,1,2,0:0:0:0:
51,192,54285,128,2,54585:0:0:0:0:
460,192,54585,1,2,0:0:0:0:
358,192,54885,128,2,55185:0:0:0:0:
153,192,55185,1,2,0:0:0:0:
256,192,55485,1,2,0:0:0:0:
358,192,55785,1,2,0:0:0:0:
153,192,56085,1,2,0:0:0:0:
51,192,56385,1,2,0:0:0:0:
256,192,56535,1,0,0:0:0:0:
460,192,56685,1,2,0:0:0:0:
358,192,56985,1,2,0:0:0:0:
153,192,57285,128,2,57585:0:0:0:0:
256,192,57585,1,2,0:0:0:0:
460,192,57885,1,2,0:0:0:0:
358,192,58185,1,2,0:0:0:0:
256,192,58485,1,2,0:0:0:0:
153,192,58785,1,2,0:0:0:0:
358,192,59085,128,2,59385:0:0:0:0:
51,192,59385,1,2,0:0:0:0:
153,192,59685,128,2,59985:0:0:0:0:
460,192,59985,1,6,0:0:0:0:
358,192,60210,1,6,0:0:0:0:
51,192,60435,1,6,0:0:0:0:
153,192,60660,1,6,0:0:0:0:
256,192,60885,128,6,61185:0:0:0:0:
51,192,61185,1,2,0:0:0:0:
153,192,61185,1,4,0:0:0:0:
460,192,61335,1,6,0:0:0:0:
256,192,61635,1,0,0:0:0:50:LR4_SnareKKF.wav
153,192,61935,1,0,0:0:0:50:LR4_SnareKKF.wav
358,192,62085,1,6,0:0:0:0:
153,192,62235,1,6,0:0:0:0:
256,192,62535,1,0,0:0:0:50:LR4_SnareKKF.wav
460,192,62835,1,2,0:0:0:0:
51,192,62985,1,6,0:0:0:0:
460,192,63135,1,6,0:0:0:0:
153,192,63285,1,0,0:0:0:50:LR4_SnareKKF.wav
358,192,63585,1,2,0:0:0:0:
460,192,63585,1,4,0:0:0:0:
51,192,63735,1,6,0:0:0:0:
256,192,64035,1,0,0:0:0:50:LR4_SnareKKF.wav
358,192,64335,1,0,0:0:0:50:LR4_SnareKKF.wav
153,192,64485,1,6,0:0:0:0:
358,192,64635,1,6,0:0:0:0:
256,192,64935,1,0,0:0:0:50:LR4_SnareKKF.wav
51,192,65235,1,0,0:0:0:50:LR4_SnareKKF.wav
460,192,65385,1,6,0:0:0:0:
51,192,65535,1,6,0:0:0:0:
358,192,65685,1,0,0:0:0:50:LR4_SnareKKF.wav
51,192,65985,1,2,0:0:0:0:
153,192,65985,1,4,0:0:0:0:
460,192,66135,1,4,0:0:0:0:
256,192,66285,1,2,0:0:0:0:
51,192,66585,1,2,0:0:0:0:
358,192,66885,1,2,0:0:0:0:
460,192,66885,1,4,0:0:0:0:
153,192,67035,1,6,0:0:0:0:
256,192,67185,1,2,0:0:0:0:
358,192,67485,1,2,0:0:0:0:
51,192,67785,1,2,0:0:0:0:
153,192,67785,1,4,0:0:0:0:
460,192,67935,1,14,0:0:0:0:
256,192,68085,1,2,0:0:0:0:
460,192,68385,128,6,68685:0:0:0:0:
358,192,68685,128,6,68985:0:0:0:0:
51,192,68985,128,6,69285:0:0:0:0:
153,192,69285,128,6,69585:0:0:0:0:
256,192,69585,128,6,69885:0:0:0:0:
460,192,69885,128,6,70185:0:0:0:0:
153,192,70185,128,6,70485:0:0:0:0:
358,192,70485,128,6,70785:0:0:0:0:
51,192,70785,128,6,71085:0:0:0:0:
460,192,71085,128,6,71385:0:0:0:0:
153,192,71385,128,6,71685:0:0:0:0:
358,192,71685,128,6,71985:0:0:0:0:
256,192,71985,128,6,72285:0:0:0:0:
51,192,72285,128,6,72585:0:0:0:0:
460,192,72585,128,6,72885:0:0:0:0:
256,192,72885,128,6,73185:0:0:0:0:
51,192,73185,1,6,0:0:0:0:
358,192,73485,128,0,74385:0:0:0:0:
153,192,74385,128,8,74985:0:0:0:0:
256,192,74985,1,0,0:0:0:0:
358,192,75285,1,0,0:0:0:0:
51,192,75585,1,2,0:0:0:0:
460,192,75585,1,4,0:0:0:0:
256,192,75885,1,0,0:0:0:50:LR4_SnareKKF.wav
358,192,76185,1,0,0:0:0:0:
51,192,76335,1,0,0:0:0:50:LR4_SnareKKF.wav
460,192,76635,1,0,0:0:0:50:LR4_SnareKKF.wav
256,192,76935,1,6,0:0:0:0:
153,192,77085,128,0,77385:0:0:0:50:LR4_SnareKKF.wav
460,192,77385,128,0,77685:0:0:0:0:
51,192,77685,128,0,77985:0:0:0:50:LR4_SnareKKF.wav
153,192,77985,1,6,0:0:0:0:
460,192,78285,1,0,0:0:0:50:LR4_SnareKKF.wav
256,192,78585,1,0,0:0:0:0:
51,192,78735,1,0,0:0:0:50:LR4_SnareKKF.wav
358,192,79035,1,0,0:0:0:50:LR4_SnareKKF.wav
256,192,79335,1,6,0:0:0:0:
460,192,79485,128,0,79785:0:0:0:50:LR4_SnareKKF.wav
51,192,79785,128,0,80085:0:0:0:50:LR4_SnareKKF.wav
358,192,80085,128,2,80385:0:0:0:0:
153,192,80385,1,4,0:0:0:0:
256,192,80385,1,2,0:0:0:0:
51,192,80685,1,0,0:0:0:50:LR4_SnareKKF.wav
358,192,80985,1,0,0:0:0:0:
460,192,81135,1,0,0:0:0:50:LR4_SnareKKF.wav
153,192,81435,1,0,0:0:0:50:LR4_SnareKKF.wav
256,192,81735,1,6,0:0:0:0:
51,192,81885,128,0,82185:0:0:0:50:LR4_SnareKKF.wav
358,192,82185,128,0,82485:0:0:0:0:
153,192,82485,128,0,82785:0:0:0:50:LR4_SnareKKF.wav
51,192,82785,1,4,0:0:0:0:
460,192,82785,1,2,0:0:0:0:
358,192,83085,1,0,0:0:0:50:LR4_SnareKKF.wav
153,192,83385,1,4,0:0:0:0:
256,192,83535,1,4,0:0:0:0:
460,192,83835,1,6,0:0:0:0:
51,192,83985,1,6,0:0:0:0:
153,192,84210,1,6,0:0:0:0:
256,192,84435,1,6,0:0:0:0:
358,192,84660,1,6,0:0:0:0:
460,192,84885,128,6,85185:0:0:0:0:
51,192,85185,1,6,0:0:0:0:
358,192,85485,1,10,0:0:0:0:
153,192,85785,1,2,0:0:0:0:
460,192,86085,1,10,0:0:0:0:
256,192,86385,1,2,0:0:0:0:
51,192,86685,1,10,0:0:0:0:
153,192,86985,1,2,0:0:0:0:
256,192,87285,1,10,0:0:0:0:
358,192,87585,1,2,0:0:0:0:
460,192,87585,1,4,0:0:0:0:
256,192,87885,1,10,0:0:0:0:
51,192,88185,1,2,0:0:0:0:
153,192,88335,128,0,88635:0:0:0:0:
460,192,88635,1,0,0:0:0:0:
256,192,88935,1,0,0:0:0:0:
51,192,89085,1,10,0:0:0:0:
358,192,89235,1,0,0:0:0:0:
153,192,89385,1,2,0:0:0:0:
256,192,89685,1,10,0:0:0:0:
51,192,89985,1,4,0:0:0:0:
460,192,89985,1,2,0:0:0:0:
358,192,90285,1,10,0:0:0:0:
256,192,90585,128,2,90885:0:0:0:0:
153,192,90885,128,10,91185:0:0:0:0:
460,192,91185,128,6,91485:0:0:0:0:
358,192,91485,128,10,91785:0:0:0:0:
51,192,91785,128,2,92085:0:0:0:0:
256,192,92085,128,10,92385:0:0:0:0:
460,192,92385,128,6,92685:0:0:0:0:
153,192,92685,128,10,92985:0:0:0:0:
51,192,92985,128,6,93285:0:0:0:0:
358,192,93285,1,2,0:0:0:0:
153,192,93435,1,2,0:0:0:0:
256,192,93585,1,6,0:0:0:0:
358,192,93810,1,6,0:0:0:0:
51,192,94035,1,6,0:0:0:0:
256,192,94260,1,6,0:0:0:0:
460,192,94485,128,6,94785:0:0:0:0:
153,192,94785,1,6,0:0:0:0:
51,192,94935,1,6,0:0:0:0:
256,192,95385,1,14,0:0:0:0:
460,192,95835,1,14,0:0:0:0:
358,192,96135,1,14,0:0:0:0:
153,192,96285,1,14,0:0:0:0:
256,192,96585,128,14,96885:0:0:0:0:
460,192,96885,128,14,97185:0:0:0:0:
153,192,97385,1,6,0:0:0:0:
358,192,97585,1,6,0:0:0:0:
51,192,97785,128,6,98185:0:0:0:0:
460,192,98185,1,6,0:0:0:0:
256,192,98385,128,6,98785:0:0:0:0:
153,192,98785,1,6,0:0:0:0:
460,192,98985,128,6,99385:0:0:0:0:
358,192,99385,1,6,0:0:0:0:
51,192,99585,1,6,0:0:0:0:
153,192,99735,1,6,0:0:0:0:
256,192,100185,1,14,0:0:0:0:
460,192,100635,1,14,0:0:0:0:
358,192,100935,1,6,0:0:0:0:
153,192,101085,1,6,0:0:0:0:
256,192,101385,128,14,101685:0:0:0:0:
51,192,101685,128,14,101985:0:0:0:0:
358,192,101985,1,2,0:0:0:0:
460,192,101985,1,4,0:0:0:0:
153,192,102135,1,2,0:0:0:0:
256,192,102285,1,14,0:0:0:0:
460,192,102585,1,6,0:0:0:0:
51,192,102885,1,14,0:0:0:0:
358,192,103185,1,6,0:0:0:0:
153,192,103485,1,14,0:0:0:0:
256,192,103635,128,14,104085:0:0:0:0:
358,192,104085,1,14,0:0:0:0:
51,192,104385,1,6,0:0:0:0:
460,192,104685,1,14,0:0:0:0:
153,192,104985,1,6,0:0:0:0:
256,192,105285,1,14,0:0:0:0:
460,192,105585,1,6,0:0:0:0:
51,192,105885,1,6,0:0:0:0:
358,192,106185,1,6,0:0:0:0:
256,192,106485,1,4,0:0:0:0:
51,192,106635,1,2,0:0:0:0:
460,192,106635,1,4,0:0:0:0:
