osu file format v14

[General]
AudioFilename: audio.mp3
AudioLeadIn: 0
PreviewTime: 51428
Countdown: 0
SampleSet: None
StackLeniency: 0.7
Mode: 3
LetterboxInBreaks: 0
SpecialStyle: 0
WidescreenStoryboard: 1

[Editor]
Bookmarks: 50378
DistanceSpacing: 1.2
BeatDivisor: 4
GridSize: 32
TimelineZoom: 1.6

[Metadata]
Title:Solar Storm
TitleUnicode:Solar Storm
Artist:xi
ArtistUnicode:xi
Creator:DustMoon
Version:Easy
Source:GROOVE COASTER 2 HEAVENLY FESTIVAL
Tags:TAITO 3 LINK FEVER original
BeatmapID:1578902
BeatmapSetID:747277

[Difficulty]
HPDrainRate:7
CircleSize:4
OverallDifficulty:7
ApproachRate:5
SliderMultiplier:1.4
SliderTickRate:1

[Events]
//Background and Video events
0,0,"Another.jpg",0,0
//Break Periods
//Storyboard Layer 0 (Background)
//Storyboard Layer 1 (Fail)
//Storyboard Layer 2 (Pass)
//Storyboard Layer 3 (Foreground)
//Storyboard Sound Samples

[TimingPoints]
1178,300,4,2,1,20,1,0

[HitObjects]
448,192,1178,5,4,0:0:0:0:
64,192,1328,1,4,0:0:0:0:
64,192,1778,1,4,0:0:0:0:
448,192,1928,1,4,0:0:0:0:
192,192,2378,1,4,0:0:0:0:
448,192,2528,1,4,0:0:0:0:
320,192,2978,1,4,0:0:0:0:
64,192,3128,1,4,0:0:0:0:
192,192,3578,1,4,0:0:0:0:
320,192,3728,1,4,0:0:0:0:
320,192,4178,1,4,0:0:0:0:
192,192,4328,1,4,0:0:0:0:
448,192,4778,1,4,0:0:0:0:
64,192,4928,1,4,0:0:0:0:
192,192,5378,128,8,5678:0:0:0:0:
320,192,5678,128,8,5978:0:0:0:0:
448,192,5978,128,4,7178:0:0:0:0:
64,192,6578,1,4,0:0:0:0:
320,192,7178,1,4,0:0:0:0:
64,192,7478,1,4,0:0:0:0:
448,192,7778,1,4,0:0:0:0:
320,192,8078,1,4,0:0:0:0:
192,192,8378,1,4,0:0:0:0:
64,192,8678,128,2,10178:0:0:0:0:
448,192,10328,1,2,0:0:0:0:
320,192,10478,1,2,0:0:0:0:
64,192,10628,1,2,0:0:0:0:
192,192,10778,1,4,0:0:0:0:
448,192,11078,1,0,0:0:0:0:
64,192,11378,1,0,0:0:0:0:
320,192,11528,1,0,0:0:0:0:
192,192,11828,1,0,0:0:0:0:
448,192,12128,1,0,0:0:0:0:
320,192,12428,1,0,0:0:0:0:
64,192,12728,1,0,0:0:0:0:
192,192,12878,1,0,0:0:0:0:
320,192,13028,1,0,0:0:0:0:
448,192,13178,1,8,0:0:0:0:
192,192,13478,1,0,0:0:0:0:
320,192,13778,1,0,0:0:0:0:
64,192,13928,1,0,0:0:0:0:
448,192,14228,1,0,0:0:0:0:
320,192,14528,1,0,0:0:0:0:
192,192,14828,1,0,0:0:0:0:
64,192,15128,128,2,15578:0:0:0:0:
448,192,15578,1,4,0:0:0:0:
192,192,15878,1,0,0:0:0:0:
64,192,16178,1,0,0:0:0:0:
448,192,16328,1,0,0:0:0:0:
320,192,16628,1,0,0:0:0:0:
192,192,16928,1,8,0:0:0:0:
64,192,17228,1,0,0:0:0:0:
320,192,17528,1,0,0:0:0:0:
192,192,17678,1,0,0:0:0:0:
448,192,17828,1,0,0:0:0:0:
64,192,17978,1,8,0:0:0:0:
320,192,18278,1,0,0:0:0:0:
192,192,18578,1,0,0:0:0:0:
64,192,18728,1,0,0:0:0:0:
448,192,19028,1,4,0:0:0:0:
320,192,19328,1,4,0:0:0:0:
192,192,19628,1,4,0:0:0:0:
64,192,19928,128,2,20378:0:0:0:0:
448,192,20378,1,4,0:0:0:0:
320,192,20678,1,8,0:0:0:0:
64,192,20978,1,0,0:0:0:0:
192,192,21128,1,2,0:0:0:0:
320,192,21428,1,2,0:0:0:0:
448,192,21728,1,2,0:0:0:0:
192,192,22028,1,2,0:0:0:0:
320,192,22328,1,2,0:0:0:0:
64,192,22478,1,8,0:0:0:0:
448,192,22628,1,2,0:0:0:0:
192,192,22778,1,2,0:0:0:0:
320,192,23078,1,8,0:0:0:0:
64,192,23378,1,0,0:0:0:0:
448,192,23528,1,8,0:0:0:0:
192,192,23828,1,8,0:0:0:0:
320,192,24128,1,2,0:0:0:0:
448,192,24428,1,2,0:0:0:0:
64,192,24728,1,2,0:0:0:0:
320,192,24878,1,2,0:0:0:0:
192,192,25028,1,2,0:0:0:0:
448,192,25178,1,4,0:0:0:0:
320,192,25478,1,8,0:0:0:0:
64,192,25778,1,0,0:0:0:0:
320,192,25928,1,8,0:0:0:0:
448,192,26228,1,4,0:0:0:0:
192,192,26528,1,2,0:0:0:0:
320,192,26828,1,2,0:0:0:0:
64,192,27128,1,2,0:0:0:0:
448,192,27278,1,8,0:0:0:0:
192,192,27428,1,2,0:0:0:0:
320,192,27578,1,4,0:0:0:0:
64,192,27878,1,8,0:0:0:0:
448,192,28178,1,4,0:0:0:0:
192,192,28328,1,2,0:0:0:0:
320,192,28628,1,2,0:0:0:0:
64,192,28778,1,4,0:0:0:0:
448,192,29003,1,4,0:0:0:0:
192,192,29228,1,4,0:0:0:0:
64,192,29453,1,4,0:0:0:0:
320,192,29678,1,4,0:0:0:0:
192,192,29828,1,4,0:0:0:0:
448,192,29978,128,4,32078:0:0:0:0:
320,192,32078,1,8,0:0:0:0:
192,192,32228,1,2,0:0:0:0:
64,192,32378,128,0,32978:0:0:0:0:
192,192,32978,128,2,33578:0:0:0:0:
320,192,33578,128,2,34478:0:0:0:0:
64,192,34478,1,2,0:0:0:0:
448,192,34778,1,2,0:0:0:0:
320,192,35078,1,2,0:0:0:0:
192,192,35378,1,2,0:0:0:0:
64,192,35678,1,2,0:0:0:0:
448,192,35978,128,2,36578:0:0:0:0:
192,192,36578,128,2,37178:0:0:0:0:
64,192,37178,128,2,37778:0:0:0:0:
320,192,37778,128,2,38378:0:0:0:0:
448,192,38378,128,2,39278:0:0:0:0:
320,192,39278,1,2,0:0:0:0:
64,192,39578,1,2,0:0:0:0:
192,192,39878,1,2,0:0:0:0:
448,192,40178,1,2,0:0:0:0:
320,192,40478,1,2,0:0:0:0:
192,192,40778,128,2,41378:0:0:0:0:
64,192,41378,128,2,41978:0:0:0:0:
448,192,41978,128,4,43178:0:0:0:0:
192,192,43328,128,0,44378:0:0:0:0:
320,192,44528,128,0,45578:0:0:0:0:
64,192,45728,128,0,46778:0:0:0:0:
448,192,46778,1,4,0:0:0:0:
320,192,47978,1,4,0:0:0:0:
192,192,49178,1,4,0:0:0:0:
64,192,49778,1,4,0:0:0:0:
448,192,50378,1,4,0:0:0:0:
320,192,50678,1,4,0:0:0:0:
192,192,50978,1,4,0:0:0:0:
64,192,51278,1,4,0:0:0:0:
192,192,51578,1,4,0:0:0:0:
320,192,51728,1,2,0:0:0:0:
448,192,51878,1,2,0:0:0:0:
192,192,52028,1,2,0:0:0:0:
64,192,52178,1,2,0:0:0:0:
320,192,52403,1,2,0:0:0:0:
192,192,52628,1,2,0:0:0:0:
64,192,52778,1,2,0:0:0:0:
320,192,53078,1,2,0:0:0:0:
192,192,53378,1,2,0:0:0:0:
448,192,53678,1,2,0:0:0:0:
64,192,53978,1,2,0:0:0:0:
192,192,54278,1,2,0:0:0:0:
448,192,54578,1,2,0:0:0:0:
320,192,54878,1,2,0:0:0:0:
192,192,55178,1,2,0:0:0:0:
448,192,55478,1,2,0:0:0:0:
64,192,55778,1,2,0:0:0:0:
192,192,56078,1,2,0:0:0:0:
320,192,56378,1,2,0:0:0:0:
192,192,56528,1,2,0:0:0:0:
64,192,56678,1,2,0:0:0:0:
448,192,56828,1,2,0:0:0:0:
320,192,56978,1,2,0:0:0:0:
192,192,57278,128,2,57578:0:0:0:0:
64,192,57578,1,2,0:0:0:0:
320,192,57878,1,2,0:0:0:0:
192,192,58178,1,2,0:0:0:0:
64,192,58478,1,2,0:0:0:0:
448,192,58778,1,2,0:0:0:0:
320,192,59078,1,2,0:0:0:0:
192,192,59378,1,2,0:0:0:0:
448,192,59678,1,2,0:0:0:0:
64,192,59978,1,4,0:0:0:0:
320,192,60203,1,4,0:0:0:0:
192,192,60428,1,4,0:0:0:0:
64,192,60653,1,4,0:0:0:0:
448,192,60878,128,2,61178:0:0:0:0:
192,192,61178,1,4,0:0:0:0:
320,192,61328,1,4,0:0:0:0:
320,192,62078,1,4,0:0:0:0:
192,192,62228,1,4,0:0:0:0:
320,192,62978,1,4,0:0:0:0:
64,192,63128,1,4,0:0:0:0:
448,192,63578,1,4,0:0:0:0:
64,192,63728,1,4,0:0:0:0:
64,192,64478,1,4,0:0:0:0:
448,192,64628,1,4,0:0:0:0:
192,192,65378,1,4,0:0:0:0:
448,192,65528,1,4,0:0:0:0:
320,192,65978,1,4,0:0:0:0:
192,192,66128,1,4,0:0:0:0:
192,192,66878,1,4,0:0:0:0:
320,192,67028,1,4,0:0:0:0:
192,192,67778,1,4,0:0:0:0:
448,192,67928,1,4,0:0:0:0:
320,192,68378,128,4,68678:0:0:0:0:
64,192,68678,128,4,68978:0:0:0:0:
448,192,68978,128,4,69278:0:0:0:0:
192,192,69278,128,4,69578:0:0:0:0:
320,192,69578,128,4,69878:0:0:0:0:
64,192,69878,128,4,70178:0:0:0:0:
448,192,70178,128,4,70478:0:0:0:0:
320,192,70478,128,4,70778:0:0:0:0:
192,192,70778,128,4,71078:0:0:0:0:
64,192,71078,128,4,71378:0:0:0:0:
320,192,71378,128,4,71678:0:0:0:0:
192,192,71678,128,4,71978:0:0:0:0:
448,192,71978,128,4,72278:0:0:0:0:
320,192,72278,128,4,72578:0:0:0:0:
64,192,72578,128,4,72878:0:0:0:0:
192,192,72878,128,4,73178:0:0:0:0:
448,192,73178,1,4,0:0:0:0:
320,192,73478,128,2,74378:0:0:0:0:
64,192,74378,128,8,74978:0:0:0:0:
192,192,74978,1,8,0:0:0:0:
448,192,75128,1,0,0:0:0:0:
64,192,75278,1,0,0:0:0:0:
192,192,75428,1,2,0:0:0:0:
320,192,75578,1,4,0:0:0:0:
448,192,75878,1,8,0:0:0:0:
64,192,76178,1,0,0:0:0:0:
320,192,76328,1,8,0:0:0:0:
192,192,76628,1,8,0:0:0:0:
448,192,76928,1,2,0:0:0:0:
64,192,77078,1,8,0:0:0:0:
320,192,77228,1,2,0:0:0:0:
192,192,77528,1,2,0:0:0:0:
448,192,77678,1,8,0:0:0:0:
320,192,77828,1,0,0:0:0:0:
64,192,77978,1,2,0:0:0:0:
192,192,78278,1,8,0:0:0:0:
448,192,78578,1,0,0:0:0:0:
64,192,78728,1,8,0:0:0:0:
320,192,79028,1,2,0:0:0:0:
192,192,79328,1,2,0:0:0:0:
448,192,79478,1,8,0:0:0:0:
64,192,79628,1,2,0:0:0:0:
320,192,79928,1,2,0:0:0:0:
192,192,80078,1,2,0:0:0:0:
64,192,80228,1,2,0:0:0:0:
448,192,80378,1,4,0:0:0:0:
192,192,80678,1,8,0:0:0:0:
320,192,80978,1,0,0:0:0:0:
64,192,81128,1,8,0:0:0:0:
192,192,81428,1,8,0:0:0:0:
320,192,81728,1,2,0:0:0:0:
448,192,81878,1,8,0:0:0:0:
64,192,82028,1,2,0:0:0:0:
320,192,82328,1,2,0:0:0:0:
192,192,82478,1,2,0:0:0:0:
64,192,82628,1,8,0:0:0:0:
448,192,82778,1,4,0:0:0:0:
192,192,83078,1,8,0:0:0:0:
320,192,83378,1,4,0:0:0:0:
64,192,83528,1,4,0:0:0:0:
448,192,83828,1,4,0:0:0:0:
192,192,83978,1,4,0:0:0:0:
64,192,84203,1,4,0:0:0:0:
320,192,84428,1,4,0:0:0:0:
192,192,84653,1,4,0:0:0:0:
448,192,84878,128,4,85178:0:0:0:0:
64,192,85178,1,4,0:0:0:0:
320,192,85478,1,2,0:0:0:0:
192,192,85778,1,2,0:0:0:0:
448,192,86078,1,2,0:0:0:0:
320,192,86378,1,2,0:0:0:0:
64,192,86678,1,2,0:0:0:0:
192,192,86978,1,2,0:0:0:0:
448,192,87278,1,2,0:0:0:0:
320,192,87578,1,2,0:0:0:0:
192,192,87878,1,2,0:0:0:0:
448,192,88178,1,2,0:0:0:0:
64,192,88328,128,0,88628:0:0:0:0:
448,192,88628,1,0,0:0:0:0:
192,192,88928,1,0,0:0:0:0:
320,192,89078,1,2,0:0:0:0:
64,192,89228,1,0,0:0:0:0:
448,192,89378,1,2,0:0:0:0:
320,192,89678,1,2,0:0:0:0:
192,192,89828,1,2,0:0:0:0:
64,192,89978,1,4,0:0:0:0:
320,192,90278,1,2,0:0:0:0:
448,192,90578,128,2,90878:0:0:0:0:
192,192,90878,128,2,91178:0:0:0:0:
64,192,91178,128,4,91628:0:0:0:0:
192,192,91628,128,2,92078:0:0:0:0:
320,192,92078,128,2,92378:0:0:0:0:
448,192,92378,128,2,92678:0:0:0:0:
64,192,92678,128,2,92978:0:0:0:0:
320,192,92978,128,4,93578:0:0:0:0:
64,192,93578,1,4,0:0:0:0:
192,192,93803,1,4,0:0:0:0:
320,192,94028,1,4,0:0:0:0:
448,192,94253,1,4,0:0:0:0:
64,192,94478,128,2,94778:0:0:0:0:
448,192,94778,1,4,0:0:0:0:
192,192,94928,1,2,0:0:0:0:
64,192,95378,1,4,0:0:0:0:
192,192,95678,1,2,0:0:0:0:
448,192,95828,1,4,0:0:0:0:
64,192,96128,1,4,0:0:0:0:
448,192,96278,1,4,0:0:0:0:
320,192,96578,1,4,0:0:0:0:
192,192,96728,1,4,0:0:0:0:
64,192,96878,1,4,0:0:0:0:
448,192,97378,1,4,0:0:0:0:
192,192,97578,1,4,0:0:0:0:
320,192,97778,1,4,0:0:0:0:
64,192,97978,1,4,0:0:0:0:
320,192,98178,1,4,0:0:0:0:
192,192,98378,1,4,0:0:0:0:
448,192,98578,1,4,0:0:0:0:
320,192,98778,1,4,0:0:0:0:
64,192,98978,1,4,0:0:0:0:
192,192,99178,1,4,0:0:0:0:
320,192,99378,1,4,0:0:0:0:
448,192,99578,1,4,0:0:0:0:
192,192,99728,1,4,0:0:0:0:
320,192,100178,1,4,0:0:0:0:
64,192,100628,1,4,0:0:0:0:
320,192,100928,1,4,0:0:0:0:
192,192,101078,1,4,0:0:0:0:
448,192,101378,1,4,0:0:0:0:
320,192,101528,1,4,0:0:0:0:
192,192,101678,1,4,0:0:0:0:
448,192,101978,1,4,0:0:0:0:
64,192,102278,1,4,0:0:0:0:
192,192,102578,1,4,0:0:0:0:
320,192,102878,1,4,0:0:0:0:
64,192,103178,1,4,0:0:0:0:
448,192,103478,1,4,0:0:0:0:
192,192,103628,128,2,104078:0:0:0:0:
320,192,104078,1,4,0:0:0:0:
64,192,104378,128,4,104678:0:0:0:0:
448,192,104678,128,4,104978:0:0:0:0:
192,192,104978,128,4,105278:0:0:0:0:
64,192,105278,128,4,105578:0:0:0:0:
320,192,105578,128,4,105878:0:0:0:0:
448,192,105878,128,4,106178:0:0:0:0:
64,192,106178,128,4,106478:0:0:0:0:
192,192,106478,1,8,0:0:0:0:
320,192,106628,128,2,108878:0:0:0:0:
448,192,106628,1,4,0:0:0:0:
